osu file format v14

[General]
AudioFilename: audio.mp3
AudioLeadIn: 0
PreviewTime: 177924
Countdown: 0
SampleSet: Soft
StackLeniency: 0.7
Mode: 3
LetterboxInBreaks: 0
SpecialStyle: 0
WidescreenStoryboard: 0

[Editor]
Bookmarks: 8693,9924,14847,18539,19770,28385,29616,34539,39462,44385,48078,49924,54539,59154,64385,67770,69001,78847,84078,87462,103462,107154,108385,113308,118231,128078,131770,133001,136693,137924,141616,142847,146539,147770,172385,176078,178539,183154,187154,188693,197001,198231,206847,208078,212693,213308,216693,232385,237616,246231
DistanceSpacing: 1.4
BeatDivisor: 4
GridSize: 4
TimelineZoom: 2.599999

[Metadata]
Title:Drug on the Drop (Zekk Remix)
TitleUnicode:Drug on the Drop (Zekk Remix)
Artist:uet
ArtistUnicode:uet
Creator:Fontes
Version:Insane
Source:
Tags:Wonki Murumoo Agayers FAMoss Jakads STONE STATUE OF THE AZTEKS Hardcore Teknology M3-38 Pumpcore
BeatmapID:1517670
BeatmapSetID:717251

[Difficulty]
HPDrainRate:8
CircleSize:4
OverallDifficulty:8
ApproachRate:5
SliderMultiplier:1.4
SliderTickRate:1

[Events]
//Background and Video events
0,0,"BG.jpg",0,0
//Break Periods
//Storyboard Layer 0 (Background)
//Storyboard Layer 1 (Fail)
//Storyboard Layer 2 (Pass)
//Storyboard Layer 3 (Foreground)
//Storyboard Sound Samples
Sample,175539,0,"S5.wav",50
Sample,175693,0,"S5.wav",50
Sample,175847,0,"S5.wav",50
Sample,176001,0,"S5.wav",50

[TimingPoints]
78,307.692307692308,4,2,1,60,1,0
8693,-100,4,2,1,60,0,1
9462,-71.4285714285714,4,2,1,60,0,1
9539,-166.666666666667,4,2,1,60,0,1
9616,-71.4285714285714,4,2,1,60,0,1
9693,-166.666666666667,4,2,1,60,0,1
9770,-71.4285714285714,4,2,1,60,0,1
9847,-166.666666666667,4,2,1,60,0,1
9924,-100,4,2,1,60,0,0
18539,-100,4,2,1,60,0,1
19770,-100,4,2,1,60,0,0
29616,-100,4,2,1,60,0,1
34539,-100,4,2,1,60,0,0
37001,-66.6666666666667,4,2,1,60,0,0
37154,-200,4,2,1,60,0,0
37308,-66.6666666666667,4,2,1,60,0,0
37461,-200,4,2,1,60,0,0
37616,-66.6666666666667,4,2,1,60,0,0
37769,-200,4,2,1,60,0,0
37924,-66.6666666666667,4,2,1,60,0,0
38077,-200,4,2,1,60,0,0
38231,-100,4,2,1,60,0,0
44385,-100,4,2,1,60,0,1
48078,-133.333333333333,4,2,1,60,0,0
48385,-80,4,2,1,60,0,0
48539,-133.333333333333,4,2,1,60,0,0
48693,-80,4,2,1,60,0,0
48847,-133.333333333333,4,2,1,60,0,0
48981,-80,4,2,1,60,0,0
49155,-133.333333333333,4,2,1,60,0,0
49308,-111.111111111111,4,2,1,60,0,0
49924,-66.6666666666667,4,2,1,60,0,0
49962,-100,4,2,1,60,0,0
50539,-66.6666666666667,4,2,1,60,0,0
50577,-100,4,2,1,60,0,0
51154,-66.6666666666667,4,2,1,60,0,0
51192,-100,4,2,1,60,0,0
51770,-66.6666666666667,4,2,1,60,0,0
51808,-100,4,2,1,60,0,0
52385,-66.6666666666667,4,2,1,60,0,0
52424,-100,4,2,1,60,0,0
53001,-62.5,4,2,1,60,0,0
53078,-125,4,2,1,60,0,0
53308,-100,4,2,1,60,0,0
54231,-66.6666666666667,4,2,1,60,0,0
54308,-200,4,2,1,60,0,0
54385,-66.6666666666667,4,2,1,60,0,0
54462,-200,4,2,1,60,0,0
54539,-100,4,2,1,60,0,1
59154,-111.111111111111,4,2,1,60,0,0
59770,-66.6666666666667,4,2,1,60,0,0
59808,-100,4,2,1,60,0,0
60385,-66.6666666666667,4,2,1,60,0,0
60423,-100,4,2,1,60,0,0
61000,-66.6666666666667,4,2,1,60,0,0
61038,-100,4,2,1,60,0,0
61616,-66.6666666666667,4,2,1,60,0,0
61654,-100,4,2,1,60,0,0
62231,-66.6666666666667,4,2,1,60,0,0
62270,-100,4,2,1,60,0,0
62847,-62.5,4,2,1,60,0,0
62924,-125,4,2,1,60,0,0
63154,-100,4,2,1,60,0,0
64385,-100,4,2,1,60,0,1
67770,-100,4,2,1,60,0,0
73616,-66.6666666666667,4,2,1,60,0,0
73770,-100,4,2,1,60,0,0
76385,-66.6666666666667,4,2,1,60,0,0
76538,-200,4,2,1,60,0,0
76692,-66.6666666666667,4,2,1,60,0,0
76845,-200,4,2,1,60,0,0
77000,-66.6666666666667,4,2,1,60,0,0
77153,-200,4,2,1,60,0,0
77308,-66.6666666666667,4,2,1,60,0,0
77461,-200,4,2,1,60,0,0
77615,-100,4,2,1,60,0,0
79154,-55.5555555555556,4,2,1,60,0,0
79231,-200,4,2,1,60,0,0
79462,-100,4,2,1,60,0,0
81308,-55.5555555555556,4,2,1,60,0,0
81347,-142.857142857143,4,2,1,60,0,0
81462,-100,4,2,1,60,0,0
81616,-55.5555555555556,4,2,1,60,0,0
81693,-222.222222222222,4,2,1,60,0,0
81924,-100,4,2,1,60,0,0
83462,-10000,4,2,1,60,0,0
83770,-80,4,2,1,60,0,0
84078,-100,4,2,1,60,0,1
87462,-100,4,2,1,60,0,0
88385,-41.6666666666667,4,2,1,60,0,0
88462,-200,4,2,1,60,0,0
88693,-100,4,2,1,60,0,0
107154,-10,4,2,1,60,0,0
107366,-200,4,2,1,60,0,0
108078,-100,4,2,1,60,0,0
108385,-100,4,2,1,60,0,1
109154,-55.5555555555556,4,2,1,60,0,1
109231,-142.857142857143,4,2,1,60,0,1
109462,-100,4,2,1,60,0,1
110539,-55.5555555555556,4,2,1,60,0,1
110578,-100,4,2,1,60,0,1
113308,-66.6666666666667,4,2,1,60,0,0
113347,-100,4,2,1,60,0,0
113616,-66.6666666666667,4,2,1,60,0,0
113655,-100,4,2,1,60,0,0
113924,-66.6666666666667,4,2,1,60,0,0
113963,-100,4,2,1,60,0,0
114231,-66.6666666666667,4,2,1,60,0,0
114270,-100,4,2,1,60,0,0
114539,-66.6666666666667,4,2,1,60,0,0
114578,-100,4,2,1,60,0,0
114847,-66.6666666666667,4,2,1,60,0,0
114886,-100,4,2,1,60,0,0
115154,-66.6666666666667,4,2,1,60,0,0
115193,-100,4,2,1,60,0,0
115462,-66.6666666666667,4,2,1,60,0,0
115501,-100,4,2,1,60,0,0
117616,-55.5555555555556,4,2,1,60,0,0
117693,-142.857142857143,4,2,1,60,0,0
117924,-100,4,2,1,60,0,0
118231,-100,4,2,1,60,0,1
119001,-55.5555555555556,4,2,1,60,0,1
119078,-142.857142857143,4,2,1,60,0,1
119309,-100,4,2,1,60,0,1
120385,-55.5555555555556,4,2,1,60,0,1
120462,-142.857142857143,4,2,1,60,0,1
120693,-100,4,2,1,60,0,1
127770,-142.857142857143,4,2,1,60,0,1
128001,-55.5555555555556,4,2,1,60,0,1
128078,-100,4,2,1,60,0,0
131770,-100,4,2,1,60,0,1
132539,-71.4285714285714,4,2,1,60,0,1
132616,-166.666666666667,4,2,1,60,0,1
132693,-71.4285714285714,4,2,1,60,0,1
132770,-166.666666666667,4,2,1,60,0,1
132847,-71.4285714285714,4,2,1,60,0,1
132924,-166.666666666667,4,2,1,60,0,1
133001,-100,4,2,1,60,0,0
136693,-100,4,2,1,60,0,1
137924,-100,4,2,1,60,0,0
141616,-100,4,2,1,60,0,1
142539,-71.4285714285714,4,2,1,60,0,1
142616,-166.666666666667,4,2,1,60,0,1
142693,-71.4285714285714,4,2,1,60,0,1
142770,-166.666666666667,4,2,1,60,0,1
142847,-71.4285714285714,4,2,1,60,0,0
142924,-166.666666666667,4,2,1,60,0,0
143001,-100,4,2,1,60,0,0
146539,-100,4,2,1,60,0,1
147154,-66.6666666666667,4,2,1,60,0,1
147231,-200,4,2,1,60,0,1
147308,-66.6666666666667,4,2,1,60,0,1
147385,-200,4,2,1,60,0,1
147462,-66.6666666666667,4,2,1,60,0,1
147539,-200,4,2,1,60,0,1
147616,-66.6666666666667,4,2,1,60,0,1
147693,-200,4,2,1,60,0,1
147770,-100,4,2,1,60,0,0
165001,-66.6666666666667,4,2,1,60,0,0
165154,-200,4,2,1,60,0,0
165308,-66.6666666666667,4,2,1,60,0,0
165461,-200,4,2,1,60,0,0
165616,-66.6666666666667,4,2,1,60,0,0
165769,-200,4,2,1,60,0,0
165924,-66.6666666666667,4,2,1,60,0,0
166077,-200,4,2,1,60,0,0
166231,-100,4,2,1,60,0,0
172385,-66.6666666666667,4,2,1,60,0,1
172423,-100,4,2,1,60,0,1
173001,-66.6666666666667,4,2,1,60,0,1
173039,-100,4,2,1,60,0,1
173616,-66.6666666666667,4,2,1,60,0,1
173654,-100,4,2,1,60,0,1
174231,-66.6666666666667,4,2,1,60,0,1
174269,-100,4,2,1,60,0,1
176078,-10,4,2,1,60,0,0
176385,-166.666666666667,4,2,1,60,0,0
176847,-100,4,2,1,60,0,0
177154,-117.647058823529,4,2,1,60,0,0
177924,-100,4,2,1,60,0,0
178539,-100,4,2,1,60,0,1
187154,-100,4,2,1,60,0,0
188385,-125,4,2,1,60,0,1
188616,-62.5,4,2,1,60,0,1
188693,-100,4,2,1,60,0,1
197001,-100,4,2,1,60,0,0
198539,-55.5555555555556,4,2,1,60,0,1
198616,-142.857142857143,4,2,1,60,0,1
198847,-100,4,2,1,60,0,1
201001,-55.5555555555556,4,2,1,60,0,1
201078,-142.857142857143,4,2,1,60,0,1
201309,-100,4,2,1,60,0,1
206847,-100,4,2,1,60,0,0
208385,-55.5555555555556,4,2,1,60,0,1
208462,-142.857142857143,4,2,1,60,0,1
208693,-100,4,2,1,60,0,1
210847,-55.5555555555556,4,2,1,60,0,1
210924,-142.857142857143,4,2,1,60,0,1
211155,-100,4,2,1,60,0,1
212693,-10000,4,2,1,60,0,0
213001,-80,4,2,1,60,0,0
213308,-100,4,2,1,60,0,1
217924,-100,4,2,1,60,0,0
218231,-125,4,2,1,60,0,0
218462,-62.5,4,2,1,60,0,0
218539,-100,4,2,1,60,0,0
222539,-55.5555555555556,4,2,1,60,0,0
222578,-100,4,2,1,60,0,0
232385,-55.5555555555556,4,2,1,60,0,0
232424,-100,4,2,1,60,0,0
232693,-100,4,2,1,60,0,1
237616,-100,4,2,1,60,0,0
256847,-71.4285714285714,4,2,1,60,0,0
256924,-166.666666666667,4,2,1,60,0,0
257001,-71.4285714285714,4,2,1,60,0,0
257078,-166.666666666667,4,2,1,60,0,0
257155,-71.4285714285714,4,2,1,60,0,0
257232,-166.666666666667,4,2,1,60,0,0
257309,-100,4,2,1,60,0,0

[HitObjects]
64,192,78,5,2,0:0:0:0:
192,192,78,1,4,0:0:0:0:
448,192,78,1,0,0:0:0:0:
192,192,231,1,0,0:0:0:0:
64,192,385,1,2,0:0:0:0:
320,192,385,1,0,0:0:0:0:
448,192,385,1,0,0:0:0:0:
320,192,539,1,0,0:0:0:0:
64,192,693,1,2,0:0:0:0:
192,192,693,1,0,0:0:0:0:
448,192,693,1,0,0:0:0:0:
192,192,847,1,0,0:0:0:0:
64,192,1001,1,2,0:0:0:0:
320,192,1001,1,0,0:0:0:0:
448,192,1001,1,0,0:0:0:0:
320,192,1154,1,0,0:0:0:0:
64,192,1308,1,2,0:0:0:0:
192,192,1308,1,0,0:0:0:0:
448,192,1308,1,0,0:0:0:0:
64,192,1462,1,0,0:0:0:0:
192,192,1616,1,2,0:0:0:0:
320,192,1616,1,0,0:0:0:0:
448,192,1616,1,0,0:0:0:0:
192,192,1770,1,0,0:0:0:0:
64,192,1924,1,2,0:0:0:0:
448,192,1924,1,0,0:0:0:0:
320,192,2001,1,0,0:0:0:0:
192,192,2078,1,0,0:0:0:0:
320,192,2231,1,2,0:0:0:0:
448,192,2231,1,0,0:0:0:0:
448,192,2385,1,0,0:0:0:0:
64,192,2539,1,2,0:0:0:0:
448,192,2539,1,0,0:0:0:0:
192,192,2616,1,0,0:0:0:0:
320,192,2693,1,0,0:0:0:0:
64,192,2847,1,2,0:0:0:0:
192,192,2847,1,0,0:0:0:0:
448,192,2924,1,0,0:0:0:0:
320,192,3001,1,0,0:0:0:0:
192,192,3078,1,0,0:0:0:0:
64,192,3154,1,2,0:0:0:0:
448,192,3154,128,0,3308:0:0:0:0:
192,192,3308,1,0,0:0:0:0:
64,192,3462,1,2,0:0:0:0:
448,192,3462,128,0,3616:0:0:0:0:
192,192,3616,1,0,0:0:0:0:
320,192,3770,1,2,0:0:0:0:
448,192,3770,128,0,3924:0:0:0:0:
64,192,3924,1,0,0:0:0:0:
192,192,4001,1,0,0:0:0:0:
320,192,4078,1,2,0:0:0:0:
448,192,4078,1,0,0:0:0:0:
64,192,4154,1,0,0:0:0:0:
192,192,4231,1,0,0:0:0:0:
320,192,4308,1,0,0:0:0:0:
64,192,4385,128,2,4539:0:0:0:0:
448,192,4385,1,0,0:0:0:0:
320,192,4539,1,0,0:0:0:0:
64,192,4693,128,2,4847:0:0:0:0:
448,192,4693,1,0,0:0:0:0:
320,192,4847,1,0,0:0:0:0:
64,192,5001,1,2,0:0:0:0:
192,192,5001,1,4,0:0:0:0:
448,192,5001,1,0,0:0:0:0:
192,192,5154,1,0,0:0:0:0:
64,192,5308,1,2,0:0:0:0:
320,192,5308,1,0,0:0:0:0:
448,192,5308,1,0,0:0:0:0:
320,192,5462,1,0,0:0:0:0:
64,192,5616,1,2,0:0:0:0:
192,192,5616,1,0,0:0:0:0:
448,192,5616,1,0,0:0:0:0:
192,192,5770,1,0,0:0:0:0:
64,192,5924,1,2,0:0:0:0:
320,192,5924,1,0,0:0:0:0:
448,192,5924,1,0,0:0:0:0:
320,192,6078,1,0,0:0:0:0:
64,192,6231,1,2,0:0:0:0:
192,192,6231,1,0,0:0:0:0:
448,192,6231,1,0,0:0:0:0:
64,192,6385,1,0,0:0:0:0:
192,192,6539,1,2,0:0:0:0:
320,192,6539,1,0,0:0:0:0:
448,192,6539,1,0,0:0:0:0:
192,192,6693,1,0,0:0:0:0:
64,192,6847,1,2,0:0:0:0:
448,192,6847,1,0,0:0:0:0:
192,192,6924,1,0,0:0:0:0:
320,192,7001,1,0,0:0:0:0:
64,192,7154,1,2,0:0:0:0:
192,192,7154,1,0,0:0:0:0:
192,192,7308,1,0,0:0:0:0:
64,192,7462,1,2,0:0:0:0:
448,192,7462,1,0,0:0:0:0:
320,192,7539,1,0,0:0:0:0:
192,192,7616,1,0,0:0:0:0:
320,192,7770,1,2,0:0:0:0:
448,192,7770,1,0,0:0:0:0:
64,192,7847,1,0,0:0:0:0:
192,192,7924,1,0,0:0:0:0:
320,192,8001,1,0,0:0:0:0:
64,192,8078,128,2,8231:0:0:0:0:
448,192,8078,1,0,0:0:0:0:
192,192,8231,1,0,0:0:0:0:
64,192,8385,128,2,8539:0:0:0:0:
448,192,8385,1,0,0:0:0:0:
192,192,8539,1,0,0:0:0:0:
64,192,8693,1,2,0:0:0:0:
320,192,8693,1,0,0:0:0:0:
448,192,8693,1,0,0:0:0:0:
192,192,8847,1,0,0:0:0:0:
320,192,8847,1,0,0:0:0:0:
64,192,9001,1,0,0:0:0:0:
192,192,9078,1,0,0:0:0:0:
448,192,9154,1,0,0:0:0:0:
320,192,9231,1,0,0:0:0:0:
192,192,9308,1,0,0:0:0:0:
320,192,9385,1,0,0:0:0:0:
448,192,9385,1,0,0:0:0:0:
64,192,9462,1,0,0:0:0:0:
192,192,9462,1,0,0:0:0:0:
64,192,9616,1,0,0:0:0:0:
320,192,9616,1,0,0:0:0:0:
192,192,9770,1,0,0:0:0:0:
448,192,9770,1,0,0:0:0:0:
64,192,9924,128,2,10154:0:0:0:0:
320,192,9924,1,4,0:0:0:0:
448,192,9924,1,0,0:0:0:0:
448,192,10078,1,0,0:0:0:0:
64,192,10231,128,2,10462:0:0:0:0:
192,192,10231,1,0,0:0:0:0:
320,192,10231,1,0,0:0:0:0:
320,192,10385,1,0,0:0:0:0:
64,192,10539,128,2,10770:0:0:0:0:
192,192,10539,1,0,0:0:0:0:
448,192,10539,1,0,0:0:0:0:
448,192,10693,1,0,0:0:0:0:
64,192,10847,128,2,11078:0:0:0:0:
192,192,10847,1,0,0:0:0:0:
320,192,10847,1,0,0:0:0:0:
320,192,11001,1,0,0:0:0:0:
64,192,11154,128,2,11385:0:0:0:0:
192,192,11154,1,0,0:0:0:0:
448,192,11154,1,0,0:0:0:0:
448,192,11308,1,0,0:0:0:0:
64,192,11462,128,2,11693:0:0:0:0:
192,192,11462,1,0,0:0:0:0:
320,192,11462,1,0,0:0:0:0:
320,192,11616,1,0,0:0:0:0:
64,192,11770,1,2,0:0:0:0:
448,192,11770,1,0,0:0:0:0:
192,192,11847,1,0,0:0:0:0:
320,192,11924,1,0,0:0:0:0:
64,192,12078,1,2,0:0:0:0:
448,192,12078,1,0,0:0:0:0:
320,192,12154,1,0,0:0:0:0:
192,192,12231,1,0,0:0:0:0:
64,192,12385,1,2,0:0:0:0:
448,192,12385,1,0,0:0:0:0:
320,192,12462,1,0,0:0:0:0:
192,192,12539,1,0,0:0:0:0:
320,192,12616,1,0,0:0:0:0:
64,192,12693,1,2,0:0:0:0:
448,192,12693,1,0,0:0:0:0:
192,192,12770,1,0,0:0:0:0:
320,192,12847,1,0,0:0:0:0:
192,192,12924,1,0,0:0:0:0:
64,192,13001,1,2,0:0:0:0:
320,192,13001,1,0,0:0:0:0:
448,192,13001,1,0,0:0:0:0:
192,192,13154,1,0,0:0:0:0:
64,192,13308,1,2,0:0:0:0:
320,192,13308,1,0,0:0:0:0:
448,192,13308,1,0,0:0:0:0:
192,192,13462,1,0,0:0:0:0:
64,192,13616,1,2,0:0:0:0:
448,192,13616,1,0,0:0:0:0:
320,192,13693,1,0,0:0:0:0:
192,192,13770,1,0,0:0:0:0:
320,192,13847,1,0,0:0:0:0:
64,192,13924,1,2,0:0:0:0:
448,192,13924,1,0,0:0:0:0:
192,192,14001,1,0,0:0:0:0:
320,192,14078,1,0,0:0:0:0:
192,192,14154,1,0,0:0:0:0:
64,192,14231,1,2,0:0:0:0:
320,192,14231,1,0,0:0:0:0:
448,192,14231,1,0,0:0:0:0:
64,192,14385,1,0,0:0:0:0:
192,192,14385,1,0,0:0:0:0:
192,192,14539,1,2,0:0:0:0:
448,192,14539,1,0,0:0:0:0:
320,192,14693,1,0,0:0:0:0:
448,192,14693,1,0,0:0:0:0:
64,192,14847,1,2,0:0:0:0:
320,192,14847,1,4,0:0:0:0:
448,192,14847,128,0,15078:0:0:0:0:
64,192,15001,1,0,0:0:0:0:
192,192,15154,1,2,0:0:0:0:
320,192,15154,1,0,0:0:0:0:
448,192,15154,128,0,15385:0:0:0:0:
192,192,15308,1,0,0:0:0:0:
64,192,15462,1,2,0:0:0:0:
320,192,15462,1,0,0:0:0:0:
448,192,15462,128,0,15693:0:0:0:0:
64,192,15616,1,0,0:0:0:0:
192,192,15770,1,2,0:0:0:0:
320,192,15770,1,0,0:0:0:0:
448,192,15770,128,0,16001:0:0:0:0:
192,192,15924,1,0,0:0:0:0:
64,192,16078,1,2,0:0:0:0:
320,192,16078,1,0,0:0:0:0:
448,192,16078,128,0,16308:0:0:0:0:
64,192,16231,1,0,0:0:0:0:
192,192,16385,1,2,0:0:0:0:
320,192,16385,1,0,0:0:0:0:
448,192,16385,128,0,16616:0:0:0:0:
192,192,16539,1,0,0:0:0:0:
64,192,16693,1,2,0:0:0:0:
448,192,16693,1,0,0:0:0:0:
192,192,16770,1,0,0:0:0:0:
320,192,16847,1,0,0:0:0:0:
64,192,17001,1,2,0:0:0:0:
448,192,17001,1,0,0:0:0:0:
320,192,17078,1,0,0:0:0:0:
192,192,17154,1,0,0:0:0:0:
64,192,17308,1,2,0:0:0:0:
448,192,17308,1,0,0:0:0:0:
192,192,17385,1,0,0:0:0:0:
320,192,17462,1,0,0:0:0:0:
448,192,17539,1,0,0:0:0:0:
64,192,17616,1,2,0:0:0:0:
192,192,17616,1,0,0:0:0:0:
448,192,17693,1,0,0:0:0:0:
320,192,17770,1,0,0:0:0:0:
192,192,17847,1,0,0:0:0:0:
64,192,17924,1,2,0:0:0:0:
320,192,17924,1,0,0:0:0:0:
448,192,17924,1,0,0:0:0:0:
192,192,18078,1,0,0:0:0:0:
64,192,18231,1,2,0:0:0:0:
320,192,18231,1,0,0:0:0:0:
448,192,18231,1,0,0:0:0:0:
192,192,18385,1,0,0:0:0:0:
64,192,18539,1,2,0:0:0:0:
320,192,18539,1,4,0:0:0:0:
448,192,18539,1,0,0:0:0:0:
64,192,18693,1,2,0:0:0:0:
192,192,18693,1,0,0:0:0:0:
320,192,18770,1,2,0:0:0:0:
448,192,18770,1,0,0:0:0:0:
64,192,18847,1,2,0:0:0:0:
192,192,18847,1,0,0:0:0:0:
320,192,19001,1,2,0:0:0:0:
448,192,19001,1,0,0:0:0:0:
64,192,19154,1,2,0:0:0:0:
192,192,19154,1,0,0:0:0:0:
192,192,19308,1,2,0:0:0:0:
320,192,19308,1,0,0:0:0:0:
320,192,19462,1,2,0:0:0:0:
448,192,19462,1,0,0:0:0:0:
64,192,19616,1,2,0:0:0:0:
192,192,19616,1,0,0:0:0:0:
64,192,19770,128,2,24385:0:0:0:0:
320,192,19770,1,4,0:0:0:0:
448,192,19770,1,0,0:0:0:0:
448,192,20078,1,0,0:0:0:0:
192,192,20231,1,0,0:0:0:50:S1.wav
320,192,20231,1,0,0:0:0:0:
320,192,20385,1,2,0:0:0:0:
448,192,20385,1,0,0:0:0:0:
192,192,20693,1,0,0:0:0:50:S1.wav
448,192,20693,1,0,0:0:0:0:
320,192,21001,1,2,0:0:0:0:
448,192,21001,1,0,0:0:0:0:
320,192,21308,1,0,0:0:0:30:S2.wav
192,192,21462,1,0,0:0:0:50:S1.wav
448,192,21462,1,0,0:0:0:0:
320,192,21616,1,2,0:0:0:0:
448,192,21616,1,0,0:0:0:0:
192,192,21770,1,0,0:0:0:30:S2.wav
320,192,21924,1,0,0:0:0:50:S1.wav
448,192,21924,1,0,0:0:0:0:
448,192,22078,1,0,0:0:0:30:S2.wav
192,192,22231,1,2,0:0:0:0:
320,192,22231,1,0,0:0:0:0:
448,192,22539,1,0,0:0:0:0:
192,192,22693,1,0,0:0:0:50:S1.wav
320,192,22693,1,0,0:0:0:0:
320,192,22847,1,2,0:0:0:0:
448,192,22847,1,0,0:0:0:0:
192,192,23154,1,0,0:0:0:50:S1.wav
448,192,23154,1,0,0:0:0:0:
192,192,23462,1,2,0:0:0:0:
320,192,23462,1,0,0:0:0:0:
448,192,23770,1,0,0:0:0:0:
192,192,23924,1,0,0:0:0:50:S1.wav
320,192,23924,1,0,0:0:0:0:
320,192,24078,1,2,0:0:0:0:
448,192,24078,1,0,0:0:0:0:
192,192,24231,1,0,0:0:0:30:S2.wav
320,192,24385,1,0,0:0:0:50:S1.wav
448,192,24385,1,0,0:0:0:0:
320,192,24539,1,0,0:0:0:30:S2.wav
64,192,24693,1,2,0:0:0:0:
192,192,24693,1,4,0:0:0:0:
448,192,24693,128,0,24847:0:0:0:0:
192,192,24847,128,0,25001:0:0:0:0:
320,192,25001,128,0,25154:0:0:0:0:
192,192,25154,1,0,0:0:0:50:S1.wav
448,192,25154,128,0,25308:0:0:0:0:
64,192,25308,128,2,25462:0:0:0:0:
320,192,25308,1,0,0:0:0:0:
192,192,25462,128,0,25616:0:0:0:0:
64,192,25616,1,0,0:0:0:50:S1.wav
448,192,25616,128,0,25770:0:0:0:0:
320,192,25770,128,0,25924:0:0:0:0:
64,192,25924,1,2,0:0:0:0:
192,192,25924,128,0,26078:0:0:0:0:
448,192,25924,1,0,0:0:0:0:
64,192,26231,1,0,0:0:0:30:S2.wav
448,192,26231,128,0,26385:0:0:0:0:
192,192,26385,1,0,0:0:0:50:S1.wav
320,192,26385,128,0,26539:0:0:0:0:
64,192,26539,128,2,26693:0:0:0:0:
448,192,26539,1,0,0:0:0:0:
192,192,26693,1,0,0:0:0:30:S2.wav
320,192,26693,1,0,0:0:0:0:
320,192,26847,1,0,0:0:0:50:S1.wav
448,192,26847,128,0,27154:0:0:0:0:
64,192,27001,1,0,0:0:0:30:S2.wav
192,192,27001,1,0,0:0:0:0:
64,192,27154,128,2,27308:0:0:0:0:
192,192,27154,1,4,0:0:0:0:
320,192,27154,1,0,0:0:0:0:
320,192,27462,128,0,27616:0:0:0:0:
192,192,27616,128,0,27770:0:0:0:50:S1.wav
448,192,27616,1,0,0:0:0:0:
64,192,27770,128,2,27924:0:0:0:0:
320,192,27770,1,0,0:0:0:0:
320,192,28078,128,0,28231:0:0:0:0:
448,192,28078,128,0,28231:0:0:0:0:
64,192,28231,128,0,28385:0:0:0:0:
192,192,28385,128,2,28539:0:0:0:0:
320,192,28385,128,0,28539:0:0:0:0:
448,192,28385,128,0,29462:0:0:0:0:
64,192,28539,128,0,28693:0:0:0:0:
320,192,28693,128,0,28847:0:0:0:0:
192,192,28847,128,0,29001:0:0:0:0:
64,192,29001,128,0,29154:0:0:0:0:
320,192,29308,128,0,29462:0:0:0:0:
64,192,29462,128,0,29616:0:0:0:30:S2.wav
192,192,29616,1,2,0:0:0:0:
320,192,29616,1,4,0:0:0:0:
448,192,29616,1,0,0:0:0:0:
64,192,29770,1,0,0:0:0:0:
192,192,29847,1,0,0:0:0:0:
320,192,29924,1,0,0:0:0:0:
448,192,30078,1,0,0:0:0:0:
320,192,30154,1,0,0:0:0:0:
64,192,30231,1,0,0:0:0:50:S1.wav
192,192,30231,1,0,0:0:0:0:
448,192,30308,1,0,0:0:0:0:
64,192,30385,1,2,0:0:0:0:
192,192,30385,1,0,0:0:0:0:
320,192,30539,1,0,0:0:0:0:
448,192,30616,1,0,0:0:0:0:
192,192,30693,1,0,0:0:0:0:
320,192,30770,1,0,0:0:0:0:
64,192,30847,1,2,0:0:0:0:
448,192,30847,1,0,0:0:0:0:
192,192,30924,1,0,0:0:0:0:
320,192,31001,1,0,0:0:0:0:
64,192,31154,1,0,0:0:0:30:S2.wav
192,192,31154,1,0,0:0:0:0:
320,192,31308,1,0,0:0:0:0:
448,192,31308,1,0,0:0:0:0:
64,192,31462,1,0,0:0:0:50:S1.wav
448,192,31462,1,0,0:0:0:0:
320,192,31539,1,0,0:0:0:0:
192,192,31616,1,0,0:0:0:0:
64,192,31770,1,0,0:0:0:0:
192,192,31847,1,0,0:0:0:0:
320,192,31924,1,0,0:0:0:0:
192,192,32001,1,0,0:0:0:0:
320,192,32078,1,2,0:0:0:0:
448,192,32078,1,0,0:0:0:0:
64,192,32231,1,0,0:0:0:0:
320,192,32308,1,0,0:0:0:0:
64,192,32385,1,0,0:0:0:0:
192,192,32539,1,0,0:0:0:0:
320,192,32616,1,0,0:0:0:0:
64,192,32693,1,0,0:0:0:50:S1.wav
448,192,32693,1,0,0:0:0:0:
192,192,32770,1,0,0:0:0:0:
320,192,32847,1,2,0:0:0:0:
448,192,32847,1,0,0:0:0:0:
64,192,33001,1,0,0:0:0:0:
320,192,33001,1,0,0:0:0:0:
192,192,33154,1,0,0:0:0:0:
448,192,33154,1,0,0:0:0:0:
64,192,33308,1,2,0:0:0:0:
192,192,33308,1,0,0:0:0:0:
448,192,33462,1,0,0:0:0:0:
192,192,33539,1,0,0:0:0:0:
448,192,33616,1,0,0:0:0:30:S2.wav
320,192,33770,1,0,0:0:0:0:
192,192,33847,1,0,0:0:0:0:
64,192,33924,1,0,0:0:0:50:S1.wav
448,192,33924,1,0,0:0:0:0:
320,192,34001,1,0,0:0:0:0:
192,192,34078,1,0,0:0:0:0:
64,192,34154,1,0,0:0:0:0:
448,192,34231,1,0,0:0:0:0:
64,192,34385,1,0,0:0:0:0:
192,192,34385,1,0,0:0:0:0:
64,192,34539,1,2,0:0:0:0:
320,192,34539,1,4,0:0:0:0:
448,192,34539,1,0,0:0:0:0:
192,192,34693,1,0,0:0:0:0:
320,192,34770,1,0,0:0:0:0:
64,192,34847,1,2,0:0:0:0:
448,192,34847,1,0,0:0:0:0:
64,192,35001,1,0,0:0:0:50:S1.wav
192,192,35001,1,0,0:0:0:0:
448,192,35154,1,0,0:0:0:0:
192,192,35231,1,0,0:0:0:0:
448,192,35308,1,0,0:0:0:30:S2.wav
192,192,35385,1,0,0:0:0:0:
320,192,35462,1,0,0:0:0:50:S1.wav
448,192,35462,1,0,0:0:0:0:
192,192,35616,1,0,0:0:0:0:
320,192,35616,1,0,0:0:0:0:
64,192,35770,1,0,0:0:0:0:
320,192,35847,1,0,0:0:0:0:
64,192,35924,1,0,0:0:0:0:
320,192,36001,1,0,0:0:0:0:
64,192,36078,1,2,0:0:0:0:
192,192,36078,1,0,0:0:0:50:S1.wav
448,192,36231,1,0,0:0:0:0:
320,192,36308,1,0,0:0:0:0:
192,192,36385,1,0,0:0:0:0:
64,192,36462,1,0,0:0:0:0:
320,192,36539,1,0,0:0:0:50:S1.wav
448,192,36539,1,0,0:0:0:0:
64,192,36616,1,0,0:0:0:0:
192,192,36693,1,0,0:0:0:0:
320,192,36770,1,0,0:0:0:0:
448,192,36847,1,0,0:0:0:0:
64,192,37001,1,2,0:0:0:0:
192,192,37001,1,4,0:0:0:0:
448,192,37001,1,0,0:0:0:0:
64,192,37308,1,2,0:0:0:0:
192,192,37308,1,4,0:0:0:0:
448,192,37308,1,0,0:0:0:0:
64,192,37616,1,2,0:0:0:0:
320,192,37616,1,4,0:0:0:0:
448,192,37616,1,0,0:0:0:0:
64,192,37924,1,2,0:0:0:0:
320,192,37924,1,4,0:0:0:0:
448,192,37924,1,0,0:0:0:0:
64,192,38231,1,4,0:0:0:0:
192,192,38231,1,2,0:0:0:0:
448,192,38231,1,0,0:0:0:0:
448,192,38693,128,0,39462:0:0:0:0:
320,192,39154,128,0,39462:0:0:0:0:
64,192,39462,1,4,0:0:0:0:
192,192,39462,1,2,0:0:0:0:
448,192,39616,1,0,0:0:0:0:
64,192,39770,1,0,0:0:0:50:S4.wav
192,192,39770,1,0,0:0:0:0:
448,192,39924,1,0,0:0:0:0:
64,192,40078,1,0,0:0:0:50:S4.wav
192,192,40078,1,0,0:0:0:0:
64,192,40385,1,0,0:0:0:50:S4.wav
192,192,40385,1,0,0:0:0:0:
448,192,40539,1,0,0:0:0:0:
192,192,40693,1,0,0:0:0:50:S4.wav
320,192,40693,1,0,0:0:0:0:
64,192,40847,1,0,0:0:0:0:
320,192,41001,1,0,0:0:0:50:S4.wav
448,192,41001,1,0,0:0:0:0:
64,192,41154,1,0,0:0:0:0:
320,192,41308,1,0,0:0:0:50:S4.wav
448,192,41308,1,0,0:0:0:0:
320,192,41616,1,0,0:0:0:50:S4.wav
448,192,41616,1,0,0:0:0:0:
64,192,41924,1,0,0:0:0:50:S4.wav
448,192,41924,1,0,0:0:0:0:
192,192,42078,1,0,0:0:0:0:
64,192,42231,1,0,0:0:0:50:S4.wav
448,192,42231,1,0,0:0:0:0:
192,192,42385,1,0,0:0:0:0:
64,192,42539,1,0,0:0:0:50:S4.wav
448,192,42539,1,0,0:0:0:0:
64,192,42847,1,0,0:0:0:50:S4.wav
448,192,42847,1,0,0:0:0:0:
320,192,43001,1,0,0:0:0:0:
64,192,43154,1,0,0:0:0:50:S4.wav
448,192,43154,1,0,0:0:0:0:
192,192,43308,1,0,0:0:0:0:
64,192,43462,1,0,0:0:0:50:S4.wav
448,192,43462,1,0,0:0:0:0:
320,192,43616,1,0,0:0:0:0:
64,192,43770,1,0,0:0:0:50:S4.wav
448,192,43770,1,0,0:0:0:0:
64,192,44078,1,0,0:0:0:50:S4.wav
320,192,44078,1,0,0:0:0:0:
192,192,44231,1,0,0:0:0:0:
64,192,44385,1,4,0:0:0:0:
320,192,44385,1,2,0:0:0:0:
448,192,44385,1,0,0:0:0:0:
320,192,44539,1,0,0:0:0:50:S5.wav
448,192,44539,1,0,0:0:0:0:
320,192,44693,1,0,0:0:0:50:S4.wav
448,192,44693,1,0,0:0:0:0:
320,192,44847,1,0,0:0:0:50:S5.wav
448,192,44847,1,0,0:0:0:0:
64,192,45001,1,0,0:0:0:50:S4.wav
192,192,45001,1,0,0:0:0:0:
320,192,45078,1,0,0:0:0:0:
64,192,45154,1,0,0:0:0:50:S5.wav
192,192,45154,1,0,0:0:0:0:
64,192,45308,1,0,0:0:0:50:S4.wav
192,192,45308,1,0,0:0:0:0:
64,192,45462,1,0,0:0:0:50:S5.wav
192,192,45462,1,0,0:0:0:0:
192,192,45616,1,0,0:0:0:50:S4.wav
448,192,45616,1,0,0:0:0:0:
192,192,45770,1,0,0:0:0:50:S5.wav
448,192,45770,1,0,0:0:0:0:
192,192,45924,1,0,0:0:0:50:S4.wav
448,192,45924,1,0,0:0:0:0:
192,192,46078,1,0,0:0:0:50:S5.wav
448,192,46078,1,0,0:0:0:0:
64,192,46231,1,0,0:0:0:50:S4.wav
320,192,46231,1,0,0:0:0:0:
192,192,46308,1,0,0:0:0:0:
64,192,46385,1,0,0:0:0:50:S5.wav
320,192,46385,1,0,0:0:0:0:
64,192,46539,1,0,0:0:0:50:S4.wav
320,192,46539,1,0,0:0:0:0:
64,192,46693,1,0,0:0:0:50:S5.wav
320,192,46693,1,0,0:0:0:0:
64,192,46847,1,0,0:0:0:50:S5.wav
192,192,46847,1,0,0:0:0:0:
448,192,46924,1,0,0:0:0:50:S5.wav
192,192,47001,1,0,0:0:0:50:S5.wav
320,192,47001,1,0,0:0:0:0:
64,192,47078,1,0,0:0:0:50:S5.wav
320,192,47154,1,0,0:0:0:50:S5.wav
448,192,47154,1,0,0:0:0:0:
192,192,47231,1,0,0:0:0:50:S5.wav
64,192,47308,1,0,0:0:0:50:S5.wav
448,192,47308,1,0,0:0:0:0:
320,192,47385,1,0,0:0:0:50:S5.wav
64,192,47462,1,0,0:0:0:50:S5.wav
192,192,47462,1,0,0:0:0:0:
448,192,47539,1,0,0:0:0:50:S5.wav
192,192,47616,1,0,0:0:0:50:S5.wav
320,192,47616,1,0,0:0:0:0:
64,192,47693,1,0,0:0:0:50:S5.wav
320,192,47770,1,0,0:0:0:50:S5.wav
192,192,47847,1,0,0:0:0:50:S5.wav
320,192,47924,1,0,0:0:0:50:S5.wav
192,192,48001,1,0,0:0:0:50:S5.wav
320,192,48078,128,2,48385:0:0:0:0:
448,192,48078,128,4,48385:0:0:0:0:
64,192,48385,1,0,0:0:0:0:
192,192,48385,1,0,0:0:0:0:
192,192,48539,128,0,48693:0:0:0:0:
320,192,48693,1,0,0:0:0:0:
448,192,48693,1,0,0:0:0:0:
320,192,48847,128,0,48981:0:0:0:0:
192,192,48981,1,0,0:0:0:0:
64,192,48981,1,0,0:0:0:0:
64,192,49154,128,0,49308:0:0:0:0:
192,192,49154,128,0,49308:0:0:0:0:
320,192,49308,1,2,0:0:0:0:
448,192,49308,1,0,0:0:0:0:
192,192,49462,1,0,0:0:0:0:
320,192,49616,1,0,0:0:0:0:
64,192,49770,1,0,0:0:0:0:
64,192,49924,1,4,0:0:0:0:
192,192,49924,1,8,0:0:0:0:
448,192,49924,1,0,0:0:0:0:
448,192,50078,1,0,0:0:0:0:
448,192,50231,1,0,0:0:0:0:
448,192,50385,1,0,0:0:0:0:
64,192,50539,1,2,0:0:0:0:
448,192,50539,1,0,0:0:0:0:
448,192,50693,1,0,0:0:0:0:
320,192,50847,1,0,0:0:0:0:
448,192,50847,1,0,0:0:0:0:
64,192,50924,1,0,0:0:0:0:
192,192,50924,1,0,0:0:0:0:
320,192,51001,1,0,0:0:0:0:
448,192,51001,1,0,0:0:0:0:
64,192,51154,1,8,0:0:0:0:
192,192,51154,1,0,0:0:0:0:
448,192,51154,1,0,0:0:0:0:
64,192,51308,1,0,0:0:0:0:
64,192,51462,1,0,0:0:0:0:
64,192,51616,1,0,0:0:0:0:
192,192,51770,1,2,0:0:0:0:
448,192,51770,1,0,0:0:0:0:
320,192,51924,1,0,0:0:0:0:
64,192,52078,1,8,0:0:0:0:
320,192,52078,1,0,0:0:0:0:
448,192,52078,1,0,0:0:0:0:
320,192,52231,1,0,0:0:0:0:
64,192,52385,1,2,0:0:0:0:
448,192,52385,1,0,0:0:0:0:
192,192,52539,1,0,0:0:0:0:
64,192,52693,1,8,0:0:0:0:
192,192,52693,1,0,0:0:0:0:
448,192,52693,1,0,0:0:0:0:
192,192,52847,1,0,0:0:0:0:
64,192,53001,128,2,53308:0:0:0:0:
320,192,53001,1,0,0:0:0:0:
448,192,53001,128,0,53308:0:0:0:0:
192,192,53308,1,8,0:0:0:0:
320,192,53308,1,0,0:0:0:0:
64,192,53462,128,0,53616:0:0:0:0:
192,192,53462,128,0,53616:0:0:0:0:
320,192,53616,1,2,0:0:0:0:
448,192,53616,1,0,0:0:0:0:
320,192,53770,1,0,0:0:0:0:
64,192,53924,1,0,0:0:0:70:LR4_SnareBPDT.wav
192,192,53924,1,0,0:0:0:0:
448,192,53924,1,0,0:0:0:0:
320,192,54078,1,0,0:0:0:0:
64,192,54231,1,2,0:0:0:0:
192,192,54231,1,4,0:0:0:0:
64,192,54385,1,2,0:0:0:0:
192,192,54385,1,0,0:0:0:0:
192,192,54539,1,4,0:0:0:0:
320,192,54539,1,8,0:0:0:0:
448,192,54539,1,0,0:0:0:0:
64,192,54693,1,0,0:0:0:0:
192,192,54770,1,0,0:0:0:0:
320,192,54847,1,2,0:0:0:0:
448,192,54847,1,0,0:0:0:0:
320,192,55001,1,0,0:0:0:0:
448,192,55001,1,0,0:0:0:0:
64,192,55154,1,8,0:0:0:0:
192,192,55154,1,0,0:0:0:0:
448,192,55154,1,0,0:0:0:0:
64,192,55308,1,0,0:0:0:0:
192,192,55308,1,0,0:0:0:0:
64,192,55462,1,2,0:0:0:0:
448,192,55462,1,0,0:0:0:0:
192,192,55616,1,0,0:0:0:0:
320,192,55616,1,0,0:0:0:0:
64,192,55770,1,8,0:0:0:0:
320,192,55770,1,0,0:0:0:0:
448,192,55770,1,0,0:0:0:0:
320,192,55924,1,0,0:0:0:0:
448,192,55924,1,0,0:0:0:0:
64,192,56078,1,2,0:0:0:0:
448,192,56078,1,0,0:0:0:0:
192,192,56231,1,0,0:0:0:0:
320,192,56231,1,0,0:0:0:0:
64,192,56385,1,8,0:0:0:0:
192,192,56385,1,0,0:0:0:0:
448,192,56385,1,0,0:0:0:0:
64,192,56539,1,0,0:0:0:0:
192,192,56539,1,0,0:0:0:0:
192,192,56693,128,2,56847:0:0:0:0:
448,192,56693,1,0,0:0:0:0:
448,192,56847,1,0,0:0:0:0:
64,192,57001,1,8,0:0:0:0:
320,192,57001,1,0,0:0:0:0:
448,192,57001,1,0,0:0:0:0:
64,192,57154,1,0,0:0:0:0:
192,192,57154,1,0,0:0:0:0:
64,192,57308,1,2,0:0:0:0:
448,192,57308,1,0,0:0:0:0:
192,192,57462,1,0,0:0:0:0:
320,192,57462,1,0,0:0:0:0:
64,192,57616,1,8,0:0:0:0:
320,192,57616,1,0,0:0:0:0:
448,192,57616,1,0,0:0:0:0:
320,192,57770,1,0,0:0:0:0:
448,192,57770,1,0,0:0:0:0:
64,192,57924,1,2,0:0:0:0:
192,192,57924,1,4,0:0:0:0:
448,192,57924,1,0,0:0:0:0:
64,192,58078,1,0,0:0:0:70:LR4_SnareBPDT.wav
192,192,58078,1,0,0:0:0:0:
64,192,58231,1,0,0:0:0:70:LR4_SnareBPDT.wav
192,192,58231,1,0,0:0:0:0:
320,192,58385,1,2,0:0:0:0:
448,192,58385,1,4,0:0:0:0:
64,192,58539,128,0,58847:0:0:0:0:
192,192,58847,1,0,0:0:0:70:LR4_SnareBPDT.wav
320,192,58847,1,0,0:0:0:0:
448,192,58847,1,0,0:0:0:0:
192,192,59001,1,0,0:0:0:70:LR4_SnareBPDT.wav
320,192,59001,1,0,0:0:0:0:
448,192,59001,1,0,0:0:0:0:
64,192,59154,1,2,0:0:0:0:
448,192,59154,128,0,59308:0:0:0:0:
192,192,59308,128,0,59462:0:0:0:0:
320,192,59462,128,0,59616:0:0:0:0:
64,192,59616,128,0,59770:0:0:0:0:
192,192,59770,1,4,0:0:0:0:
320,192,59770,1,8,0:0:0:0:
448,192,59770,1,0,0:0:0:0:
64,192,59924,1,0,0:0:0:0:
448,192,59924,1,0,0:0:0:0:
320,192,60001,1,0,0:0:0:0:
64,192,60078,1,0,0:0:0:0:
448,192,60078,1,0,0:0:0:0:
192,192,60154,1,0,0:0:0:0:
64,192,60231,1,0,0:0:0:0:
448,192,60231,1,0,0:0:0:0:
320,192,60308,1,0,0:0:0:0:
64,192,60385,1,2,0:0:0:0:
192,192,60385,1,0,0:0:0:0:
192,192,60539,1,0,0:0:0:0:
320,192,60693,1,0,0:0:0:0:
448,192,60693,1,0,0:0:0:0:
320,192,60847,1,0,0:0:0:0:
64,192,61001,1,8,0:0:0:0:
192,192,61001,1,0,0:0:0:0:
448,192,61001,1,0,0:0:0:0:
192,192,61154,1,0,0:0:0:0:
192,192,61308,1,0,0:0:0:0:
192,192,61462,1,0,0:0:0:0:
320,192,61616,1,2,0:0:0:0:
448,192,61616,1,0,0:0:0:0:
320,192,61770,1,0,0:0:0:0:
64,192,61924,1,8,0:0:0:0:
320,192,61924,1,0,0:0:0:0:
192,192,62078,1,0,0:0:0:0:
320,192,62078,1,0,0:0:0:0:
320,192,62231,1,2,0:0:0:0:
448,192,62231,1,0,0:0:0:0:
64,192,62385,1,0,0:0:0:0:
192,192,62385,1,0,0:0:0:0:
448,192,62462,1,0,0:0:0:0:
192,192,62539,1,8,0:0:0:0:
320,192,62539,1,0,0:0:0:0:
64,192,62616,1,0,0:0:0:0:
320,192,62693,1,0,0:0:0:0:
448,192,62693,1,0,0:0:0:0:
192,192,62770,1,0,0:0:0:0:
64,192,62847,128,2,63154:0:0:0:0:
448,192,62847,128,0,63154:0:0:0:0:
192,192,63154,1,8,0:0:0:0:
320,192,63154,1,0,0:0:0:0:
192,192,63308,128,0,63462:0:0:0:0:
320,192,63308,128,0,63462:0:0:0:0:
64,192,63462,1,2,0:0:0:0:
448,192,63462,1,0,0:0:0:0:
192,192,63616,1,0,0:0:0:0:
64,192,63770,1,0,0:0:0:70:LR4_SnareBPDT.wav
320,192,63770,1,0,0:0:0:0:
448,192,63770,1,0,0:0:0:0:
64,192,63924,128,0,64154:0:0:0:0:
448,192,64078,128,0,64308:0:0:0:0:
64,192,64231,128,0,64385:0:0:0:0:
192,192,64385,1,4,0:0:0:0:
320,192,64385,1,8,0:0:0:0:
448,192,64385,1,0,0:0:0:0:
192,192,64539,1,0,0:0:0:0:
320,192,64616,1,0,0:0:0:0:
64,192,64693,1,2,0:0:0:0:
448,192,64693,1,0,0:0:0:0:
192,192,64847,1,0,0:0:0:0:
320,192,64847,1,0,0:0:0:0:
64,192,65001,1,8,0:0:0:0:
320,192,65001,1,0,0:0:0:0:
448,192,65001,1,0,0:0:0:0:
64,192,65154,1,0,0:0:0:0:
448,192,65154,1,0,0:0:0:0:
192,192,65308,1,2,0:0:0:0:
320,192,65308,1,0,0:0:0:0:
64,192,65462,1,0,0:0:0:0:
192,192,65462,1,0,0:0:0:0:
64,192,65616,1,8,0:0:0:0:
320,192,65616,1,0,0:0:0:0:
448,192,65616,1,0,0:0:0:0:
192,192,65770,1,0,0:0:0:0:
320,192,65770,1,0,0:0:0:0:
320,192,65924,1,2,0:0:0:0:
448,192,65924,1,0,0:0:0:0:
64,192,66078,1,0,0:0:0:0:
448,192,66078,1,0,0:0:0:0:
64,192,66231,1,8,0:0:0:0:
192,192,66231,1,0,0:0:0:0:
320,192,66231,1,0,0:0:0:0:
192,192,66385,1,0,0:0:0:0:
448,192,66385,1,0,0:0:0:0:
64,192,66539,1,2,0:0:0:0:
320,192,66539,128,0,66693:0:0:0:0:
64,192,66693,1,0,0:0:0:0:
192,192,66847,1,8,0:0:0:0:
320,192,66847,1,0,0:0:0:0:
448,192,66847,1,0,0:0:0:0:
64,192,67001,1,0,0:0:0:0:
192,192,67001,1,0,0:0:0:0:
64,192,67154,1,2,0:0:0:0:
320,192,67154,1,0,0:0:0:0:
192,192,67308,1,0,0:0:0:0:
448,192,67308,1,0,0:0:0:0:
64,192,67462,1,8,0:0:0:0:
320,192,67462,1,0,0:0:0:0:
448,192,67462,1,0,0:0:0:0:
192,192,67616,1,0,0:0:0:0:
320,192,67616,1,0,0:0:0:0:
64,192,67770,128,2,67924:0:0:0:0:
192,192,67770,1,4,0:0:0:0:
448,192,67770,1,0,0:0:0:0:
448,192,67924,128,0,68078:0:0:0:0:
320,192,68078,128,0,68231:0:0:0:0:
192,192,68231,128,0,68385:0:0:0:0:
64,192,68385,128,0,68693:0:0:0:70:LR4_SnareBPDT.wav
320,192,68385,1,0,0:0:0:0:
448,192,68385,1,0,0:0:0:0:
320,192,68539,1,0,0:0:0:70:LR4_SnareBPDT.wav
448,192,68539,1,0,0:0:0:0:
320,192,68693,1,0,0:0:0:70:LR4_SnareBPDT.wav
448,192,68693,128,0,68847:0:0:0:0:
64,192,68847,128,0,69001:0:0:0:70:LR4_SnareBPDT.wav
192,192,68847,1,0,0:0:0:0:
192,192,69001,1,2,0:0:0:0:
320,192,69001,1,4,0:0:0:0:
448,192,69001,1,0,0:0:0:0:
320,192,69154,1,0,0:0:0:0:
64,192,69308,1,2,0:0:0:0:
192,192,69308,1,0,0:0:0:0:
448,192,69308,1,0,0:0:0:0:
192,192,69462,1,0,0:0:0:0:
64,192,69616,1,2,0:0:0:0:
320,192,69616,1,0,0:0:0:0:
448,192,69616,1,0,0:0:0:0:
448,192,69770,1,0,0:0:0:0:
64,192,69924,1,2,0:0:0:0:
192,192,69924,1,0,0:0:0:0:
320,192,69924,1,0,0:0:0:0:
64,192,70078,1,0,0:0:0:0:
192,192,70231,1,2,0:0:0:0:
320,192,70231,1,0,0:0:0:0:
448,192,70231,1,0,0:0:0:0:
320,192,70385,1,0,0:0:0:0:
64,192,70539,1,2,0:0:0:0:
192,192,70539,1,0,0:0:0:0:
448,192,70539,1,0,0:0:0:0:
192,192,70693,1,0,0:0:0:0:
64,192,70847,1,2,0:0:0:0:
320,192,70847,128,0,71001:0:0:0:0:
448,192,70847,1,0,0:0:0:0:
192,192,71001,128,0,71154:0:0:0:0:
64,192,71154,128,2,71462:0:0:0:0:
448,192,71154,1,0,0:0:0:0:
320,192,71308,1,0,0:0:0:0:
192,192,71462,1,2,0:0:0:0:
320,192,71462,1,0,0:0:0:0:
448,192,71462,1,0,0:0:0:0:
192,192,71616,1,0,0:0:0:0:
64,192,71770,1,2,0:0:0:0:
320,192,71770,1,0,0:0:0:0:
448,192,71770,1,0,0:0:0:0:
320,192,71924,1,0,0:0:0:0:
64,192,72078,1,2,0:0:0:0:
192,192,72078,1,0,0:0:0:0:
448,192,72078,1,0,0:0:0:0:
64,192,72231,1,0,0:0:0:0:
192,192,72385,1,2,0:0:0:0:
320,192,72385,1,0,0:0:0:0:
448,192,72385,1,0,0:0:0:0:
448,192,72539,1,0,0:0:0:0:
64,192,72693,1,2,0:0:0:0:
192,192,72693,1,0,0:0:0:0:
320,192,72693,1,0,0:0:0:0:
64,192,72847,1,0,0:0:0:0:
192,192,73001,1,2,0:0:0:0:
320,192,73001,1,0,0:0:0:0:
448,192,73001,1,0,0:0:0:0:
320,192,73154,1,0,0:0:0:0:
64,192,73308,1,2,0:0:0:0:
192,192,73308,1,0,0:0:0:0:
448,192,73308,128,0,73462:0:0:0:0:
192,192,73462,128,0,73616:0:0:0:0:
64,192,73616,1,0,0:0:0:70:LR4_SnareBPDT.wav
320,192,73616,1,0,0:0:0:0:
448,192,73616,1,0,0:0:0:0:
320,192,73924,1,2,0:0:0:0:
448,192,73924,1,0,0:0:0:0:
320,192,74078,1,2,0:0:0:0:
448,192,74078,1,0,0:0:0:0:
64,192,74231,1,2,0:0:0:0:
192,192,74231,1,4,0:0:0:0:
320,192,74231,1,0,0:0:0:0:
64,192,74385,1,0,0:0:0:0:
192,192,74539,1,2,0:0:0:0:
320,192,74539,1,0,0:0:0:0:
448,192,74539,1,0,0:0:0:0:
448,192,74693,1,0,0:0:0:0:
64,192,74847,1,2,0:0:0:0:
192,192,74847,1,0,0:0:0:0:
320,192,74847,1,0,0:0:0:0:
64,192,75001,1,0,0:0:0:0:
192,192,75154,1,2,0:0:0:0:
320,192,75154,1,0,0:0:0:0:
448,192,75154,1,0,0:0:0:0:
320,192,75308,1,0,0:0:0:0:
64,192,75462,1,2,0:0:0:0:
192,192,75462,1,0,0:0:0:0:
448,192,75462,1,0,0:0:0:0:
192,192,75616,1,0,0:0:0:0:
64,192,75770,1,2,0:0:0:0:
320,192,75770,1,0,0:0:0:0:
448,192,75770,1,0,0:0:0:0:
320,192,75924,1,0,0:0:0:0:
64,192,76078,1,2,0:0:0:0:
192,192,76078,1,0,0:0:0:0:
448,192,76078,128,0,76385:0:0:0:0:
64,192,76231,1,0,0:0:0:0:
64,192,76385,1,4,0:0:0:0:
192,192,76385,1,2,0:0:0:0:
320,192,76385,1,0,0:0:0:0:
64,192,76693,1,2,0:0:0:0:
192,192,76693,1,4,0:0:0:0:
320,192,76693,1,0,0:0:0:0:
64,192,77001,1,2,0:0:0:0:
192,192,77001,1,4,0:0:0:0:
320,192,77001,1,0,0:0:0:0:
64,192,77308,1,2,0:0:0:0:
192,192,77308,1,4,0:0:0:0:
320,192,77308,1,0,0:0:0:0:
64,192,77616,1,2,0:0:0:0:
320,192,77616,1,4,0:0:0:0:
448,192,77616,1,0,0:0:0:0:
64,192,77770,1,0,0:0:0:70:LR4_SnareBPDT.wav
192,192,77770,1,0,0:0:0:0:
64,192,77924,1,0,0:0:0:70:LR4_SnareBPDT.wav
192,192,77924,1,0,0:0:0:0:
320,192,78078,1,2,0:0:0:0:
448,192,78078,1,8,0:0:0:0:
64,192,78231,1,0,0:0:0:0:
448,192,78308,1,0,0:0:0:0:
320,192,78385,1,0,0:0:0:0:
192,192,78462,1,0,0:0:0:0:
64,192,78539,1,0,0:0:0:70:LR4_SnareBPDT.wav
320,192,78539,1,0,0:0:0:0:
448,192,78539,1,0,0:0:0:0:
64,192,78693,1,0,0:0:0:70:LR4_SnareBPDT.wav
320,192,78693,1,0,0:0:0:0:
448,192,78693,1,0,0:0:0:0:
64,192,78847,1,2,0:0:0:0:
192,192,78847,1,4,0:0:0:0:
320,192,79001,1,2,0:0:0:0:
448,192,79001,1,4,0:0:0:0:
64,192,79154,128,8,79462:0:0:0:0:
192,192,79154,128,4,79462:0:0:0:0:
448,192,79154,128,0,79462:0:0:0:0:
320,192,79462,1,2,0:0:0:0:
192,192,79616,1,0,0:0:0:0:
64,192,79770,1,8,0:0:0:0:
320,192,79770,1,0,0:0:0:0:
448,192,79770,1,0,0:0:0:0:
192,192,79924,1,0,0:0:0:0:
320,192,80078,1,2,0:0:0:0:
448,192,80078,1,0,0:0:0:0:
64,192,80154,1,0,0:0:0:0:
192,192,80231,1,0,0:0:0:0:
320,192,80308,1,0,0:0:0:0:
64,192,80385,128,8,80539:0:0:0:0:
192,192,80385,1,0,0:0:0:0:
448,192,80385,1,0,0:0:0:0:
320,192,80539,128,0,80693:0:0:0:0:
192,192,80693,1,2,0:0:0:0:
448,192,80693,1,0,0:0:0:0:
448,192,80847,1,0,0:0:0:0:
64,192,81001,1,8,0:0:0:0:
192,192,81001,1,0,0:0:0:0:
320,192,81001,1,0,0:0:0:0:
320,192,81154,1,0,0:0:0:0:
64,192,81308,128,2,81462:0:0:0:0:
192,192,81308,128,0,81462:0:0:0:0:
64,192,81616,128,8,81924:0:0:0:0:
320,192,81616,128,0,81924:0:0:0:0:
448,192,81616,128,0,81924:0:0:0:0:
192,192,81924,1,2,0:0:0:0:
320,192,82078,1,0,0:0:0:0:
64,192,82231,1,8,0:0:0:0:
192,192,82231,1,0,0:0:0:0:
448,192,82231,1,0,0:0:0:0:
320,192,82385,1,0,0:0:0:0:
64,192,82539,1,2,0:0:0:0:
192,192,82539,1,0,0:0:0:0:
448,192,82616,1,0,0:0:0:0:
320,192,82693,1,0,0:0:0:0:
192,192,82770,1,0,0:0:0:0:
64,192,82847,1,8,0:0:0:0:
320,192,82847,1,0,0:0:0:0:
448,192,82847,128,0,83001:0:0:0:0:
192,192,83001,128,0,83154:0:0:0:0:
64,192,83154,1,2,0:0:0:0:
320,192,83154,1,0,0:0:0:0:
320,192,83308,1,0,0:0:0:0:
64,192,83462,1,0,0:0:0:70:LR4_SnareBPDT.wav
192,192,83462,1,0,0:0:0:0:
448,192,83462,1,0,0:0:0:0:
64,192,84078,128,4,84693:0:0:0:0:
320,192,84078,128,2,84308:0:0:0:0:
448,192,84078,128,0,84308:0:0:0:0:
320,192,84385,128,0,84693:0:0:0:0:
448,192,84385,128,0,84693:0:0:0:0:
64,192,84847,128,0,85001:0:0:0:0:
192,192,84847,128,0,85001:0:0:0:0:
320,192,85001,1,0,0:0:0:0:
448,192,85001,1,0,0:0:0:0:
64,192,85154,1,0,0:0:0:0:
192,192,85154,1,0,0:0:0:0:
64,192,85308,128,0,85539:0:0:0:50:S4.wav
320,192,85308,128,0,85539:0:0:0:0:
448,192,85308,128,0,85924:0:0:0:0:
64,192,85616,128,0,85924:0:0:0:0:
320,192,85616,128,0,85924:0:0:0:0:
192,192,85924,128,0,86231:0:0:0:50:S4.wav
320,192,86078,128,0,86231:0:0:0:50:S4.wav
64,192,86231,1,2,0:0:0:0:
448,192,86231,1,4,0:0:0:0:
64,192,86385,1,2,0:0:0:0:
448,192,86385,1,0,0:0:0:0:
192,192,86539,1,2,0:0:0:0:
320,192,86539,1,4,0:0:0:0:
192,192,86693,1,2,0:0:0:0:
320,192,86693,1,0,0:0:0:0:
320,192,86847,1,2,0:0:0:0:
448,192,86847,1,4,0:0:0:0:
192,192,86924,1,2,0:0:0:0:
64,192,87001,1,2,0:0:0:0:
448,192,87001,1,0,0:0:0:0:
320,192,87078,1,2,0:0:0:0:
64,192,87154,1,2,0:0:0:0:
192,192,87154,1,4,0:0:0:0:
448,192,87231,1,2,0:0:0:0:
192,192,87308,1,2,0:0:0:0:
320,192,87308,1,0,0:0:0:0:
64,192,87385,1,2,0:0:0:0:
320,192,87462,1,2,0:0:0:0:
448,192,87462,1,0,0:0:0:0:
192,192,87654,128,0,87731:0:0:0:0:
320,192,87847,128,0,87924:0:0:0:0:
192,192,88078,1,2,0:0:0:0:
320,192,88078,1,0,0:0:0:0:
192,192,88231,1,2,0:0:0:0:
320,192,88231,1,0,0:0:0:0:
64,192,88385,1,2,0:0:0:0:
448,192,88385,1,0,0:0:0:0:
64,192,88693,128,2,89924:0:0:0:0:
192,192,88693,1,0,0:0:0:0:
448,192,88693,1,0,0:0:0:0:
320,192,88847,1,0,0:0:0:0:
448,192,89001,1,0,0:0:0:0:
320,192,89078,1,0,0:0:0:0:
192,192,89154,1,0,0:0:0:0:
448,192,89308,1,0,0:0:0:0:
320,192,89385,1,0,0:0:0:0:
192,192,89462,1,0,0:0:0:0:
448,192,89616,1,0,0:0:0:0:
320,192,89693,1,0,0:0:0:0:
192,192,89770,1,0,0:0:0:0:
320,192,89924,1,0,0:0:0:0:
448,192,89924,128,0,93616:0:0:0:0:
192,192,90001,1,0,0:0:0:0:
64,192,90078,1,0,0:0:0:0:
320,192,90231,1,0,0:0:0:0:
192,192,90308,1,0,0:0:0:0:
64,192,90385,1,0,0:0:0:0:
320,192,90539,1,0,0:0:0:0:
192,192,90616,1,0,0:0:0:0:
64,192,90693,1,0,0:0:0:0:
320,192,90847,1,0,0:0:0:0:
192,192,90924,1,0,0:0:0:0:
64,192,91001,1,0,0:0:0:0:
64,192,91154,1,0,0:0:0:0:
192,192,91231,1,0,0:0:0:0:
320,192,91308,1,0,0:0:0:0:
64,192,91462,1,0,0:0:0:0:
192,192,91539,1,0,0:0:0:0:
320,192,91616,1,0,0:0:0:0:
64,192,91770,1,0,0:0:0:0:
192,192,91847,1,0,0:0:0:0:
320,192,91924,1,0,0:0:0:0:
64,192,92078,1,0,0:0:0:0:
192,192,92154,1,0,0:0:0:0:
320,192,92231,1,0,0:0:0:0:
192,192,92385,1,0,0:0:0:0:
64,192,92462,1,0,0:0:0:0:
320,192,92539,1,0,0:0:0:0:
192,192,92693,1,0,0:0:0:0:
64,192,92770,1,0,0:0:0:0:
320,192,92847,1,0,0:0:0:0:
192,192,93001,1,0,0:0:0:0:
64,192,93078,1,0,0:0:0:0:
320,192,93154,1,0,0:0:0:0:
192,192,93308,1,0,0:0:0:0:
64,192,93385,1,0,0:0:0:0:
320,192,93462,1,0,0:0:0:0:
64,192,93616,128,0,94847:0:0:0:0:
192,192,93616,128,0,93693:0:0:0:0:
320,192,93693,128,0,93770:0:0:0:0:
448,192,93770,128,0,93847:0:0:0:0:
192,192,93924,128,0,94001:0:0:0:0:
320,192,94001,128,0,94078:0:0:0:0:
448,192,94078,128,0,94154:0:0:0:0:
192,192,94231,128,0,94308:0:0:0:0:
320,192,94308,128,0,94385:0:0:0:0:
448,192,94385,128,0,94462:0:0:0:0:
192,192,94539,128,0,94616:0:0:0:0:
320,192,94616,128,0,94693:0:0:0:0:
448,192,94693,128,0,94770:0:0:0:0:
320,192,94847,1,0,0:0:0:0:
448,192,94847,128,0,97308:0:0:0:0:
192,192,94924,1,0,0:0:0:0:
64,192,95001,1,0,0:0:0:0:
320,192,95154,1,0,0:0:0:0:
192,192,95231,1,0,0:0:0:0:
64,192,95308,1,0,0:0:0:0:
320,192,95462,1,0,0:0:0:0:
192,192,95539,1,0,0:0:0:0:
64,192,95616,1,0,0:0:0:0:
320,192,95770,1,0,0:0:0:0:
192,192,95847,1,0,0:0:0:0:
64,192,95924,1,0,0:0:0:0:
192,192,96078,1,0,0:0:0:0:
64,192,96154,1,0,0:0:0:0:
320,192,96231,1,0,0:0:0:0:
192,192,96385,1,0,0:0:0:0:
64,192,96462,1,0,0:0:0:0:
320,192,96539,1,0,0:0:0:0:
192,192,96693,1,0,0:0:0:0:
64,192,96770,1,0,0:0:0:0:
320,192,96847,1,0,0:0:0:0:
192,192,97001,1,0,0:0:0:0:
64,192,97078,1,0,0:0:0:0:
320,192,97154,1,0,0:0:0:0:
64,192,97308,128,0,98385:0:0:0:0:
192,192,97308,1,0,0:0:0:0:
320,192,97385,1,0,0:0:0:0:
448,192,97462,1,0,0:0:0:0:
192,192,97616,1,0,0:0:0:0:
320,192,97693,1,0,0:0:0:0:
448,192,97770,1,0,0:0:0:0:
192,192,97924,1,0,0:0:0:0:
320,192,98001,1,0,0:0:0:0:
448,192,98078,1,0,0:0:0:0:
192,192,98231,1,0,0:0:0:0:
320,192,98308,1,0,0:0:0:0:
448,192,98385,1,0,0:0:0:0:
64,192,98539,1,2,0:0:0:0:
192,192,98539,1,4,0:0:0:0:
448,192,98539,1,0,0:0:0:0:
192,192,98847,1,0,0:0:0:0:
192,192,99001,1,0,0:0:0:0:
448,192,99154,1,2,0:0:0:0:
320,192,99154,1,0,0:0:0:0:
320,192,99462,1,0,0:0:0:0:
320,192,99616,1,0,0:0:0:0:
448,192,99770,1,2,0:0:0:0:
64,192,99770,1,0,0:0:0:0:
192,192,100078,1,0,0:0:0:0:
192,192,100231,1,0,0:0:0:0:
64,192,100385,1,2,0:0:0:0:
448,192,100385,1,0,0:0:0:0:
320,192,100539,1,0,0:0:0:0:
192,192,100693,1,0,0:0:0:0:
320,192,100847,1,0,0:0:0:0:
64,192,101001,1,2,0:0:0:0:
448,192,101001,1,0,0:0:0:0:
320,192,101308,1,0,0:0:0:0:
320,192,101462,1,0,0:0:0:0:
64,192,101616,1,2,0:0:0:0:
448,192,101616,1,0,0:0:0:0:
192,192,101924,1,0,0:0:0:0:
192,192,102078,1,0,0:0:0:0:
64,192,102231,1,2,0:0:0:0:
448,192,102231,1,0,0:0:0:0:
320,192,102385,1,0,0:0:0:0:
64,192,102539,1,2,0:0:0:0:
448,192,102539,1,0,0:0:0:0:
192,192,102693,1,0,0:0:0:0:
64,192,102847,1,2,0:0:0:0:
448,192,102847,1,0,0:0:0:0:
320,192,103001,1,0,0:0:0:0:
192,192,103154,1,0,0:0:0:0:
320,192,103308,1,0,0:0:0:0:
64,192,103462,1,2,0:0:0:0:
448,192,103462,1,0,0:0:0:0:
192,192,103539,1,0,0:0:0:0:
320,192,103616,1,0,0:0:0:0:
448,192,103693,1,0,0:0:0:0:
64,192,103770,1,2,0:0:0:0:
192,192,103770,1,0,0:0:0:0:
448,192,103847,1,0,0:0:0:0:
320,192,103924,1,0,0:0:0:0:
192,192,104001,1,0,0:0:0:0:
64,192,104078,1,2,0:0:0:0:
448,192,104078,1,0,0:0:0:0:
192,192,104154,1,0,0:0:0:0:
320,192,104231,1,0,0:0:0:0:
448,192,104308,1,0,0:0:0:0:
64,192,104385,1,2,0:0:0:0:
192,192,104385,1,0,0:0:0:0:
448,192,104462,1,0,0:0:0:0:
320,192,104539,1,0,0:0:0:0:
192,192,104616,1,0,0:0:0:0:
64,192,104693,1,2,0:0:0:0:
448,192,104693,1,0,0:0:0:0:
320,192,104770,1,0,0:0:0:0:
192,192,104847,1,0,0:0:0:0:
64,192,104924,1,0,0:0:0:0:
320,192,105001,1,2,0:0:0:0:
448,192,105001,1,0,0:0:0:0:
64,192,105078,1,0,0:0:0:0:
192,192,105154,1,0,0:0:0:0:
320,192,105231,1,0,0:0:0:0:
64,192,105308,1,2,0:0:0:0:
448,192,105308,1,0,0:0:0:0:
192,192,105385,1,0,0:0:0:0:
320,192,105462,1,0,0:0:0:0:
448,192,105539,1,0,0:0:0:0:
64,192,105616,1,2,0:0:0:0:
192,192,105616,1,0,0:0:0:0:
320,192,105693,1,0,0:0:0:0:
192,192,105770,1,0,0:0:0:0:
320,192,105847,1,0,0:0:0:0:
64,192,105924,1,2,0:0:0:0:
448,192,105924,1,0,0:0:0:0:
64,192,106078,1,2,0:0:0:0:
448,192,106078,1,0,0:0:0:0:
192,192,106231,1,2,0:0:0:0:
320,192,106231,1,0,0:0:0:0:
192,192,106385,1,2,0:0:0:0:
320,192,106385,1,0,0:0:0:0:
64,192,106539,1,2,0:0:0:0:
448,192,106539,1,0,0:0:0:0:
64,192,106693,1,2,0:0:0:0:
448,192,106693,1,0,0:0:0:0:
192,192,106847,1,2,0:0:0:0:
320,192,106847,1,0,0:0:0:0:
192,192,107001,1,2,0:0:0:0:
320,192,107001,1,0,0:0:0:0:
64,192,107154,1,2,0:0:0:0:
192,192,107154,1,4,0:0:0:0:
448,192,107154,1,0,0:0:0:0:
320,192,108078,128,0,108385:0:0:0:0:
64,192,108385,1,2,0:0:0:0:
192,192,108385,1,4,0:0:0:0:
448,192,108385,1,0,0:0:0:0:
320,192,108488,1,0,0:0:0:0:
192,192,108590,1,0,0:0:0:0:
64,192,108693,1,0,0:0:0:50:S4.wav
448,192,108693,1,0,0:0:0:0:
192,192,108770,1,0,0:0:0:0:
320,192,108847,1,0,0:0:0:0:
448,192,108924,1,0,0:0:0:0:
192,192,109001,1,0,0:0:0:0:
320,192,109154,1,0,0:0:0:50:S4.wav
448,192,109154,1,0,0:0:0:0:
320,192,109462,1,0,0:0:0:50:S4.wav
448,192,109462,1,0,0:0:0:0:
192,192,109616,1,0,0:0:0:0:
64,192,109693,1,0,0:0:0:0:
320,192,109770,1,0,0:0:0:0:
192,192,109847,1,0,0:0:0:0:
64,192,109924,1,2,0:0:0:0:
448,192,109924,1,0,0:0:0:0:
320,192,110001,1,0,0:0:0:0:
192,192,110078,1,0,0:0:0:0:
448,192,110154,1,0,0:0:0:0:
320,192,110231,128,0,110385:0:0:0:0:
64,192,110385,1,0,0:0:0:50:S4.wav
192,192,110385,1,0,0:0:0:0:
64,192,110539,1,0,0:0:0:70:LR4_SnareBPDT.wav
320,192,110539,1,0,0:0:0:0:
448,192,110539,1,0,0:0:0:0:
64,192,110847,1,2,0:0:0:0:
192,192,110847,1,4,0:0:0:0:
448,192,110847,1,0,0:0:0:0:
320,192,110924,1,0,0:0:0:0:
192,192,111001,1,0,0:0:0:0:
64,192,111078,1,0,0:0:0:0:
320,192,111154,1,0,0:0:0:50:S4.wav
448,192,111154,1,0,0:0:0:0:
64,192,111231,1,0,0:0:0:0:
192,192,111308,1,0,0:0:0:0:
320,192,111385,1,0,0:0:0:0:
64,192,111462,1,2,0:0:0:0:
192,192,111462,1,4,0:0:0:0:
448,192,111462,1,0,0:0:0:0:
320,192,111539,1,0,0:0:0:0:
192,192,111616,1,0,0:0:0:0:
64,192,111693,1,0,0:0:0:0:
320,192,111770,1,0,0:0:0:50:S4.wav
448,192,111770,1,0,0:0:0:0:
64,192,111847,1,0,0:0:0:0:
192,192,111924,1,0,0:0:0:0:
320,192,112001,1,0,0:0:0:0:
64,192,112078,1,2,0:0:0:0:
448,192,112078,1,4,0:0:0:0:
192,192,112154,1,2,0:0:0:0:
320,192,112154,1,0,0:0:0:0:
64,192,112231,1,2,0:0:0:0:
448,192,112231,1,0,0:0:0:0:
192,192,112308,1,2,0:0:0:0:
320,192,112308,1,0,0:0:0:0:
64,192,112385,1,2,0:0:0:0:
448,192,112385,1,0,0:0:0:50:S4.wav
192,192,112693,1,0,0:0:0:70:LR4_SnareBPDT.wav
448,192,112693,1,0,0:0:0:0:
320,192,112847,1,2,0:0:0:0:
448,192,112847,1,0,0:0:0:0:
64,192,112924,1,2,0:0:0:0:
192,192,112924,1,0,0:0:0:0:
320,192,113001,1,2,0:0:0:0:
448,192,113001,1,4,0:0:0:0:
64,192,113154,1,8,0:0:0:0:
320,192,113154,1,0,0:0:0:0:
64,192,113308,1,2,0:0:0:0:
192,192,113308,1,4,0:0:0:0:
448,192,113308,128,0,113616:0:0:0:0:
64,192,113616,1,8,0:0:0:0:
192,192,113616,1,2,0:0:0:0:
320,192,113616,128,0,113770:0:0:0:0:
448,192,113770,128,0,113924:0:0:0:0:
64,192,113924,1,2,0:0:0:0:
192,192,113924,1,0,0:0:0:0:
320,192,114078,128,0,114231:0:0:0:0:
64,192,114231,1,8,0:0:0:0:
192,192,114231,1,2,0:0:0:0:
448,192,114231,128,0,114385:0:0:0:0:
64,192,114539,128,2,114693:0:0:0:0:
320,192,114539,1,0,0:0:0:0:
448,192,114539,1,0,0:0:0:0:
192,192,114693,128,0,115001:0:0:0:0:
320,192,114847,1,8,0:0:0:0:
448,192,114847,1,2,0:0:0:0:
64,192,115001,128,0,115308:0:0:0:0:
320,192,115154,1,2,0:0:0:0:
448,192,115154,1,0,0:0:0:0:
64,192,115462,1,8,0:0:0:0:
192,192,115462,1,2,0:0:0:0:
448,192,115462,1,0,0:0:0:0:
320,192,115770,128,2,115924:0:0:0:0:
448,192,115770,1,0,0:0:0:0:
64,192,115924,1,0,0:0:0:0:
192,192,115924,128,0,116078:0:0:0:0:
320,192,116078,1,0,0:0:0:0:
448,192,116078,1,0,0:0:0:0:
192,192,116231,1,0,0:0:0:0:
320,192,116231,1,0,0:0:0:0:
64,192,116385,1,0,0:0:0:50:S4.wav
192,192,116385,1,0,0:0:0:0:
448,192,116385,1,0,0:0:0:0:
64,192,116539,1,0,0:0:0:0:
320,192,116539,1,0,0:0:0:0:
192,192,116693,1,2,0:0:0:0:
448,192,116693,1,0,0:0:0:0:
64,192,116847,1,0,0:0:0:70:LR4_SnareBPDT.wav
320,192,116847,1,0,0:0:0:0:
448,192,116847,1,0,0:0:0:0:
192,192,117001,1,0,0:0:0:0:
320,192,117078,1,0,0:0:0:0:
64,192,117154,1,0,0:0:0:50:S4.wav
448,192,117154,1,0,0:0:0:0:
192,192,117308,1,2,0:0:0:0:
320,192,117308,1,0,0:0:0:0:
64,192,117462,1,0,0:0:0:0:
192,192,117539,1,0,0:0:0:0:
64,192,117616,1,0,0:0:0:70:LR4_SnareBPDT.wav
320,192,117616,1,0,0:0:0:0:
448,192,117616,1,0,0:0:0:0:
64,192,117924,1,0,0:0:0:70:LR4_SnareBPDT.wav
320,192,117924,1,0,0:0:0:0:
448,192,117924,1,0,0:0:0:0:
64,192,118078,1,0,0:0:0:70:LR4_SnareBPDT.wav
320,192,118078,1,0,0:0:0:0:
448,192,118078,1,0,0:0:0:0:
64,192,118231,1,2,0:0:0:0:
192,192,118231,1,4,0:0:0:0:
448,192,118231,1,0,0:0:0:0:
320,192,118334,1,0,0:0:0:0:
192,192,118436,1,0,0:0:0:0:
64,192,118539,1,0,0:0:0:70:LR4_SnareBPDT.wav
448,192,118539,1,0,0:0:0:0:
320,192,118616,1,0,0:0:0:0:
64,192,118693,1,2,0:0:0:0:
192,192,118693,1,0,0:0:0:0:
320,192,118770,1,0,0:0:0:0:
64,192,118847,1,0,0:0:0:0:
448,192,118847,1,0,0:0:0:0:
192,192,119001,1,0,0:0:0:70:LR4_SnareBPDT.wav
320,192,119001,1,0,0:0:0:0:
320,192,119308,1,2,0:0:0:0:
448,192,119308,1,0,0:0:0:0:
64,192,119462,1,0,0:0:0:0:
192,192,119539,1,0,0:0:0:0:
320,192,119616,1,0,0:0:0:70:LR4_SnareBPDT.wav
448,192,119616,1,0,0:0:0:0:
64,192,119693,1,0,0:0:0:0:
192,192,119770,1,0,0:0:0:0:
320,192,119847,1,0,0:0:0:0:
64,192,119924,1,2,0:0:0:0:
448,192,119924,1,0,0:0:0:0:
192,192,120078,128,0,120385:0:0:0:0:
320,192,120078,128,0,120385:0:0:0:0:
64,192,120385,1,0,0:0:0:70:LR4_SnareBPDT.wav
448,192,120385,1,0,0:0:0:0:
64,192,120693,1,2,0:0:0:0:
192,192,120693,1,4,0:0:0:0:
448,192,120693,1,0,0:0:0:0:
320,192,120770,1,0,0:0:0:0:
192,192,120847,1,0,0:0:0:0:
320,192,120924,1,0,0:0:0:0:
64,192,121001,1,0,0:0:0:50:S4.wav
448,192,121001,1,0,0:0:0:0:
192,192,121078,1,0,0:0:0:0:
64,192,121154,1,2,0:0:0:0:
448,192,121154,1,0,0:0:0:0:
320,192,121231,1,0,0:0:0:0:
192,192,121308,1,0,0:0:0:0:
320,192,121385,1,0,0:0:0:0:
64,192,121462,1,0,0:0:0:50:S4.wav
448,192,121462,1,0,0:0:0:0:
192,192,121539,1,0,0:0:0:0:
320,192,121616,1,8,0:0:0:0:
448,192,121616,1,0,0:0:0:0:
64,192,121693,1,0,0:0:0:0:
192,192,121770,1,0,0:0:0:0:
64,192,121847,1,0,0:0:0:0:
320,192,121924,1,2,0:0:0:0:
448,192,121924,1,0,0:0:0:0:
64,192,122001,1,2,0:0:0:0:
192,192,122001,1,0,0:0:0:0:
320,192,122078,1,2,0:0:0:0:
448,192,122078,1,0,0:0:0:0:
64,192,122154,1,2,0:0:0:0:
192,192,122154,1,0,0:0:0:0:
320,192,122231,1,2,0:0:0:0:
448,192,122231,1,0,0:0:0:0:
64,192,122539,1,0,0:0:0:70:LR4_SnareBPDT.wav
448,192,122539,1,0,0:0:0:0:
192,192,122693,1,2,0:0:0:0:
320,192,122693,1,0,0:0:0:0:
64,192,122770,1,2,0:0:0:0:
448,192,122770,1,0,0:0:0:0:
192,192,122847,1,8,0:0:0:0:
320,192,122847,1,0,0:0:0:0:
192,192,123001,1,2,0:0:0:0:
320,192,123001,1,0,0:0:0:0:
320,192,123154,1,4,0:0:0:0:
448,192,123154,1,2,0:0:0:0:
64,192,123231,1,2,0:0:0:0:
192,192,123231,1,0,0:0:0:0:
320,192,123308,1,2,0:0:0:0:
448,192,123308,1,0,0:0:0:0:
64,192,123385,1,2,0:0:0:0:
192,192,123385,1,0,0:0:0:0:
320,192,123462,1,8,0:0:0:0:
448,192,123462,1,0,0:0:0:0:
64,192,123539,1,2,0:0:0:0:
192,192,123539,1,0,0:0:0:0:
320,192,123616,1,2,0:0:0:0:
448,192,123616,1,0,0:0:0:0:
64,192,123693,1,2,0:0:0:0:
192,192,123693,1,0,0:0:0:0:
320,192,123770,1,8,0:0:0:0:
448,192,123770,1,0,0:0:0:0:
64,192,123847,1,2,0:0:0:0:
192,192,123847,1,0,0:0:0:0:
448,192,123924,1,2,0:0:0:0:
320,192,123962,1,2,0:0:0:0:
192,192,124001,1,2,0:0:0:0:
64,192,124039,1,2,0:0:0:0:
320,192,124078,1,8,0:0:0:0:
448,192,124078,1,0,0:0:0:0:
64,192,124154,1,2,0:0:0:0:
192,192,124154,1,0,0:0:0:0:
320,192,124231,1,2,0:0:0:0:
448,192,124231,1,0,0:0:0:0:
64,192,124308,1,2,0:0:0:0:
192,192,124308,1,0,0:0:0:0:
320,192,124385,1,2,0:0:0:0:
448,192,124385,1,0,0:0:0:0:
64,192,124539,1,0,0:0:0:70:LR4_SnareBPDT.wav
448,192,124539,1,0,0:0:0:0:
192,192,124616,1,2,0:0:0:0:
320,192,124616,1,0,0:0:0:0:
64,192,124693,1,0,0:0:0:0:
448,192,124693,1,0,0:0:0:0:
64,192,124847,1,2,0:0:0:0:
192,192,124847,1,0,0:0:0:0:
192,192,125001,1,0,0:0:0:70:LR4_SnareBPDT.wav
448,192,125001,1,0,0:0:0:0:
64,192,125078,1,2,0:0:0:0:
320,192,125078,1,0,0:0:0:0:
320,192,125308,1,2,0:0:0:0:
448,192,125308,1,0,0:0:0:0:
64,192,125462,1,0,0:0:0:70:LR4_SnareBPDT.wav
192,192,125462,1,0,0:0:0:0:
448,192,125462,1,0,0:0:0:0:
192,192,125616,1,2,0:0:0:0:
320,192,125616,1,4,0:0:0:0:
192,192,125770,1,0,0:0:0:0:
448,192,125847,1,0,0:0:0:0:
64,192,125924,1,0,0:0:0:0:
448,192,126001,1,0,0:0:0:0:
64,192,126078,1,0,0:0:0:0:
192,192,126231,1,0,0:0:0:50:S4.wav
320,192,126231,1,0,0:0:0:0:
320,192,126385,1,0,0:0:0:0:
448,192,126385,1,0,0:0:0:0:
64,192,126539,1,2,0:0:0:0:
192,192,126539,1,0,0:0:0:0:
192,192,126693,1,0,0:0:0:70:LR4_SnareBPDT.wav
320,192,126693,1,0,0:0:0:0:
64,192,126847,1,4,0:0:0:0:
448,192,126847,1,0,0:0:0:0:
192,192,126924,1,0,0:0:0:0:
64,192,127001,1,0,0:0:0:50:S4.wav
448,192,127001,1,0,0:0:0:0:
320,192,127078,1,0,0:0:0:0:
64,192,127154,1,2,0:0:0:0:
448,192,127154,1,0,0:0:0:0:
192,192,127308,1,0,0:0:0:0:
320,192,127385,1,0,0:0:0:0:
64,192,127462,1,4,0:0:0:0:
192,192,127462,1,8,0:0:0:0:
448,192,127462,1,0,0:0:0:0:
320,192,127539,1,0,0:0:0:0:
192,192,127616,1,0,0:0:0:0:
64,192,127693,1,0,0:0:0:0:
448,192,127770,128,0,128078:0:0:0:0:
64,192,128078,1,2,0:0:0:0:
192,192,128078,1,4,0:0:0:0:
320,192,128078,1,0,0:0:0:0:
320,192,128231,1,0,0:0:0:0:
64,192,128385,1,8,0:0:0:0:
192,192,128385,1,2,0:0:0:0:
448,192,128385,1,0,0:0:0:0:
64,192,128539,1,0,0:0:0:0:
192,192,128693,1,2,0:0:0:0:
320,192,128693,1,0,0:0:0:0:
448,192,128693,1,0,0:0:0:0:
448,192,128847,1,0,0:0:0:0:
64,192,129001,1,8,0:0:0:0:
192,192,129001,1,2,0:0:0:0:
320,192,129001,1,0,0:0:0:0:
320,192,129154,1,0,0:0:0:0:
64,192,129308,1,2,0:0:0:0:
192,192,129308,1,0,0:0:0:0:
448,192,129308,1,0,0:0:0:0:
192,192,129462,1,0,0:0:0:0:
64,192,129616,1,8,0:0:0:0:
320,192,129616,1,2,0:0:0:0:
448,192,129616,1,0,0:0:0:0:
192,192,129693,1,0,0:0:0:0:
64,192,129770,1,0,0:0:0:0:
192,192,129924,1,2,0:0:0:0:
320,192,129924,1,0,0:0:0:0:
448,192,129924,1,0,0:0:0:0:
320,192,130078,1,0,0:0:0:0:
64,192,130231,1,8,0:0:0:0:
192,192,130231,1,2,0:0:0:0:
448,192,130231,1,0,0:0:0:0:
448,192,130385,1,0,0:0:0:0:
64,192,130539,1,2,0:0:0:0:
192,192,130539,1,0,0:0:0:0:
320,192,130539,1,0,0:0:0:0:
64,192,130693,128,0,130847:0:0:0:0:
192,192,130847,1,8,0:0:0:0:
320,192,130847,1,2,0:0:0:0:
448,192,130847,1,0,0:0:0:0:
320,192,131001,128,0,131154:0:0:0:0:
64,192,131154,1,2,0:0:0:0:
448,192,131154,1,0,0:0:0:0:
192,192,131308,128,0,131462:0:0:0:0:
64,192,131462,1,8,0:0:0:0:
320,192,131462,1,2,0:0:0:0:
448,192,131462,1,0,0:0:0:0:
448,192,131616,128,0,131770:0:0:0:0:
64,192,131770,1,2,0:0:0:0:
192,192,131770,1,4,0:0:0:0:
320,192,131770,1,0,0:0:0:0:
192,192,131924,1,0,0:0:0:0:
320,192,132078,1,0,0:0:0:0:
192,192,132154,1,0,0:0:0:0:
64,192,132231,1,0,0:0:0:50:S2.wav
448,192,132231,1,0,0:0:0:0:
320,192,132308,1,0,0:0:0:0:
192,192,132385,1,0,0:0:0:50:S5.wav
64,192,132462,1,0,0:0:0:0:
448,192,132462,1,0,0:0:0:0:
192,192,132539,1,0,0:0:0:50:S1.wav
320,192,132539,1,0,0:0:0:0:
320,192,132693,1,0,0:0:0:50:S5.wav
448,192,132693,1,0,0:0:0:0:
64,192,132847,1,0,0:0:0:50:S2.wav
192,192,132847,1,0,0:0:0:0:
64,192,133001,1,4,0:0:0:0:
320,192,133001,128,2,133231:0:0:0:0:
448,192,133001,128,0,133231:0:0:0:0:
64,192,133308,1,8,0:0:0:0:
320,192,133308,1,2,0:0:0:0:
448,192,133308,1,0,0:0:0:0:
64,192,133462,1,0,0:0:0:0:
192,192,133616,1,2,0:0:0:0:
320,192,133616,1,0,0:0:0:0:
448,192,133616,1,0,0:0:0:0:
192,192,133770,1,0,0:0:0:0:
64,192,133924,1,8,0:0:0:0:
320,192,133924,1,2,0:0:0:0:
448,192,133924,1,0,0:0:0:0:
448,192,134078,1,0,0:0:0:0:
64,192,134231,1,2,0:0:0:0:
192,192,134231,1,0,0:0:0:0:
320,192,134231,1,0,0:0:0:0:
320,192,134385,1,0,0:0:0:0:
64,192,134539,1,8,0:0:0:0:
192,192,134539,1,2,0:0:0:0:
448,192,134539,1,0,0:0:0:0:
320,192,134616,1,0,0:0:0:0:
448,192,134693,1,0,0:0:0:0:
64,192,134847,1,2,0:0:0:0:
192,192,134847,1,0,0:0:0:0:
448,192,134847,1,0,0:0:0:0:
192,192,135001,1,0,0:0:0:0:
64,192,135154,1,8,0:0:0:0:
320,192,135154,1,2,0:0:0:0:
448,192,135154,1,0,0:0:0:0:
64,192,135308,1,0,0:0:0:0:
192,192,135462,1,2,0:0:0:0:
320,192,135462,1,0,0:0:0:0:
448,192,135462,1,0,0:0:0:0:
64,192,135616,1,2,0:0:0:0:
192,192,135616,1,0,0:0:0:0:
64,192,135770,1,8,0:0:0:0:
320,192,135770,1,2,0:0:0:0:
448,192,135770,1,0,0:0:0:0:
192,192,135924,128,0,136078:0:0:0:0:
64,192,136078,1,2,0:0:0:0:
448,192,136078,1,0,0:0:0:0:
320,192,136154,1,0,0:0:0:0:
192,192,136231,1,0,0:0:0:0:
64,192,136385,1,8,0:0:0:0:
320,192,136385,1,2,0:0:0:0:
448,192,136385,1,0,0:0:0:0:
320,192,136539,128,0,136693:0:0:0:0:
64,192,136693,1,4,0:0:0:0:
192,192,136693,1,2,0:0:0:0:
448,192,136693,1,0,0:0:0:0:
192,192,136847,1,0,0:0:0:50:S2.wav
320,192,136924,1,0,0:0:0:50:S5.wav
64,192,137001,1,0,0:0:0:50:S1.wav
448,192,137001,1,0,0:0:0:0:
192,192,137078,1,0,0:0:0:0:
320,192,137154,1,0,0:0:0:50:S5.wav
64,192,137308,1,0,0:0:0:50:S2.wav
192,192,137308,1,0,0:0:0:0:
448,192,137385,1,0,0:0:0:0:
192,192,137462,1,0,0:0:0:50:S1.wav
320,192,137462,1,0,0:0:0:0:
64,192,137539,1,0,0:0:0:0:
320,192,137616,1,0,0:0:0:70:S4.wav
448,192,137616,1,0,0:0:0:0:
192,192,137693,1,0,0:0:0:0:
320,192,137770,1,0,0:0:0:0:
64,192,137924,1,2,0:0:0:0:
192,192,137924,1,4,0:0:0:0:
448,192,137924,1,0,0:0:0:0:
192,192,138154,1,2,0:0:0:0:
320,192,138154,1,0,0:0:0:0:
64,192,138231,1,0,0:0:0:70:S4.wav
448,192,138231,1,0,0:0:0:0:
64,192,138385,1,8,0:0:0:0:
192,192,138385,1,2,0:0:0:0:
320,192,138462,1,0,0:0:0:0:
448,192,138462,1,0,0:0:0:0:
64,192,138616,1,2,0:0:0:0:
192,192,138616,1,0,0:0:0:0:
320,192,138693,1,0,0:0:0:0:
448,192,138693,1,0,0:0:0:0:
64,192,138847,1,0,0:0:0:70:LR4_SnareBPDT.wav
192,192,138847,1,0,0:0:0:0:
448,192,138847,1,0,0:0:0:0:
320,192,139001,1,0,0:0:0:0:
64,192,139154,1,2,0:0:0:0:
448,192,139154,1,4,0:0:0:0:
320,192,139308,1,0,0:0:0:0:
192,192,139385,1,2,0:0:0:0:
64,192,139462,1,0,0:0:0:70:S4.wav
448,192,139462,1,0,0:0:0:0:
320,192,139539,1,0,0:0:0:0:
64,192,139616,1,8,0:0:0:0:
192,192,139616,1,2,0:0:0:0:
320,192,139693,1,0,0:0:0:0:
448,192,139693,1,0,0:0:0:0:
64,192,139847,1,2,0:0:0:0:
192,192,139847,1,0,0:0:0:0:
320,192,139924,1,0,0:0:0:0:
448,192,139924,1,0,0:0:0:0:
64,192,140078,1,0,0:0:0:70:LR4_SnareBPDT.wav
192,192,140078,1,0,0:0:0:0:
448,192,140078,1,0,0:0:0:0:
320,192,140231,1,0,0:0:0:0:
64,192,140385,1,4,0:0:0:0:
448,192,140385,1,2,0:0:0:0:
192,192,140539,1,0,0:0:0:0:
320,192,140616,1,2,0:0:0:0:
64,192,140693,1,0,0:0:0:70:S4.wav
448,192,140693,1,0,0:0:0:0:
192,192,140770,1,0,0:0:0:0:
320,192,140847,1,8,0:0:0:0:
448,192,140847,1,2,0:0:0:0:
64,192,140924,1,0,0:0:0:0:
192,192,140924,1,0,0:0:0:0:
320,192,141078,1,2,0:0:0:0:
448,192,141078,1,0,0:0:0:0:
64,192,141154,1,0,0:0:0:0:
192,192,141154,1,0,0:0:0:0:
64,192,141308,1,0,0:0:0:70:LR4_SnareBPDT.wav
320,192,141308,1,0,0:0:0:0:
448,192,141308,1,0,0:0:0:0:
192,192,141462,1,0,0:0:0:0:
64,192,141616,1,2,0:0:0:0:
320,192,141616,1,4,0:0:0:0:
448,192,141616,1,0,0:0:0:0:
448,192,141770,1,0,0:0:0:0:
192,192,141924,1,0,0:0:0:50:S2.wav
320,192,142001,1,0,0:0:0:50:S5.wav
64,192,142078,1,0,0:0:0:50:S1.wav
448,192,142078,1,0,0:0:0:0:
192,192,142154,1,0,0:0:0:0:
320,192,142231,1,0,0:0:0:50:S5.wav
64,192,142308,1,0,0:0:0:0:
448,192,142308,1,0,0:0:0:0:
192,192,142385,1,0,0:0:0:50:S1.wav
320,192,142385,1,0,0:0:0:0:
320,192,142539,1,0,0:0:0:50:S2.wav
448,192,142539,1,0,0:0:0:0:
64,192,142693,1,0,0:0:0:70:S4.wav
192,192,142693,1,0,0:0:0:0:
64,192,142847,1,4,0:0:0:0:
320,192,142847,1,2,0:0:0:0:
448,192,142847,1,0,0:0:0:0:
192,192,143078,1,2,0:0:0:0:
448,192,143078,1,0,0:0:0:0:
64,192,143154,1,0,0:0:0:70:S4.wav
320,192,143154,1,0,0:0:0:0:
320,192,143308,1,8,0:0:0:0:
448,192,143308,1,2,0:0:0:0:
64,192,143385,1,0,0:0:0:0:
192,192,143385,1,0,0:0:0:0:
320,192,143539,1,2,0:0:0:0:
448,192,143539,1,0,0:0:0:0:
64,192,143616,1,0,0:0:0:0:
192,192,143616,1,0,0:0:0:0:
64,192,143770,1,0,0:0:0:70:LR4_SnareBPDT.wav
320,192,143770,1,0,0:0:0:0:
448,192,143770,1,0,0:0:0:0:
192,192,143924,1,0,0:0:0:0:
64,192,144078,1,2,0:0:0:0:
448,192,144078,1,4,0:0:0:0:
320,192,144231,1,10,0:0:0:0:
192,192,144308,1,2,0:0:0:0:
64,192,144385,1,0,0:0:0:70:S4.wav
320,192,144385,1,0,0:0:0:0:
448,192,144462,1,2,0:0:0:0:
64,192,144539,1,8,0:0:0:0:
192,192,144539,1,2,0:0:0:0:
320,192,144616,1,0,0:0:0:0:
448,192,144616,1,0,0:0:0:0:
64,192,144770,1,0,0:0:0:0:
320,192,144770,1,0,0:0:0:0:
192,192,144847,1,2,0:0:0:0:
448,192,144847,1,0,0:0:0:0:
64,192,145001,1,0,0:0:0:70:LR4_SnareBPDT.wav
320,192,145001,1,0,0:0:0:0:
448,192,145001,1,0,0:0:0:0:
192,192,145154,1,0,0:0:0:0:
64,192,145308,1,4,0:0:0:0:
448,192,145308,1,2,0:0:0:0:
192,192,145462,1,0,0:0:0:0:
320,192,145539,1,2,0:0:0:0:
192,192,145616,1,0,0:0:0:70:S4.wav
448,192,145616,1,0,0:0:0:0:
64,192,145693,1,0,0:0:0:0:
320,192,145770,1,8,0:0:0:0:
448,192,145770,1,2,0:0:0:0:
64,192,145847,1,0,0:0:0:0:
192,192,145847,1,0,0:0:0:0:
320,192,146001,1,2,0:0:0:0:
448,192,146001,1,0,0:0:0:0:
64,192,146078,1,0,0:0:0:0:
192,192,146078,1,0,0:0:0:0:
64,192,146231,1,0,0:0:0:70:LR4_SnareBPDT.wav
320,192,146231,1,0,0:0:0:0:
448,192,146231,1,0,0:0:0:0:
192,192,146385,1,0,0:0:0:0:
64,192,146539,1,2,0:0:0:0:
448,192,146539,1,4,0:0:0:0:
320,192,146693,1,0,0:0:0:50:S2.wav
192,192,146770,1,0,0:0:0:50:S5.wav
64,192,146847,1,0,0:0:0:50:S1.wav
448,192,146847,1,0,0:0:0:0:
320,192,146924,1,0,0:0:0:0:
192,192,147001,1,0,0:0:0:50:S5.wav
64,192,147154,1,0,0:0:0:70:LR4_SnareBPDT.wav
320,192,147154,1,0,0:0:0:0:
448,192,147154,1,0,0:0:0:0:
64,192,147308,1,0,0:0:0:70:LR4_SnareBPDT.wav
320,192,147308,1,0,0:0:0:0:
448,192,147308,1,0,0:0:0:0:
64,192,147462,1,0,0:0:0:70:LR4_SnareBPDT.wav
192,192,147462,1,0,0:0:0:0:
448,192,147462,1,0,0:0:0:0:
64,192,147616,1,0,0:0:0:70:LR4_SnareBPDT.wav
192,192,147616,1,0,0:0:0:0:
448,192,147616,1,0,0:0:0:0:
64,192,147770,1,2,0:0:0:0:
320,192,147770,1,4,0:0:0:0:
448,192,147770,128,0,152539:0:0:0:0:
64,192,148078,1,0,0:0:0:0:
192,192,148231,1,0,0:0:0:50:S1.wav
320,192,148231,1,0,0:0:0:0:
64,192,148385,1,2,0:0:0:0:
192,192,148385,1,0,0:0:0:0:
64,192,148693,1,0,0:0:0:50:S1.wav
320,192,148693,1,0,0:0:0:0:
64,192,149001,1,2,0:0:0:0:
192,192,149001,1,0,0:0:0:0:
192,192,149308,1,0,0:0:0:30:S2.wav
64,192,149462,1,0,0:0:0:50:S1.wav
320,192,149462,1,0,0:0:0:0:
64,192,149616,1,2,0:0:0:0:
192,192,149616,1,0,0:0:0:0:
320,192,149770,1,0,0:0:0:30:S2.wav
64,192,149924,1,0,0:0:0:50:S1.wav
192,192,149924,1,0,0:0:0:0:
64,192,150078,1,0,0:0:0:30:S2.wav
192,192,150231,1,2,0:0:0:0:
320,192,150231,1,0,0:0:0:0:
64,192,150539,1,0,0:0:0:0:
192,192,150693,1,0,0:0:0:50:S1.wav
320,192,150693,1,0,0:0:0:0:
64,192,150847,1,2,0:0:0:0:
192,192,150847,1,0,0:0:0:0:
64,192,151154,1,0,0:0:0:50:S1.wav
320,192,151154,1,0,0:0:0:0:
192,192,151462,1,2,0:0:0:0:
320,192,151462,1,0,0:0:0:0:
64,192,151770,1,0,0:0:0:0:
192,192,151924,1,0,0:0:0:50:S1.wav
320,192,151924,1,0,0:0:0:0:
64,192,152078,1,2,0:0:0:0:
192,192,152078,1,0,0:0:0:0:
320,192,152231,1,0,0:0:0:30:S2.wav
64,192,152385,1,0,0:0:0:50:S1.wav
192,192,152385,1,0,0:0:0:0:
192,192,152539,1,0,0:0:0:30:S2.wav
64,192,152693,128,2,152847:0:0:0:0:
320,192,152693,1,4,0:0:0:0:
448,192,152693,1,0,0:0:0:0:
320,192,152847,128,0,153001:0:0:0:0:
192,192,153001,128,0,153154:0:0:0:0:
64,192,153154,128,0,153308:0:0:0:50:S1.wav
320,192,153154,1,0,0:0:0:0:
192,192,153308,1,2,0:0:0:0:
448,192,153308,128,0,153462:0:0:0:0:
320,192,153462,128,0,153616:0:0:0:0:
64,192,153616,128,0,153770:0:0:0:50:S1.wav
448,192,153616,1,0,0:0:0:0:
192,192,153770,128,0,153924:0:0:0:0:
64,192,153924,1,2,0:0:0:0:
320,192,153924,128,0,154078:0:0:0:0:
448,192,153924,1,0,0:0:0:0:
64,192,154231,128,0,154385:0:0:0:30:S2.wav
448,192,154231,1,0,0:0:0:0:
192,192,154385,128,0,154539:0:0:0:50:S1.wav
320,192,154385,1,0,0:0:0:0:
64,192,154539,1,2,0:0:0:0:
448,192,154539,128,0,154693:0:0:0:0:
192,192,154693,1,0,0:0:0:30:S2.wav
320,192,154693,1,0,0:0:0:0:
64,192,154847,128,0,155154:0:0:0:50:S1.wav
192,192,154847,1,0,0:0:0:0:
320,192,155001,1,0,0:0:0:30:S2.wav
448,192,155001,1,0,0:0:0:0:
192,192,155154,1,2,0:0:0:0:
320,192,155154,1,4,0:0:0:0:
448,192,155154,128,0,155308:0:0:0:0:
192,192,155462,128,0,155616:0:0:0:0:
64,192,155616,1,0,0:0:0:50:S1.wav
320,192,155616,128,0,155770:0:0:0:0:
192,192,155770,1,2,0:0:0:0:
448,192,155770,128,0,155924:0:0:0:0:
64,192,156078,128,0,156231:0:0:0:0:
192,192,156078,128,0,156231:0:0:0:0:
320,192,156231,128,0,156385:0:0:0:0:
64,192,156385,128,2,157462:0:0:0:0:
192,192,156385,128,0,156539:0:0:0:0:
448,192,156385,128,0,156539:0:0:0:0:
320,192,156539,128,0,156693:0:0:0:0:
192,192,156693,128,0,156847:0:0:0:0:
320,192,156847,128,0,157001:0:0:0:0:
448,192,157001,128,0,157154:0:0:0:0:
192,192,157308,128,0,157462:0:0:0:0:
320,192,157308,128,0,157462:0:0:0:0:
448,192,157462,128,0,157616:0:0:0:30:S2.wav
64,192,157616,1,2,0:0:0:0:
192,192,157616,1,4,0:0:0:0:
320,192,157616,1,0,0:0:0:0:
448,192,157770,1,0,0:0:0:0:
320,192,157847,1,0,0:0:0:0:
192,192,157924,1,0,0:0:0:0:
64,192,158078,1,0,0:0:0:0:
192,192,158154,1,0,0:0:0:0:
320,192,158231,1,0,0:0:0:50:S1.wav
448,192,158231,1,0,0:0:0:0:
64,192,158308,1,0,0:0:0:0:
320,192,158385,1,2,0:0:0:0:
448,192,158385,1,0,0:0:0:0:
192,192,158539,1,0,0:0:0:0:
64,192,158616,1,0,0:0:0:0:
320,192,158693,1,0,0:0:0:0:
192,192,158770,1,0,0:0:0:0:
64,192,158847,1,2,0:0:0:0:
448,192,158847,128,0,159154:0:0:0:0:
192,192,159154,128,0,159308:0:0:0:50:S4.wav
64,192,159308,128,0,159462:0:0:0:0:
320,192,159462,128,0,159616:0:0:0:0:
192,192,159616,128,0,159770:0:0:0:0:
64,192,159770,128,0,160078:0:0:0:50:S1.wav
448,192,159770,1,0,0:0:0:0:
192,192,159924,1,0,0:0:0:70:LR4_SnareBPDT.wav
320,192,159924,1,0,0:0:0:0:
320,192,160078,1,2,0:0:0:0:
448,192,160078,1,4,0:0:0:0:
192,192,160231,1,0,0:0:0:0:
448,192,160308,1,0,0:0:0:0:
192,192,160385,1,0,0:0:0:0:
320,192,160539,1,0,0:0:0:0:
192,192,160616,1,0,0:0:0:0:
64,192,160693,1,0,0:0:0:50:S1.wav
448,192,160693,1,0,0:0:0:0:
320,192,160770,1,0,0:0:0:0:
64,192,160847,1,2,0:0:0:0:
192,192,160847,1,0,0:0:0:0:
320,192,161001,1,0,0:0:0:50:S1.wav
448,192,161001,1,0,0:0:0:0:
64,192,161154,1,0,0:0:0:50:S1.wav
320,192,161154,1,0,0:0:0:0:
192,192,161308,1,2,0:0:0:0:
448,192,161308,128,0,161616:0:0:0:0:
64,192,161616,128,0,161770:0:0:0:0:
448,192,161770,128,0,161924:0:0:0:0:
192,192,161924,128,0,162078:0:0:0:0:
320,192,162078,128,0,162231:0:0:0:0:
448,192,162231,128,0,162539:0:0:0:0:
64,192,162539,1,4,0:0:0:0:
192,192,162539,1,2,0:0:0:0:
320,192,162539,1,0,0:0:0:0:
192,192,162693,1,0,0:0:0:0:
64,192,162847,1,2,0:0:0:0:
448,192,162847,1,0,0:0:0:0:
64,192,163001,1,0,0:0:0:50:S1.wav
192,192,163001,1,0,0:0:0:0:
448,192,163078,1,0,0:0:0:0:
320,192,163154,1,0,0:0:0:0:
192,192,163231,1,0,0:0:0:0:
64,192,163308,1,0,0:0:0:30:S2.wav
448,192,163308,1,0,0:0:0:0:
320,192,163462,1,0,0:0:0:50:S1.wav
448,192,163462,1,0,0:0:0:0:
192,192,163616,1,0,0:0:0:0:
64,192,163770,1,0,0:0:0:30:S2.wav
192,192,163847,1,0,0:0:0:0:
448,192,163924,1,0,0:0:0:50:S4.wav
320,192,164001,1,0,0:0:0:0:
64,192,164078,1,2,0:0:0:0:
192,192,164078,1,0,0:0:0:0:
320,192,164231,1,0,0:0:0:0:
448,192,164308,1,0,0:0:0:0:
192,192,164385,1,0,0:0:0:50:S2.wav
64,192,164462,1,0,0:0:0:0:
320,192,164539,1,0,0:0:0:50:S1.wav
448,192,164539,1,0,0:0:0:0:
192,192,164616,1,0,0:0:0:0:
448,192,164693,1,0,0:0:0:50:S2.wav
320,192,164770,1,0,0:0:0:50:S2.wav
64,192,164847,1,0,0:0:0:50:S1.wav
192,192,164847,1,0,0:0:0:0:
64,192,165001,1,2,0:0:0:0:
320,192,165001,1,4,0:0:0:0:
448,192,165001,1,0,0:0:0:0:
64,192,165308,1,2,0:0:0:0:
320,192,165308,1,4,0:0:0:0:
448,192,165308,1,0,0:0:0:0:
64,192,165616,1,2,0:0:0:0:
192,192,165616,1,4,0:0:0:0:
448,192,165616,1,0,0:0:0:0:
64,192,165924,1,2,0:0:0:0:
192,192,165924,1,4,0:0:0:0:
448,192,165924,1,0,0:0:0:0:
64,192,166231,1,4,0:0:0:0:
320,192,166231,1,2,0:0:0:0:
448,192,166231,1,0,0:0:0:0:
192,192,166539,128,0,166693:0:0:0:0:
320,192,166693,128,0,166847:0:0:0:0:
64,192,166847,128,0,167154:0:0:0:0:
448,192,166847,128,0,167001:0:0:0:0:
192,192,167154,128,0,167462:0:0:0:0:
64,192,167308,128,0,167462:0:0:0:0:
320,192,167462,1,4,0:0:0:0:
448,192,167462,1,2,0:0:0:0:
320,192,167770,1,0,0:0:0:50:S4.wav
448,192,167770,1,0,0:0:0:0:
320,192,168078,1,0,0:0:0:50:S4.wav
448,192,168078,1,0,0:0:0:0:
320,192,168385,1,0,0:0:0:50:S4.wav
448,192,168385,1,0,0:0:0:0:
64,192,168693,1,0,0:0:0:50:S4.wav
192,192,168693,1,0,0:0:0:0:
64,192,169001,1,0,0:0:0:50:S4.wav
192,192,169001,1,0,0:0:0:0:
64,192,169308,1,0,0:0:0:50:S4.wav
192,192,169308,1,0,0:0:0:0:
64,192,169616,1,0,0:0:0:50:S4.wav
192,192,169616,1,0,0:0:0:0:
192,192,169924,1,0,0:0:0:50:S4.wav
448,192,169924,1,0,0:0:0:0:
192,192,170231,1,0,0:0:0:50:S4.wav
448,192,170231,1,0,0:0:0:0:
192,192,170539,1,0,0:0:0:50:S4.wav
448,192,170539,1,0,0:0:0:0:
192,192,170847,1,0,0:0:0:50:S4.wav
448,192,170847,1,0,0:0:0:0:
64,192,171154,1,0,0:0:0:50:S4.wav
320,192,171154,1,0,0:0:0:0:
64,192,171462,1,0,0:0:0:50:S4.wav
320,192,171462,1,0,0:0:0:0:
64,192,171770,1,0,0:0:0:50:S4.wav
320,192,171770,1,0,0:0:0:0:
64,192,172078,1,0,0:0:0:50:S4.wav
320,192,172078,1,0,0:0:0:0:
64,192,172385,1,4,0:0:0:0:
320,192,172385,1,2,0:0:0:0:
448,192,172385,1,0,0:0:0:0:
192,192,172539,1,0,0:0:0:50:S5.wav
448,192,172539,1,0,0:0:0:0:
64,192,172693,1,0,0:0:0:50:S4.wav
192,192,172693,1,0,0:0:0:0:
320,192,172847,1,0,0:0:0:50:S5.wav
448,192,172847,1,0,0:0:0:0:
64,192,173001,1,2,0:0:0:0:
192,192,173001,1,4,0:0:0:0:
320,192,173001,1,0,0:0:0:50:S4.wav
64,192,173154,1,0,0:0:0:50:S5.wav
448,192,173154,1,0,0:0:0:0:
320,192,173308,1,0,0:0:0:50:S4.wav
448,192,173308,1,0,0:0:0:0:
64,192,173462,1,0,0:0:0:50:S5.wav
192,192,173462,1,0,0:0:0:0:
192,192,173616,1,2,0:0:0:0:
320,192,173616,1,4,0:0:0:0:
448,192,173616,1,0,0:0:0:50:S4.wav
64,192,173770,1,0,0:0:0:50:S5.wav
320,192,173770,1,0,0:0:0:0:
192,192,173924,1,0,0:0:0:50:S4.wav
448,192,173924,1,0,0:0:0:0:
64,192,174078,1,0,0:0:0:50:S5.wav
448,192,174078,1,0,0:0:0:0:
64,192,174231,1,2,0:0:0:0:
192,192,174231,1,4,0:0:0:0:
320,192,174231,1,0,0:0:0:50:S4.wav
192,192,174385,1,0,0:0:0:50:S5.wav
448,192,174385,1,0,0:0:0:0:
64,192,174539,1,0,0:0:0:50:S4.wav
320,192,174539,1,0,0:0:0:0:
64,192,174693,1,0,0:0:0:50:S5.wav
448,192,174693,1,0,0:0:0:0:
320,192,174847,1,6,0:0:0:0:
448,192,174847,1,0,0:0:0:50:S5.wav
64,192,174924,1,0,0:0:0:50:S5.wav
192,192,174924,1,0,0:0:0:0:
320,192,175001,1,2,0:0:0:0:
448,192,175001,1,0,0:0:0:50:S5.wav
64,192,175078,1,0,0:0:0:50:S5.wav
192,192,175078,1,0,0:0:0:0:
320,192,175154,1,2,0:0:0:0:
448,192,175154,1,0,0:0:0:50:S5.wav
64,192,175231,1,0,0:0:0:50:S5.wav
192,192,175231,1,0,0:0:0:0:
320,192,175308,1,2,0:0:0:0:
448,192,175308,1,0,0:0:0:50:S5.wav
64,192,175385,1,0,0:0:0:50:S5.wav
192,192,175385,1,0,0:0:0:0:
320,192,175462,1,6,0:0:0:0:
448,192,175462,1,0,0:0:0:50:S5.wav
64,192,175539,1,2,0:0:0:0:
192,192,175616,1,2,0:0:0:0:
448,192,175616,1,0,0:0:0:50:S5.wav
320,192,175693,1,2,0:0:0:0:
64,192,175770,1,6,0:0:0:0:
192,192,175770,1,0,0:0:0:50:S5.wav
448,192,175847,1,2,0:0:0:0:
64,192,175924,1,2,0:0:0:0:
320,192,175924,1,0,0:0:0:50:S5.wav
192,192,176001,1,2,0:0:0:0:
320,192,176078,1,4,0:0:0:0:
448,192,176078,1,0,0:0:0:0:
64,192,176847,128,0,177001:0:0:0:0:
320,192,177001,1,0,0:0:0:0:
320,192,177154,1,0,0:0:0:0:
64,192,177924,1,0,0:0:0:70:LR4_SnareBPDT.wav
192,192,177924,1,0,0:0:0:0:
448,192,177924,1,0,0:0:0:0:
320,192,178078,1,0,0:0:0:70:soft-hitclap.wav
448,192,178078,1,0,0:0:0:0:
64,192,178231,1,0,0:0:0:70:soft-hitclap.wav
192,192,178231,1,0,0:0:0:0:
320,192,178231,1,0,0:0:0:0:
64,192,178385,1,0,0:0:0:70:LR4_SnareBPDT.wav
192,192,178385,1,0,0:0:0:0:
64,192,178539,1,2,0:0:0:0:
320,192,178539,1,4,0:0:0:0:
448,192,178539,1,0,0:0:0:0:
192,192,178693,1,2,0:0:0:0:
320,192,178693,1,0,0:0:0:0:
64,192,178847,1,8,0:0:0:0:
192,192,178847,1,0,0:0:0:0:
448,192,178847,1,0,0:0:0:0:
64,192,179001,1,0,0:0:0:0:
320,192,179001,1,0,0:0:0:0:
192,192,179154,1,2,0:0:0:0:
448,192,179154,1,0,0:0:0:0:
192,192,179308,1,0,0:0:0:0:
320,192,179308,1,0,0:0:0:0:
64,192,179462,1,8,0:0:0:0:
320,192,179462,1,0,0:0:0:0:
448,192,179462,1,0,0:0:0:0:
192,192,179616,1,0,0:0:0:0:
448,192,179616,1,0,0:0:0:0:
64,192,179770,1,2,0:0:0:0:
320,192,179770,1,0,0:0:0:0:
192,192,179924,1,0,0:0:0:0:
64,192,180078,1,8,0:0:0:0:
320,192,180078,1,0,0:0:0:0:
448,192,180078,1,0,0:0:0:0:
192,192,180231,1,0,0:0:0:0:
448,192,180231,1,0,0:0:0:0:
64,192,180385,1,2,0:0:0:0:
192,192,180385,1,0,0:0:0:0:
64,192,180539,1,0,0:0:0:0:
320,192,180539,1,0,0:0:0:0:
192,192,180693,1,8,0:0:0:0:
320,192,180693,1,0,0:0:0:0:
448,192,180693,128,0,181001:0:0:0:0:
64,192,180847,1,0,0:0:0:0:
64,192,181001,1,2,0:0:0:0:
320,192,181001,1,0,0:0:0:0:
192,192,181154,1,0,0:0:0:0:
320,192,181154,1,0,0:0:0:0:
64,192,181308,1,8,0:0:0:0:
192,192,181308,1,0,0:0:0:0:
448,192,181308,1,0,0:0:0:0:
320,192,181462,1,0,0:0:0:0:
448,192,181462,1,0,0:0:0:0:
64,192,181616,1,2,0:0:0:0:
320,192,181616,1,0,0:0:0:0:
192,192,181770,1,0,0:0:0:0:
448,192,181770,1,0,0:0:0:0:
64,192,181924,1,8,0:0:0:0:
192,192,181924,1,0,0:0:0:0:
320,192,181924,1,0,0:0:0:0:
64,192,182078,1,0,0:0:0:0:
448,192,182078,1,0,0:0:0:0:
320,192,182231,1,2,0:0:0:0:
448,192,182231,1,0,0:0:0:0:
192,192,182385,1,0,0:0:0:0:
64,192,182539,1,8,0:0:0:0:
320,192,182539,1,0,0:0:0:0:
448,192,182539,1,0,0:0:0:0:
64,192,182693,1,0,0:0:0:0:
192,192,182693,1,0,0:0:0:0:
320,192,182847,1,2,0:0:0:0:
448,192,182847,1,0,0:0:0:0:
192,192,183001,1,0,0:0:0:0:
448,192,183001,1,0,0:0:0:0:
64,192,183154,128,0,183462:0:0:0:70:LR4_SnareBPDT.wav
320,192,183154,1,0,0:0:0:0:
448,192,183154,1,0,0:0:0:0:
448,192,183462,1,0,0:0:0:0:
64,192,183770,1,4,0:0:0:0:
192,192,183770,1,8,0:0:0:0:
320,192,183770,1,0,0:0:0:0:
320,192,183924,1,0,0:0:0:0:
448,192,183924,1,0,0:0:0:0:
64,192,184078,1,2,0:0:0:0:
448,192,184078,1,0,0:0:0:0:
64,192,184231,1,0,0:0:0:0:
192,192,184231,1,0,0:0:0:0:
192,192,184385,1,8,0:0:0:0:
320,192,184385,1,0,0:0:0:0:
448,192,184385,1,0,0:0:0:0:
64,192,184539,1,0,0:0:0:0:
448,192,184539,1,0,0:0:0:0:
64,192,184693,1,2,0:0:0:0:
192,192,184693,128,0,184847:0:0:0:0:
320,192,184847,1,0,0:0:0:0:
64,192,185001,1,8,0:0:0:0:
192,192,185001,1,0,0:0:0:0:
448,192,185001,1,0,0:0:0:0:
64,192,185154,1,0,0:0:0:0:
320,192,185154,1,0,0:0:0:0:
320,192,185308,1,2,0:0:0:0:
448,192,185308,128,0,185462:0:0:0:0:
64,192,185462,1,0,0:0:0:0:
64,192,185616,128,8,185770:0:0:0:0:
192,192,185616,1,0,0:0:0:0:
320,192,185616,1,0,0:0:0:0:
448,192,185770,1,0,0:0:0:0:
64,192,185924,1,2,0:0:0:0:
320,192,185924,128,0,186078:0:0:0:0:
192,192,186078,1,0,0:0:0:0:
64,192,186231,1,8,0:0:0:0:
320,192,186231,1,0,0:0:0:0:
448,192,186231,1,0,0:0:0:0:
192,192,186385,1,0,0:0:0:0:
448,192,186385,1,0,0:0:0:0:
64,192,186539,1,2,0:0:0:0:
192,192,186539,128,0,186693:0:0:0:0:
320,192,186693,1,0,0:0:0:0:
64,192,186847,1,8,0:0:0:0:
192,192,186847,1,0,0:0:0:0:
448,192,186847,1,0,0:0:0:0:
320,192,187001,1,0,0:0:0:0:
448,192,187001,1,0,0:0:0:0:
64,192,187154,1,2,0:0:0:0:
192,192,187154,1,4,0:0:0:0:
320,192,187154,1,0,0:0:0:0:
448,192,187308,1,0,0:0:0:0:
320,192,187385,1,0,0:0:0:0:
192,192,187462,1,0,0:0:0:0:
192,192,187616,1,0,0:0:0:0:
64,192,187770,1,0,0:0:0:70:LR4_SnareBPDT.wav
320,192,187770,1,0,0:0:0:0:
448,192,187770,1,0,0:0:0:0:
64,192,187924,1,0,0:0:0:70:soft-hitclap.wav
320,192,187924,1,0,0:0:0:0:
448,192,187924,1,0,0:0:0:0:
64,192,188078,1,0,0:0:0:70:soft-hitclap.wav
192,192,188078,1,0,0:0:0:0:
448,192,188078,1,0,0:0:0:0:
64,192,188231,1,0,0:0:0:70:LR4_SnareBPDT.wav
192,192,188231,1,0,0:0:0:0:
448,192,188231,1,0,0:0:0:0:
192,192,188385,1,2,0:0:0:0:
320,192,188385,1,0,0:0:0:0:
64,192,188693,1,4,0:0:0:0:
320,192,188693,1,8,0:0:0:0:
448,192,188693,1,0,0:0:0:0:
192,192,188847,1,0,0:0:0:0:
448,192,188847,1,0,0:0:0:0:
64,192,189001,1,2,0:0:0:0:
192,192,189001,1,0,0:0:0:0:
320,192,189154,1,0,0:0:0:0:
448,192,189154,1,0,0:0:0:0:
64,192,189308,1,8,0:0:0:0:
192,192,189308,1,0,0:0:0:0:
448,192,189308,1,0,0:0:0:0:
64,192,189462,1,0,0:0:0:0:
320,192,189462,1,0,0:0:0:0:
192,192,189616,1,2,0:0:0:0:
448,192,189616,1,0,0:0:0:0:
320,192,189770,1,0,0:0:0:0:
64,192,189924,1,8,0:0:0:0:
192,192,189924,1,0,0:0:0:0:
448,192,189924,1,0,0:0:0:0:
320,192,190078,1,0,0:0:0:0:
448,192,190078,1,0,0:0:0:0:
64,192,190231,1,2,0:0:0:0:
320,192,190231,1,0,0:0:0:0:
192,192,190385,1,0,0:0:0:0:
448,192,190385,1,0,0:0:0:0:
64,192,190539,128,8,190847:0:0:0:0:
192,192,190539,1,0,0:0:0:0:
320,192,190539,1,0,0:0:0:0:
448,192,190693,1,0,0:0:0:0:
192,192,190847,1,2,0:0:0:0:
448,192,190847,1,0,0:0:0:0:
192,192,191001,1,0,0:0:0:0:
320,192,191001,1,0,0:0:0:0:
64,192,191154,1,8,0:0:0:0:
320,192,191154,1,0,0:0:0:0:
448,192,191154,1,0,0:0:0:0:
64,192,191308,1,0,0:0:0:0:
192,192,191308,1,0,0:0:0:0:
192,192,191462,1,2,0:0:0:0:
448,192,191462,1,0,0:0:0:0:
64,192,191616,1,0,0:0:0:0:
320,192,191616,1,0,0:0:0:0:
192,192,191770,1,8,0:0:0:0:
320,192,191770,1,0,0:0:0:0:
448,192,191770,1,0,0:0:0:0:
64,192,191924,1,0,0:0:0:0:
448,192,191924,1,0,0:0:0:0:
64,192,192078,1,2,0:0:0:0:
192,192,192078,1,0,0:0:0:0:
320,192,192231,1,0,0:0:0:0:
64,192,192385,1,8,0:0:0:0:
192,192,192385,1,0,0:0:0:0:
448,192,192385,1,0,0:0:0:0:
64,192,192539,1,0,0:0:0:0:
320,192,192539,1,0,0:0:0:0:
320,192,192693,1,2,0:0:0:0:
448,192,192693,1,0,0:0:0:0:
64,192,192847,1,0,0:0:0:0:
192,192,192847,1,0,0:0:0:0:
64,192,193001,1,0,0:0:0:70:LR4_SnareBPDT.wav
320,192,193001,1,0,0:0:0:0:
448,192,193001,128,0,193308:0:0:0:0:
64,192,193308,1,0,0:0:0:0:
64,192,193616,1,4,0:0:0:0:
320,192,193616,1,8,0:0:0:0:
448,192,193616,1,0,0:0:0:0:
64,192,193770,1,0,0:0:0:0:
192,192,193770,1,0,0:0:0:0:
192,192,193924,1,2,0:0:0:0:
448,192,193924,1,0,0:0:0:0:
320,192,194078,1,0,0:0:0:0:
448,192,194078,1,0,0:0:0:0:
64,192,194231,1,8,0:0:0:0:
192,192,194231,1,0,0:0:0:0:
320,192,194231,1,0,0:0:0:0:
64,192,194385,1,0,0:0:0:0:
448,192,194385,1,0,0:0:0:0:
320,192,194539,1,2,0:0:0:0:
448,192,194539,128,0,194693:0:0:0:0:
192,192,194693,1,0,0:0:0:0:
64,192,194847,1,8,0:0:0:0:
320,192,194847,1,0,0:0:0:0:
448,192,194847,1,0,0:0:0:0:
64,192,195001,1,0,0:0:0:0:
192,192,195001,1,0,0:0:0:0:
192,192,195154,128,2,195308:0:0:0:0:
448,192,195154,1,0,0:0:0:0:
320,192,195308,1,0,0:0:0:0:
64,192,195462,1,8,0:0:0:0:
320,192,195462,128,0,195616:0:0:0:0:
448,192,195462,1,0,0:0:0:0:
192,192,195616,1,0,0:0:0:0:
64,192,195770,128,2,195924:0:0:0:0:
448,192,195770,1,0,0:0:0:0:
192,192,195924,1,0,0:0:0:0:
64,192,196078,1,8,0:0:0:0:
320,192,196078,1,0,0:0:0:0:
448,192,196078,1,0,0:0:0:0:
192,192,196231,1,0,0:0:0:0:
320,192,196231,1,0,0:0:0:0:
64,192,196385,1,2,0:0:0:0:
448,192,196385,128,0,196539:0:0:0:0:
192,192,196539,1,0,0:0:0:0:
64,192,196693,1,8,0:0:0:0:
320,192,196693,1,0,0:0:0:0:
448,192,196693,1,0,0:0:0:0:
64,192,196847,1,0,0:0:0:0:
192,192,196847,1,0,0:0:0:0:
192,192,197001,1,2,0:0:0:0:
320,192,197001,1,4,0:0:0:0:
448,192,197001,1,0,0:0:0:0:
64,192,197154,1,0,0:0:0:0:
192,192,197231,1,0,0:0:0:0:
320,192,197308,1,0,0:0:0:0:
320,192,197462,1,0,0:0:0:0:
64,192,197616,1,0,0:0:0:70:LR4_SnareBPDT.wav
192,192,197616,1,0,0:0:0:0:
448,192,197616,1,0,0:0:0:0:
64,192,197770,1,0,0:0:0:70:LR4_SnareBPDT.wav
192,192,197770,1,0,0:0:0:0:
448,192,197770,1,0,0:0:0:0:
64,192,197924,1,0,0:0:0:70:LR4_SnareBPDT.wav
320,192,197924,1,0,0:0:0:0:
448,192,197924,1,0,0:0:0:0:
64,192,198078,1,0,0:0:0:70:LR4_SnareBPDT.wav
320,192,198078,1,0,0:0:0:0:
448,192,198078,1,0,0:0:0:0:
192,192,198231,1,2,0:0:0:0:
320,192,198231,1,0,0:0:0:0:
64,192,198385,1,2,0:0:0:0:
192,192,198385,1,0,0:0:0:0:
64,192,198539,128,4,198847:0:0:0:0:
320,192,198539,1,8,0:0:0:0:
448,192,198539,128,0,198847:0:0:0:0:
192,192,198847,1,2,0:0:0:0:
320,192,198847,1,0,0:0:0:0:
64,192,199001,1,0,0:0:0:0:
192,192,199001,1,0,0:0:0:0:
64,192,199154,1,8,0:0:0:0:
320,192,199154,1,0,0:0:0:0:
448,192,199154,1,0,0:0:0:0:
192,192,199308,1,0,0:0:0:0:
320,192,199308,1,0,0:0:0:0:
64,192,199462,1,2,0:0:0:0:
448,192,199462,1,0,0:0:0:0:
320,192,199539,1,0,0:0:0:0:
192,192,199616,1,0,0:0:0:0:
64,192,199693,1,0,0:0:0:0:
192,192,199770,1,8,0:0:0:0:
320,192,199770,1,0,0:0:0:0:
448,192,199770,128,0,200078:0:0:0:0:
64,192,200078,1,2,0:0:0:0:
320,192,200078,1,0,0:0:0:0:
192,192,200231,1,0,0:0:0:0:
448,192,200231,1,0,0:0:0:0:
64,192,200385,1,8,0:0:0:0:
192,192,200385,1,0,0:0:0:0:
320,192,200385,1,0,0:0:0:0:
448,192,200539,1,0,0:0:0:0:
64,192,200693,1,2,0:0:0:0:
320,192,200693,128,0,200847:0:0:0:0:
192,192,200847,128,0,201001:0:0:0:0:
64,192,201001,128,8,201308:0:0:0:0:
320,192,201001,128,0,201308:0:0:0:0:
448,192,201001,1,0,0:0:0:0:
192,192,201308,1,2,0:0:0:0:
448,192,201308,1,0,0:0:0:0:
64,192,201462,1,0,0:0:0:0:
192,192,201462,1,0,0:0:0:0:
64,192,201616,1,8,0:0:0:0:
320,192,201616,1,0,0:0:0:0:
448,192,201616,1,0,0:0:0:0:
192,192,201770,1,0,0:0:0:0:
320,192,201770,1,0,0:0:0:0:
64,192,201924,1,2,0:0:0:0:
448,192,201924,1,0,0:0:0:0:
192,192,202001,1,0,0:0:0:0:
320,192,202078,1,0,0:0:0:0:
448,192,202154,1,0,0:0:0:0:
64,192,202231,128,8,202539:0:0:0:0:
192,192,202231,1,0,0:0:0:0:
320,192,202231,1,0,0:0:0:0:
192,192,202539,1,2,0:0:0:0:
448,192,202539,1,0,0:0:0:0:
320,192,202693,1,0,0:0:0:0:
448,192,202693,1,0,0:0:0:0:
64,192,202847,1,0,0:0:0:70:LR4_SnareBPDT.wav
192,192,202847,1,0,0:0:0:0:
320,192,202847,1,0,0:0:0:0:
448,192,203154,128,0,203462:0:0:0:0:
64,192,203462,1,8,0:0:0:0:
192,192,203462,1,4,0:0:0:0:
320,192,203462,1,0,0:0:0:0:
64,192,203616,1,0,0:0:0:0:
448,192,203616,1,0,0:0:0:0:
192,192,203770,1,2,0:0:0:0:
448,192,203770,1,0,0:0:0:0:
64,192,203924,1,0,0:0:0:0:
320,192,203924,1,0,0:0:0:0:
64,192,204078,1,8,0:0:0:0:
192,192,204078,1,0,0:0:0:0:
448,192,204078,1,0,0:0:0:0:
320,192,204231,1,0,0:0:0:0:
448,192,204231,1,0,0:0:0:0:
64,192,204385,128,2,204539:0:0:0:0:
320,192,204385,1,0,0:0:0:0:
192,192,204539,1,0,0:0:0:0:
64,192,204693,1,8,0:0:0:0:
320,192,204693,1,0,0:0:0:0:
448,192,204693,1,0,0:0:0:0:
64,192,204847,1,0,0:0:0:0:
192,192,204847,1,0,0:0:0:0:
192,192,205001,1,2,0:0:0:0:
320,192,205001,128,0,205154:0:0:0:0:
448,192,205154,1,0,0:0:0:0:
64,192,205308,1,8,0:0:0:0:
192,192,205308,128,0,205462:0:0:0:0:
448,192,205308,1,0,0:0:0:0:
320,192,205462,1,0,0:0:0:0:
64,192,205616,1,2,0:0:0:0:
448,192,205616,128,0,205770:0:0:0:0:
192,192,205770,1,0,0:0:0:0:
320,192,205770,1,0,0:0:0:0:
64,192,205924,1,8,0:0:0:0:
192,192,205924,1,0,0:0:0:0:
448,192,205924,1,0,0:0:0:0:
320,192,206078,1,0,0:0:0:0:
448,192,206078,1,0,0:0:0:0:
64,192,206231,1,2,0:0:0:0:
320,192,206231,128,0,206385:0:0:0:0:
64,192,206385,1,0,0:0:0:0:
192,192,206385,1,0,0:0:0:0:
192,192,206539,1,8,0:0:0:0:
320,192,206539,1,0,0:0:0:0:
448,192,206539,1,0,0:0:0:0:
64,192,206693,1,0,0:0:0:0:
448,192,206693,1,0,0:0:0:0:
64,192,206847,1,4,0:0:0:0:
192,192,206847,1,2,0:0:0:0:
320,192,206847,1,0,0:0:0:0:
448,192,207001,1,0,0:0:0:0:
320,192,207078,1,0,0:0:0:0:
192,192,207154,1,0,0:0:0:0:
192,192,207308,1,0,0:0:0:0:
64,192,207462,1,0,0:0:0:70:LR4_SnareBPDT.wav
320,192,207462,1,0,0:0:0:0:
448,192,207462,1,0,0:0:0:0:
64,192,207616,1,0,0:0:0:70:LR4_SnareBPDT.wav
320,192,207616,1,0,0:0:0:0:
448,192,207616,1,0,0:0:0:0:
64,192,207770,1,0,0:0:0:70:LR4_SnareBPDT.wav
192,192,207770,1,0,0:0:0:0:
448,192,207770,1,0,0:0:0:0:
64,192,207924,1,0,0:0:0:70:LR4_SnareBPDT.wav
192,192,207924,1,0,0:0:0:0:
448,192,207924,1,0,0:0:0:0:
192,192,208078,1,2,0:0:0:0:
320,192,208078,128,0,208231:0:0:0:0:
448,192,208231,128,0,208385:0:0:0:0:
64,192,208385,128,8,208693:0:0:0:0:
192,192,208385,128,4,208693:0:0:0:0:
320,192,208385,1,0,0:0:0:0:
320,192,208693,1,2,0:0:0:0:
448,192,208693,1,0,0:0:0:0:
64,192,208847,1,0,0:0:0:0:
448,192,208847,1,0,0:0:0:0:
64,192,209001,1,8,0:0:0:0:
192,192,209001,1,0,0:0:0:0:
320,192,209001,1,0,0:0:0:0:
320,192,209154,1,0,0:0:0:0:
448,192,209154,1,0,0:0:0:0:
64,192,209308,1,2,0:0:0:0:
448,192,209308,1,0,0:0:0:0:
192,192,209385,1,0,0:0:0:0:
320,192,209462,1,0,0:0:0:0:
192,192,209539,1,0,0:0:0:0:
64,192,209616,1,8,0:0:0:0:
320,192,209616,1,0,0:0:0:0:
448,192,209616,128,0,209924:0:0:0:0:
64,192,209924,1,2,0:0:0:0:
192,192,209924,1,0,0:0:0:0:
320,192,210078,1,0,0:0:0:0:
448,192,210078,1,0,0:0:0:0:
64,192,210231,1,8,0:0:0:0:
192,192,210231,1,0,0:0:0:0:
448,192,210231,1,0,0:0:0:0:
320,192,210385,1,0,0:0:0:0:
192,192,210539,128,2,210693:0:0:0:0:
448,192,210539,1,0,0:0:0:0:
320,192,210693,128,0,210847:0:0:0:0:
64,192,210847,1,8,0:0:0:0:
192,192,210847,128,0,211154:0:0:0:0:
448,192,210847,128,0,211154:0:0:0:0:
64,192,211154,1,2,0:0:0:0:
320,192,211154,1,0,0:0:0:0:
320,192,211308,1,0,0:0:0:0:
448,192,211308,1,0,0:0:0:0:
64,192,211462,1,8,0:0:0:0:
192,192,211462,1,0,0:0:0:0:
448,192,211462,1,0,0:0:0:0:
192,192,211616,1,0,0:0:0:0:
320,192,211616,1,0,0:0:0:0:
64,192,211770,1,2,0:0:0:0:
448,192,211770,1,0,0:0:0:0:
320,192,211847,1,0,0:0:0:0:
192,192,211924,1,0,0:0:0:0:
320,192,212001,1,0,0:0:0:0:
64,192,212078,128,8,212385:0:0:0:0:
192,192,212078,1,0,0:0:0:0:
448,192,212078,1,0,0:0:0:0:
320,192,212385,1,2,0:0:0:0:
448,192,212385,1,0,0:0:0:0:
64,192,212539,1,0,0:0:0:0:
192,192,212539,1,0,0:0:0:0:
192,192,212693,1,0,0:0:0:70:LR4_SnareBPDT.wav
320,192,212693,1,0,0:0:0:0:
448,192,212693,1,0,0:0:0:0:
64,192,213308,128,8,213924:0:0:0:0:
192,192,213308,128,4,213539:0:0:0:0:
448,192,213308,128,0,213539:0:0:0:0:
192,192,213616,128,0,213924:0:0:0:0:
448,192,213616,128,0,213924:0:0:0:0:
320,192,214078,128,0,214231:0:0:0:0:
448,192,214078,128,0,214231:0:0:0:0:
64,192,214231,1,0,0:0:0:0:
192,192,214231,1,0,0:0:0:0:
320,192,214385,1,0,0:0:0:0:
448,192,214385,1,0,0:0:0:0:
64,192,214539,128,0,214770:0:0:0:50:S4.wav
192,192,214539,128,0,214770:0:0:0:0:
448,192,214539,128,0,215154:0:0:0:0:
64,192,214847,128,0,215154:0:0:0:0:
192,192,214847,128,0,215154:0:0:0:0:
320,192,215154,128,0,215462:0:0:0:50:S4.wav
192,192,215308,128,0,215462:0:0:0:50:S4.wav
64,192,215462,1,2,0:0:0:0:
448,192,215462,1,4,0:0:0:0:
64,192,215616,1,2,0:0:0:0:
448,192,215616,1,0,0:0:0:0:
192,192,215770,1,8,0:0:0:0:
320,192,215770,1,4,0:0:0:0:
192,192,215924,1,2,0:0:0:0:
320,192,215924,1,0,0:0:0:0:
320,192,216078,1,2,0:0:0:0:
448,192,216078,1,4,0:0:0:0:
192,192,216154,1,2,0:0:0:0:
64,192,216231,1,2,0:0:0:0:
448,192,216231,1,0,0:0:0:0:
320,192,216308,1,2,0:0:0:0:
64,192,216385,1,8,0:0:0:0:
192,192,216385,1,0,0:0:0:0:
448,192,216462,1,2,0:0:0:0:
192,192,216539,1,2,0:0:0:0:
320,192,216539,1,0,0:0:0:0:
64,192,216616,1,2,0:0:0:0:
192,192,216693,1,4,0:0:0:0:
320,192,216693,1,2,0:0:0:0:
448,192,216693,128,0,216847:0:0:0:0:
64,192,216847,128,0,217001:0:0:0:0:
192,192,217001,128,0,217154:0:0:0:0:
320,192,217154,128,0,217308:0:0:0:0:
64,192,217308,1,0,0:0:0:70:LR4_SnareBPDT.wav
192,192,217308,1,0,0:0:0:0:
448,192,217308,1,0,0:0:0:0:
64,192,217462,1,0,0:0:0:70:LR4_SnareBPDT.wav
192,192,217462,1,0,0:0:0:0:
448,192,217462,1,0,0:0:0:0:
64,192,217616,1,0,0:0:0:70:LR4_SnareBPDT.wav
320,192,217616,1,0,0:0:0:0:
448,192,217616,1,0,0:0:0:0:
64,192,217770,1,0,0:0:0:70:LR4_SnareBPDT.wav
320,192,217770,1,0,0:0:0:0:
448,192,217770,1,0,0:0:0:0:
192,192,217924,1,2,0:0:0:0:
320,192,217924,1,4,0:0:0:0:
64,192,218231,128,0,218539:0:0:0:0:
192,192,218539,1,4,0:0:0:0:
320,192,218539,1,2,0:0:0:0:
448,192,218539,1,0,0:0:0:0:
320,192,218693,1,0,0:0:0:0:
64,192,218847,1,8,0:0:0:0:
192,192,218847,1,0,0:0:0:0:
448,192,218847,1,0,0:0:0:0:
192,192,219001,1,0,0:0:0:0:
64,192,219154,1,2,0:0:0:0:
320,192,219154,1,0,0:0:0:0:
320,192,219308,1,0,0:0:0:0:
64,192,219462,1,8,0:0:0:0:
192,192,219462,1,0,0:0:0:0:
448,192,219462,1,0,0:0:0:0:
320,192,219539,1,0,0:0:0:0:
192,192,219616,1,0,0:0:0:0:
64,192,219770,1,2,0:0:0:0:
320,192,219770,1,0,0:0:0:0:
64,192,219924,1,0,0:0:0:0:
192,192,220078,1,8,0:0:0:0:
320,192,220078,1,0,0:0:0:0:
448,192,220078,1,0,0:0:0:0:
320,192,220231,1,0,0:0:0:0:
64,192,220385,1,2,0:0:0:0:
448,192,220385,128,0,220539:0:0:0:0:
320,192,220539,128,0,220693:0:0:0:0:
64,192,220693,1,8,0:0:0:0:
192,192,220693,1,0,0:0:0:0:
448,192,220693,1,0,0:0:0:0:
192,192,220847,1,0,0:0:0:0:
64,192,221001,1,2,0:0:0:0:
448,192,221001,1,0,0:0:0:0:
448,192,221154,1,0,0:0:0:0:
64,192,221308,1,8,0:0:0:0:
192,192,221308,1,0,0:0:0:0:
320,192,221308,1,0,0:0:0:0:
192,192,221462,1,0,0:0:0:0:
64,192,221616,1,2,0:0:0:0:
320,192,221616,128,0,221924:0:0:0:0:
448,192,221616,128,0,221924:0:0:0:0:
64,192,221924,1,0,0:0:0:0:
192,192,221924,1,0,0:0:0:0:
64,192,222078,128,0,222231:0:0:0:0:
192,192,222231,1,2,0:0:0:0:
448,192,222231,1,0,0:0:0:0:
320,192,222385,1,0,0:0:0:0:
64,192,222539,1,0,0:0:0:70:LR4_SnareBPDT.wav
192,192,222539,1,0,0:0:0:0:
448,192,222539,1,0,0:0:0:0:
320,192,222847,1,2,0:0:0:0:
448,192,222847,1,8,0:0:0:0:
320,192,223001,1,2,0:0:0:0:
448,192,223001,1,0,0:0:0:0:
64,192,223154,1,4,0:0:0:0:
192,192,223154,1,8,0:0:0:0:
448,192,223154,1,2,0:0:0:0:
64,192,223308,128,0,223385:0:0:0:0:
320,192,223308,1,0,0:0:0:0:
192,192,223462,1,2,0:0:0:0:
320,192,223462,1,0,0:0:0:0:
448,192,223462,1,0,0:0:0:0:
64,192,223616,1,0,0:0:0:0:
448,192,223616,128,0,223693:0:0:0:0:
64,192,223770,1,8,0:0:0:0:
192,192,223770,1,2,0:0:0:0:
320,192,223770,1,0,0:0:0:0:
192,192,223924,128,0,224001:0:0:0:0:
448,192,223924,1,0,0:0:0:0:
64,192,224078,1,2,0:0:0:0:
320,192,224078,1,0,0:0:0:0:
448,192,224078,1,0,0:0:0:0:
192,192,224231,1,0,0:0:0:0:
320,192,224231,128,0,224308:0:0:0:0:
64,192,224385,1,8,0:0:0:0:
192,192,224385,1,2,0:0:0:0:
448,192,224385,1,0,0:0:0:0:
64,192,224539,128,0,224616:0:0:0:0:
320,192,224539,1,0,0:0:0:0:
192,192,224693,1,2,0:0:0:0:
320,192,224693,1,0,0:0:0:0:
448,192,224693,1,0,0:0:0:0:
64,192,224847,1,0,0:0:0:0:
448,192,224847,128,0,224924:0:0:0:0:
64,192,225001,1,8,0:0:0:0:
192,192,225001,1,2,0:0:0:0:
320,192,225001,1,0,0:0:0:0:
192,192,225154,128,0,225231:0:0:0:0:
448,192,225154,1,0,0:0:0:0:
64,192,225308,128,2,225616:0:0:0:0:
320,192,225308,1,0,0:0:0:0:
448,192,225308,1,0,0:0:0:0:
320,192,225462,1,0,0:0:0:0:
192,192,225616,1,8,0:0:0:0:
320,192,225616,1,2,0:0:0:0:
448,192,225616,1,0,0:0:0:0:
64,192,225770,128,0,225847:0:0:0:0:
448,192,225770,1,0,0:0:0:0:
192,192,225924,1,2,0:0:0:0:
320,192,225924,1,0,0:0:0:0:
448,192,225924,1,0,0:0:0:0:
64,192,226078,1,0,0:0:0:0:
320,192,226078,128,0,226154:0:0:0:0:
64,192,226231,1,8,0:0:0:0:
192,192,226231,1,2,0:0:0:0:
448,192,226231,1,0,0:0:0:0:
192,192,226385,128,0,226462:0:0:0:0:
320,192,226385,1,0,0:0:0:0:
64,192,226539,1,2,0:0:0:0:
320,192,226539,1,4,0:0:0:0:
448,192,226539,1,0,0:0:0:0:
64,192,226693,1,0,0:0:0:70:LR4_SnareBPDT.wav
192,192,226693,1,0,0:0:0:0:
192,192,226847,1,0,0:0:0:70:LR4_SnareBPDT.wav
448,192,226847,1,0,0:0:0:0:
320,192,227001,1,2,0:0:0:0:
448,192,227001,1,0,0:0:0:0:
64,192,227154,128,0,227462:0:0:0:0:
192,192,227462,1,0,0:0:0:70:LR4_SnareBPDT.wav
320,192,227462,1,0,0:0:0:0:
448,192,227462,1,0,0:0:0:0:
64,192,227616,1,0,0:0:0:70:LR4_SnareBPDT.wav
320,192,227616,1,0,0:0:0:0:
448,192,227616,1,0,0:0:0:0:
64,192,227770,1,2,0:0:0:0:
192,192,227770,1,0,0:0:0:0:
320,192,227962,128,0,228039:0:0:0:0:
192,192,228154,128,0,228231:0:0:0:0:
64,192,228385,1,4,0:0:0:0:
192,192,228385,1,2,0:0:0:0:
448,192,228385,1,0,0:0:0:0:
320,192,228539,1,0,0:0:0:0:
192,192,228616,1,0,0:0:0:0:
64,192,228693,1,8,0:0:0:0:
320,192,228693,1,0,0:0:0:0:
448,192,228693,1,0,0:0:0:0:
192,192,228770,1,0,0:0:0:0:
320,192,228847,1,0,0:0:0:0:
64,192,228924,1,0,0:0:0:0:
320,192,229001,1,2,0:0:0:0:
448,192,229001,1,0,0:0:0:0:
192,192,229154,1,0,0:0:0:0:
448,192,229154,1,0,0:0:0:0:
64,192,229308,1,8,0:0:0:0:
192,192,229308,1,0,0:0:0:0:
320,192,229308,1,0,0:0:0:0:
64,192,229462,1,0,0:0:0:0:
448,192,229462,1,0,0:0:0:0:
192,192,229616,1,2,0:0:0:0:
448,192,229616,1,0,0:0:0:0:
64,192,229770,1,0,0:0:0:0:
192,192,229770,1,0,0:0:0:0:
64,192,229924,1,8,0:0:0:0:
320,192,229924,1,0,0:0:0:0:
448,192,229924,1,0,0:0:0:0:
192,192,230078,1,0,0:0:0:0:
448,192,230078,1,0,0:0:0:0:
192,192,230231,1,2,0:0:0:0:
320,192,230231,1,0,0:0:0:0:
64,192,230385,1,0,0:0:0:0:
320,192,230385,1,0,0:0:0:0:
64,192,230539,1,8,0:0:0:0:
192,192,230539,1,0,0:0:0:0:
448,192,230539,1,0,0:0:0:0:
320,192,230693,1,0,0:0:0:0:
448,192,230693,1,0,0:0:0:0:
64,192,230847,1,2,0:0:0:0:
192,192,230847,1,0,0:0:0:0:
320,192,231001,1,0,0:0:0:0:
192,192,231078,1,0,0:0:0:0:
64,192,231154,1,8,0:0:0:0:
320,192,231154,1,0,0:0:0:0:
448,192,231154,1,0,0:0:0:0:
192,192,231231,1,0,0:0:0:0:
320,192,231308,1,0,0:0:0:0:
448,192,231385,1,0,0:0:0:0:
64,192,231462,128,2,231770:0:0:0:0:
192,192,231462,128,0,231770:0:0:0:0:
320,192,231770,1,8,0:0:0:0:
448,192,231770,1,0,0:0:0:0:
64,192,231924,128,0,232078:0:0:0:0:
192,192,231924,1,0,0:0:0:0:
320,192,232078,1,2,0:0:0:0:
448,192,232078,128,0,232231:0:0:0:0:
192,192,232231,1,0,0:0:0:0:
64,192,232385,1,0,0:0:0:70:LR4_SnareBPDT.wav
320,192,232385,1,0,0:0:0:0:
448,192,232385,1,0,0:0:0:0:
64,192,232693,1,2,0:0:0:0:
192,192,232693,1,8,0:0:0:0:
448,192,232693,1,0,0:0:0:0:
320,192,232924,1,2,0:0:0:0:
448,192,232924,1,0,0:0:0:0:
64,192,233001,1,8,0:0:0:0:
192,192,233001,1,0,0:0:0:0:
64,192,233154,1,4,0:0:0:0:
448,192,233154,1,2,0:0:0:0:
320,192,233231,1,0,0:0:0:0:
192,192,233308,1,0,0:0:0:0:
64,192,233385,1,2,0:0:0:0:
448,192,233385,1,0,0:0:0:0:
320,192,233462,1,0,0:0:0:0:
64,192,233616,1,0,0:0:0:70:LR4_SnareBPDT.wav
192,192,233616,1,0,0:0:0:0:
448,192,233616,1,0,0:0:0:0:
192,192,233770,1,0,0:0:0:0:
320,192,233924,1,2,0:0:0:0:
448,192,233924,1,0,0:0:0:0:
192,192,234078,1,8,0:0:0:0:
320,192,234154,1,2,0:0:0:0:
64,192,234231,1,8,0:0:0:0:
448,192,234231,1,0,0:0:0:0:
192,192,234308,1,2,0:0:0:0:
64,192,234385,1,2,0:0:0:0:
320,192,234385,1,0,0:0:0:0:
448,192,234539,1,0,0:0:0:0:
64,192,234616,1,2,0:0:0:0:
320,192,234616,1,0,0:0:0:0:
192,192,234693,1,0,0:0:0:0:
64,192,234847,1,0,0:0:0:70:LR4_SnareBPDT.wav
320,192,234847,1,0,0:0:0:0:
448,192,234847,1,0,0:0:0:0:
320,192,235001,1,0,0:0:0:0:
64,192,235154,128,2,235385:0:0:0:0:
192,192,235154,128,8,235385:0:0:0:0:
448,192,235154,1,0,0:0:0:0:
320,192,235385,1,2,0:0:0:0:
448,192,235385,1,0,0:0:0:0:
64,192,235462,1,8,0:0:0:0:
192,192,235462,1,0,0:0:0:0:
320,192,235616,128,10,235770:0:0:0:0:
448,192,235616,128,4,235770:0:0:0:0:
192,192,235847,128,2,236001:0:0:0:0:
320,192,235847,128,8,236001:0:0:0:0:
64,192,236078,1,0,0:0:0:70:LR4_SnareBPDT.wav
192,192,236078,1,0,0:0:0:0:
448,192,236078,1,0,0:0:0:0:
192,192,236231,1,0,0:0:0:0:
64,192,236385,1,2,0:0:0:0:
320,192,236385,128,4,236539:0:0:0:0:
448,192,236385,1,0,0:0:0:0:
64,192,236539,128,0,236693:0:0:0:0:
448,192,236693,128,0,236847:0:0:0:0:
192,192,236847,128,0,237001:0:0:0:0:
320,192,237001,1,0,0:0:0:70:LR4_SnareBPDT.wav
448,192,237001,1,0,0:0:0:0:
320,192,237154,1,0,0:0:0:70:LR4_SnareBPDT.wav
448,192,237154,1,0,0:0:0:0:
64,192,237308,1,0,0:0:0:70:LR4_SnareBPDT.wav
192,192,237308,1,0,0:0:0:0:
64,192,237462,1,0,0:0:0:70:LR4_SnareBPDT.wav
192,192,237462,1,0,0:0:0:0:
64,192,237616,1,2,0:0:0:0:
320,192,237616,1,4,0:0:0:0:
448,192,237616,1,0,0:0:0:0:
320,192,237770,1,0,0:0:0:0:
64,192,237924,1,2,0:0:0:0:
192,192,237924,1,0,0:0:0:0:
448,192,237924,1,0,0:0:0:0:
192,192,238078,1,0,0:0:0:0:
64,192,238231,1,2,0:0:0:0:
320,192,238231,1,0,0:0:0:0:
448,192,238231,1,0,0:0:0:0:
320,192,238385,1,0,0:0:0:0:
64,192,238539,1,2,0:0:0:0:
192,192,238539,1,0,0:0:0:0:
448,192,238539,1,0,0:0:0:0:
192,192,238693,1,0,0:0:0:0:
64,192,238847,1,2,0:0:0:0:
320,192,238847,1,0,0:0:0:0:
448,192,238847,1,0,0:0:0:0:
448,192,239001,1,0,0:0:0:0:
64,192,239154,1,2,0:0:0:0:
192,192,239154,1,0,0:0:0:0:
320,192,239154,1,0,0:0:0:0:
320,192,239308,1,0,0:0:0:0:
64,192,239462,1,2,0:0:0:0:
448,192,239462,1,0,0:0:0:0:
192,192,239539,1,0,0:0:0:0:
320,192,239616,1,0,0:0:0:0:
64,192,239770,1,2,0:0:0:0:
192,192,239770,1,0,0:0:0:0:
64,192,239924,1,0,0:0:0:0:
64,192,240078,1,2,0:0:0:0:
448,192,240078,1,0,0:0:0:0:
320,192,240154,1,0,0:0:0:0:
192,192,240231,1,0,0:0:0:0:
320,192,240385,1,2,0:0:0:0:
448,192,240385,1,0,0:0:0:0:
64,192,240462,1,0,0:0:0:0:
192,192,240539,1,0,0:0:0:0:
320,192,240616,1,0,0:0:0:0:
64,192,240693,128,2,240847:0:0:0:0:
448,192,240693,1,0,0:0:0:0:
320,192,240847,1,0,0:0:0:0:
64,192,241001,128,2,241154:0:0:0:0:
448,192,241001,1,0,0:0:0:0:
320,192,241154,1,0,0:0:0:0:
64,192,241308,128,2,241462:0:0:0:0:
192,192,241308,1,0,0:0:0:0:
448,192,241462,1,0,0:0:0:0:
320,192,241539,1,0,0:0:0:0:
64,192,241616,1,2,0:0:0:0:
192,192,241616,1,0,0:0:0:0:
448,192,241693,1,0,0:0:0:0:
320,192,241770,1,0,0:0:0:0:
192,192,241847,1,0,0:0:0:0:
64,192,241924,1,2,0:0:0:0:
448,192,241924,128,0,242078:0:0:0:0:
192,192,242078,1,0,0:0:0:0:
64,192,242231,1,2,0:0:0:0:
448,192,242231,128,0,242385:0:0:0:0:
192,192,242385,1,0,0:0:0:0:
64,192,242539,1,2,0:0:0:0:
320,192,242539,1,4,0:0:0:0:
448,192,242539,1,0,0:0:0:0:
320,192,242693,1,0,0:0:0:0:
64,192,242847,1,2,0:0:0:0:
192,192,242847,1,0,0:0:0:0:
448,192,242847,1,0,0:0:0:0:
192,192,243001,1,0,0:0:0:0:
64,192,243154,1,2,0:0:0:0:
320,192,243154,1,0,0:0:0:0:
448,192,243154,1,0,0:0:0:0:
320,192,243308,1,0,0:0:0:0:
64,192,243462,1,2,0:0:0:0:
192,192,243462,1,0,0:0:0:0:
448,192,243462,1,0,0:0:0:0:
192,192,243616,1,0,0:0:0:0:
64,192,243770,1,2,0:0:0:0:
320,192,243770,1,0,0:0:0:0:
448,192,243770,1,0,0:0:0:0:
448,192,243924,1,0,0:0:0:0:
64,192,244078,1,2,0:0:0:0:
192,192,244078,1,0,0:0:0:0:
320,192,244078,1,0,0:0:0:0:
320,192,244231,1,0,0:0:0:0:
64,192,244385,1,2,0:0:0:0:
448,192,244385,1,0,0:0:0:0:
192,192,244462,1,0,0:0:0:0:
320,192,244539,1,0,0:0:0:0:
64,192,244693,1,2,0:0:0:0:
192,192,244693,1,0,0:0:0:0:
64,192,244847,1,0,0:0:0:0:
64,192,245001,1,2,0:0:0:0:
448,192,245001,1,0,0:0:0:0:
320,192,245078,1,0,0:0:0:0:
192,192,245154,1,0,0:0:0:0:
64,192,245308,1,2,0:0:0:0:
448,192,245308,1,0,0:0:0:0:
192,192,245385,1,0,0:0:0:0:
320,192,245462,1,0,0:0:0:0:
192,192,245539,1,0,0:0:0:0:
64,192,245616,1,2,0:0:0:0:
448,192,245616,128,0,245770:0:0:0:0:
320,192,245770,1,0,0:0:0:0:
64,192,245924,1,2,0:0:0:0:
448,192,245924,128,0,246078:0:0:0:0:
320,192,246078,1,0,0:0:0:0:
64,192,246231,1,2,0:0:0:0:
192,192,246231,1,4,0:0:0:0:
448,192,246231,1,0,0:0:0:0:
320,192,246385,1,2,0:0:0:0:
448,192,246385,1,0,0:0:0:0:
64,192,246462,1,2,0:0:0:0:
192,192,246462,1,0,0:0:0:0:
320,192,246539,1,2,0:0:0:0:
448,192,246539,1,0,0:0:0:0:
192,192,246693,1,2,0:0:0:0:
320,192,246693,1,0,0:0:0:0:
64,192,246847,1,2,0:0:0:0:
192,192,246847,1,0,0:0:0:0:
64,192,247001,1,2,0:0:0:0:
192,192,247001,1,0,0:0:0:0:
320,192,247154,1,2,0:0:0:0:
448,192,247154,1,0,0:0:0:0:
320,192,247308,1,2,0:0:0:0:
448,192,247308,1,0,0:0:0:0:
64,192,247462,1,2,0:0:0:0:
192,192,247462,1,4,0:0:0:0:
448,192,247462,1,0,0:0:0:0:
192,192,247616,1,0,0:0:0:0:
64,192,247770,1,2,0:0:0:0:
320,192,247770,1,0,0:0:0:0:
448,192,247770,1,0,0:0:0:0:
320,192,247924,1,0,0:0:0:0:
64,192,248078,1,2,0:0:0:0:
192,192,248078,1,0,0:0:0:0:
448,192,248078,1,0,0:0:0:0:
192,192,248231,1,0,0:0:0:0:
64,192,248385,1,2,0:0:0:0:
320,192,248385,1,0,0:0:0:0:
448,192,248385,1,0,0:0:0:0:
320,192,248539,1,0,0:0:0:0:
64,192,248693,1,2,0:0:0:0:
192,192,248693,1,0,0:0:0:0:
448,192,248693,1,0,0:0:0:0:
64,192,248847,1,0,0:0:0:0:
192,192,249001,1,2,0:0:0:0:
320,192,249001,1,0,0:0:0:0:
448,192,249001,1,0,0:0:0:0:
320,192,249154,1,0,0:0:0:0:
64,192,249308,128,2,249539:0:0:0:0:
192,192,249308,1,0,0:0:0:0:
448,192,249462,1,0,0:0:0:0:
64,192,249616,128,2,249847:0:0:0:0:
192,192,249616,1,0,0:0:0:0:
448,192,249770,1,0,0:0:0:0:
64,192,249924,128,2,250154:0:0:0:0:
192,192,249924,1,0,0:0:0:0:
64,192,250231,128,2,250462:0:0:0:0:
192,192,250231,1,0,0:0:0:0:
320,192,250385,1,0,0:0:0:0:
64,192,250539,128,2,250770:0:0:0:0:
192,192,250539,1,0,0:0:0:0:
64,192,250847,128,2,251078:0:0:0:0:
192,192,250847,1,0,0:0:0:0:
320,192,251154,1,2,0:0:0:0:
448,192,251154,128,0,251385:0:0:0:0:
320,192,251462,1,2,0:0:0:0:
448,192,251462,128,0,251693:0:0:0:0:
320,192,251770,1,2,0:0:0:0:
448,192,251770,128,0,252001:0:0:0:0:
64,192,251924,1,0,0:0:0:0:
320,192,252078,1,2,0:0:0:0:
448,192,252078,128,0,252308:0:0:0:0:
192,192,252231,1,0,0:0:0:0:
64,192,252385,1,2,0:0:0:0:
320,192,252385,1,4,0:0:0:0:
448,192,252385,1,0,0:0:0:0:
320,192,252539,1,0,0:0:0:0:
64,192,252693,1,2,0:0:0:0:
192,192,252693,1,0,0:0:0:0:
448,192,252693,1,0,0:0:0:0:
192,192,252847,1,0,0:0:0:0:
64,192,253001,1,2,0:0:0:0:
320,192,253001,1,0,0:0:0:0:
448,192,253001,1,0,0:0:0:0:
320,192,253154,1,0,0:0:0:0:
64,192,253308,1,2,0:0:0:0:
192,192,253308,1,0,0:0:0:0:
448,192,253308,1,0,0:0:0:0:
192,192,253462,1,0,0:0:0:0:
64,192,253616,1,2,0:0:0:0:
320,192,253616,1,0,0:0:0:0:
448,192,253616,1,0,0:0:0:0:
448,192,253770,1,0,0:0:0:0:
64,192,253924,1,2,0:0:0:0:
192,192,253924,1,0,0:0:0:0:
320,192,253924,1,0,0:0:0:0:
320,192,254078,1,0,0:0:0:0:
64,192,254231,1,2,0:0:0:0:
192,192,254231,128,0,254462:0:0:0:0:
448,192,254385,1,0,0:0:0:0:
64,192,254539,1,2,0:0:0:0:
192,192,254539,128,0,254770:0:0:0:0:
448,192,254693,1,0,0:0:0:0:
64,192,254847,1,2,0:0:0:0:
192,192,254847,128,0,255078:0:0:0:0:
64,192,255154,1,2,0:0:0:0:
192,192,255154,128,0,255385:0:0:0:0:
320,192,255308,1,0,0:0:0:0:
64,192,255462,1,2,0:0:0:0:
192,192,255462,128,0,255693:0:0:0:0:
64,192,255770,1,2,0:0:0:0:
192,192,255770,128,0,256001:0:0:0:0:
64,192,256078,1,2,0:0:0:0:
320,192,256078,1,4,0:0:0:0:
448,192,256078,1,0,0:0:0:0:
64,192,256231,1,2,0:0:0:0:
192,192,256231,1,0,0:0:0:0:
448,192,256385,1,0,0:0:0:0:
320,192,256462,1,0,0:0:0:0:
448,192,256539,1,0,0:0:0:0:
320,192,256616,1,0,0:0:0:0:
64,192,256693,1,0,0:0:0:0:
192,192,256770,1,0,0:0:0:0:
320,192,256847,1,0,0:0:0:0:
448,192,256847,1,0,0:0:0:0:
64,192,257001,1,0,0:0:0:0:
192,192,257001,1,0,0:0:0:0:
192,192,257154,1,0,0:0:0:0:
448,192,257154,1,0,0:0:0:0:
64,192,257308,1,0,0:0:0:50:LS-HKI Digital Kick 01 F#.wav
320,192,257308,1,0,0:0:0:0:
448,192,257308,1,0,0:0:0:0:
