osu file format v14

[General]
AudioFilename: audio.mp3
AudioLeadIn: 0
PreviewTime: 177924
Countdown: 0
SampleSet: Soft
StackLeniency: 0.7
Mode: 3
LetterboxInBreaks: 0
SpecialStyle: 0
WidescreenStoryboard: 0

[Editor]
Bookmarks: 8693,9924,14847,18539,19770,28078,28385,29616,34539,37001,44385,48078,54231,57924,59154,64385,67770,83462,84078,87462,98539,103462,107154,108385,113308,118231,128078,131770,133001,136693,137924,141616,142847,146539,147770,172385,176078,177924,178078,178231,178385,178539,178693,178847,187770,188693,197001,198231,198539,206847,208385,212693,213308,216693,217924,222847,228385,232693,236385,237616
DistanceSpacing: 1.4
BeatDivisor: 4
GridSize: 4
TimelineZoom: 2.699999

[Metadata]
Title:Drug on the Drop (Zekk Remix)
TitleUnicode:Drug on the Drop (Zekk Remix)
Artist:uet
ArtistUnicode:uet
Creator:Fontes
Version:Collab Another
Source:
Tags:Wonki Murumoo Agayers FAMoss Jakads STONE STATUE OF THE AZTEKS Hardcore Teknology M3-38 Pumpcore
BeatmapID:1515367
BeatmapSetID:717251

[Difficulty]
HPDrainRate:9
CircleSize:4
OverallDifficulty:8.5
ApproachRate:5
SliderMultiplier:1.4
SliderTickRate:1

[Events]
//Background and Video events
0,0,"BG.jpg",0,0
//Break Periods
//Storyboard Layer 0 (Background)
//Storyboard Layer 1 (Fail)
//Storyboard Layer 2 (Pass)
//Storyboard Layer 3 (Foreground)
//Storyboard Sound Samples

[TimingPoints]
78,307.692307692308,4,2,1,60,1,0
8693,-100,4,2,1,60,0,1
9462,-71.4285714285714,4,2,1,60,0,1
9539,-166.666666666667,4,2,1,60,0,1
9616,-71.4285714285714,4,2,1,60,0,1
9693,-166.666666666667,4,2,1,60,0,1
9770,-71.4285714285714,4,2,1,60,0,1
9847,-166.666666666667,4,2,1,60,0,1
9924,-100,4,2,1,60,0,0
18539,-100,4,2,1,60,0,1
19770,-100,4,2,1,60,0,0
29616,-100,4,2,1,60,0,1
34539,-100,4,2,1,60,0,0
37001,-55.5555555555556,4,2,1,60,0,0
37155,-500,4,2,1,60,0,0
37309,-55.5555555555556,4,2,1,60,0,0
37463,-500,4,2,1,60,0,0
37616,-55.5555555555556,4,2,1,60,0,0
37770,-500,4,2,1,60,0,0
37924,-55.5555555555556,4,2,1,60,0,0
38078,-500,4,2,1,60,0,0
38232,-100,4,2,1,60,0,0
38732,-500,4,2,1,60,0,0
38770,-55.5555555555556,4,2,1,60,0,0
38809,-500,4,2,1,60,0,0
38847,-55.5555555555556,4,2,1,60,0,0
38885,-500,4,2,1,60,0,0
38923,-55.5555555555556,4,2,1,60,0,0
38962,-500,4,2,1,60,0,0
39000,-55.5555555555556,4,2,1,60,0,0
39039,-500,4,2,1,60,0,0
39077,-55.5555555555556,4,2,1,60,0,0
39116,-500,4,2,1,60,0,0
39155,-55.5555555555556,4,2,1,60,0,0
39194,-500,4,2,1,60,0,0
39232,-55.5555555555556,4,2,1,60,0,0
39271,-500,4,2,1,60,0,0
39309,-55.5555555555556,4,2,1,60,0,0
39348,-500,4,2,1,60,0,0
39385,-55.5555555555556,4,2,1,60,0,0
39424,-500,4,2,1,60,0,0
39462,-100,4,2,1,60,0,0
44385,-100,4,2,1,60,0,1
48078,-133.333333333333,4,2,1,60,0,0
48385,-80,4,2,1,60,0,0
48462,-133.333333333333,4,2,1,60,0,0
48693,-80,4,2,1,60,0,0
48770,-133.333333333333,4,2,1,60,0,0
48981,-80,4,2,1,60,0,0
49078,-133.333333333333,4,2,1,60,0,0
49309,-117.647058823529,4,2,1,60,0,0
49924,-73.5294117647059,4,2,1,60,0,0
50001,-156.25,4,2,1,60,0,0
50078,-73.5294117647059,4,2,1,60,0,0
50155,-156.25,4,2,1,60,0,0
50232,-73.5294117647059,4,2,1,60,0,0
50309,-156.25,4,2,1,60,0,0
50385,-73.5294117647059,4,2,1,60,0,0
50462,-156.25,4,2,1,60,0,0
50539,-73.5294117647059,4,2,1,60,0,0
50616,-156.25,4,2,1,60,0,0
50693,-73.5294117647059,4,2,1,60,0,0
50770,-156.25,4,2,1,60,0,0
50847,-100,4,2,1,60,0,0
51001,-73.5294117647059,4,2,1,60,0,0
51078,-156.25,4,2,1,60,0,0
51155,-73.5294117647059,4,2,1,60,0,0
51232,-156.25,4,2,1,60,0,0
51309,-73.5294117647059,4,2,1,60,0,0
51386,-156.25,4,2,1,60,0,0
51462,-73.5294117647059,4,2,1,60,0,0
51539,-156.25,4,2,1,60,0,0
51616,-73.5294117647059,4,2,1,60,0,0
51693,-156.25,4,2,1,60,0,0
51770,-73.5294117647059,4,2,1,60,0,0
51847,-156.25,4,2,1,60,0,0
51924,-73.5294117647059,4,2,1,60,0,0
52001,-156.25,4,2,1,60,0,0
52078,-73.5294117647059,4,2,1,60,0,0
52155,-156.25,4,2,1,60,0,0
52232,-73.5294117647059,4,2,1,60,0,0
52309,-156.25,4,2,1,60,0,0
52385,-73.5294117647059,4,2,1,60,0,0
52462,-156.25,4,2,1,60,0,0
52539,-73.5294117647059,4,2,1,60,0,0
52616,-156.25,4,2,1,60,0,0
52693,-73.5294117647059,4,2,1,60,0,0
52770,-156.25,4,2,1,60,0,0
52847,-73.5294117647059,4,2,1,60,0,0
52924,-156.25,4,2,1,60,0,0
53001,-66.6666666666667,4,2,1,60,0,0
53078,-111.111111111111,4,2,1,60,0,0
53309,-73.5294117647059,4,2,1,60,0,0
53386,-156.25,4,2,1,60,0,0
53462,-100,4,2,1,60,0,0
54231,-41.6666666666667,4,2,1,60,0,1
54271,-200,4,2,1,60,0,1
54385,-41.6666666666667,4,2,1,60,0,1
54424,-200,4,2,1,60,0,1
54539,-46.5116279069767,4,2,1,60,0,1
54559,-153.846153846154,4,2,1,60,0,1
54616,-100,4,2,1,60,0,1
54847,-80,4,2,1,60,0,1
54924,-133.333333333333,4,2,1,60,0,1
55001,-100,4,2,1,60,0,1
55155,-46.5116279069767,4,2,1,60,0,1
55175,-153.846153846154,4,2,1,60,0,1
55232,-100,4,2,1,60,0,1
55463,-80,4,2,1,60,0,1
55540,-133.333333333333,4,2,1,60,0,1
55617,-100,4,2,1,60,0,1
55770,-46.5116279069767,4,2,1,60,0,1
55790,-153.846153846154,4,2,1,60,0,1
55847,-100,4,2,1,60,0,1
56078,-80,4,2,1,60,0,1
56155,-133.333333333333,4,2,1,60,0,1
56232,-100,4,2,1,60,0,1
56385,-46.5116279069767,4,2,1,60,0,1
56405,-153.846153846154,4,2,1,60,0,1
56462,-100,4,2,1,60,0,1
56693,-80,4,2,1,60,0,1
56770,-133.333333333333,4,2,1,60,0,1
56847,-100,4,2,1,60,0,1
57001,-46.5116279069767,4,2,1,60,0,1
57021,-153.846153846154,4,2,1,60,0,1
57078,-100,4,2,1,60,0,1
57309,-80,4,2,1,60,0,1
57386,-133.333333333333,4,2,1,60,0,1
57463,-100,4,2,1,60,0,1
57616,-46.5116279069767,4,2,1,60,0,1
57636,-153.846153846154,4,2,1,60,0,1
57693,-100,4,2,1,60,0,1
57924,-100,4,2,1,60,0,0
60385,-73.5294117647059,4,2,1,60,0,0
60462,-156.25,4,2,1,60,0,0
60539,-73.5294117647059,4,2,1,60,0,0
60616,-156.25,4,2,1,60,0,0
60693,-73.5294117647059,4,2,1,60,0,0
60770,-156.25,4,2,1,60,0,0
60847,-73.5294117647059,4,2,1,60,0,0
60924,-156.25,4,2,1,60,0,0
61001,-73.5294117647059,4,2,1,60,0,0
61078,-156.25,4,2,1,60,0,0
61155,-73.5294117647059,4,2,1,60,0,0
61232,-156.25,4,2,1,60,0,0
61309,-73.5294117647059,4,2,1,60,0,0
61386,-156.25,4,2,1,60,0,0
61462,-73.5294117647059,4,2,1,60,0,0
61539,-156.25,4,2,1,60,0,0
61616,-73.5294117647059,4,2,1,60,0,0
61693,-156.25,4,2,1,60,0,0
61770,-73.5294117647059,4,2,1,60,0,0
61847,-156.25,4,2,1,60,0,0
61924,-73.5294117647059,4,2,1,60,0,0
62001,-156.25,4,2,1,60,0,0
62078,-73.5294117647059,4,2,1,60,0,0
62155,-156.25,4,2,1,60,0,0
62232,-100,4,2,1,60,0,0
62847,-66.6666666666667,4,2,1,60,0,0
62924,-111.111111111111,4,2,1,60,0,0
63155,-73.5294117647059,4,2,1,60,0,0
63232,-156.25,4,2,1,60,0,0
63309,-100,4,2,1,60,0,0
64385,-46.5116279069767,4,2,1,60,0,1
64405,-153.846153846154,4,2,1,60,0,1
64462,-100,4,2,1,60,0,1
64693,-80,4,2,1,60,0,1
64770,-133.333333333333,4,2,1,60,0,1
64847,-100,4,2,1,60,0,1
65001,-46.5116279069767,4,2,1,60,0,1
65021,-153.846153846154,4,2,1,60,0,1
65078,-100,4,2,1,60,0,1
65309,-80,4,2,1,60,0,1
65386,-133.333333333333,4,2,1,60,0,1
65463,-100,4,2,1,60,0,1
65616,-46.5116279069767,4,2,1,60,0,1
65636,-153.846153846154,4,2,1,60,0,1
65693,-100,4,2,1,60,0,1
65924,-80,4,2,1,60,0,1
66001,-133.333333333333,4,2,1,60,0,1
66078,-100,4,2,1,60,0,1
66231,-46.5116279069767,4,2,1,60,0,1
66251,-153.846153846154,4,2,1,60,0,1
66308,-100,4,2,1,60,0,1
66539,-80,4,2,1,60,0,1
66616,-133.333333333333,4,2,1,60,0,1
66693,-100,4,2,1,60,0,1
66847,-46.5116279069767,4,2,1,60,0,1
66867,-153.846153846154,4,2,1,60,0,1
66924,-100,4,2,1,60,0,1
67155,-80,4,2,1,60,0,1
67232,-133.333333333333,4,2,1,60,0,1
67309,-100,4,2,1,60,0,1
67462,-46.5116279069767,4,2,1,60,0,1
67482,-153.846153846154,4,2,1,60,0,1
67539,-100,4,2,1,60,0,1
67770,-100,4,2,1,60,0,0
73616,-20,4,2,1,60,0,0
73635,-400,4,2,1,60,0,0
73770,-100,4,2,1,60,0,0
76385,-55.5555555555556,4,2,1,60,0,0
76539,-500,4,2,1,60,0,0
76693,-55.5555555555556,4,2,1,60,0,0
76847,-500,4,2,1,60,0,0
77001,-55.5555555555556,4,2,1,60,0,0
77155,-500,4,2,1,60,0,0
77309,-55.5555555555556,4,2,1,60,0,0
77463,-500,4,2,1,60,0,0
77616,-100,4,2,1,60,0,0
79155,-42.5531914893617,4,2,1,60,0,0
79193,-181.818181818182,4,2,1,60,0,0
79385,-100,4,2,1,60,0,0
81309,-55.5555555555556,4,2,1,60,0,0
81347,-222.222222222222,4,2,1,60,0,0
81462,-100,4,2,1,60,0,0
81616,-42.5531914893617,4,2,1,60,0,0
81654,-181.818181818182,4,2,1,60,0,0
81846,-100,4,2,1,60,0,0
83462,-10000,4,2,1,60,0,0
83770,-80,4,2,1,60,0,0
84078,-100,4,2,1,60,0,1
87462,-1000,4,2,1,60,0,0
87482,-666.666666666667,4,2,1,60,0,0
87501,-500,4,2,1,60,0,0
87520,-400,4,2,1,60,0,0
87539,-333.333333333333,4,2,1,60,0,0
87559,-285.714285714286,4,2,1,60,0,0
87578,-250,4,2,1,60,0,0
87597,-222.222222222222,4,2,1,60,0,0
87616,-200,4,2,1,60,0,0
87635,-181.818181818182,4,2,1,60,0,0
87655,-166.666666666667,4,2,1,60,0,0
87674,-153.846153846154,4,2,1,60,0,0
87693,-142.857142857143,4,2,1,60,0,0
87712,-133.333333333333,4,2,1,60,0,0
87732,-125,4,2,1,60,0,0
87751,-117.647058823529,4,2,1,60,0,0
87770,-111.111111111111,4,2,1,60,0,0
87809,-109.89010989011,4,2,1,60,0,0
87847,-107.52688172043,4,2,1,60,0,0
87885,-105.263157894737,4,2,1,60,0,0
87924,-104.166666666667,4,2,1,60,0,0
87962,-103.092783505155,4,2,1,60,0,0
88001,-102.040816326531,4,2,1,60,0,0
88039,-101.010101010101,4,2,1,60,0,0
88078,-100,4,2,1,60,0,0
88385,-14.2857142857143,4,2,1,60,0,0
88424,-111.111111111111,4,2,1,60,0,0
88693,-100,4,2,1,60,0,0
107154,-10,4,2,1,60,0,0
107366,-200,4,2,1,60,0,0
108078,-100,4,2,1,60,0,0
108385,-100,4,2,1,60,0,1
109155,-33.3333333333333,4,2,1,60,0,1
109232,-222.222222222222,4,2,1,60,0,1
109462,-100,4,2,1,60,0,1
110539,-12.5,4,2,1,60,0,1
110559,-125,4,2,1,60,0,1
110578,-100,4,2,1,60,0,1
113308,-50,4,2,1,60,0,0
113334,-100,4,2,1,60,0,0
113616,-50,4,2,1,60,0,0
113642,-100,4,2,1,60,0,0
113924,-50,4,2,1,60,0,0
113950,-100,4,2,1,60,0,0
114231,-50,4,2,1,60,0,0
114257,-100,4,2,1,60,0,0
114539,-50,4,2,1,60,0,0
114565,-100,4,2,1,60,0,0
114847,-50,4,2,1,60,0,0
114873,-100,4,2,1,60,0,0
115154,-50,4,2,1,60,0,0
115180,-100,4,2,1,60,0,0
115462,-50,4,2,1,60,0,0
115488,-100,4,2,1,60,0,0
117616,-33.3333333333333,4,2,1,60,0,0
117693,-222.222222222222,4,2,1,60,0,0
117923,-100,4,2,1,60,0,0
118231,-100,4,2,1,60,0,1
119001,-33.3333333333333,4,2,1,60,0,1
119078,-222.222222222222,4,2,1,60,0,1
119308,-100,4,2,1,60,0,1
120078,-55.5555555555556,4,2,1,60,0,1
120097,-500,4,2,1,60,0,1
120116,-55.5555555555556,4,2,1,60,0,1
120135,-500,4,2,1,60,0,1
120155,-55.5555555555556,4,2,1,60,0,1
120174,-500,4,2,1,60,0,1
120193,-55.5555555555556,4,2,1,60,0,1
120212,-500,4,2,1,60,0,1
120232,-55.5555555555556,4,2,1,60,0,1
120251,-500,4,2,1,60,0,1
120270,-55.5555555555556,4,2,1,60,0,1
120289,-500,4,2,1,60,0,1
120309,-100,4,2,1,60,0,1
120385,-33.3333333333333,4,2,1,60,0,1
120462,-222.222222222222,4,2,1,60,0,1
120692,-100,4,2,1,60,0,1
122232,-20,4,2,1,60,0,1
122251,-200,4,2,1,60,0,1
122309,-100,4,2,1,60,0,1
128078,-100,4,2,1,60,0,0
131770,-100,4,2,1,60,0,1
132539,-71.4285714285714,4,2,1,60,0,1
132616,-166.666666666667,4,2,1,60,0,1
132693,-71.4285714285714,4,2,1,60,0,1
132770,-166.666666666667,4,2,1,60,0,1
132847,-71.4285714285714,4,2,1,60,0,1
132924,-166.666666666667,4,2,1,60,0,1
133001,-100,4,2,1,60,0,0
136693,-100,4,2,1,60,0,1
137924,-100,4,2,1,60,0,0
141616,-100,4,2,1,60,0,1
142385,-71.4285714285714,4,2,1,60,0,1
142462,-166.666666666667,4,2,1,60,0,1
142539,-71.4285714285714,4,2,1,60,0,1
142616,-166.666666666667,4,2,1,60,0,1
142693,-71.4285714285714,4,2,1,60,0,1
142770,-166.666666666667,4,2,1,60,0,1
142847,-100,4,2,1,60,0,0
146539,-100,4,2,1,60,0,1
147770,-100,4,2,1,60,0,0
165001,-55.5555555555556,4,2,1,60,0,0
165155,-500,4,2,1,60,0,0
165309,-55.5555555555556,4,2,1,60,0,0
165463,-500,4,2,1,60,0,0
165616,-55.5555555555556,4,2,1,60,0,0
165770,-500,4,2,1,60,0,0
165924,-55.5555555555556,4,2,1,60,0,0
166078,-500,4,2,1,60,0,0
166232,-100,4,2,1,60,0,0
172385,-100,4,2,1,60,0,1
176078,-10,4,2,1,60,0,0
176385,-166.666666666667,4,2,1,60,0,0
176847,-55.5555555555556,4,2,1,60,0,0
176886,-500,4,2,1,60,0,0
176924,-55.5555555555556,4,2,1,60,0,0
176963,-500,4,2,1,60,0,0
177001,-55.5555555555556,4,2,1,60,0,0
177040,-500,4,2,1,60,0,0
177078,-55.5555555555556,4,2,1,60,0,0
177117,-500,4,2,1,60,0,0
177155,-55.5555555555556,4,2,1,60,0,0
177194,-500,4,2,1,60,0,0
177232,-55.5555555555556,4,2,1,60,0,0
177271,-500,4,2,1,60,0,0
177309,-117.647058823529,4,2,1,60,0,0
177924,-100,4,2,1,60,0,0
178539,-100,4,2,1,60,0,1
183154,-125,4,2,1,60,0,1
183462,-100,4,2,1,60,0,1
187770,-55.5555555555556,4,2,1,60,0,0
187847,-500,4,2,1,60,0,0
187924,-55.5555555555556,4,2,1,60,0,0
188001,-500,4,2,1,60,0,0
188078,-55.5555555555556,4,2,1,60,0,0
188155,-500,4,2,1,60,0,0
188231,-55.5555555555556,4,2,1,60,0,0
188308,-500,4,2,1,60,0,0
188385,-55.5555555555556,4,2,1,60,0,0
188423,-222.222222222222,4,2,1,60,0,0
188539,-100,4,2,1,60,0,1
193001,-125,4,2,1,60,0,1
193309,-100,4,2,1,60,0,1
197001,-100,4,2,1,60,0,0
198539,-42.5531914893617,4,2,1,60,0,1
198577,-181.818181818182,4,2,1,60,0,1
198769,-100,4,2,1,60,0,1
200693,-55.5555555555556,4,2,1,60,0,1
200731,-222.222222222222,4,2,1,60,0,1
200846,-100,4,2,1,60,0,1
201000,-42.5531914893617,4,2,1,60,0,1
201038,-181.818181818182,4,2,1,60,0,1
201230,-100,4,2,1,60,0,1
203154,-55.5555555555556,4,2,1,60,0,1
203192,-222.222222222222,4,2,1,60,0,1
203307,-100,4,2,1,60,0,1
203462,-42.5531914893617,4,2,1,60,0,1
203500,-181.818181818182,4,2,1,60,0,1
203692,-100,4,2,1,60,0,1
206847,-100,4,2,1,60,0,0
207462,-55.5555555555556,4,2,1,60,0,0
207539,-500,4,2,1,60,0,0
207616,-55.5555555555556,4,2,1,60,0,0
207693,-500,4,2,1,60,0,0
207770,-55.5555555555556,4,2,1,60,0,0
207847,-500,4,2,1,60,0,0
207923,-55.5555555555556,4,2,1,60,0,0
208000,-500,4,2,1,60,0,0
208077,-55.5555555555556,4,2,1,60,0,0
208115,-222.222222222222,4,2,1,60,0,0
208230,-100,4,2,1,60,0,0
208385,-42.5531914893617,4,2,1,60,0,1
208423,-181.818181818182,4,2,1,60,0,1
208615,-100,4,2,1,60,0,1
210539,-55.5555555555556,4,2,1,60,0,1
210577,-222.222222222222,4,2,1,60,0,1
210692,-100,4,2,1,60,0,1
210846,-42.5531914893617,4,2,1,60,0,1
210884,-181.818181818182,4,2,1,60,0,1
211076,-100,4,2,1,60,0,1
212693,-10000,4,2,1,60,0,0
213000,-80,4,2,1,60,0,0
213308,-100,4,2,1,60,0,1
217924,-100,4,2,1,60,0,0
222539,-22.2222222222222,4,2,1,60,0,0
222559,-200,4,2,1,60,0,0
222693,-100,4,2,1,60,0,0
232385,-22.2222222222222,4,2,1,60,0,0
232405,-200,4,2,1,60,0,0
232539,-100,4,2,1,60,0,0
232693,-142.857142857143,4,2,1,60,0,1
232847,-55.5555555555556,4,2,1,60,0,1
232898,-100,4,2,1,60,0,1
233154,-142.857142857143,4,2,1,60,0,1
233308,-55.5555555555556,4,2,1,60,0,1
233360,-100,4,2,1,60,0,1
233411,-142.857142857143,4,2,1,60,0,1
233565,-55.5555555555556,4,2,1,60,0,1
233616,-100,4,2,1,60,0,1
234385,-142.857142857143,4,2,1,60,0,1
234539,-55.5555555555556,4,2,1,60,0,1
234590,-100,4,2,1,60,0,1
234642,-142.857142857143,4,2,1,60,0,1
234795,-55.5555555555556,4,2,1,60,0,1
234847,-100,4,2,1,60,0,1
235154,-117.647058823529,4,2,1,60,0,1
235346,-57.1428571428571,4,2,1,60,0,1
235385,-100,4,2,1,60,0,1
235616,-117.647058823529,4,2,1,60,0,1
235808,-57.1428571428571,4,2,1,60,0,1
235847,-117.647058823529,4,2,1,60,0,1
236039,-57.1428571428571,4,2,1,60,0,1
236078,-100,4,2,1,60,0,1
236385,-100,4,2,1,60,0,1
237001,-62.5,4,2,1,60,0,1
237078,-250,4,2,1,60,0,1
237155,-62.5,4,2,1,60,0,1
237232,-250,4,2,1,60,0,1
237309,-62.5,4,2,1,60,0,1
237386,-250,4,2,1,60,0,1
237462,-62.5,4,2,1,60,0,1
237539,-250,4,2,1,60,0,1
237616,-100,4,2,1,60,0,0
256847,-71.4285714285714,4,2,1,60,0,0
256924,-166.666666666667,4,2,1,60,0,0
257001,-71.4285714285714,4,2,1,60,0,0
257078,-166.666666666667,4,2,1,60,0,0
257155,-71.4285714285714,4,2,1,60,0,0
257232,-166.666666666667,4,2,1,60,0,0
257309,-100,4,2,1,60,0,0

[HitObjects]
64,192,78,5,2,0:0:0:0:
192,192,78,1,4,0:0:0:0:
320,192,78,1,0,0:0:0:0:
448,192,78,1,0,0:0:0:0:
64,192,231,1,0,0:0:0:0:
320,192,231,1,0,0:0:0:0:
64,192,385,1,2,0:0:0:0:
192,192,385,1,0,0:0:0:0:
448,192,385,1,0,0:0:0:0:
192,192,539,1,0,0:0:0:0:
448,192,539,1,0,0:0:0:0:
64,192,693,1,2,0:0:0:0:
320,192,693,1,0,0:0:0:0:
448,192,693,1,0,0:0:0:0:
192,192,847,1,0,0:0:0:0:
448,192,847,1,0,0:0:0:0:
64,192,1001,1,2,0:0:0:0:
192,192,1001,1,0,0:0:0:0:
320,192,1001,1,0,0:0:0:0:
64,192,1154,1,0,0:0:0:0:
320,192,1154,1,0,0:0:0:0:
64,192,1308,1,2,0:0:0:0:
192,192,1308,1,0,0:0:0:0:
448,192,1308,1,0,0:0:0:0:
192,192,1462,1,0,0:0:0:0:
320,192,1462,1,0,0:0:0:0:
64,192,1616,1,2,0:0:0:0:
320,192,1616,1,0,0:0:0:0:
448,192,1616,1,0,0:0:0:0:
320,192,1770,1,0,0:0:0:0:
448,192,1770,1,0,0:0:0:0:
64,192,1924,1,2,0:0:0:0:
320,192,1924,1,0,0:0:0:0:
448,192,1924,1,0,0:0:0:0:
192,192,2001,1,0,0:0:0:0:
64,192,2078,1,0,0:0:0:0:
64,192,2231,1,2,0:0:0:0:
320,192,2231,1,0,0:0:0:0:
448,192,2231,1,0,0:0:0:0:
64,192,2385,1,0,0:0:0:0:
64,192,2539,1,2,0:0:0:0:
192,192,2539,1,0,0:0:0:0:
448,192,2539,1,0,0:0:0:0:
320,192,2616,1,0,0:0:0:0:
192,192,2693,1,0,0:0:0:0:
64,192,2847,1,2,0:0:0:0:
320,192,2847,1,0,0:0:0:0:
448,192,2847,1,0,0:0:0:0:
192,192,2924,1,0,0:0:0:0:
320,192,3001,1,0,0:0:0:0:
448,192,3078,1,0,0:0:0:0:
64,192,3154,1,2,0:0:0:0:
192,192,3154,1,0,0:0:0:0:
320,192,3154,1,0,0:0:0:0:
192,192,3308,1,0,0:0:0:0:
64,192,3462,1,2,0:0:0:0:
320,192,3462,1,0,0:0:0:0:
448,192,3462,1,0,0:0:0:0:
320,192,3616,1,0,0:0:0:0:
64,192,3770,1,2,0:0:0:0:
192,192,3770,1,0,0:0:0:0:
448,192,3770,1,0,0:0:0:0:
320,192,3924,1,0,0:0:0:0:
192,192,4001,1,0,0:0:0:0:
64,192,4078,1,2,0:0:0:0:
320,192,4078,1,0,0:0:0:0:
448,192,4078,1,0,0:0:0:0:
192,192,4154,1,0,0:0:0:0:
320,192,4231,1,0,0:0:0:0:
192,192,4308,1,0,0:0:0:0:
64,192,4385,1,2,0:0:0:0:
320,192,4385,1,0,0:0:0:0:
448,192,4385,1,0,0:0:0:0:
320,192,4539,1,0,0:0:0:0:
64,192,4693,1,2,0:0:0:0:
192,192,4693,1,0,0:0:0:0:
448,192,4693,1,0,0:0:0:0:
192,192,4847,1,0,0:0:0:0:
64,192,5001,1,2,0:0:0:0:
320,192,5001,1,4,0:0:0:0:
448,192,5001,1,0,0:0:0:0:
192,192,5154,1,0,0:0:0:0:
448,192,5154,1,0,0:0:0:0:
64,192,5308,1,2,0:0:0:0:
320,192,5308,1,0,0:0:0:0:
448,192,5308,1,0,0:0:0:0:
64,192,5462,1,0,0:0:0:0:
320,192,5462,1,0,0:0:0:0:
64,192,5616,1,2,0:0:0:0:
192,192,5616,1,0,0:0:0:0:
448,192,5616,1,0,0:0:0:0:
64,192,5770,1,0,0:0:0:0:
320,192,5770,1,0,0:0:0:0:
192,192,5924,1,2,0:0:0:0:
320,192,5924,1,0,0:0:0:0:
448,192,5924,1,0,0:0:0:0:
192,192,6078,1,0,0:0:0:0:
448,192,6078,1,0,0:0:0:0:
64,192,6231,1,2,0:0:0:0:
320,192,6231,1,0,0:0:0:0:
448,192,6231,1,0,0:0:0:0:
192,192,6385,1,0,0:0:0:0:
320,192,6385,1,0,0:0:0:0:
64,192,6539,1,2,0:0:0:0:
192,192,6539,1,0,0:0:0:0:
448,192,6539,1,0,0:0:0:0:
64,192,6693,1,0,0:0:0:0:
192,192,6693,1,0,0:0:0:0:
64,192,6847,1,2,0:0:0:0:
192,192,6847,1,0,0:0:0:0:
448,192,6847,1,0,0:0:0:0:
320,192,6924,1,0,0:0:0:0:
448,192,7001,1,0,0:0:0:0:
64,192,7154,1,2,0:0:0:0:
192,192,7154,1,0,0:0:0:0:
448,192,7154,1,0,0:0:0:0:
448,192,7308,1,0,0:0:0:0:
64,192,7462,1,2,0:0:0:0:
320,192,7462,1,0,0:0:0:0:
448,192,7462,1,0,0:0:0:0:
192,192,7539,1,0,0:0:0:0:
320,192,7616,1,0,0:0:0:0:
64,192,7770,1,2,0:0:0:0:
192,192,7770,1,0,0:0:0:0:
448,192,7770,1,0,0:0:0:0:
320,192,7847,1,0,0:0:0:0:
192,192,7924,1,0,0:0:0:0:
64,192,8001,1,0,0:0:0:0:
192,192,8078,1,2,0:0:0:0:
320,192,8078,1,0,0:0:0:0:
448,192,8078,1,0,0:0:0:0:
320,192,8231,1,0,0:0:0:0:
64,192,8385,1,2,0:0:0:0:
192,192,8385,1,0,0:0:0:0:
448,192,8385,1,0,0:0:0:0:
192,192,8539,1,0,0:0:0:0:
64,192,8693,1,2,0:0:0:0:
320,192,8693,1,0,0:0:0:0:
448,192,8693,1,0,0:0:0:0:
64,192,8847,1,0,0:0:0:0:
192,192,8847,1,0,0:0:0:0:
320,192,8924,1,0,0:0:0:0:
64,192,9001,1,0,0:0:0:0:
448,192,9001,1,0,0:0:0:0:
320,192,9078,1,0,0:0:0:0:
192,192,9154,1,0,0:0:0:0:
320,192,9231,1,0,0:0:0:0:
64,192,9308,1,0,0:0:0:0:
192,192,9308,1,0,0:0:0:0:
320,192,9385,1,0,0:0:0:0:
448,192,9385,1,0,0:0:0:0:
64,192,9462,1,0,0:0:0:0:
192,192,9462,1,0,0:0:0:0:
192,192,9616,1,0,0:0:0:0:
448,192,9616,1,0,0:0:0:0:
64,192,9770,1,0,0:0:0:0:
448,192,9770,1,0,0:0:0:0:
64,192,9924,1,2,0:0:0:0:
192,192,9924,1,4,0:0:0:0:
320,192,9924,1,0,0:0:0:0:
448,192,9924,1,0,0:0:0:0:
192,192,10078,1,0,0:0:0:0:
64,192,10231,1,2,0:0:0:0:
192,192,10231,1,0,0:0:0:0:
320,192,10231,1,0,0:0:0:0:
448,192,10231,1,0,0:0:0:0:
320,192,10385,1,0,0:0:0:0:
64,192,10539,1,2,0:0:0:0:
192,192,10539,1,0,0:0:0:0:
320,192,10539,1,0,0:0:0:0:
448,192,10539,1,0,0:0:0:0:
64,192,10693,1,0,0:0:0:0:
64,192,10847,1,2,0:0:0:0:
192,192,10847,1,0,0:0:0:0:
320,192,10847,1,0,0:0:0:0:
448,192,10847,1,0,0:0:0:0:
448,192,11001,1,0,0:0:0:0:
64,192,11154,1,2,0:0:0:0:
192,192,11154,1,0,0:0:0:0:
320,192,11154,1,0,0:0:0:0:
448,192,11154,1,0,0:0:0:0:
192,192,11308,1,0,0:0:0:0:
64,192,11462,1,2,0:0:0:0:
192,192,11462,1,0,0:0:0:0:
320,192,11462,1,0,0:0:0:0:
448,192,11462,1,0,0:0:0:0:
320,192,11616,1,0,0:0:0:0:
64,192,11770,1,2,0:0:0:0:
192,192,11770,1,0,0:0:0:0:
448,192,11770,1,0,0:0:0:0:
320,192,11847,1,0,0:0:0:0:
192,192,11924,1,0,0:0:0:0:
64,192,12078,1,2,0:0:0:0:
320,192,12078,1,0,0:0:0:0:
448,192,12078,1,0,0:0:0:0:
192,192,12154,1,0,0:0:0:0:
320,192,12231,1,0,0:0:0:0:
64,192,12385,1,2,0:0:0:0:
320,192,12385,1,0,0:0:0:0:
448,192,12385,1,0,0:0:0:0:
192,192,12462,1,0,0:0:0:0:
64,192,12539,1,0,0:0:0:0:
64,192,12693,1,2,0:0:0:0:
192,192,12693,1,0,0:0:0:0:
448,192,12693,1,0,0:0:0:0:
320,192,12770,1,0,0:0:0:0:
448,192,12847,1,0,0:0:0:0:
320,192,12924,1,0,0:0:0:0:
64,192,13001,1,2,0:0:0:0:
192,192,13001,1,0,0:0:0:0:
448,192,13001,1,0,0:0:0:0:
448,192,13154,1,0,0:0:0:0:
64,192,13308,1,2,0:0:0:0:
192,192,13308,1,0,0:0:0:0:
320,192,13308,1,0,0:0:0:0:
320,192,13462,1,0,0:0:0:0:
64,192,13616,1,2,0:0:0:0:
192,192,13616,1,0,0:0:0:0:
448,192,13616,1,0,0:0:0:0:
192,192,13770,1,0,0:0:0:0:
320,192,13847,1,0,0:0:0:0:
64,192,13924,1,2,0:0:0:0:
192,192,13924,1,0,0:0:0:0:
448,192,13924,1,0,0:0:0:0:
320,192,14001,1,0,0:0:0:0:
192,192,14078,1,0,0:0:0:0:
320,192,14154,1,0,0:0:0:0:
64,192,14231,1,2,0:0:0:0:
192,192,14231,1,0,0:0:0:0:
448,192,14231,1,0,0:0:0:0:
320,192,14308,1,0,0:0:0:0:
192,192,14385,1,0,0:0:0:0:
64,192,14539,1,2,0:0:0:0:
320,192,14539,1,0,0:0:0:0:
448,192,14539,1,0,0:0:0:0:
64,192,14693,1,0,0:0:0:0:
64,192,14847,1,2,0:0:0:0:
192,192,14847,1,4,0:0:0:0:
320,192,14847,1,0,0:0:0:0:
448,192,14847,1,0,0:0:0:0:
320,192,15001,1,0,0:0:0:0:
64,192,15154,1,2,0:0:0:0:
192,192,15154,1,0,0:0:0:0:
320,192,15154,1,0,0:0:0:0:
448,192,15154,1,0,0:0:0:0:
64,192,15308,1,0,0:0:0:0:
64,192,15462,1,2,0:0:0:0:
192,192,15462,1,0,0:0:0:0:
320,192,15462,1,0,0:0:0:0:
448,192,15462,1,0,0:0:0:0:
448,192,15616,1,0,0:0:0:0:
64,192,15770,1,2,0:0:0:0:
192,192,15770,1,0,0:0:0:0:
320,192,15770,1,0,0:0:0:0:
448,192,15770,1,0,0:0:0:0:
192,192,15924,1,0,0:0:0:0:
64,192,16078,1,2,0:0:0:0:
192,192,16078,1,0,0:0:0:0:
320,192,16078,1,0,0:0:0:0:
448,192,16078,1,0,0:0:0:0:
320,192,16231,1,0,0:0:0:0:
64,192,16385,1,2,0:0:0:0:
192,192,16385,1,0,0:0:0:0:
320,192,16385,1,0,0:0:0:0:
448,192,16385,1,0,0:0:0:0:
64,192,16539,1,0,0:0:0:0:
64,192,16693,1,2,0:0:0:0:
192,192,16693,1,0,0:0:0:0:
448,192,16693,1,0,0:0:0:0:
320,192,16770,1,0,0:0:0:0:
192,192,16847,1,0,0:0:0:0:
64,192,17001,1,2,0:0:0:0:
320,192,17001,1,0,0:0:0:0:
448,192,17001,1,0,0:0:0:0:
192,192,17078,1,0,0:0:0:0:
320,192,17154,1,0,0:0:0:0:
64,192,17308,1,2,0:0:0:0:
320,192,17308,1,0,0:0:0:0:
448,192,17308,1,0,0:0:0:0:
192,192,17385,1,0,0:0:0:0:
64,192,17462,1,0,0:0:0:0:
64,192,17616,1,2,0:0:0:0:
192,192,17616,1,0,0:0:0:0:
448,192,17616,1,0,0:0:0:0:
320,192,17693,1,0,0:0:0:0:
448,192,17770,1,0,0:0:0:0:
320,192,17847,1,0,0:0:0:0:
64,192,17924,1,2,0:0:0:0:
192,192,17924,1,0,0:0:0:0:
448,192,17924,1,0,0:0:0:0:
448,192,18078,1,0,0:0:0:0:
64,192,18231,1,2,0:0:0:0:
192,192,18231,1,0,0:0:0:0:
320,192,18231,1,0,0:0:0:0:
320,192,18385,1,0,0:0:0:0:
64,192,18539,1,2,0:0:0:0:
192,192,18539,1,4,0:0:0:0:
320,192,18539,1,0,0:0:0:0:
448,192,18539,1,0,0:0:0:0:
64,192,18693,1,2,0:0:0:0:
192,192,18693,1,0,0:0:0:0:
320,192,18770,1,2,0:0:0:0:
448,192,18770,1,0,0:0:0:0:
64,192,18847,1,2,0:0:0:0:
192,192,18847,1,0,0:0:0:0:
192,192,19001,1,2,0:0:0:0:
320,192,19001,1,0,0:0:0:0:
320,192,19154,1,2,0:0:0:0:
448,192,19154,1,0,0:0:0:0:
320,192,19308,1,2,0:0:0:0:
448,192,19308,1,0,0:0:0:0:
64,192,19462,1,2,0:0:0:0:
192,192,19462,1,0,0:0:0:0:
64,192,19616,1,2,0:0:0:0:
192,192,19616,1,0,0:0:0:0:
64,192,19770,1,2,0:0:0:0:
192,192,19770,1,4,0:0:0:0:
320,192,19770,1,0,0:0:0:0:
448,192,19770,128,0,24385:0:0:0:0:
320,192,20078,1,0,0:0:0:0:
64,192,20231,1,0,0:0:0:50:S1.wav
192,192,20231,1,0,0:0:0:0:
320,192,20231,1,0,0:0:0:0:
64,192,20385,1,2,0:0:0:0:
192,192,20385,1,0,0:0:0:0:
64,192,20693,1,0,0:0:0:50:S1.wav
192,192,20693,1,0,0:0:0:0:
320,192,20693,1,0,0:0:0:0:
64,192,21001,1,2,0:0:0:0:
192,192,21001,1,0,0:0:0:0:
320,192,21308,1,0,0:0:0:30:S2.wav
64,192,21462,1,0,0:0:0:50:S1.wav
192,192,21462,1,0,0:0:0:0:
320,192,21462,1,0,0:0:0:0:
64,192,21616,1,2,0:0:0:0:
192,192,21616,1,0,0:0:0:0:
320,192,21770,1,0,0:0:0:30:S2.wav
64,192,21924,1,0,0:0:0:50:S1.wav
192,192,21924,1,0,0:0:0:0:
320,192,21924,1,0,0:0:0:0:
192,192,22078,1,0,0:0:0:30:S2.wav
64,192,22231,1,2,0:0:0:0:
320,192,22231,1,0,0:0:0:0:
320,192,22539,1,0,0:0:0:0:
64,192,22693,1,0,0:0:0:50:S1.wav
192,192,22693,1,0,0:0:0:0:
320,192,22693,1,0,0:0:0:0:
64,192,22847,1,2,0:0:0:0:
192,192,22847,1,0,0:0:0:0:
64,192,23154,1,0,0:0:0:50:S1.wav
192,192,23154,1,0,0:0:0:0:
320,192,23154,1,0,0:0:0:0:
64,192,23462,1,2,0:0:0:0:
192,192,23462,1,0,0:0:0:0:
64,192,23770,1,0,0:0:0:0:
64,192,23924,1,0,0:0:0:50:S1.wav
192,192,23924,1,0,0:0:0:0:
320,192,23924,1,0,0:0:0:0:
192,192,24078,1,2,0:0:0:0:
320,192,24078,1,0,0:0:0:0:
64,192,24231,1,0,0:0:0:30:S2.wav
64,192,24385,1,0,0:0:0:50:S1.wav
192,192,24385,1,0,0:0:0:0:
320,192,24385,1,0,0:0:0:0:
192,192,24539,1,0,0:0:0:30:S2.wav
448,192,24539,1,0,0:0:0:0:
64,192,24693,1,2,0:0:0:0:
192,192,24693,1,4,0:0:0:0:
320,192,24693,1,0,0:0:0:0:
448,192,24693,1,0,0:0:0:0:
320,192,24847,1,0,0:0:0:0:
64,192,25001,1,0,0:0:0:0:
64,192,25154,1,0,0:0:0:50:S1.wav
192,192,25154,1,0,0:0:0:0:
320,192,25154,1,0,0:0:0:0:
448,192,25154,1,0,0:0:0:0:
320,192,25308,1,2,0:0:0:0:
448,192,25308,1,0,0:0:0:0:
192,192,25462,1,0,0:0:0:0:
64,192,25616,1,0,0:0:0:50:S1.wav
192,192,25616,1,0,0:0:0:0:
320,192,25616,1,0,0:0:0:0:
448,192,25616,1,0,0:0:0:0:
320,192,25770,1,0,0:0:0:0:
64,192,25924,1,2,0:0:0:0:
192,192,25924,1,0,0:0:0:0:
192,192,26231,1,0,0:0:0:30:S2.wav
448,192,26231,1,0,0:0:0:0:
64,192,26385,1,0,0:0:0:50:S1.wav
192,192,26385,1,0,0:0:0:0:
320,192,26385,1,0,0:0:0:0:
448,192,26385,1,0,0:0:0:0:
64,192,26539,1,2,0:0:0:0:
320,192,26539,1,0,0:0:0:0:
320,192,26693,1,0,0:0:0:30:S2.wav
448,192,26693,1,0,0:0:0:0:
64,192,26847,1,0,0:0:0:50:S1.wav
192,192,26847,1,0,0:0:0:0:
320,192,26847,1,0,0:0:0:0:
448,192,26847,1,0,0:0:0:0:
64,192,27001,1,0,0:0:0:30:S2.wav
192,192,27001,1,0,0:0:0:0:
64,192,27154,1,2,0:0:0:0:
192,192,27154,1,4,0:0:0:0:
320,192,27154,1,0,0:0:0:0:
448,192,27154,1,0,0:0:0:0:
64,192,27462,1,0,0:0:0:0:
64,192,27616,1,0,0:0:0:50:S1.wav
192,192,27616,1,0,0:0:0:0:
320,192,27616,1,0,0:0:0:0:
448,192,27616,1,0,0:0:0:0:
192,192,27770,1,2,0:0:0:0:
448,192,27770,1,0,0:0:0:0:
64,192,28078,1,0,0:0:0:0:
192,192,28116,1,0,0:0:0:0:
64,192,28231,1,0,0:0:0:0:
320,192,28308,1,0,0:0:0:0:
64,192,28385,1,2,0:0:0:0:
192,192,28385,1,0,0:0:0:0:
448,192,28385,1,0,0:0:0:0:
320,192,28539,1,0,0:0:0:0:
192,192,28693,1,0,0:0:0:0:
320,192,28847,1,0,0:0:0:0:
448,192,29001,1,0,0:0:0:0:
64,192,29078,1,0,0:0:0:0:
320,192,29154,1,0,0:0:0:0:
192,192,29231,1,0,0:0:0:0:
320,192,29308,1,0,0:0:0:0:
448,192,29308,1,0,0:0:0:0:
64,192,29462,1,0,0:0:0:30:S2.wav
64,192,29539,1,0,0:0:0:30:S2.wav
192,192,29616,1,2,0:0:0:0:
320,192,29616,1,4,0:0:0:0:
448,192,29616,1,0,0:0:0:0:
64,192,29770,1,0,0:0:0:0:
320,192,29847,1,0,0:0:0:0:
192,192,29924,1,0,0:0:0:0:
64,192,30078,1,0,0:0:0:0:
192,192,30154,1,0,0:0:0:0:
64,192,30231,1,0,0:0:0:50:S1.wav
320,192,30231,1,0,0:0:0:0:
448,192,30231,1,0,0:0:0:0:
192,192,30308,1,0,0:0:0:0:
320,192,30385,1,2,0:0:0:0:
448,192,30385,1,0,0:0:0:0:
64,192,30539,1,0,0:0:0:0:
320,192,30616,1,0,0:0:0:0:
64,192,30693,1,0,0:0:0:0:
320,192,30770,1,0,0:0:0:0:
64,192,30847,1,2,0:0:0:0:
192,192,30847,1,0,0:0:0:0:
448,192,30847,1,0,0:0:0:0:
320,192,30924,1,0,0:0:0:0:
192,192,31001,1,0,0:0:0:0:
320,192,31154,1,0,0:0:0:30:S2.wav
448,192,31154,1,0,0:0:0:0:
64,192,31308,1,0,0:0:0:0:
192,192,31308,1,0,0:0:0:0:
64,192,31462,1,0,0:0:0:50:S1.wav
320,192,31462,1,0,0:0:0:0:
448,192,31462,1,0,0:0:0:0:
192,192,31539,1,0,0:0:0:0:
64,192,31616,1,0,0:0:0:0:
448,192,31770,1,0,0:0:0:0:
192,192,31847,1,0,0:0:0:0:
448,192,31924,1,0,0:0:0:0:
192,192,32001,1,0,0:0:0:0:
64,192,32078,1,2,0:0:0:0:
320,192,32078,1,0,0:0:0:0:
448,192,32078,1,0,0:0:0:0:
192,192,32231,1,0,0:0:0:0:
320,192,32308,1,0,0:0:0:0:
192,192,32385,1,0,0:0:0:0:
448,192,32539,1,0,0:0:0:0:
320,192,32616,1,0,0:0:0:0:
64,192,32693,1,0,0:0:0:50:S1.wav
192,192,32693,1,0,0:0:0:0:
448,192,32693,1,0,0:0:0:0:
320,192,32770,1,0,0:0:0:0:
64,192,32847,1,2,0:0:0:0:
192,192,32847,1,0,0:0:0:0:
320,192,33001,1,0,0:0:0:0:
448,192,33001,1,0,0:0:0:0:
192,192,33154,1,0,0:0:0:0:
320,192,33154,1,0,0:0:0:0:
64,192,33308,1,2,0:0:0:0:
192,192,33308,1,0,0:0:0:0:
448,192,33308,1,0,0:0:0:0:
320,192,33462,1,0,0:0:0:0:
192,192,33539,1,0,0:0:0:0:
64,192,33616,1,0,0:0:0:30:S2.wav
448,192,33616,1,0,0:0:0:0:
192,192,33770,1,0,0:0:0:0:
320,192,33847,1,0,0:0:0:0:
64,192,33924,1,0,0:0:0:50:S1.wav
192,192,33924,1,0,0:0:0:0:
448,192,33924,1,0,0:0:0:0:
320,192,34001,1,0,0:0:0:0:
64,192,34078,1,0,0:0:0:0:
192,192,34078,1,0,0:0:0:0:
320,192,34154,1,0,0:0:0:0:
448,192,34231,1,0,0:0:0:0:
192,192,34385,1,0,0:0:0:0:
320,192,34385,1,0,0:0:0:0:
64,192,34539,1,2,0:0:0:0:
192,192,34539,1,4,0:0:0:0:
320,192,34539,1,0,0:0:0:0:
448,192,34539,1,0,0:0:0:0:
64,192,34693,1,0,0:0:0:0:
192,192,34770,1,0,0:0:0:0:
320,192,34847,1,2,0:0:0:0:
448,192,34847,1,0,0:0:0:0:
64,192,35001,1,0,0:0:0:50:S1.wav
192,192,35001,1,0,0:0:0:0:
448,192,35001,1,0,0:0:0:0:
320,192,35078,1,0,0:0:0:0:
192,192,35154,1,0,0:0:0:0:
320,192,35231,1,0,0:0:0:0:
448,192,35308,1,0,0:0:0:30:S2.wav
192,192,35385,1,0,0:0:0:0:
64,192,35462,1,0,0:0:0:50:S1.wav
320,192,35462,1,0,0:0:0:0:
448,192,35462,1,0,0:0:0:0:
320,192,35616,1,0,0:0:0:0:
64,192,35770,1,0,0:0:0:0:
192,192,35847,1,0,0:0:0:0:
320,192,35924,1,0,0:0:0:0:
192,192,36001,1,0,0:0:0:0:
64,192,36078,1,2,0:0:0:0:
320,192,36078,1,0,0:0:0:50:S1.wav
448,192,36078,1,0,0:0:0:0:
320,192,36231,1,0,0:0:0:0:
192,192,36308,1,0,0:0:0:0:
320,192,36385,1,0,0:0:0:0:
448,192,36462,1,0,0:0:0:0:
64,192,36539,1,0,0:0:0:50:S1.wav
192,192,36539,1,0,0:0:0:0:
320,192,36539,1,0,0:0:0:0:
448,192,36616,1,0,0:0:0:0:
192,192,36693,1,0,0:0:0:0:
320,192,36770,1,0,0:0:0:0:
64,192,36847,1,0,0:0:0:0:
64,192,37001,1,2,0:0:0:0:
192,192,37001,1,4,0:0:0:0:
448,192,37001,1,0,0:0:0:0:
64,192,37308,1,2,0:0:0:0:
192,192,37308,1,4,0:0:0:0:
448,192,37308,1,0,0:0:0:0:
64,192,37616,1,2,0:0:0:0:
320,192,37616,1,4,0:0:0:0:
448,192,37616,1,0,0:0:0:0:
64,192,37924,1,2,0:0:0:0:
320,192,37924,1,4,0:0:0:0:
448,192,37924,1,0,0:0:0:0:
64,192,38231,1,4,0:0:0:0:
192,192,38231,1,2,0:0:0:0:
320,192,38231,1,0,0:0:0:0:
448,192,38231,1,0,0:0:0:0:
448,192,38693,128,0,39462:0:0:0:0:
64,192,39154,1,0,0:0:0:0:
64,192,39308,1,0,0:0:0:0:
64,192,39462,1,4,0:0:0:0:
192,192,39462,1,2,0:0:0:0:
320,192,39462,1,0,0:0:0:0:
192,192,39770,1,0,0:0:0:50:S4.wav
320,192,39770,1,0,0:0:0:0:
192,192,40078,1,0,0:0:0:50:S4.wav
320,192,40078,1,0,0:0:0:0:
192,192,40385,1,0,0:0:0:50:S4.wav
320,192,40385,1,0,0:0:0:0:
192,192,40693,1,0,0:0:0:50:S4.wav
320,192,40693,1,0,0:0:0:0:
192,192,41001,1,0,0:0:0:50:S4.wav
320,192,41001,1,0,0:0:0:0:
192,192,41308,1,0,0:0:0:50:S4.wav
320,192,41308,1,0,0:0:0:0:
192,192,41616,1,0,0:0:0:50:S4.wav
320,192,41616,1,0,0:0:0:0:
64,192,41924,1,0,0:0:0:50:S4.wav
448,192,41924,1,0,0:0:0:0:
64,192,42231,1,0,0:0:0:50:S4.wav
448,192,42231,1,0,0:0:0:0:
64,192,42539,1,0,0:0:0:50:S4.wav
448,192,42539,1,0,0:0:0:0:
64,192,42847,1,0,0:0:0:50:S4.wav
448,192,42847,1,0,0:0:0:0:
64,192,43154,1,0,0:0:0:50:S4.wav
448,192,43154,1,0,0:0:0:0:
64,192,43462,1,0,0:0:0:50:S4.wav
448,192,43462,1,0,0:0:0:0:
64,192,43770,1,0,0:0:0:50:S4.wav
448,192,43770,1,0,0:0:0:0:
192,192,44078,1,0,0:0:0:50:S4.wav
448,192,44078,1,0,0:0:0:0:
192,192,44231,1,0,0:0:0:0:
64,192,44385,1,4,0:0:0:0:
320,192,44385,1,2,0:0:0:0:
448,192,44385,1,0,0:0:0:0:
192,192,44539,1,0,0:0:0:50:S5.wav
448,192,44539,1,0,0:0:0:0:
64,192,44693,1,0,0:0:0:50:S4.wav
320,192,44693,1,0,0:0:0:0:
64,192,44847,1,0,0:0:0:50:S5.wav
192,192,44847,1,0,0:0:0:0:
320,192,45001,1,0,0:0:0:50:S4.wav
448,192,45001,1,0,0:0:0:0:
64,192,45078,1,0,0:0:0:0:
192,192,45078,1,0,0:0:0:0:
320,192,45154,1,0,0:0:0:50:S5.wav
448,192,45154,1,0,0:0:0:0:
192,192,45308,1,0,0:0:0:50:S4.wav
320,192,45308,1,0,0:0:0:0:
192,192,45462,1,0,0:0:0:50:S5.wav
320,192,45462,1,0,0:0:0:0:
64,192,45616,1,0,0:0:0:50:S4.wav
448,192,45616,1,0,0:0:0:0:
64,192,45770,1,0,0:0:0:50:S5.wav
320,192,45770,1,0,0:0:0:0:
192,192,45924,1,0,0:0:0:50:S4.wav
448,192,45924,1,0,0:0:0:0:
320,192,46078,1,0,0:0:0:50:S5.wav
448,192,46078,1,0,0:0:0:0:
64,192,46231,1,0,0:0:0:50:S4.wav
192,192,46231,1,0,0:0:0:0:
320,192,46308,1,0,0:0:0:0:
448,192,46308,1,0,0:0:0:0:
64,192,46385,1,0,0:0:0:50:S5.wav
192,192,46385,1,0,0:0:0:0:
192,192,46539,1,0,0:0:0:50:S4.wav
320,192,46539,1,0,0:0:0:0:
192,192,46693,1,0,0:0:0:50:S5.wav
320,192,46693,1,0,0:0:0:0:
64,192,46847,1,0,0:0:0:50:S5.wav
448,192,46847,1,0,0:0:0:0:
192,192,46924,1,0,0:0:0:50:S5.wav
320,192,46924,1,0,0:0:0:0:
64,192,47001,1,0,0:0:0:50:S5.wav
448,192,47001,1,0,0:0:0:0:
192,192,47078,1,0,0:0:0:50:S5.wav
320,192,47078,1,0,0:0:0:0:
64,192,47154,1,0,0:0:0:50:S5.wav
448,192,47154,1,0,0:0:0:0:
192,192,47231,1,0,0:0:0:50:S5.wav
320,192,47231,1,0,0:0:0:0:
64,192,47308,1,0,0:0:0:50:S5.wav
448,192,47308,1,0,0:0:0:0:
192,192,47385,1,0,0:0:0:50:S5.wav
320,192,47462,1,0,0:0:0:50:S5.wav
448,192,47462,1,0,0:0:0:0:
64,192,47539,1,0,0:0:0:50:S5.wav
192,192,47539,1,0,0:0:0:0:
320,192,47616,1,0,0:0:0:50:S5.wav
448,192,47616,1,0,0:0:0:0:
64,192,47693,1,0,0:0:0:50:S5.wav
192,192,47693,1,0,0:0:0:0:
448,192,47770,1,0,0:0:0:50:S5.wav
64,192,47847,1,0,0:0:0:50:S5.wav
448,192,47924,1,0,0:0:0:50:S5.wav
64,192,48001,1,0,0:0:0:50:S5.wav
192,192,48078,1,2,0:0:0:0:
320,192,48078,128,4,48385:0:0:0:0:
448,192,48078,128,0,48385:0:0:0:0:
64,192,48385,1,0,0:0:0:0:
192,192,48385,1,0,0:0:0:0:
192,192,48539,128,0,48693:0:0:0:0:
320,192,48539,128,0,48693:0:0:0:0:
64,192,48693,1,0,0:0:0:0:
448,192,48693,1,0,0:0:0:0:
64,192,48847,128,0,48981:0:0:0:0:
192,192,48847,128,0,48981:0:0:0:0:
320,192,48981,1,0,0:0:0:0:
448,192,48981,1,0,0:0:0:0:
64,192,49154,128,0,49308:0:0:0:0:
448,192,49154,128,0,49308:0:0:0:0:
192,192,49308,1,2,0:0:0:0:
320,192,49308,1,0,0:0:0:0:
320,192,49462,1,0,0:0:0:0:
192,192,49616,1,0,0:0:0:0:
192,192,49770,1,0,0:0:0:0:
64,192,49924,1,4,0:0:0:0:
192,192,49924,1,8,0:0:0:0:
320,192,49924,1,0,0:0:0:0:
448,192,49924,1,0,0:0:0:0:
320,192,50078,1,0,0:0:0:0:
448,192,50078,1,0,0:0:0:0:
320,192,50231,1,0,0:0:0:0:
448,192,50231,1,0,0:0:0:0:
320,192,50385,1,0,0:0:0:0:
448,192,50385,1,0,0:0:0:0:
64,192,50539,1,2,0:0:0:0:
192,192,50539,1,0,0:0:0:0:
448,192,50539,1,0,0:0:0:0:
64,192,50693,1,0,0:0:0:0:
320,192,50693,1,0,0:0:0:0:
64,192,50847,1,0,0:0:0:0:
192,192,50847,1,0,0:0:0:0:
320,192,50924,1,0,0:0:0:0:
448,192,50924,1,0,0:0:0:0:
64,192,51001,1,0,0:0:0:0:
192,192,51001,1,0,0:0:0:0:
64,192,51154,1,8,0:0:0:0:
192,192,51154,1,0,0:0:0:0:
320,192,51154,1,0,0:0:0:0:
448,192,51154,1,0,0:0:0:0:
192,192,51308,1,0,0:0:0:0:
448,192,51308,1,0,0:0:0:0:
192,192,51462,1,0,0:0:0:0:
448,192,51462,1,0,0:0:0:0:
192,192,51616,1,0,0:0:0:0:
448,192,51616,1,0,0:0:0:0:
64,192,51770,1,2,0:0:0:0:
192,192,51770,1,0,0:0:0:0:
320,192,51770,1,0,0:0:0:0:
64,192,51924,1,0,0:0:0:0:
448,192,51924,1,0,0:0:0:0:
64,192,52078,1,8,0:0:0:0:
192,192,52078,1,0,0:0:0:0:
320,192,52078,1,0,0:0:0:0:
448,192,52078,1,0,0:0:0:0:
192,192,52231,1,0,0:0:0:0:
448,192,52231,1,0,0:0:0:0:
64,192,52385,1,2,0:0:0:0:
320,192,52385,1,0,0:0:0:0:
448,192,52385,1,0,0:0:0:0:
192,192,52539,1,0,0:0:0:0:
320,192,52539,1,0,0:0:0:0:
64,192,52693,1,8,0:0:0:0:
192,192,52693,1,0,0:0:0:0:
320,192,52693,1,0,0:0:0:0:
448,192,52693,1,0,0:0:0:0:
64,192,52847,1,0,0:0:0:0:
192,192,52847,1,0,0:0:0:0:
64,192,53001,1,2,0:0:0:0:
320,192,53001,1,0,0:0:0:0:
448,192,53001,1,0,0:0:0:0:
64,192,53308,1,8,0:0:0:0:
192,192,53308,1,0,0:0:0:0:
320,192,53308,1,0,0:0:0:0:
448,192,53308,1,0,0:0:0:0:
320,192,53462,128,0,53616:0:0:0:0:
448,192,53462,128,0,53616:0:0:0:0:
64,192,53616,1,2,0:0:0:0:
192,192,53616,1,0,0:0:0:0:
64,192,53770,1,0,0:0:0:0:
320,192,53770,1,0,0:0:0:0:
64,192,53924,1,0,0:0:0:70:LR4_SnareBPDT.wav
192,192,53924,1,0,0:0:0:0:
320,192,53924,1,0,0:0:0:0:
448,192,53924,1,0,0:0:0:0:
192,192,54078,1,0,0:0:0:0:
64,192,54231,1,2,0:0:0:0:
320,192,54231,1,4,0:0:0:0:
448,192,54231,1,0,0:0:0:0:
64,192,54385,1,2,0:0:0:0:
320,192,54385,1,0,0:0:0:0:
448,192,54385,1,0,0:0:0:0:
64,192,54539,1,4,0:0:0:0:
192,192,54539,1,8,0:0:0:0:
320,192,54539,1,0,0:0:0:0:
448,192,54539,1,0,0:0:0:0:
320,192,54693,1,0,0:0:0:0:
448,192,54693,1,0,0:0:0:0:
192,192,54770,1,0,0:0:0:0:
64,192,54847,1,2,0:0:0:0:
320,192,54847,1,0,0:0:0:0:
448,192,54847,1,0,0:0:0:0:
64,192,55001,1,0,0:0:0:0:
448,192,55001,1,0,0:0:0:0:
64,192,55154,1,8,0:0:0:0:
192,192,55154,1,0,0:0:0:0:
320,192,55154,1,0,0:0:0:0:
448,192,55154,1,0,0:0:0:0:
64,192,55308,1,0,0:0:0:0:
320,192,55308,1,0,0:0:0:0:
64,192,55462,1,2,0:0:0:0:
192,192,55462,1,0,0:0:0:0:
320,192,55462,1,0,0:0:0:0:
64,192,55616,1,0,0:0:0:0:
448,192,55616,1,0,0:0:0:0:
64,192,55770,1,8,0:0:0:0:
192,192,55770,1,0,0:0:0:0:
320,192,55770,1,0,0:0:0:0:
448,192,55770,1,0,0:0:0:0:
192,192,55924,1,0,0:0:0:0:
448,192,55924,1,0,0:0:0:0:
64,192,56078,1,2,0:0:0:0:
320,192,56078,1,0,0:0:0:0:
448,192,56078,1,0,0:0:0:0:
64,192,56231,1,0,0:0:0:0:
448,192,56231,1,0,0:0:0:0:
64,192,56385,1,8,0:0:0:0:
192,192,56385,1,0,0:0:0:0:
320,192,56385,1,0,0:0:0:0:
448,192,56385,1,0,0:0:0:0:
64,192,56539,1,0,0:0:0:0:
320,192,56539,1,0,0:0:0:0:
192,192,56693,128,2,56847:0:0:0:0:
320,192,56693,1,0,0:0:0:0:
448,192,56693,1,0,0:0:0:0:
64,192,56847,1,0,0:0:0:0:
448,192,56847,1,0,0:0:0:0:
64,192,57001,1,8,0:0:0:0:
192,192,57001,1,0,0:0:0:0:
320,192,57001,1,0,0:0:0:0:
448,192,57001,1,0,0:0:0:0:
64,192,57154,1,0,0:0:0:0:
320,192,57154,1,0,0:0:0:0:
64,192,57308,1,2,0:0:0:0:
192,192,57308,1,0,0:0:0:0:
448,192,57308,1,0,0:0:0:0:
64,192,57462,1,0,0:0:0:0:
448,192,57462,1,0,0:0:0:0:
64,192,57616,1,8,0:0:0:0:
192,192,57616,1,0,0:0:0:0:
320,192,57616,1,0,0:0:0:0:
448,192,57616,1,0,0:0:0:0:
192,192,57770,1,0,0:0:0:0:
448,192,57770,1,0,0:0:0:0:
64,192,57924,1,2,0:0:0:0:
320,192,57924,1,4,0:0:0:0:
448,192,57924,1,0,0:0:0:0:
64,192,58078,1,0,0:0:0:70:LR4_SnareBPDT.wav
192,192,58078,1,0,0:0:0:0:
320,192,58078,1,0,0:0:0:0:
448,192,58078,1,0,0:0:0:0:
64,192,58231,1,0,0:0:0:70:LR4_SnareBPDT.wav
192,192,58231,1,0,0:0:0:0:
320,192,58231,1,0,0:0:0:0:
448,192,58231,1,0,0:0:0:0:
64,192,58385,1,2,0:0:0:0:
192,192,58385,1,4,0:0:0:0:
320,192,58385,1,0,0:0:0:0:
448,192,58539,128,0,58693:0:0:0:0:
64,192,58847,1,0,0:0:0:70:LR4_SnareBPDT.wav
192,192,58847,1,0,0:0:0:0:
320,192,58847,1,0,0:0:0:0:
448,192,58847,1,0,0:0:0:0:
64,192,59001,1,0,0:0:0:70:LR4_SnareBPDT.wav
192,192,59001,1,0,0:0:0:0:
320,192,59001,1,0,0:0:0:0:
448,192,59001,1,0,0:0:0:0:
64,192,59154,1,2,0:0:0:0:
192,192,59154,1,0,0:0:0:0:
320,192,59154,1,0,0:0:0:0:
320,192,59308,1,0,0:0:0:0:
192,192,59462,1,0,0:0:0:0:
192,192,59616,1,0,0:0:0:0:
64,192,59770,1,4,0:0:0:0:
192,192,59770,1,8,0:0:0:0:
320,192,59770,1,0,0:0:0:0:
448,192,59770,1,0,0:0:0:0:
64,192,59924,1,0,0:0:0:0:
448,192,59924,1,0,0:0:0:0:
192,192,60001,1,0,0:0:0:0:
320,192,60001,1,0,0:0:0:0:
64,192,60078,1,0,0:0:0:0:
448,192,60078,1,0,0:0:0:0:
192,192,60154,1,0,0:0:0:0:
320,192,60154,1,0,0:0:0:0:
64,192,60231,1,0,0:0:0:0:
448,192,60231,1,0,0:0:0:0:
192,192,60308,1,0,0:0:0:0:
64,192,60385,1,2,0:0:0:0:
320,192,60385,1,0,0:0:0:0:
448,192,60385,1,0,0:0:0:0:
192,192,60539,1,0,0:0:0:0:
448,192,60539,1,0,0:0:0:0:
320,192,60693,1,0,0:0:0:0:
448,192,60693,1,0,0:0:0:0:
64,192,60847,1,0,0:0:0:0:
192,192,60847,1,0,0:0:0:0:
64,192,61001,1,8,0:0:0:0:
192,192,61001,1,0,0:0:0:0:
320,192,61001,1,0,0:0:0:0:
448,192,61001,1,0,0:0:0:0:
320,192,61154,1,0,0:0:0:0:
448,192,61154,1,0,0:0:0:0:
320,192,61308,1,0,0:0:0:0:
448,192,61308,1,0,0:0:0:0:
320,192,61462,1,0,0:0:0:0:
448,192,61462,1,0,0:0:0:0:
64,192,61616,1,2,0:0:0:0:
192,192,61616,1,0,0:0:0:0:
448,192,61616,1,0,0:0:0:0:
64,192,61770,1,0,0:0:0:0:
320,192,61770,1,0,0:0:0:0:
64,192,61924,1,8,0:0:0:0:
192,192,61924,1,0,0:0:0:0:
320,192,61924,1,0,0:0:0:0:
448,192,61924,1,0,0:0:0:0:
64,192,62078,1,0,0:0:0:0:
320,192,62078,1,0,0:0:0:0:
192,192,62231,1,2,0:0:0:0:
320,192,62231,1,0,0:0:0:0:
448,192,62231,1,0,0:0:0:0:
64,192,62385,1,0,0:0:0:0:
192,192,62385,1,0,0:0:0:0:
320,192,62462,1,0,0:0:0:0:
448,192,62462,1,0,0:0:0:0:
64,192,62539,1,8,0:0:0:0:
192,192,62539,1,0,0:0:0:0:
320,192,62616,1,0,0:0:0:0:
448,192,62616,1,0,0:0:0:0:
64,192,62693,1,0,0:0:0:0:
192,192,62693,1,0,0:0:0:0:
320,192,62770,1,0,0:0:0:0:
448,192,62770,1,0,0:0:0:0:
64,192,62847,1,2,0:0:0:0:
192,192,62847,1,0,0:0:0:0:
320,192,62847,1,0,0:0:0:0:
64,192,63154,1,8,0:0:0:0:
192,192,63154,1,0,0:0:0:0:
320,192,63154,1,0,0:0:0:0:
448,192,63154,1,0,0:0:0:0:
192,192,63308,128,0,63462:0:0:0:0:
320,192,63308,128,0,63385:0:0:0:0:
64,192,63462,1,2,0:0:0:0:
320,192,63462,1,0,0:0:0:0:
448,192,63462,1,0,0:0:0:0:
64,192,63616,1,0,0:0:0:0:
192,192,63616,1,0,0:0:0:0:
64,192,63770,1,0,0:0:0:70:LR4_SnareBPDT.wav
192,192,63770,1,0,0:0:0:0:
320,192,63770,1,0,0:0:0:0:
448,192,63770,1,0,0:0:0:0:
320,192,63924,1,0,0:0:0:0:
192,192,64078,1,0,0:0:0:0:
320,192,64231,128,0,64308:0:0:0:0:
448,192,64231,128,0,64308:0:0:0:0:
64,192,64385,1,4,0:0:0:0:
192,192,64385,1,8,0:0:0:0:
320,192,64385,1,0,0:0:0:0:
448,192,64385,1,0,0:0:0:0:
64,192,64539,1,0,0:0:0:0:
192,192,64539,1,0,0:0:0:0:
320,192,64616,1,0,0:0:0:0:
64,192,64693,1,2,0:0:0:0:
192,192,64693,1,0,0:0:0:0:
448,192,64693,1,0,0:0:0:0:
64,192,64847,1,0,0:0:0:0:
448,192,64847,1,0,0:0:0:0:
64,192,65001,1,8,0:0:0:0:
192,192,65001,1,0,0:0:0:0:
320,192,65001,1,0,0:0:0:0:
448,192,65001,1,0,0:0:0:0:
192,192,65154,1,0,0:0:0:0:
448,192,65154,1,0,0:0:0:0:
192,192,65308,1,2,0:0:0:0:
320,192,65308,1,0,0:0:0:0:
448,192,65308,1,0,0:0:0:0:
64,192,65462,1,0,0:0:0:0:
448,192,65462,1,0,0:0:0:0:
64,192,65616,1,8,0:0:0:0:
192,192,65616,1,0,0:0:0:0:
320,192,65616,1,0,0:0:0:0:
448,192,65616,1,0,0:0:0:0:
192,192,65770,1,0,0:0:0:0:
448,192,65770,1,0,0:0:0:0:
64,192,65924,1,2,0:0:0:0:
320,192,65924,1,0,0:0:0:0:
448,192,65924,1,0,0:0:0:0:
64,192,66078,1,0,0:0:0:0:
448,192,66078,1,0,0:0:0:0:
64,192,66231,1,8,0:0:0:0:
192,192,66231,1,0,0:0:0:0:
320,192,66231,1,0,0:0:0:0:
448,192,66231,1,0,0:0:0:0:
192,192,66385,1,0,0:0:0:0:
448,192,66385,1,0,0:0:0:0:
64,192,66539,1,2,0:0:0:0:
192,192,66539,1,0,0:0:0:0:
320,192,66539,128,0,66693:0:0:0:0:
64,192,66693,1,0,0:0:0:0:
448,192,66693,1,0,0:0:0:0:
64,192,66847,1,8,0:0:0:0:
192,192,66847,1,0,0:0:0:0:
320,192,66847,1,0,0:0:0:0:
448,192,66847,1,0,0:0:0:0:
64,192,67001,1,0,0:0:0:0:
320,192,67001,1,0,0:0:0:0:
64,192,67154,1,2,0:0:0:0:
192,192,67154,1,0,0:0:0:0:
448,192,67154,1,0,0:0:0:0:
64,192,67308,1,0,0:0:0:0:
448,192,67308,1,0,0:0:0:0:
64,192,67462,1,8,0:0:0:0:
192,192,67462,1,0,0:0:0:0:
320,192,67462,1,0,0:0:0:0:
448,192,67462,1,0,0:0:0:0:
64,192,67616,1,0,0:0:0:0:
320,192,67616,1,0,0:0:0:0:
64,192,67770,1,2,0:0:0:0:
192,192,67770,1,4,0:0:0:0:
320,192,67770,1,0,0:0:0:0:
448,192,67770,1,0,0:0:0:0:
192,192,67924,1,0,0:0:0:0:
320,192,68078,1,0,0:0:0:0:
192,192,68231,1,0,0:0:0:0:
64,192,68385,1,0,0:0:0:70:LR4_SnareBPDT.wav
320,192,68385,1,0,0:0:0:0:
448,192,68385,1,0,0:0:0:0:
64,192,68539,1,0,0:0:0:70:LR4_SnareBPDT.wav
320,192,68539,1,0,0:0:0:0:
448,192,68539,1,0,0:0:0:0:
64,192,68693,1,0,0:0:0:70:LR4_SnareBPDT.wav
192,192,68693,1,0,0:0:0:0:
448,192,68693,1,0,0:0:0:0:
64,192,68847,1,0,0:0:0:70:LR4_SnareBPDT.wav
192,192,68847,1,0,0:0:0:0:
448,192,68847,1,0,0:0:0:0:
64,192,69001,1,2,0:0:0:0:
192,192,69001,1,4,0:0:0:0:
320,192,69001,1,0,0:0:0:0:
448,192,69001,1,0,0:0:0:0:
320,192,69154,1,0,0:0:0:0:
448,192,69154,1,0,0:0:0:0:
64,192,69308,1,2,0:0:0:0:
192,192,69308,1,0,0:0:0:0:
320,192,69308,1,0,0:0:0:0:
448,192,69308,1,0,0:0:0:0:
64,192,69462,1,0,0:0:0:0:
192,192,69462,1,0,0:0:0:0:
64,192,69616,1,2,0:0:0:0:
192,192,69616,1,0,0:0:0:0:
320,192,69616,1,0,0:0:0:0:
448,192,69616,1,0,0:0:0:0:
192,192,69770,1,0,0:0:0:0:
448,192,69770,1,0,0:0:0:0:
64,192,69924,1,2,0:0:0:0:
192,192,69924,1,0,0:0:0:0:
320,192,69924,1,0,0:0:0:0:
448,192,69924,1,0,0:0:0:0:
64,192,70078,1,0,0:0:0:0:
320,192,70078,1,0,0:0:0:0:
64,192,70231,1,2,0:0:0:0:
192,192,70231,1,0,0:0:0:0:
320,192,70231,1,0,0:0:0:0:
448,192,70231,1,0,0:0:0:0:
64,192,70385,1,0,0:0:0:0:
448,192,70385,1,0,0:0:0:0:
64,192,70539,1,2,0:0:0:0:
192,192,70539,1,0,0:0:0:0:
320,192,70539,1,0,0:0:0:0:
448,192,70539,1,0,0:0:0:0:
192,192,70693,1,0,0:0:0:0:
320,192,70693,1,0,0:0:0:0:
64,192,70847,1,2,0:0:0:0:
192,192,70847,1,0,0:0:0:0:
320,192,70847,1,0,0:0:0:0:
448,192,70847,1,0,0:0:0:0:
64,192,71001,1,0,0:0:0:0:
320,192,71001,1,0,0:0:0:0:
64,192,71154,1,2,0:0:0:0:
192,192,71154,1,0,0:0:0:0:
320,192,71154,1,0,0:0:0:0:
448,192,71154,1,0,0:0:0:0:
192,192,71308,1,0,0:0:0:0:
448,192,71308,1,0,0:0:0:0:
64,192,71462,1,2,0:0:0:0:
192,192,71462,1,0,0:0:0:0:
320,192,71462,1,0,0:0:0:0:
448,192,71462,1,0,0:0:0:0:
64,192,71616,1,0,0:0:0:0:
192,192,71616,1,0,0:0:0:0:
64,192,71770,1,2,0:0:0:0:
192,192,71770,1,0,0:0:0:0:
320,192,71770,1,0,0:0:0:0:
448,192,71770,1,0,0:0:0:0:
320,192,71924,1,0,0:0:0:0:
448,192,71924,1,0,0:0:0:0:
64,192,72078,1,2,0:0:0:0:
192,192,72078,1,0,0:0:0:0:
320,192,72078,1,0,0:0:0:0:
448,192,72078,1,0,0:0:0:0:
64,192,72231,1,0,0:0:0:0:
320,192,72231,1,0,0:0:0:0:
64,192,72385,1,2,0:0:0:0:
192,192,72385,1,0,0:0:0:0:
320,192,72385,1,0,0:0:0:0:
448,192,72385,1,0,0:0:0:0:
192,192,72539,1,0,0:0:0:0:
448,192,72539,1,0,0:0:0:0:
64,192,72693,1,2,0:0:0:0:
192,192,72693,1,0,0:0:0:0:
320,192,72693,1,0,0:0:0:0:
448,192,72693,1,0,0:0:0:0:
192,192,72847,1,0,0:0:0:0:
320,192,72847,1,0,0:0:0:0:
64,192,73001,1,2,0:0:0:0:
192,192,73001,1,0,0:0:0:0:
320,192,73001,1,0,0:0:0:0:
448,192,73001,1,0,0:0:0:0:
64,192,73154,1,0,0:0:0:0:
448,192,73154,1,0,0:0:0:0:
64,192,73308,1,2,0:0:0:0:
192,192,73308,1,0,0:0:0:0:
320,192,73308,1,0,0:0:0:0:
448,192,73308,1,0,0:0:0:0:
192,192,73462,1,0,0:0:0:0:
448,192,73462,1,0,0:0:0:0:
64,192,73616,1,0,0:0:0:70:LR4_SnareBPDT.wav
192,192,73616,1,0,0:0:0:0:
320,192,73616,1,0,0:0:0:0:
448,192,73616,1,0,0:0:0:0:
64,192,73924,1,2,0:0:0:0:
192,192,73924,1,0,0:0:0:0:
320,192,73924,1,0,0:0:0:0:
64,192,74078,1,2,0:0:0:0:
192,192,74078,1,0,0:0:0:0:
320,192,74078,1,0,0:0:0:0:
64,192,74231,1,2,0:0:0:0:
192,192,74231,1,4,0:0:0:0:
320,192,74231,1,0,0:0:0:0:
448,192,74231,1,0,0:0:0:0:
192,192,74385,1,0,0:0:0:0:
448,192,74385,1,0,0:0:0:0:
64,192,74539,1,2,0:0:0:0:
192,192,74539,1,0,0:0:0:0:
320,192,74539,1,0,0:0:0:0:
448,192,74539,1,0,0:0:0:0:
64,192,74693,1,0,0:0:0:0:
192,192,74693,1,0,0:0:0:0:
64,192,74847,1,2,0:0:0:0:
192,192,74847,1,0,0:0:0:0:
320,192,74847,1,0,0:0:0:0:
448,192,74847,1,0,0:0:0:0:
64,192,75001,1,0,0:0:0:0:
448,192,75001,1,0,0:0:0:0:
64,192,75154,1,2,0:0:0:0:
192,192,75154,1,0,0:0:0:0:
320,192,75154,1,0,0:0:0:0:
448,192,75154,1,0,0:0:0:0:
192,192,75308,1,0,0:0:0:0:
448,192,75308,1,0,0:0:0:0:
64,192,75462,1,2,0:0:0:0:
192,192,75462,1,0,0:0:0:0:
320,192,75462,1,0,0:0:0:0:
448,192,75462,1,0,0:0:0:0:
192,192,75616,1,0,0:0:0:0:
320,192,75616,1,0,0:0:0:0:
64,192,75770,1,2,0:0:0:0:
192,192,75770,1,0,0:0:0:0:
320,192,75770,1,0,0:0:0:0:
448,192,75770,1,0,0:0:0:0:
64,192,75924,1,0,0:0:0:0:
192,192,75924,1,0,0:0:0:0:
64,192,76078,1,2,0:0:0:0:
192,192,76078,1,0,0:0:0:0:
320,192,76078,1,0,0:0:0:0:
448,192,76078,1,0,0:0:0:0:
320,192,76231,1,0,0:0:0:0:
448,192,76231,1,0,0:0:0:0:
64,192,76385,1,4,0:0:0:0:
192,192,76385,1,2,0:0:0:0:
320,192,76385,1,0,0:0:0:0:
64,192,76693,1,2,0:0:0:0:
192,192,76693,1,4,0:0:0:0:
320,192,76693,1,0,0:0:0:0:
64,192,77001,1,2,0:0:0:0:
192,192,77001,1,4,0:0:0:0:
320,192,77001,1,0,0:0:0:0:
64,192,77308,1,2,0:0:0:0:
192,192,77308,1,4,0:0:0:0:
320,192,77308,1,0,0:0:0:0:
64,192,77616,1,2,0:0:0:0:
320,192,77616,1,4,0:0:0:0:
448,192,77616,1,0,0:0:0:0:
64,192,77770,1,0,0:0:0:70:LR4_SnareBPDT.wav
192,192,77770,1,0,0:0:0:0:
320,192,77770,1,0,0:0:0:0:
448,192,77770,1,0,0:0:0:0:
64,192,77924,1,0,0:0:0:70:LR4_SnareBPDT.wav
192,192,77924,1,0,0:0:0:0:
320,192,77924,1,0,0:0:0:0:
448,192,77924,1,0,0:0:0:0:
192,192,78078,1,2,0:0:0:0:
320,192,78078,1,8,0:0:0:0:
448,192,78078,1,0,0:0:0:0:
64,192,78231,1,0,0:0:0:0:
192,192,78308,1,0,0:0:0:0:
64,192,78385,1,0,0:0:0:0:
192,192,78462,1,0,0:0:0:0:
64,192,78539,1,0,0:0:0:70:LR4_SnareBPDT.wav
320,192,78539,1,0,0:0:0:0:
448,192,78539,1,0,0:0:0:0:
64,192,78693,1,0,0:0:0:70:LR4_SnareBPDT.wav
192,192,78693,1,0,0:0:0:0:
320,192,78693,1,0,0:0:0:0:
448,192,78693,1,0,0:0:0:0:
192,192,78847,1,2,0:0:0:0:
320,192,78847,1,4,0:0:0:0:
192,192,79001,1,2,0:0:0:0:
320,192,79001,1,4,0:0:0:0:
64,192,79154,128,8,79385:0:0:0:0:
192,192,79154,128,4,79385:0:0:0:0:
320,192,79154,128,0,79385:0:0:0:0:
448,192,79154,128,0,79385:0:0:0:0:
64,192,79462,1,2,0:0:0:0:
192,192,79462,1,0,0:0:0:0:
448,192,79462,1,0,0:0:0:0:
64,192,79616,1,0,0:0:0:0:
320,192,79616,1,0,0:0:0:0:
64,192,79770,1,8,0:0:0:0:
192,192,79770,1,0,0:0:0:0:
320,192,79770,1,0,0:0:0:0:
448,192,79770,1,0,0:0:0:0:
64,192,79924,1,0,0:0:0:0:
192,192,79924,1,0,0:0:0:0:
64,192,80078,1,2,0:0:0:0:
320,192,80078,1,0,0:0:0:0:
448,192,80078,1,0,0:0:0:0:
192,192,80154,1,0,0:0:0:0:
448,192,80231,1,0,0:0:0:0:
320,192,80308,1,0,0:0:0:0:
64,192,80385,1,8,0:0:0:0:
192,192,80385,1,0,0:0:0:0:
448,192,80385,128,0,80539:0:0:0:0:
320,192,80539,128,0,80693:0:0:0:0:
64,192,80693,1,2,0:0:0:0:
192,192,80693,1,0,0:0:0:0:
448,192,80693,1,0,0:0:0:0:
64,192,80847,1,0,0:0:0:0:
320,192,80847,1,0,0:0:0:0:
64,192,81001,1,8,0:0:0:0:
192,192,81001,1,0,0:0:0:0:
320,192,81001,1,0,0:0:0:0:
448,192,81001,1,0,0:0:0:0:
192,192,81154,1,0,0:0:0:0:
448,192,81154,1,0,0:0:0:0:
64,192,81308,128,2,81462:0:0:0:0:
320,192,81308,128,0,81462:0:0:0:0:
448,192,81308,128,0,81462:0:0:0:0:
64,192,81616,128,8,81847:0:0:0:0:
192,192,81616,128,0,81847:0:0:0:0:
320,192,81616,128,0,81847:0:0:0:0:
448,192,81616,128,0,81847:0:0:0:0:
64,192,81924,1,2,0:0:0:0:
192,192,81924,1,0,0:0:0:0:
320,192,81924,1,0,0:0:0:0:
192,192,82078,1,0,0:0:0:0:
448,192,82078,1,0,0:0:0:0:
64,192,82231,1,8,0:0:0:0:
192,192,82231,1,0,0:0:0:0:
320,192,82231,1,0,0:0:0:0:
448,192,82231,1,0,0:0:0:0:
320,192,82385,1,0,0:0:0:0:
448,192,82385,1,0,0:0:0:0:
64,192,82539,1,2,0:0:0:0:
192,192,82539,1,0,0:0:0:0:
448,192,82539,1,0,0:0:0:0:
320,192,82616,1,0,0:0:0:0:
64,192,82693,1,0,0:0:0:0:
192,192,82770,1,0,0:0:0:0:
64,192,82847,128,8,83001:0:0:0:0:
320,192,82847,1,0,0:0:0:0:
448,192,82847,1,0,0:0:0:0:
192,192,83001,128,0,83154:0:0:0:0:
64,192,83154,1,2,0:0:0:0:
320,192,83154,1,0,0:0:0:0:
448,192,83154,1,0,0:0:0:0:
192,192,83308,1,0,0:0:0:0:
448,192,83308,1,0,0:0:0:0:
64,192,83462,1,0,0:0:0:70:LR4_SnareBPDT.wav
192,192,83462,1,0,0:0:0:0:
320,192,83462,1,0,0:0:0:0:
448,192,83462,1,0,0:0:0:0:
64,192,84078,128,4,84693:0:0:0:0:
192,192,84078,128,2,84308:0:0:0:0:
320,192,84078,128,0,84308:0:0:0:0:
448,192,84078,128,0,84693:0:0:0:0:
192,192,84385,128,0,84693:0:0:0:0:
320,192,84385,128,0,84693:0:0:0:0:
192,192,84847,128,0,85001:0:0:0:0:
320,192,84847,128,0,85001:0:0:0:0:
64,192,85001,1,0,0:0:0:0:
448,192,85001,1,0,0:0:0:0:
192,192,85154,1,0,0:0:0:0:
320,192,85154,1,0,0:0:0:0:
64,192,85308,128,0,85539:0:0:0:50:S4.wav
448,192,85308,128,0,85539:0:0:0:0:
64,192,85616,128,0,85924:0:0:0:0:
320,192,85616,1,0,0:0:0:0:
448,192,85616,128,0,85924:0:0:0:0:
192,192,85693,1,0,0:0:0:50:S4.wav
320,192,85770,1,0,0:0:0:50:S4.wav
192,192,85924,1,0,0:0:0:50:S4.wav
320,192,85924,1,0,0:0:0:0:
64,192,86078,1,0,0:0:0:50:S4.wav
448,192,86078,1,0,0:0:0:0:
64,192,86231,1,2,0:0:0:0:
192,192,86231,1,4,0:0:0:0:
320,192,86231,1,0,0:0:0:0:
64,192,86385,1,2,0:0:0:0:
320,192,86385,1,0,0:0:0:0:
192,192,86539,1,2,0:0:0:0:
320,192,86539,1,4,0:0:0:0:
448,192,86539,1,0,0:0:0:0:
192,192,86693,1,2,0:0:0:0:
448,192,86693,1,0,0:0:0:0:
64,192,86847,1,2,0:0:0:0:
192,192,86847,1,4,0:0:0:0:
320,192,86924,1,2,0:0:0:0:
448,192,86924,1,0,0:0:0:0:
64,192,87001,1,2,0:0:0:0:
192,192,87001,1,0,0:0:0:0:
320,192,87078,1,2,0:0:0:0:
448,192,87078,1,0,0:0:0:0:
64,192,87154,1,2,0:0:0:0:
192,192,87154,1,4,0:0:0:0:
320,192,87231,1,2,0:0:0:0:
448,192,87231,1,0,0:0:0:0:
64,192,87308,1,2,0:0:0:0:
192,192,87308,1,0,0:0:0:0:
320,192,87385,1,2,0:0:0:0:
448,192,87385,1,0,0:0:0:0:
64,192,87462,1,2,0:0:0:0:
192,192,87462,1,0,0:0:0:0:
64,192,88078,1,2,0:0:0:0:
192,192,88078,1,0,0:0:0:0:
64,192,88231,1,2,0:0:0:0:
192,192,88231,1,0,0:0:0:0:
320,192,88385,1,2,0:0:0:0:
448,192,88385,1,0,0:0:0:0:
64,192,88693,128,2,89924:0:0:0:0:
192,192,88693,1,0,0:0:0:0:
320,192,88693,1,0,0:0:0:0:
448,192,88693,1,0,0:0:0:0:
448,192,88847,1,0,0:0:0:0:
448,192,89001,1,0,0:0:0:0:
320,192,89078,1,0,0:0:0:0:
448,192,89154,1,0,0:0:0:0:
320,192,89308,1,0,0:0:0:0:
192,192,89385,1,0,0:0:0:0:
320,192,89462,1,0,0:0:0:0:
448,192,89616,1,0,0:0:0:0:
320,192,89693,1,0,0:0:0:0:
448,192,89770,1,0,0:0:0:0:
192,192,89924,1,0,0:0:0:0:
448,192,89924,128,0,93616:0:0:0:0:
320,192,90001,1,0,0:0:0:0:
192,192,90078,1,0,0:0:0:0:
64,192,90231,1,0,0:0:0:0:
192,192,90308,1,0,0:0:0:0:
64,192,90385,1,0,0:0:0:0:
320,192,90539,1,0,0:0:0:0:
64,192,90616,1,0,0:0:0:0:
320,192,90693,1,0,0:0:0:0:
64,192,90847,1,0,0:0:0:0:
320,192,90924,1,0,0:0:0:0:
64,192,91001,1,0,0:0:0:0:
192,192,91154,1,0,0:0:0:0:
320,192,91231,1,0,0:0:0:0:
192,192,91308,1,0,0:0:0:0:
64,192,91462,1,0,0:0:0:0:
192,192,91539,1,0,0:0:0:0:
64,192,91616,1,0,0:0:0:0:
320,192,91770,1,0,0:0:0:0:
192,192,91847,1,0,0:0:0:0:
320,192,91924,1,0,0:0:0:0:
64,192,92078,1,0,0:0:0:0:
320,192,92154,1,0,0:0:0:0:
64,192,92231,1,0,0:0:0:0:
192,192,92385,1,0,0:0:0:0:
64,192,92462,1,0,0:0:0:0:
192,192,92539,1,0,0:0:0:0:
320,192,92693,1,0,0:0:0:0:
192,192,92770,1,0,0:0:0:0:
320,192,92847,1,0,0:0:0:0:
64,192,93001,1,0,0:0:0:0:
192,192,93078,1,0,0:0:0:0:
64,192,93154,1,0,0:0:0:0:
64,192,93308,1,0,0:0:0:0:
320,192,93385,1,0,0:0:0:0:
64,192,93462,1,0,0:0:0:0:
64,192,93616,128,0,94847:0:0:0:0:
320,192,93616,1,0,0:0:0:0:
192,192,93693,1,0,0:0:0:0:
320,192,93770,1,0,0:0:0:0:
448,192,93924,1,0,0:0:0:0:
192,192,94001,1,0,0:0:0:0:
448,192,94078,1,0,0:0:0:0:
192,192,94231,1,0,0:0:0:0:
320,192,94308,1,0,0:0:0:0:
192,192,94385,1,0,0:0:0:0:
448,192,94539,1,0,0:0:0:0:
320,192,94616,1,0,0:0:0:0:
448,192,94693,1,0,0:0:0:0:
192,192,94847,1,0,0:0:0:0:
448,192,94847,128,0,97308:0:0:0:0:
320,192,94924,1,0,0:0:0:0:
192,192,95001,1,0,0:0:0:0:
64,192,95154,1,0,0:0:0:0:
192,192,95231,1,0,0:0:0:0:
64,192,95308,1,0,0:0:0:0:
320,192,95462,1,0,0:0:0:0:
192,192,95539,1,0,0:0:0:0:
320,192,95616,1,0,0:0:0:0:
192,192,95770,1,0,0:0:0:0:
64,192,95847,1,0,0:0:0:0:
192,192,95924,1,0,0:0:0:0:
64,192,96078,1,0,0:0:0:0:
320,192,96154,1,0,0:0:0:0:
64,192,96231,1,0,0:0:0:0:
320,192,96385,1,0,0:0:0:0:
192,192,96462,1,0,0:0:0:0:
320,192,96539,1,0,0:0:0:0:
320,192,96693,1,0,0:0:0:0:
64,192,96770,1,0,0:0:0:0:
320,192,96847,1,0,0:0:0:0:
64,192,97001,1,0,0:0:0:0:
192,192,97078,1,0,0:0:0:0:
64,192,97154,1,0,0:0:0:0:
64,192,97308,128,0,98385:0:0:0:0:
320,192,97308,1,0,0:0:0:0:
192,192,97385,1,0,0:0:0:0:
320,192,97462,1,0,0:0:0:0:
448,192,97616,1,0,0:0:0:0:
192,192,97693,1,0,0:0:0:0:
448,192,97770,1,0,0:0:0:0:
320,192,97924,1,0,0:0:0:0:
192,192,98001,1,0,0:0:0:0:
320,192,98078,1,0,0:0:0:0:
448,192,98231,1,0,0:0:0:0:
320,192,98308,1,0,0:0:0:0:
448,192,98385,1,0,0:0:0:0:
64,192,98539,1,2,0:0:0:0:
192,192,98539,1,4,0:0:0:0:
320,192,98539,1,0,0:0:0:0:
448,192,98539,1,0,0:0:0:0:
192,192,98693,1,0,0:0:0:0:
192,192,98847,1,0,0:0:0:0:
320,192,98924,1,0,0:0:0:0:
192,192,99001,1,0,0:0:0:0:
64,192,99154,1,2,0:0:0:0:
320,192,99154,1,0,0:0:0:0:
448,192,99154,1,0,0:0:0:0:
192,192,99231,1,0,0:0:0:0:
320,192,99308,1,0,0:0:0:0:
448,192,99462,1,0,0:0:0:0:
320,192,99539,1,0,0:0:0:0:
448,192,99616,1,0,0:0:0:0:
64,192,99770,1,2,0:0:0:0:
192,192,99770,1,0,0:0:0:0:
320,192,99770,1,0,0:0:0:0:
192,192,100078,1,0,0:0:0:0:
448,192,100078,1,0,0:0:0:0:
192,192,100231,1,0,0:0:0:0:
448,192,100231,1,0,0:0:0:0:
64,192,100385,1,2,0:0:0:0:
192,192,100385,1,0,0:0:0:0:
320,192,100385,1,0,0:0:0:0:
448,192,100539,1,0,0:0:0:0:
320,192,100616,1,0,0:0:0:0:
448,192,100693,1,0,0:0:0:0:
320,192,100770,1,0,0:0:0:0:
448,192,100847,1,0,0:0:0:0:
64,192,101001,1,2,0:0:0:0:
192,192,101001,1,0,0:0:0:0:
320,192,101001,1,0,0:0:0:0:
64,192,101154,1,0,0:0:0:0:
64,192,101308,1,0,0:0:0:0:
192,192,101385,1,0,0:0:0:0:
64,192,101462,1,0,0:0:0:0:
192,192,101616,1,2,0:0:0:0:
320,192,101616,1,0,0:0:0:0:
448,192,101616,1,0,0:0:0:0:
320,192,101770,1,0,0:0:0:0:
64,192,101924,1,0,0:0:0:0:
448,192,101924,1,0,0:0:0:0:
64,192,102078,1,0,0:0:0:0:
448,192,102078,1,0,0:0:0:0:
64,192,102231,1,2,0:0:0:0:
192,192,102231,1,0,0:0:0:0:
320,192,102231,1,0,0:0:0:0:
320,192,102385,1,0,0:0:0:0:
64,192,102539,1,2,0:0:0:0:
192,192,102539,1,0,0:0:0:0:
448,192,102539,1,0,0:0:0:0:
192,192,102693,1,0,0:0:0:0:
64,192,102847,1,2,0:0:0:0:
320,192,102847,1,0,0:0:0:0:
448,192,102847,1,0,0:0:0:0:
192,192,102924,1,0,0:0:0:0:
448,192,103001,1,0,0:0:0:0:
320,192,103078,1,0,0:0:0:0:
192,192,103154,1,0,0:0:0:0:
320,192,103231,1,0,0:0:0:0:
192,192,103308,1,0,0:0:0:0:
64,192,103462,1,2,0:0:0:0:
320,192,103462,1,0,0:0:0:0:
448,192,103462,1,0,0:0:0:0:
192,192,103539,1,0,0:0:0:0:
320,192,103616,1,0,0:0:0:0:
448,192,103693,1,0,0:0:0:0:
64,192,103770,1,2,0:0:0:0:
192,192,103770,1,0,0:0:0:0:
320,192,103770,1,0,0:0:0:0:
448,192,103847,1,0,0:0:0:0:
320,192,103924,1,0,0:0:0:0:
192,192,103962,1,0,0:0:0:0:
64,192,104001,1,0,0:0:0:0:
192,192,104078,1,2,0:0:0:0:
320,192,104078,1,0,0:0:0:0:
448,192,104078,1,0,0:0:0:0:
64,192,104154,1,0,0:0:0:0:
448,192,104231,1,0,0:0:0:0:
320,192,104308,1,0,0:0:0:0:
64,192,104385,1,2,0:0:0:0:
192,192,104385,1,0,0:0:0:0:
448,192,104385,1,0,0:0:0:0:
320,192,104462,1,0,0:0:0:0:
64,192,104539,1,0,0:0:0:0:
192,192,104578,1,0,0:0:0:0:
320,192,104616,1,0,0:0:0:0:
64,192,104693,1,2,0:0:0:0:
192,192,104693,1,0,0:0:0:0:
448,192,104693,1,0,0:0:0:0:
320,192,104770,1,0,0:0:0:0:
192,192,104847,1,0,0:0:0:0:
320,192,104924,1,0,0:0:0:0:
64,192,105001,1,2,0:0:0:0:
192,192,105001,1,0,0:0:0:0:
448,192,105001,1,0,0:0:0:0:
320,192,105078,1,0,0:0:0:0:
192,192,105154,1,0,0:0:0:0:
320,192,105193,1,0,0:0:0:0:
448,192,105231,1,0,0:0:0:0:
64,192,105308,1,2,0:0:0:0:
192,192,105308,1,0,0:0:0:0:
320,192,105308,1,0,0:0:0:0:
448,192,105385,1,0,0:0:0:0:
64,192,105462,1,0,0:0:0:0:
192,192,105539,1,0,0:0:0:0:
64,192,105616,1,2,0:0:0:0:
320,192,105616,1,0,0:0:0:0:
448,192,105616,1,0,0:0:0:0:
192,192,105693,1,0,0:0:0:0:
448,192,105770,1,0,0:0:0:0:
320,192,105808,1,0,0:0:0:0:
192,192,105847,1,0,0:0:0:0:
64,192,105924,1,2,0:0:0:0:
320,192,105924,1,0,0:0:0:0:
448,192,105924,1,0,0:0:0:0:
64,192,106078,1,2,0:0:0:0:
320,192,106078,1,0,0:0:0:0:
448,192,106078,1,0,0:0:0:0:
64,192,106231,1,2,0:0:0:0:
192,192,106231,1,0,0:0:0:0:
448,192,106231,1,0,0:0:0:0:
64,192,106385,1,2,0:0:0:0:
192,192,106385,1,0,0:0:0:0:
448,192,106385,1,0,0:0:0:0:
192,192,106539,1,2,0:0:0:0:
320,192,106539,1,0,0:0:0:0:
448,192,106539,1,0,0:0:0:0:
192,192,106693,1,2,0:0:0:0:
320,192,106693,1,0,0:0:0:0:
448,192,106693,1,0,0:0:0:0:
64,192,106847,1,2,0:0:0:0:
192,192,106847,1,0,0:0:0:0:
320,192,106847,1,0,0:0:0:0:
64,192,107001,1,2,0:0:0:0:
192,192,107001,1,0,0:0:0:0:
320,192,107001,1,0,0:0:0:0:
64,192,107154,1,2,0:0:0:0:
192,192,107154,1,4,0:0:0:0:
320,192,107154,1,0,0:0:0:0:
448,192,107154,1,0,0:0:0:0:
448,192,108078,1,0,0:0:0:0:
448,192,108231,1,0,0:0:0:0:
64,192,108385,1,2,0:0:0:0:
192,192,108385,1,4,0:0:0:0:
320,192,108385,1,0,0:0:0:0:
448,192,108385,1,0,0:0:0:0:
192,192,108488,1,0,0:0:0:0:
320,192,108590,1,0,0:0:0:0:
64,192,108693,1,0,0:0:0:50:S4.wav
192,192,108693,1,0,0:0:0:0:
448,192,108693,1,0,0:0:0:0:
320,192,108770,1,0,0:0:0:0:
192,192,108847,1,0,0:0:0:0:
64,192,108924,1,0,0:0:0:0:
320,192,109001,1,0,0:0:0:0:
64,192,109154,1,0,0:0:0:50:S4.wav
192,192,109154,1,0,0:0:0:0:
448,192,109154,1,0,0:0:0:0:
64,192,109462,1,0,0:0:0:50:S4.wav
192,192,109462,1,0,0:0:0:0:
448,192,109462,1,0,0:0:0:0:
192,192,109616,1,0,0:0:0:0:
448,192,109693,1,0,0:0:0:0:
64,192,109770,1,0,0:0:0:0:
192,192,109847,1,0,0:0:0:0:
64,192,109924,1,2,0:0:0:0:
320,192,109924,1,0,0:0:0:0:
448,192,109924,1,0,0:0:0:0:
192,192,110001,1,0,0:0:0:0:
320,192,110078,1,0,0:0:0:0:
448,192,110154,1,0,0:0:0:0:
192,192,110231,128,0,110385:0:0:0:0:
64,192,110385,1,0,0:0:0:50:S4.wav
320,192,110385,1,0,0:0:0:0:
448,192,110385,1,0,0:0:0:0:
64,192,110539,1,0,0:0:0:70:LR4_SnareBPDT.wav
192,192,110539,1,0,0:0:0:0:
320,192,110539,1,0,0:0:0:0:
448,192,110539,1,0,0:0:0:0:
64,192,110847,1,2,0:0:0:0:
320,192,110847,1,4,0:0:0:0:
448,192,110847,1,0,0:0:0:0:
192,192,110924,1,0,0:0:0:0:
320,192,111001,1,0,0:0:0:0:
448,192,111078,1,0,0:0:0:0:
64,192,111154,1,0,0:0:0:50:S4.wav
192,192,111154,1,0,0:0:0:0:
320,192,111154,1,0,0:0:0:0:
448,192,111231,1,0,0:0:0:0:
64,192,111308,1,0,0:0:0:0:
448,192,111385,1,0,0:0:0:0:
64,192,111462,1,2,0:0:0:0:
192,192,111462,1,4,0:0:0:0:
320,192,111462,1,0,0:0:0:0:
448,192,111539,1,0,0:0:0:0:
320,192,111616,1,0,0:0:0:0:
192,192,111693,1,0,0:0:0:0:
64,192,111770,1,0,0:0:0:50:S4.wav
320,192,111770,1,0,0:0:0:0:
448,192,111770,1,0,0:0:0:0:
192,192,111847,1,0,0:0:0:0:
448,192,111924,1,0,0:0:0:0:
192,192,112001,1,0,0:0:0:0:
320,192,112078,1,2,0:0:0:0:
448,192,112078,1,4,0:0:0:0:
64,192,112154,1,2,0:0:0:0:
192,192,112154,1,0,0:0:0:0:
320,192,112231,1,2,0:0:0:0:
448,192,112231,1,0,0:0:0:0:
64,192,112308,1,2,0:0:0:0:
192,192,112308,1,0,0:0:0:0:
320,192,112385,1,2,0:0:0:0:
448,192,112385,1,0,0:0:0:50:S4.wav
64,192,112693,1,0,0:0:0:70:LR4_SnareBPDT.wav
192,192,112693,1,0,0:0:0:0:
320,192,112693,1,0,0:0:0:0:
448,192,112693,1,0,0:0:0:0:
64,192,112847,1,2,0:0:0:0:
320,192,112847,1,0,0:0:0:0:
192,192,112924,1,2,0:0:0:0:
448,192,112924,1,0,0:0:0:0:
64,192,113001,1,2,0:0:0:0:
320,192,113001,1,4,0:0:0:0:
64,192,113154,1,8,0:0:0:0:
448,192,113154,1,0,0:0:0:0:
64,192,113308,1,2,0:0:0:0:
192,192,113308,1,4,0:0:0:0:
320,192,113308,1,0,0:0:0:0:
448,192,113308,128,0,113616:0:0:0:0:
64,192,113616,128,8,113924:0:0:0:0:
192,192,113616,1,2,0:0:0:0:
320,192,113616,1,0,0:0:0:0:
448,192,113770,128,0,113924:0:0:0:0:
192,192,113924,1,2,0:0:0:0:
320,192,113924,1,0,0:0:0:0:
192,192,114078,128,0,114462:0:0:0:0:
64,192,114231,1,8,0:0:0:0:
320,192,114231,128,2,114539:0:0:0:0:
448,192,114231,1,0,0:0:0:0:
64,192,114539,1,2,0:0:0:0:
192,192,114539,128,0,114847:0:0:0:0:
448,192,114539,1,0,0:0:0:0:
320,192,114693,128,0,114847:0:0:0:0:
64,192,114847,1,8,0:0:0:0:
448,192,114847,1,2,0:0:0:0:
448,192,115001,128,0,115385:0:0:0:0:
64,192,115154,1,2,0:0:0:0:
192,192,115154,1,0,0:0:0:0:
64,192,115462,1,8,0:0:0:0:
192,192,115462,1,2,0:0:0:0:
320,192,115462,1,0,0:0:0:0:
448,192,115462,1,0,0:0:0:0:
192,192,115770,128,2,115924:0:0:0:0:
448,192,115770,128,0,115924:0:0:0:0:
64,192,115924,1,0,0:0:0:0:
320,192,115924,1,0,0:0:0:0:
64,192,116078,1,0,0:0:0:0:
192,192,116078,1,0,0:0:0:0:
448,192,116078,1,0,0:0:0:0:
320,192,116154,1,0,0:0:0:0:
192,192,116231,1,0,0:0:0:0:
64,192,116308,1,0,0:0:0:0:
192,192,116385,1,0,0:0:0:50:S4.wav
320,192,116385,1,0,0:0:0:0:
448,192,116385,1,0,0:0:0:0:
64,192,116462,1,0,0:0:0:0:
320,192,116539,1,0,0:0:0:0:
448,192,116539,1,0,0:0:0:0:
64,192,116693,1,2,0:0:0:0:
192,192,116693,1,0,0:0:0:0:
64,192,116847,1,0,0:0:0:70:LR4_SnareBPDT.wav
192,192,116847,1,0,0:0:0:0:
320,192,116847,1,0,0:0:0:0:
448,192,116847,1,0,0:0:0:0:
64,192,117001,1,0,0:0:0:0:
448,192,117001,1,0,0:0:0:0:
192,192,117078,1,0,0:0:0:0:
64,192,117154,1,0,0:0:0:50:S4.wav
320,192,117154,1,0,0:0:0:0:
448,192,117154,1,0,0:0:0:0:
192,192,117308,1,2,0:0:0:0:
320,192,117308,1,0,0:0:0:0:
192,192,117462,1,0,0:0:0:0:
320,192,117539,1,0,0:0:0:0:
64,192,117616,1,0,0:0:0:70:LR4_SnareBPDT.wav
192,192,117616,1,0,0:0:0:0:
448,192,117616,1,0,0:0:0:0:
64,192,117924,1,0,0:0:0:70:LR4_SnareBPDT.wav
192,192,117924,1,0,0:0:0:0:
320,192,117924,1,0,0:0:0:0:
448,192,117924,1,0,0:0:0:0:
64,192,118078,1,0,0:0:0:70:LR4_SnareBPDT.wav
192,192,118078,1,0,0:0:0:0:
320,192,118078,1,0,0:0:0:0:
448,192,118078,1,0,0:0:0:0:
64,192,118231,1,2,0:0:0:0:
320,192,118231,1,4,0:0:0:0:
448,192,118231,1,0,0:0:0:0:
192,192,118334,1,0,0:0:0:0:
320,192,118436,1,0,0:0:0:0:
64,192,118539,1,0,0:0:0:70:LR4_SnareBPDT.wav
192,192,118539,1,0,0:0:0:0:
448,192,118539,1,0,0:0:0:0:
320,192,118616,1,0,0:0:0:0:
64,192,118693,1,2,0:0:0:0:
448,192,118693,1,0,0:0:0:0:
320,192,118770,1,0,0:0:0:0:
64,192,118847,1,0,0:0:0:0:
192,192,118847,1,0,0:0:0:0:
64,192,119001,1,0,0:0:0:70:LR4_SnareBPDT.wav
192,192,119001,1,0,0:0:0:0:
320,192,119001,1,0,0:0:0:0:
448,192,119001,1,0,0:0:0:0:
192,192,119308,1,2,0:0:0:0:
320,192,119308,1,0,0:0:0:0:
448,192,119308,1,0,0:0:0:0:
64,192,119462,1,0,0:0:0:0:
192,192,119539,1,0,0:0:0:0:
64,192,119616,1,0,0:0:0:70:LR4_SnareBPDT.wav
320,192,119616,1,0,0:0:0:0:
448,192,119616,1,0,0:0:0:0:
192,192,119693,1,0,0:0:0:0:
448,192,119770,1,0,0:0:0:0:
320,192,119847,1,0,0:0:0:0:
64,192,119924,1,2,0:0:0:0:
192,192,119924,1,0,0:0:0:0:
448,192,120001,1,0,0:0:0:0:
64,192,120078,128,0,120308:0:0:0:0:
320,192,120078,128,0,120308:0:0:0:0:
64,192,120385,1,0,0:0:0:70:LR4_SnareBPDT.wav
192,192,120385,1,0,0:0:0:0:
320,192,120385,1,0,0:0:0:0:
448,192,120385,1,0,0:0:0:0:
64,192,120693,1,2,0:0:0:0:
320,192,120693,1,4,0:0:0:0:
192,192,120770,1,0,0:0:0:0:
320,192,120847,1,0,0:0:0:0:
192,192,120924,1,0,0:0:0:0:
64,192,121001,1,0,0:0:0:50:S4.wav
320,192,121001,1,0,0:0:0:0:
448,192,121001,1,0,0:0:0:0:
192,192,121078,1,0,0:0:0:0:
64,192,121154,1,2,0:0:0:0:
448,192,121154,1,0,0:0:0:0:
320,192,121231,1,0,0:0:0:0:
192,192,121308,1,0,0:0:0:0:
64,192,121385,1,0,0:0:0:0:
192,192,121462,1,0,0:0:0:50:S4.wav
320,192,121462,1,0,0:0:0:0:
448,192,121462,1,0,0:0:0:0:
64,192,121539,1,0,0:0:0:0:
192,192,121616,1,8,0:0:0:0:
320,192,121616,1,0,0:0:0:0:
448,192,121616,1,0,0:0:0:0:
64,192,121693,1,0,0:0:0:0:
192,192,121770,1,0,0:0:0:0:
320,192,121847,1,0,0:0:0:0:
64,192,121924,1,2,0:0:0:0:
448,192,121924,1,0,0:0:0:0:
192,192,122001,1,2,0:0:0:0:
320,192,122001,1,0,0:0:0:0:
64,192,122078,1,2,0:0:0:0:
448,192,122078,1,0,0:0:0:0:
192,192,122154,1,2,0:0:0:0:
320,192,122154,1,0,0:0:0:0:
64,192,122231,1,2,0:0:0:0:
448,192,122231,1,0,0:0:0:0:
64,192,122539,1,0,0:0:0:70:LR4_SnareBPDT.wav
192,192,122539,1,0,0:0:0:0:
320,192,122539,1,0,0:0:0:0:
448,192,122539,1,0,0:0:0:0:
192,192,122693,1,2,0:0:0:0:
448,192,122693,1,0,0:0:0:0:
64,192,122770,1,2,0:0:0:0:
320,192,122770,1,0,0:0:0:0:
192,192,122847,1,8,0:0:0:0:
448,192,122847,1,0,0:0:0:0:
64,192,123001,1,2,0:0:0:0:
448,192,123001,1,0,0:0:0:0:
64,192,123154,1,4,0:0:0:0:
192,192,123154,1,2,0:0:0:0:
320,192,123231,1,2,0:0:0:0:
448,192,123231,1,0,0:0:0:0:
64,192,123308,1,2,0:0:0:0:
192,192,123308,1,0,0:0:0:0:
320,192,123385,1,2,0:0:0:0:
64,192,123462,1,8,0:0:0:0:
448,192,123462,1,0,0:0:0:0:
192,192,123539,1,2,0:0:0:0:
320,192,123539,1,0,0:0:0:0:
64,192,123616,1,2,0:0:0:0:
448,192,123616,1,0,0:0:0:0:
192,192,123693,1,2,0:0:0:0:
320,192,123770,1,8,0:0:0:0:
448,192,123770,1,0,0:0:0:0:
64,192,123847,1,2,0:0:0:0:
192,192,123847,1,0,0:0:0:0:
448,192,123924,1,2,0:0:0:0:
320,192,123962,1,2,0:0:0:0:
192,192,124001,1,2,0:0:0:0:
64,192,124039,1,2,0:0:0:0:
320,192,124078,1,8,0:0:0:0:
448,192,124078,1,0,0:0:0:0:
64,192,124154,1,2,0:0:0:0:
192,192,124154,1,0,0:0:0:0:
320,192,124231,1,2,0:0:0:0:
448,192,124231,1,0,0:0:0:0:
64,192,124308,1,2,0:0:0:0:
192,192,124308,1,0,0:0:0:0:
320,192,124385,1,2,0:0:0:0:
448,192,124385,1,0,0:0:0:0:
64,192,124539,1,0,0:0:0:70:LR4_SnareBPDT.wav
192,192,124539,1,0,0:0:0:0:
320,192,124539,1,0,0:0:0:0:
448,192,124539,1,0,0:0:0:0:
64,192,124616,1,2,0:0:0:0:
192,192,124616,1,0,0:0:0:0:
320,192,124693,1,0,0:0:0:0:
64,192,124847,1,2,0:0:0:0:
192,192,124847,1,0,0:0:0:0:
64,192,125001,1,0,0:0:0:70:LR4_SnareBPDT.wav
192,192,125001,1,0,0:0:0:0:
320,192,125001,1,0,0:0:0:0:
448,192,125001,1,0,0:0:0:0:
320,192,125078,1,2,0:0:0:0:
448,192,125078,1,0,0:0:0:0:
64,192,125308,1,2,0:0:0:0:
320,192,125308,1,0,0:0:0:0:
64,192,125462,1,0,0:0:0:70:LR4_SnareBPDT.wav
192,192,125462,1,0,0:0:0:0:
320,192,125462,1,0,0:0:0:0:
448,192,125462,1,0,0:0:0:0:
64,192,125616,1,2,0:0:0:0:
320,192,125616,1,4,0:0:0:0:
448,192,125616,1,0,0:0:0:0:
192,192,125770,1,0,0:0:0:0:
192,192,125924,1,0,0:0:0:0:
320,192,126001,1,0,0:0:0:0:
192,192,126078,1,0,0:0:0:0:
320,192,126154,1,0,0:0:0:0:
64,192,126231,1,0,0:0:0:50:S4.wav
192,192,126231,1,0,0:0:0:0:
448,192,126231,1,0,0:0:0:0:
192,192,126385,1,0,0:0:0:0:
448,192,126385,1,0,0:0:0:0:
64,192,126539,1,2,0:0:0:0:
192,192,126539,1,0,0:0:0:0:
320,192,126539,1,0,0:0:0:0:
64,192,126693,1,0,0:0:0:70:LR4_SnareBPDT.wav
192,192,126693,1,0,0:0:0:0:
320,192,126693,1,0,0:0:0:0:
448,192,126693,1,0,0:0:0:0:
192,192,126847,1,4,0:0:0:0:
448,192,126847,1,0,0:0:0:0:
64,192,126924,1,0,0:0:0:0:
320,192,126924,1,0,0:0:0:0:
192,192,127001,1,0,0:0:0:50:S4.wav
448,192,127001,1,0,0:0:0:0:
320,192,127078,1,0,0:0:0:0:
64,192,127154,1,2,0:0:0:0:
192,192,127154,1,0,0:0:0:0:
448,192,127154,1,0,0:0:0:0:
64,192,127308,1,0,0:0:0:0:
192,192,127308,1,0,0:0:0:0:
320,192,127385,1,0,0:0:0:0:
64,192,127462,1,4,0:0:0:0:
448,192,127462,1,8,0:0:0:0:
192,192,127539,1,0,0:0:0:0:
320,192,127539,1,0,0:0:0:0:
64,192,127616,1,0,0:0:0:0:
448,192,127616,1,0,0:0:0:0:
192,192,127693,1,0,0:0:0:0:
320,192,127693,1,0,0:0:0:0:
64,192,127770,128,0,128001:0:0:0:0:
448,192,127770,128,0,128001:0:0:0:0:
64,192,128078,1,2,0:0:0:0:
192,192,128078,1,4,0:0:0:0:
320,192,128078,1,0,0:0:0:0:
448,192,128078,1,0,0:0:0:0:
320,192,128154,1,0,0:0:0:0:
64,192,128385,1,8,0:0:0:0:
192,192,128385,1,2,0:0:0:0:
320,192,128385,1,0,0:0:0:0:
448,192,128385,1,0,0:0:0:0:
192,192,128539,1,0,0:0:0:0:
448,192,128539,1,0,0:0:0:0:
64,192,128693,1,2,0:0:0:0:
320,192,128693,1,0,0:0:0:0:
448,192,128693,1,0,0:0:0:0:
192,192,128770,1,0,0:0:0:0:
64,192,128847,1,0,0:0:0:0:
448,192,128847,1,0,0:0:0:0:
320,192,128924,1,0,0:0:0:0:
64,192,129001,1,8,0:0:0:0:
192,192,129001,1,2,0:0:0:0:
448,192,129001,1,0,0:0:0:0:
320,192,129078,1,0,0:0:0:0:
64,192,129154,1,0,0:0:0:0:
448,192,129154,1,0,0:0:0:0:
192,192,129231,1,0,0:0:0:0:
64,192,129308,1,2,0:0:0:0:
320,192,129308,1,0,0:0:0:0:
448,192,129308,1,0,0:0:0:0:
192,192,129462,1,0,0:0:0:0:
320,192,129462,1,0,0:0:0:0:
64,192,129616,1,8,0:0:0:0:
320,192,129616,1,2,0:0:0:0:
192,192,129693,1,0,0:0:0:0:
448,192,129693,1,0,0:0:0:0:
64,192,129770,1,0,0:0:0:0:
320,192,129770,1,0,0:0:0:0:
64,192,129924,1,2,0:0:0:0:
192,192,129924,1,0,0:0:0:0:
448,192,129924,1,0,0:0:0:0:
192,192,130078,1,0,0:0:0:0:
448,192,130078,1,0,0:0:0:0:
320,192,130154,1,0,0:0:0:0:
64,192,130231,1,8,0:0:0:0:
192,192,130231,1,2,0:0:0:0:
448,192,130231,1,0,0:0:0:0:
64,192,130385,1,0,0:0:0:0:
320,192,130385,1,0,0:0:0:0:
192,192,130462,1,0,0:0:0:0:
64,192,130539,1,2,0:0:0:0:
320,192,130539,1,0,0:0:0:0:
448,192,130539,1,0,0:0:0:0:
192,192,130616,1,0,0:0:0:0:
320,192,130693,1,0,0:0:0:0:
448,192,130693,1,0,0:0:0:0:
64,192,130847,1,8,0:0:0:0:
192,192,130847,1,2,0:0:0:0:
320,192,130847,1,0,0:0:0:0:
448,192,130847,1,0,0:0:0:0:
64,192,131001,1,0,0:0:0:0:
320,192,131001,1,0,0:0:0:0:
192,192,131154,1,2,0:0:0:0:
320,192,131154,1,0,0:0:0:0:
448,192,131154,1,0,0:0:0:0:
64,192,131308,1,0,0:0:0:0:
192,192,131308,1,0,0:0:0:0:
320,192,131385,1,0,0:0:0:0:
64,192,131462,1,8,0:0:0:0:
192,192,131462,1,2,0:0:0:0:
448,192,131462,1,0,0:0:0:0:
320,192,131539,1,0,0:0:0:0:
64,192,131616,1,0,0:0:0:0:
448,192,131616,1,0,0:0:0:0:
192,192,131693,1,0,0:0:0:0:
64,192,131770,1,2,0:0:0:0:
320,192,131770,1,4,0:0:0:0:
448,192,131770,1,0,0:0:0:0:
192,192,131924,1,0,0:0:0:0:
320,192,132078,1,0,0:0:0:0:
192,192,132154,1,0,0:0:0:0:
64,192,132231,1,0,0:0:0:50:S2.wav
448,192,132231,1,0,0:0:0:0:
320,192,132308,1,0,0:0:0:0:
64,192,132385,1,0,0:0:0:50:S5.wav
192,192,132385,1,0,0:0:0:0:
320,192,132462,1,0,0:0:0:0:
448,192,132462,1,0,0:0:0:0:
64,192,132539,1,0,0:0:0:50:S1.wav
192,192,132539,1,0,0:0:0:0:
192,192,132693,1,0,0:0:0:50:S5.wav
448,192,132693,1,0,0:0:0:0:
320,192,132847,1,0,0:0:0:50:S2.wav
448,192,132847,1,0,0:0:0:0:
64,192,133001,1,4,0:0:0:0:
192,192,133001,1,2,0:0:0:0:
320,192,133001,1,0,0:0:0:0:
448,192,133001,1,0,0:0:0:0:
192,192,133078,1,0,0:0:0:0:
64,192,133308,1,8,0:0:0:0:
192,192,133308,1,2,0:0:0:0:
320,192,133308,1,0,0:0:0:0:
448,192,133308,1,0,0:0:0:0:
64,192,133462,1,0,0:0:0:0:
320,192,133462,1,0,0:0:0:0:
64,192,133616,1,2,0:0:0:0:
192,192,133616,1,0,0:0:0:0:
448,192,133616,1,0,0:0:0:0:
320,192,133693,1,0,0:0:0:0:
64,192,133770,1,0,0:0:0:0:
448,192,133770,1,0,0:0:0:0:
192,192,133847,1,0,0:0:0:0:
64,192,133924,1,8,0:0:0:0:
320,192,133924,1,2,0:0:0:0:
448,192,133924,1,0,0:0:0:0:
192,192,134001,1,0,0:0:0:0:
64,192,134078,1,0,0:0:0:0:
448,192,134078,1,0,0:0:0:0:
320,192,134154,1,0,0:0:0:0:
64,192,134231,1,2,0:0:0:0:
192,192,134231,1,0,0:0:0:0:
448,192,134231,1,0,0:0:0:0:
192,192,134385,1,0,0:0:0:0:
320,192,134385,1,0,0:0:0:0:
192,192,134539,1,8,0:0:0:0:
448,192,134539,1,2,0:0:0:0:
64,192,134616,1,0,0:0:0:0:
320,192,134616,1,0,0:0:0:0:
192,192,134693,1,0,0:0:0:0:
448,192,134693,1,0,0:0:0:0:
64,192,134847,1,2,0:0:0:0:
320,192,134847,1,0,0:0:0:0:
448,192,134847,1,0,0:0:0:0:
64,192,135001,1,0,0:0:0:0:
320,192,135001,1,0,0:0:0:0:
192,192,135078,1,0,0:0:0:0:
64,192,135154,1,8,0:0:0:0:
320,192,135154,1,2,0:0:0:0:
448,192,135154,1,0,0:0:0:0:
64,192,135308,1,0,0:0:0:0:
192,192,135308,1,0,0:0:0:0:
320,192,135385,1,0,0:0:0:0:
64,192,135462,1,2,0:0:0:0:
192,192,135462,1,0,0:0:0:0:
448,192,135462,1,0,0:0:0:0:
320,192,135539,1,0,0:0:0:0:
64,192,135616,1,2,0:0:0:0:
192,192,135616,1,0,0:0:0:0:
448,192,135616,1,0,0:0:0:0:
64,192,135770,1,8,0:0:0:0:
192,192,135770,1,2,0:0:0:0:
320,192,135770,1,0,0:0:0:0:
448,192,135770,1,0,0:0:0:0:
192,192,135924,1,0,0:0:0:0:
448,192,135924,1,0,0:0:0:0:
64,192,136078,1,2,0:0:0:0:
192,192,136078,1,0,0:0:0:0:
320,192,136078,1,0,0:0:0:0:
320,192,136231,1,0,0:0:0:0:
448,192,136231,1,0,0:0:0:0:
192,192,136308,1,0,0:0:0:0:
64,192,136385,1,8,0:0:0:0:
320,192,136385,1,2,0:0:0:0:
448,192,136385,1,0,0:0:0:0:
192,192,136462,1,0,0:0:0:0:
64,192,136539,1,0,0:0:0:0:
448,192,136539,1,0,0:0:0:0:
320,192,136616,1,0,0:0:0:0:
64,192,136693,1,4,0:0:0:0:
192,192,136693,1,2,0:0:0:0:
448,192,136693,1,0,0:0:0:0:
192,192,136847,1,0,0:0:0:50:S2.wav
320,192,136924,1,0,0:0:0:50:S5.wav
64,192,137001,1,0,0:0:0:50:S1.wav
192,192,137001,1,0,0:0:0:0:
320,192,137078,1,0,0:0:0:0:
448,192,137078,1,0,0:0:0:0:
64,192,137154,1,0,0:0:0:50:S5.wav
192,192,137154,1,0,0:0:0:0:
320,192,137231,1,0,0:0:0:0:
64,192,137308,1,0,0:0:0:50:S2.wav
448,192,137308,1,0,0:0:0:0:
192,192,137385,1,0,0:0:0:0:
320,192,137462,1,0,0:0:0:50:S1.wav
448,192,137539,1,0,0:0:0:0:
64,192,137616,1,0,0:0:0:70:S4.wav
192,192,137616,1,0,0:0:0:0:
320,192,137693,1,0,0:0:0:0:
448,192,137770,1,0,0:0:0:0:
64,192,137924,1,2,0:0:0:0:
192,192,137924,1,4,0:0:0:0:
448,192,137924,1,0,0:0:0:0:
192,192,138001,1,0,0:0:0:0:
320,192,138154,1,2,0:0:0:0:
448,192,138154,1,0,0:0:0:0:
64,192,138231,1,0,0:0:0:70:S4.wav
192,192,138231,1,0,0:0:0:0:
320,192,138231,1,0,0:0:0:0:
448,192,138231,1,0,0:0:0:0:
64,192,138385,1,8,0:0:0:0:
320,192,138385,1,2,0:0:0:0:
192,192,138462,1,0,0:0:0:0:
448,192,138462,1,0,0:0:0:0:
64,192,138616,1,2,0:0:0:0:
320,192,138616,1,0,0:0:0:0:
192,192,138693,1,0,0:0:0:0:
448,192,138693,1,0,0:0:0:0:
64,192,138847,1,0,0:0:0:70:LR4_SnareBPDT.wav
192,192,138847,1,0,0:0:0:0:
320,192,138847,1,0,0:0:0:0:
448,192,138847,1,0,0:0:0:0:
64,192,139001,1,0,0:0:0:0:
320,192,139001,1,0,0:0:0:0:
64,192,139154,1,2,0:0:0:0:
192,192,139154,1,4,0:0:0:0:
448,192,139154,1,0,0:0:0:0:
320,192,139308,1,0,0:0:0:0:
448,192,139308,1,0,0:0:0:0:
64,192,139385,1,2,0:0:0:0:
192,192,139385,1,0,0:0:0:0:
320,192,139462,1,0,0:0:0:70:S4.wav
448,192,139462,1,0,0:0:0:0:
192,192,139539,1,0,0:0:0:0:
64,192,139616,1,8,0:0:0:0:
320,192,139616,1,2,0:0:0:0:
192,192,139693,1,0,0:0:0:0:
448,192,139693,1,0,0:0:0:0:
64,192,139847,1,2,0:0:0:0:
320,192,139847,1,0,0:0:0:0:
448,192,139847,1,0,0:0:0:0:
64,192,140078,1,0,0:0:0:70:LR4_SnareBPDT.wav
192,192,140078,1,0,0:0:0:0:
320,192,140078,1,0,0:0:0:0:
448,192,140078,1,0,0:0:0:0:
192,192,140231,1,0,0:0:0:0:
448,192,140231,1,0,0:0:0:0:
64,192,140385,1,4,0:0:0:0:
320,192,140385,1,2,0:0:0:0:
448,192,140385,1,0,0:0:0:0:
192,192,140539,1,0,0:0:0:0:
448,192,140539,1,0,0:0:0:0:
64,192,140616,1,2,0:0:0:0:
320,192,140616,1,0,0:0:0:0:
192,192,140693,1,0,0:0:0:70:S4.wav
320,192,140770,1,0,0:0:0:0:
448,192,140770,1,0,0:0:0:0:
64,192,140847,1,8,0:0:0:0:
192,192,140847,1,2,0:0:0:0:
64,192,141001,1,0,0:0:0:0:
320,192,141001,1,0,0:0:0:0:
192,192,141078,1,2,0:0:0:0:
448,192,141078,1,0,0:0:0:0:
320,192,141154,1,0,0:0:0:0:
64,192,141308,1,0,0:0:0:70:LR4_SnareBPDT.wav
192,192,141308,1,0,0:0:0:0:
320,192,141308,1,0,0:0:0:0:
448,192,141308,1,0,0:0:0:0:
64,192,141462,1,0,0:0:0:0:
192,192,141462,1,0,0:0:0:0:
64,192,141616,1,2,0:0:0:0:
192,192,141616,1,4,0:0:0:0:
320,192,141616,1,0,0:0:0:0:
448,192,141616,1,0,0:0:0:0:
320,192,141770,1,0,0:0:0:0:
448,192,141770,1,0,0:0:0:0:
192,192,141924,1,0,0:0:0:50:S2.wav
320,192,142001,1,0,0:0:0:50:S5.wav
64,192,142078,1,0,0:0:0:50:S1.wav
448,192,142078,1,0,0:0:0:0:
192,192,142154,1,0,0:0:0:0:
320,192,142231,1,0,0:0:0:50:S5.wav
448,192,142231,1,0,0:0:0:0:
64,192,142308,1,0,0:0:0:0:
192,192,142308,1,0,0:0:0:0:
320,192,142385,1,0,0:0:0:50:S1.wav
448,192,142385,1,0,0:0:0:0:
64,192,142539,1,0,0:0:0:50:S2.wav
320,192,142539,1,0,0:0:0:0:
64,192,142693,1,0,0:0:0:70:S4.wav
192,192,142693,1,0,0:0:0:0:
64,192,142847,1,4,0:0:0:0:
192,192,142847,1,2,0:0:0:0:
320,192,142847,1,0,0:0:0:0:
448,192,142924,1,0,0:0:0:0:
64,192,143078,1,2,0:0:0:0:
192,192,143078,1,0,0:0:0:0:
64,192,143154,1,0,0:0:0:70:S4.wav
192,192,143154,1,0,0:0:0:0:
320,192,143154,1,0,0:0:0:0:
448,192,143154,1,0,0:0:0:0:
192,192,143308,1,8,0:0:0:0:
448,192,143308,1,2,0:0:0:0:
64,192,143385,1,0,0:0:0:0:
320,192,143385,1,0,0:0:0:0:
192,192,143539,1,2,0:0:0:0:
448,192,143539,1,0,0:0:0:0:
64,192,143616,1,0,0:0:0:0:
320,192,143616,1,0,0:0:0:0:
64,192,143770,1,0,0:0:0:70:LR4_SnareBPDT.wav
192,192,143770,1,0,0:0:0:0:
320,192,143770,1,0,0:0:0:0:
448,192,143770,1,0,0:0:0:0:
192,192,143924,1,0,0:0:0:0:
448,192,143924,1,0,0:0:0:0:
64,192,144078,1,2,0:0:0:0:
320,192,144078,1,4,0:0:0:0:
448,192,144078,1,0,0:0:0:0:
64,192,144231,1,8,0:0:0:0:
192,192,144231,1,2,0:0:0:0:
320,192,144308,1,2,0:0:0:0:
448,192,144308,1,0,0:0:0:0:
64,192,144385,1,0,0:0:0:70:S4.wav
192,192,144385,1,0,0:0:0:0:
320,192,144462,1,2,0:0:0:0:
192,192,144539,1,8,0:0:0:0:
448,192,144539,1,2,0:0:0:0:
64,192,144616,1,0,0:0:0:0:
320,192,144616,1,0,0:0:0:0:
64,192,144770,1,0,0:0:0:0:
192,192,144770,1,0,0:0:0:0:
448,192,144770,1,0,0:0:0:0:
64,192,145001,1,0,0:0:0:70:LR4_SnareBPDT.wav
192,192,145001,1,0,0:0:0:0:
320,192,145001,1,0,0:0:0:0:
448,192,145001,1,0,0:0:0:0:
64,192,145154,1,0,0:0:0:0:
320,192,145154,1,0,0:0:0:0:
64,192,145308,1,4,0:0:0:0:
192,192,145308,1,2,0:0:0:0:
448,192,145308,1,0,0:0:0:0:
64,192,145462,1,0,0:0:0:0:
320,192,145462,1,0,0:0:0:0:
192,192,145539,1,2,0:0:0:0:
448,192,145539,1,0,0:0:0:0:
320,192,145616,1,0,0:0:0:70:S4.wav
64,192,145693,1,0,0:0:0:0:
192,192,145693,1,0,0:0:0:0:
320,192,145770,1,8,0:0:0:0:
448,192,145770,1,2,0:0:0:0:
192,192,145924,1,0,0:0:0:0:
448,192,145924,1,0,0:0:0:0:
64,192,146001,1,2,0:0:0:0:
320,192,146001,1,0,0:0:0:0:
192,192,146078,1,0,0:0:0:0:
64,192,146231,1,0,0:0:0:70:LR4_SnareBPDT.wav
192,192,146231,1,0,0:0:0:0:
320,192,146231,1,0,0:0:0:0:
448,192,146231,1,0,0:0:0:0:
320,192,146385,1,0,0:0:0:0:
448,192,146385,1,0,0:0:0:0:
64,192,146539,1,2,0:0:0:0:
192,192,146539,1,4,0:0:0:0:
320,192,146539,1,0,0:0:0:0:
448,192,146539,1,0,0:0:0:0:
64,192,146693,1,0,0:0:0:50:S2.wav
448,192,146770,1,0,0:0:0:50:S5.wav
64,192,146847,1,0,0:0:0:50:S1.wav
320,192,146924,1,0,0:0:0:0:
192,192,147001,1,0,0:0:0:50:S5.wav
64,192,147078,1,0,0:0:0:0:
192,192,147154,1,0,0:0:0:70:LR4_SnareBPDT.wav
320,192,147154,1,0,0:0:0:0:
448,192,147154,1,0,0:0:0:0:
192,192,147308,1,0,0:0:0:70:LR4_SnareBPDT.wav
320,192,147308,1,0,0:0:0:0:
448,192,147308,1,0,0:0:0:0:
64,192,147462,1,0,0:0:0:70:LR4_SnareBPDT.wav
192,192,147462,1,0,0:0:0:0:
448,192,147462,1,0,0:0:0:0:
64,192,147616,1,0,0:0:0:70:LR4_SnareBPDT.wav
192,192,147616,1,0,0:0:0:0:
448,192,147616,1,0,0:0:0:0:
64,192,147770,1,2,0:0:0:0:
192,192,147770,1,4,0:0:0:0:
320,192,147770,1,0,0:0:0:0:
448,192,147770,128,0,152385:0:0:0:0:
320,192,148078,1,0,0:0:0:0:
64,192,148231,1,0,0:0:0:50:S1.wav
192,192,148231,1,0,0:0:0:0:
320,192,148231,1,0,0:0:0:0:
64,192,148385,1,2,0:0:0:0:
192,192,148385,1,0,0:0:0:0:
64,192,148693,1,0,0:0:0:50:S1.wav
192,192,148693,1,0,0:0:0:0:
320,192,148693,1,0,0:0:0:0:
64,192,149001,1,2,0:0:0:0:
192,192,149001,1,0,0:0:0:0:
320,192,149308,1,0,0:0:0:30:S2.wav
64,192,149462,1,0,0:0:0:50:S1.wav
192,192,149462,1,0,0:0:0:0:
320,192,149462,1,0,0:0:0:0:
64,192,149616,1,2,0:0:0:0:
192,192,149616,1,0,0:0:0:0:
320,192,149770,1,0,0:0:0:30:S2.wav
64,192,149924,1,0,0:0:0:50:S1.wav
192,192,149924,1,0,0:0:0:0:
320,192,149924,1,0,0:0:0:0:
64,192,150078,1,0,0:0:0:30:S2.wav
192,192,150231,1,2,0:0:0:0:
320,192,150231,1,0,0:0:0:0:
320,192,150539,1,0,0:0:0:0:
64,192,150693,1,0,0:0:0:50:S1.wav
192,192,150693,1,0,0:0:0:0:
320,192,150693,1,0,0:0:0:0:
64,192,150847,1,2,0:0:0:0:
192,192,150847,1,0,0:0:0:0:
64,192,151154,1,0,0:0:0:50:S1.wav
192,192,151154,1,0,0:0:0:0:
320,192,151154,1,0,0:0:0:0:
64,192,151462,1,2,0:0:0:0:
192,192,151462,1,0,0:0:0:0:
64,192,151770,1,0,0:0:0:0:
64,192,151924,1,0,0:0:0:50:S1.wav
192,192,151924,1,0,0:0:0:0:
320,192,151924,1,0,0:0:0:0:
192,192,152078,1,2,0:0:0:0:
320,192,152078,1,0,0:0:0:0:
64,192,152231,1,0,0:0:0:30:S2.wav
64,192,152385,1,0,0:0:0:50:S1.wav
192,192,152385,1,0,0:0:0:0:
320,192,152385,1,0,0:0:0:0:
192,192,152539,1,0,0:0:0:30:S2.wav
448,192,152539,1,0,0:0:0:0:
64,192,152693,1,2,0:0:0:0:
192,192,152693,1,4,0:0:0:0:
320,192,152693,1,0,0:0:0:0:
448,192,152693,1,0,0:0:0:0:
320,192,152847,1,0,0:0:0:0:
64,192,153001,1,0,0:0:0:0:
64,192,153154,1,0,0:0:0:50:S1.wav
192,192,153154,1,0,0:0:0:0:
320,192,153154,1,0,0:0:0:0:
448,192,153154,1,0,0:0:0:0:
320,192,153308,1,2,0:0:0:0:
448,192,153308,1,0,0:0:0:0:
192,192,153462,1,0,0:0:0:0:
64,192,153616,1,0,0:0:0:50:S1.wav
192,192,153616,1,0,0:0:0:0:
320,192,153616,1,0,0:0:0:0:
448,192,153616,1,0,0:0:0:0:
320,192,153770,1,0,0:0:0:0:
64,192,153924,1,2,0:0:0:0:
192,192,153924,1,0,0:0:0:0:
192,192,154231,1,0,0:0:0:30:S2.wav
448,192,154231,1,0,0:0:0:0:
64,192,154385,1,0,0:0:0:50:S1.wav
192,192,154385,1,0,0:0:0:0:
320,192,154385,1,0,0:0:0:0:
448,192,154385,1,0,0:0:0:0:
64,192,154539,1,2,0:0:0:0:
320,192,154539,1,0,0:0:0:0:
448,192,154693,1,0,0:0:0:30:S2.wav
64,192,154847,1,0,0:0:0:50:S1.wav
192,192,154847,1,0,0:0:0:0:
320,192,154847,1,0,0:0:0:0:
448,192,154847,1,0,0:0:0:0:
64,192,155001,1,0,0:0:0:30:S2.wav
192,192,155001,1,0,0:0:0:0:
64,192,155154,1,2,0:0:0:0:
192,192,155154,1,4,0:0:0:0:
320,192,155154,1,0,0:0:0:0:
448,192,155154,1,0,0:0:0:0:
64,192,155462,1,0,0:0:0:0:
64,192,155616,1,0,0:0:0:50:S1.wav
192,192,155616,1,0,0:0:0:0:
320,192,155616,1,0,0:0:0:0:
448,192,155616,1,0,0:0:0:0:
192,192,155770,1,2,0:0:0:0:
448,192,155770,1,0,0:0:0:0:
64,192,156078,1,0,0:0:0:0:
192,192,156116,1,0,0:0:0:0:
64,192,156231,1,0,0:0:0:0:
320,192,156308,1,0,0:0:0:0:
64,192,156385,1,2,0:0:0:0:
192,192,156385,1,0,0:0:0:0:
448,192,156385,1,0,0:0:0:0:
320,192,156539,1,0,0:0:0:0:
192,192,156693,1,0,0:0:0:0:
320,192,156847,1,0,0:0:0:0:
448,192,157001,1,0,0:0:0:0:
64,192,157078,1,0,0:0:0:0:
320,192,157154,1,0,0:0:0:0:
192,192,157231,1,0,0:0:0:0:
320,192,157308,1,0,0:0:0:0:
448,192,157308,1,0,0:0:0:0:
64,192,157462,1,0,0:0:0:30:S2.wav
64,192,157539,1,0,0:0:0:30:S2.wav
192,192,157616,1,2,0:0:0:0:
320,192,157616,1,4,0:0:0:0:
448,192,157616,1,0,0:0:0:0:
64,192,157770,1,0,0:0:0:0:
192,192,157847,1,0,0:0:0:0:
64,192,157924,1,0,0:0:0:0:
192,192,158078,1,0,0:0:0:0:
320,192,158154,1,0,0:0:0:0:
64,192,158231,1,0,0:0:0:50:S1.wav
192,192,158231,1,0,0:0:0:0:
448,192,158231,1,0,0:0:0:0:
320,192,158308,1,0,0:0:0:0:
64,192,158385,1,2,0:0:0:0:
192,192,158385,1,0,0:0:0:0:
448,192,158539,1,0,0:0:0:0:
192,192,158616,1,0,0:0:0:0:
448,192,158693,1,0,0:0:0:0:
192,192,158770,1,0,0:0:0:0:
64,192,158847,1,2,0:0:0:0:
320,192,158847,1,0,0:0:0:0:
448,192,158847,128,0,159078:0:0:0:0:
320,192,159154,128,0,159231:0:0:0:50:S4.wav
192,192,159308,128,0,159385:0:0:0:0:
320,192,159462,128,0,159616:0:0:0:0:
192,192,159616,128,0,159770:0:0:0:0:
64,192,159770,128,0,160078:0:0:0:50:S1.wav
448,192,159770,1,0,0:0:0:0:
192,192,159924,1,0,0:0:0:70:LR4_SnareBPDT.wav
320,192,159924,1,0,0:0:0:0:
448,192,159924,1,0,0:0:0:0:
192,192,160078,1,2,0:0:0:0:
320,192,160078,1,4,0:0:0:0:
448,192,160231,1,0,0:0:0:0:
320,192,160308,1,0,0:0:0:0:
448,192,160385,1,0,0:0:0:0:
64,192,160539,1,0,0:0:0:0:
192,192,160616,1,0,0:0:0:0:
64,192,160693,1,0,0:0:0:50:S1.wav
320,192,160693,1,0,0:0:0:0:
448,192,160693,1,0,0:0:0:0:
192,192,160770,1,0,0:0:0:0:
320,192,160847,1,2,0:0:0:0:
448,192,160847,1,0,0:0:0:0:
192,192,161001,1,0,0:0:0:50:S1.wav
320,192,161001,1,0,0:0:0:0:
64,192,161154,1,0,0:0:0:50:S1.wav
192,192,161154,1,0,0:0:0:0:
64,192,161308,1,2,0:0:0:0:
448,192,161308,128,0,161539:0:0:0:0:
64,192,161616,128,0,161693:0:0:0:0:
448,192,161770,128,0,161847:0:0:0:0:
192,192,161924,128,0,162078:0:0:0:0:
320,192,162078,128,0,162231:0:0:0:0:
448,192,162231,128,0,162385:0:0:0:0:
192,192,162385,1,0,0:0:0:0:
64,192,162539,1,4,0:0:0:0:
192,192,162539,1,2,0:0:0:0:
320,192,162539,1,0,0:0:0:0:
448,192,162539,1,0,0:0:0:0:
64,192,162693,1,0,0:0:0:0:
192,192,162770,1,0,0:0:0:0:
320,192,162847,1,2,0:0:0:0:
448,192,162847,1,0,0:0:0:0:
64,192,163001,1,0,0:0:0:50:S1.wav
192,192,163001,1,0,0:0:0:0:
448,192,163001,1,0,0:0:0:0:
320,192,163078,1,0,0:0:0:0:
192,192,163154,1,0,0:0:0:0:
320,192,163231,1,0,0:0:0:0:
448,192,163308,1,0,0:0:0:30:S2.wav
192,192,163385,1,0,0:0:0:0:
64,192,163462,1,0,0:0:0:50:S1.wav
320,192,163462,1,0,0:0:0:0:
448,192,163462,1,0,0:0:0:0:
320,192,163616,1,0,0:0:0:0:
64,192,163770,1,0,0:0:0:30:S2.wav
192,192,163847,1,0,0:0:0:0:
320,192,163924,1,0,0:0:0:50:S4.wav
192,192,164001,1,0,0:0:0:0:
64,192,164078,1,2,0:0:0:0:
320,192,164078,1,0,0:0:0:0:
448,192,164078,1,0,0:0:0:0:
320,192,164231,1,0,0:0:0:0:
192,192,164308,1,0,0:0:0:0:
320,192,164385,1,0,0:0:0:50:S2.wav
448,192,164462,1,0,0:0:0:0:
64,192,164539,1,0,0:0:0:50:S1.wav
192,192,164539,1,0,0:0:0:0:
320,192,164539,1,0,0:0:0:0:
448,192,164616,1,0,0:0:0:0:
192,192,164693,1,0,0:0:0:50:S2.wav
320,192,164770,1,0,0:0:0:50:S2.wav
64,192,164847,1,0,0:0:0:50:S1.wav
64,192,165001,1,2,0:0:0:0:
192,192,165001,1,4,0:0:0:0:
448,192,165001,1,0,0:0:0:0:
64,192,165308,1,2,0:0:0:0:
192,192,165308,1,4,0:0:0:0:
448,192,165308,1,0,0:0:0:0:
64,192,165616,1,2,0:0:0:0:
320,192,165616,1,4,0:0:0:0:
448,192,165616,1,0,0:0:0:0:
64,192,165924,1,2,0:0:0:0:
320,192,165924,1,4,0:0:0:0:
448,192,165924,1,0,0:0:0:0:
64,192,166231,1,4,0:0:0:0:
192,192,166231,1,2,0:0:0:0:
320,192,166231,128,0,166385:0:0:0:0:
448,192,166231,1,0,0:0:0:0:
192,192,166385,128,0,166539:0:0:0:0:
320,192,166539,128,0,166693:0:0:0:0:
448,192,166693,1,0,0:0:0:0:
64,192,166847,128,0,167001:0:0:0:0:
448,192,167154,128,0,167308:0:0:0:0:
320,192,167308,128,0,167462:0:0:0:0:
64,192,167462,1,4,0:0:0:0:
192,192,167462,1,2,0:0:0:0:
448,192,167462,1,0,0:0:0:0:
448,192,167616,1,0,0:0:0:0:
64,192,167770,1,0,0:0:0:50:S4.wav
320,192,167770,1,0,0:0:0:0:
192,192,167847,1,0,0:0:0:0:
320,192,167924,1,0,0:0:0:0:
64,192,168078,1,0,0:0:0:50:S4.wav
448,192,168078,1,0,0:0:0:0:
192,192,168154,1,0,0:0:0:0:
64,192,168231,1,0,0:0:0:0:
192,192,168385,1,0,0:0:0:50:S4.wav
448,192,168385,1,0,0:0:0:0:
320,192,168462,1,0,0:0:0:0:
448,192,168539,1,0,0:0:0:0:
64,192,168693,1,0,0:0:0:50:S4.wav
320,192,168693,1,0,0:0:0:0:
192,192,168770,1,0,0:0:0:0:
64,192,168847,1,0,0:0:0:0:
320,192,169001,1,0,0:0:0:50:S4.wav
448,192,169001,1,0,0:0:0:0:
192,192,169078,1,0,0:0:0:0:
320,192,169154,1,0,0:0:0:0:
64,192,169308,1,0,0:0:0:50:S4.wav
448,192,169308,1,0,0:0:0:0:
192,192,169385,1,0,0:0:0:0:
320,192,169462,1,0,0:0:0:0:
64,192,169616,1,0,0:0:0:50:S4.wav
192,192,169616,1,0,0:0:0:0:
320,192,169693,1,0,0:0:0:0:
192,192,169770,1,0,0:0:0:0:
64,192,169924,1,0,0:0:0:50:S4.wav
448,192,169924,1,0,0:0:0:0:
64,192,170078,1,0,0:0:0:0:
192,192,170231,1,0,0:0:0:50:S4.wav
448,192,170231,1,0,0:0:0:0:
320,192,170308,1,0,0:0:0:0:
192,192,170385,1,0,0:0:0:0:
64,192,170539,1,0,0:0:0:50:S4.wav
448,192,170539,1,0,0:0:0:0:
320,192,170616,1,0,0:0:0:0:
192,192,170693,1,0,0:0:0:0:
64,192,170847,1,0,0:0:0:50:S4.wav
320,192,170847,1,0,0:0:0:0:
192,192,170924,1,0,0:0:0:0:
320,192,171001,1,0,0:0:0:0:
64,192,171154,1,0,0:0:0:50:S4.wav
448,192,171154,1,0,0:0:0:0:
448,192,171308,1,0,0:0:0:0:
64,192,171462,1,0,0:0:0:50:S4.wav
320,192,171462,1,0,0:0:0:0:
64,192,171616,1,0,0:0:0:0:
192,192,171770,1,0,0:0:0:50:S4.wav
448,192,171770,1,0,0:0:0:0:
448,192,171924,1,0,0:0:0:0:
192,192,172078,1,0,0:0:0:50:S4.wav
320,192,172078,1,0,0:0:0:0:
192,192,172231,1,0,0:0:0:0:
320,192,172231,1,0,0:0:0:0:
64,192,172385,1,4,0:0:0:0:
192,192,172385,1,2,0:0:0:0:
320,192,172385,1,0,0:0:0:0:
448,192,172385,1,0,0:0:0:0:
64,192,172539,1,0,0:0:0:50:S5.wav
192,192,172539,1,0,0:0:0:0:
64,192,172693,1,0,0:0:0:50:S4.wav
192,192,172693,1,0,0:0:0:0:
64,192,172847,1,0,0:0:0:50:S5.wav
192,192,172847,1,0,0:0:0:0:
64,192,173001,1,2,0:0:0:0:
192,192,173001,1,4,0:0:0:0:
320,192,173001,1,0,0:0:0:50:S4.wav
448,192,173001,1,0,0:0:0:0:
192,192,173154,1,0,0:0:0:50:S5.wav
448,192,173154,1,0,0:0:0:0:
192,192,173308,1,0,0:0:0:50:S4.wav
448,192,173308,1,0,0:0:0:0:
192,192,173462,1,0,0:0:0:50:S5.wav
448,192,173462,1,0,0:0:0:0:
64,192,173616,1,2,0:0:0:0:
192,192,173616,1,4,0:0:0:0:
320,192,173616,1,0,0:0:0:50:S4.wav
448,192,173616,1,0,0:0:0:0:
64,192,173770,1,0,0:0:0:50:S5.wav
320,192,173770,1,0,0:0:0:0:
64,192,173924,1,0,0:0:0:50:S4.wav
320,192,173924,1,0,0:0:0:0:
64,192,174078,1,0,0:0:0:50:S5.wav
320,192,174078,1,0,0:0:0:0:
64,192,174231,1,2,0:0:0:0:
192,192,174231,1,4,0:0:0:0:
320,192,174231,1,0,0:0:0:50:S4.wav
448,192,174231,1,0,0:0:0:0:
320,192,174385,1,0,0:0:0:50:S5.wav
448,192,174385,1,0,0:0:0:0:
320,192,174539,1,0,0:0:0:50:S4.wav
448,192,174539,1,0,0:0:0:0:
320,192,174693,1,0,0:0:0:50:S5.wav
448,192,174693,1,0,0:0:0:0:
64,192,174847,1,2,0:0:0:0:
192,192,174847,1,4,0:0:0:0:
448,192,174847,1,0,0:0:0:50:S5.wav
320,192,174924,1,0,0:0:0:50:S5.wav
64,192,175001,1,2,0:0:0:0:
192,192,175001,1,0,0:0:0:50:S5.wav
448,192,175001,1,0,0:0:0:0:
320,192,175078,1,0,0:0:0:50:S5.wav
64,192,175154,1,2,0:0:0:0:
192,192,175154,1,0,0:0:0:50:S5.wav
448,192,175154,1,0,0:0:0:0:
320,192,175231,1,0,0:0:0:50:S5.wav
64,192,175308,1,2,0:0:0:0:
192,192,175308,1,0,0:0:0:50:S5.wav
448,192,175308,1,0,0:0:0:0:
320,192,175385,1,0,0:0:0:50:S5.wav
64,192,175462,1,6,0:0:0:0:
192,192,175462,1,0,0:0:0:50:S5.wav
320,192,175539,1,2,0:0:0:0:
448,192,175539,1,0,0:0:0:50:S5.wav
64,192,175616,1,2,0:0:0:0:
192,192,175616,1,0,0:0:0:50:S5.wav
320,192,175693,1,2,0:0:0:0:
448,192,175693,1,0,0:0:0:50:S5.wav
64,192,175770,1,6,0:0:0:0:
192,192,175770,1,0,0:0:0:50:S5.wav
320,192,175847,1,2,0:0:0:0:
448,192,175847,1,0,0:0:0:50:S5.wav
64,192,175924,1,2,0:0:0:0:
192,192,175924,1,0,0:0:0:50:S5.wav
320,192,176001,1,2,0:0:0:0:
448,192,176001,1,0,0:0:0:50:S5.wav
64,192,176078,1,4,0:0:0:0:
192,192,176078,1,0,0:0:0:0:
320,192,176078,1,0,0:0:0:0:
448,192,176078,1,0,0:0:0:0:
320,192,176847,128,0,177001:0:0:0:0:
64,192,177001,1,0,0:0:0:0:
64,192,177154,1,0,0:0:0:0:
64,192,177924,1,0,0:0:0:70:LR4_SnareBPDT.wav
192,192,177924,1,0,0:0:0:0:
448,192,177924,1,0,0:0:0:0:
64,192,178078,1,0,0:0:0:70:soft-hitclap.wav
192,192,178078,1,0,0:0:0:0:
448,192,178078,1,0,0:0:0:0:
64,192,178231,1,0,0:0:0:70:soft-hitclap.wav
320,192,178231,1,0,0:0:0:0:
448,192,178231,1,0,0:0:0:0:
64,192,178385,1,0,0:0:0:70:LR4_SnareBPDT.wav
320,192,178385,1,0,0:0:0:0:
448,192,178385,1,0,0:0:0:0:
64,192,178539,1,2,0:0:0:0:
192,192,178539,1,4,0:0:0:0:
320,192,178539,1,0,0:0:0:0:
64,192,178693,1,2,0:0:0:0:
192,192,178693,1,0,0:0:0:0:
320,192,178693,1,0,0:0:0:0:
64,192,178847,1,8,0:0:0:0:
192,192,178847,1,0,0:0:0:0:
320,192,178847,1,0,0:0:0:0:
448,192,178847,1,0,0:0:0:0:
192,192,179001,1,0,0:0:0:0:
448,192,179001,1,0,0:0:0:0:
64,192,179154,1,2,0:0:0:0:
320,192,179154,1,0,0:0:0:0:
448,192,179154,1,0,0:0:0:0:
64,192,179308,1,0,0:0:0:0:
192,192,179308,1,0,0:0:0:0:
64,192,179462,1,8,0:0:0:0:
192,192,179462,1,0,0:0:0:0:
320,192,179462,1,0,0:0:0:0:
448,192,179462,1,0,0:0:0:0:
192,192,179616,1,0,0:0:0:0:
320,192,179616,1,0,0:0:0:0:
64,192,179770,1,2,0:0:0:0:
192,192,179770,1,0,0:0:0:0:
448,192,179770,128,0,179924:0:0:0:0:
64,192,179924,1,0,0:0:0:0:
320,192,179924,1,0,0:0:0:0:
64,192,180078,1,8,0:0:0:0:
192,192,180078,1,0,0:0:0:0:
320,192,180078,1,0,0:0:0:0:
448,192,180078,1,0,0:0:0:0:
192,192,180231,1,0,0:0:0:0:
448,192,180231,1,0,0:0:0:0:
64,192,180385,128,2,180539:0:0:0:0:
320,192,180385,1,0,0:0:0:0:
448,192,180385,1,0,0:0:0:0:
192,192,180539,128,0,180693:0:0:0:0:
448,192,180539,1,0,0:0:0:0:
64,192,180693,1,8,0:0:0:0:
320,192,180693,128,0,181001:0:0:0:0:
448,192,180693,1,0,0:0:0:0:
64,192,180847,1,0,0:0:0:0:
192,192,180847,1,0,0:0:0:0:
64,192,181001,1,2,0:0:0:0:
192,192,181001,1,0,0:0:0:0:
448,192,181001,1,0,0:0:0:0:
320,192,181154,1,0,0:0:0:0:
448,192,181154,1,0,0:0:0:0:
64,192,181308,1,8,0:0:0:0:
192,192,181308,1,0,0:0:0:0:
320,192,181308,1,0,0:0:0:0:
448,192,181308,1,0,0:0:0:0:
64,192,181462,1,0,0:0:0:0:
192,192,181462,1,0,0:0:0:0:
64,192,181616,1,2,0:0:0:0:
320,192,181616,1,0,0:0:0:0:
448,192,181616,1,0,0:0:0:0:
192,192,181770,1,0,0:0:0:0:
448,192,181770,1,0,0:0:0:0:
64,192,181924,1,8,0:0:0:0:
192,192,181924,1,0,0:0:0:0:
320,192,181924,1,0,0:0:0:0:
448,192,181924,1,0,0:0:0:0:
192,192,182078,1,0,0:0:0:0:
320,192,182078,1,0,0:0:0:0:
64,192,182231,1,2,0:0:0:0:
192,192,182231,1,0,0:0:0:0:
448,192,182231,128,0,182385:0:0:0:0:
64,192,182385,1,0,0:0:0:0:
320,192,182385,1,0,0:0:0:0:
64,192,182539,1,8,0:0:0:0:
192,192,182539,1,0,0:0:0:0:
320,192,182539,1,0,0:0:0:0:
448,192,182539,1,0,0:0:0:0:
192,192,182693,1,0,0:0:0:0:
320,192,182693,1,0,0:0:0:0:
64,192,182847,1,2,0:0:0:0:
192,192,182847,1,0,0:0:0:0:
448,192,182847,128,0,183001:0:0:0:0:
64,192,183001,1,0,0:0:0:0:
320,192,183001,128,0,183078:0:0:0:0:
64,192,183154,1,0,0:0:0:70:LR4_SnareBPDT.wav
192,192,183154,128,0,183462:0:0:0:0:
320,192,183154,1,0,0:0:0:0:
448,192,183154,1,0,0:0:0:0:
64,192,183770,1,4,0:0:0:0:
192,192,183770,1,8,0:0:0:0:
320,192,183770,1,0,0:0:0:0:
448,192,183770,1,0,0:0:0:0:
64,192,183924,1,0,0:0:0:0:
320,192,183924,1,0,0:0:0:0:
192,192,184078,1,2,0:0:0:0:
320,192,184078,1,0,0:0:0:0:
448,192,184078,1,0,0:0:0:0:
192,192,184231,1,0,0:0:0:0:
448,192,184231,1,0,0:0:0:0:
64,192,184385,1,8,0:0:0:0:
192,192,184385,1,0,0:0:0:0:
320,192,184385,1,0,0:0:0:0:
448,192,184385,1,0,0:0:0:0:
64,192,184539,1,0,0:0:0:0:
192,192,184539,1,0,0:0:0:0:
64,192,184693,128,2,184847:0:0:0:0:
320,192,184693,1,0,0:0:0:0:
448,192,184693,1,0,0:0:0:0:
192,192,184847,1,0,0:0:0:0:
448,192,184847,1,0,0:0:0:0:
64,192,185001,1,8,0:0:0:0:
192,192,185001,1,0,0:0:0:0:
320,192,185001,1,0,0:0:0:0:
448,192,185001,1,0,0:0:0:0:
64,192,185154,1,0,0:0:0:0:
448,192,185154,1,0,0:0:0:0:
64,192,185308,1,2,0:0:0:0:
192,192,185308,1,0,0:0:0:0:
320,192,185308,128,0,185462:0:0:0:0:
192,192,185462,1,0,0:0:0:0:
448,192,185462,1,0,0:0:0:0:
64,192,185616,128,8,185924:0:0:0:0:
192,192,185616,1,0,0:0:0:0:
320,192,185616,1,0,0:0:0:0:
448,192,185616,1,0,0:0:0:0:
320,192,185770,1,0,0:0:0:0:
448,192,185770,1,0,0:0:0:0:
192,192,185924,1,2,0:0:0:0:
320,192,185924,1,0,0:0:0:0:
448,192,185924,128,0,186078:0:0:0:0:
64,192,186078,1,0,0:0:0:0:
192,192,186078,1,0,0:0:0:0:
64,192,186231,1,8,0:0:0:0:
192,192,186231,1,0,0:0:0:0:
320,192,186231,1,0,0:0:0:0:
448,192,186231,1,0,0:0:0:0:
192,192,186385,1,0,0:0:0:0:
448,192,186385,1,0,0:0:0:0:
64,192,186539,1,2,0:0:0:0:
320,192,186539,128,0,186693:0:0:0:0:
448,192,186539,1,0,0:0:0:0:
64,192,186693,1,0,0:0:0:0:
192,192,186693,1,0,0:0:0:0:
64,192,186847,128,8,187001:0:0:0:0:
192,192,186847,1,0,0:0:0:0:
320,192,186847,1,0,0:0:0:0:
448,192,186847,1,0,0:0:0:0:
448,192,187001,128,0,187154:0:0:0:0:
64,192,187154,1,2,0:0:0:0:
192,192,187154,1,4,0:0:0:0:
320,192,187154,1,0,0:0:0:0:
448,192,187308,1,0,0:0:0:0:
64,192,187385,1,0,0:0:0:0:
448,192,187462,1,0,0:0:0:0:
448,192,187616,1,0,0:0:0:0:
64,192,187770,1,0,0:0:0:70:LR4_SnareBPDT.wav
192,192,187770,1,0,0:0:0:0:
320,192,187770,1,0,0:0:0:0:
448,192,187770,1,0,0:0:0:0:
64,192,187924,1,0,0:0:0:70:soft-hitclap.wav
192,192,187924,1,0,0:0:0:0:
320,192,187924,1,0,0:0:0:0:
448,192,187924,1,0,0:0:0:0:
64,192,188078,1,0,0:0:0:70:soft-hitclap.wav
192,192,188078,1,0,0:0:0:0:
320,192,188078,1,0,0:0:0:0:
448,192,188078,1,0,0:0:0:0:
64,192,188231,1,0,0:0:0:70:LR4_SnareBPDT.wav
192,192,188231,1,0,0:0:0:0:
320,192,188231,1,0,0:0:0:0:
448,192,188231,1,0,0:0:0:0:
192,192,188385,1,2,0:0:0:0:
320,192,188385,1,0,0:0:0:0:
64,192,188693,1,4,0:0:0:0:
192,192,188693,1,8,0:0:0:0:
320,192,188693,1,0,0:0:0:0:
448,192,188693,1,0,0:0:0:0:
64,192,188847,1,0,0:0:0:0:
320,192,188847,1,0,0:0:0:0:
64,192,189001,1,2,0:0:0:0:
192,192,189001,1,0,0:0:0:0:
448,192,189001,1,0,0:0:0:0:
320,192,189154,1,0,0:0:0:0:
448,192,189154,1,0,0:0:0:0:
64,192,189308,1,8,0:0:0:0:
192,192,189308,1,0,0:0:0:0:
320,192,189308,1,0,0:0:0:0:
448,192,189308,1,0,0:0:0:0:
192,192,189462,1,0,0:0:0:0:
320,192,189462,1,0,0:0:0:0:
64,192,189616,128,2,189770:0:0:0:0:
320,192,189616,1,0,0:0:0:0:
448,192,189616,1,0,0:0:0:0:
192,192,189770,1,0,0:0:0:0:
448,192,189770,1,0,0:0:0:0:
64,192,189924,1,8,0:0:0:0:
192,192,189924,1,0,0:0:0:0:
320,192,189924,1,0,0:0:0:0:
448,192,189924,1,0,0:0:0:0:
64,192,190078,1,0,0:0:0:0:
320,192,190078,1,0,0:0:0:0:
64,192,190231,1,2,0:0:0:0:
192,192,190231,1,0,0:0:0:0:
448,192,190231,128,0,190385:0:0:0:0:
64,192,190385,1,0,0:0:0:0:
320,192,190385,128,0,190539:0:0:0:0:
64,192,190539,1,8,0:0:0:0:
192,192,190539,128,0,190847:0:0:0:0:
448,192,190539,1,0,0:0:0:0:
320,192,190693,1,0,0:0:0:0:
448,192,190693,1,0,0:0:0:0:
64,192,190847,1,2,0:0:0:0:
320,192,190847,1,0,0:0:0:0:
448,192,190847,1,0,0:0:0:0:
64,192,191001,1,0,0:0:0:0:
192,192,191001,1,0,0:0:0:0:
64,192,191154,1,8,0:0:0:0:
192,192,191154,1,0,0:0:0:0:
320,192,191154,1,0,0:0:0:0:
448,192,191154,1,0,0:0:0:0:
320,192,191308,1,0,0:0:0:0:
448,192,191308,1,0,0:0:0:0:
64,192,191462,1,2,0:0:0:0:
192,192,191462,1,0,0:0:0:0:
448,192,191462,1,0,0:0:0:0:
64,192,191616,1,0,0:0:0:0:
320,192,191616,1,0,0:0:0:0:
64,192,191770,1,8,0:0:0:0:
192,192,191770,1,0,0:0:0:0:
320,192,191770,1,0,0:0:0:0:
448,192,191770,1,0,0:0:0:0:
192,192,191924,1,0,0:0:0:0:
320,192,191924,1,0,0:0:0:0:
64,192,192078,128,2,192231:0:0:0:0:
320,192,192078,1,0,0:0:0:0:
448,192,192078,1,0,0:0:0:0:
192,192,192231,1,0,0:0:0:0:
448,192,192231,1,0,0:0:0:0:
64,192,192385,1,8,0:0:0:0:
192,192,192385,1,0,0:0:0:0:
320,192,192385,1,0,0:0:0:0:
448,192,192385,1,0,0:0:0:0:
192,192,192539,1,0,0:0:0:0:
320,192,192539,1,0,0:0:0:0:
64,192,192693,128,2,192847:0:0:0:0:
320,192,192693,1,0,0:0:0:0:
448,192,192693,1,0,0:0:0:0:
192,192,192847,128,0,192924:0:0:0:0:
448,192,192847,1,0,0:0:0:0:
64,192,193001,1,0,0:0:0:70:LR4_SnareBPDT.wav
192,192,193001,1,0,0:0:0:0:
320,192,193001,128,0,193308:0:0:0:0:
448,192,193001,1,0,0:0:0:0:
64,192,193616,1,4,0:0:0:0:
192,192,193616,1,8,0:0:0:0:
320,192,193616,1,0,0:0:0:0:
448,192,193616,1,0,0:0:0:0:
192,192,193770,1,0,0:0:0:0:
448,192,193770,1,0,0:0:0:0:
64,192,193924,1,2,0:0:0:0:
192,192,193924,1,0,0:0:0:0:
320,192,193924,1,0,0:0:0:0:
64,192,194078,1,0,0:0:0:0:
320,192,194078,1,0,0:0:0:0:
64,192,194231,1,8,0:0:0:0:
192,192,194231,1,0,0:0:0:0:
320,192,194231,1,0,0:0:0:0:
448,192,194231,1,0,0:0:0:0:
320,192,194385,1,0,0:0:0:0:
448,192,194385,1,0,0:0:0:0:
64,192,194539,1,2,0:0:0:0:
192,192,194539,1,0,0:0:0:0:
448,192,194539,128,0,194693:0:0:0:0:
64,192,194693,1,0,0:0:0:0:
320,192,194693,1,0,0:0:0:0:
64,192,194847,1,8,0:0:0:0:
192,192,194847,1,0,0:0:0:0:
320,192,194847,1,0,0:0:0:0:
448,192,194847,1,0,0:0:0:0:
64,192,195001,1,0,0:0:0:0:
448,192,195001,1,0,0:0:0:0:
192,192,195154,128,2,195308:0:0:0:0:
320,192,195154,1,0,0:0:0:0:
448,192,195154,1,0,0:0:0:0:
64,192,195308,1,0,0:0:0:0:
320,192,195308,1,0,0:0:0:0:
64,192,195462,1,8,0:0:0:0:
192,192,195462,1,0,0:0:0:0:
320,192,195462,1,0,0:0:0:0:
448,192,195462,128,0,195770:0:0:0:0:
64,192,195616,1,0,0:0:0:0:
192,192,195616,1,0,0:0:0:0:
64,192,195770,128,2,195924:0:0:0:0:
192,192,195770,1,0,0:0:0:0:
320,192,195770,1,0,0:0:0:0:
320,192,195924,1,0,0:0:0:0:
448,192,195924,1,0,0:0:0:0:
64,192,196078,1,8,0:0:0:0:
192,192,196078,1,0,0:0:0:0:
320,192,196078,1,0,0:0:0:0:
448,192,196078,1,0,0:0:0:0:
64,192,196231,1,0,0:0:0:0:
320,192,196231,1,0,0:0:0:0:
64,192,196385,1,2,0:0:0:0:
192,192,196385,128,0,196539:0:0:0:0:
448,192,196385,1,0,0:0:0:0:
320,192,196539,1,0,0:0:0:0:
448,192,196539,1,0,0:0:0:0:
64,192,196693,1,8,0:0:0:0:
192,192,196693,1,0,0:0:0:0:
320,192,196693,1,0,0:0:0:0:
448,192,196693,128,0,196847:0:0:0:0:
64,192,196847,128,0,197001:0:0:0:0:
192,192,197001,1,2,0:0:0:0:
320,192,197001,1,4,0:0:0:0:
448,192,197001,1,0,0:0:0:0:
320,192,197154,1,0,0:0:0:0:
192,192,197231,1,0,0:0:0:0:
320,192,197308,1,0,0:0:0:0:
320,192,197462,1,0,0:0:0:0:
64,192,197616,1,0,0:0:0:70:LR4_SnareBPDT.wav
192,192,197616,1,0,0:0:0:0:
448,192,197616,1,0,0:0:0:0:
64,192,197770,1,0,0:0:0:70:LR4_SnareBPDT.wav
192,192,197770,1,0,0:0:0:0:
448,192,197770,1,0,0:0:0:0:
64,192,197924,1,0,0:0:0:70:LR4_SnareBPDT.wav
192,192,197924,1,0,0:0:0:0:
320,192,197924,1,0,0:0:0:0:
448,192,197924,1,0,0:0:0:0:
64,192,198078,1,0,0:0:0:70:LR4_SnareBPDT.wav
320,192,198078,1,0,0:0:0:0:
448,192,198078,1,0,0:0:0:0:
64,192,198231,1,2,0:0:0:0:
448,192,198231,1,0,0:0:0:0:
192,192,198385,1,2,0:0:0:0:
320,192,198385,1,0,0:0:0:0:
64,192,198539,128,4,198770:0:0:0:0:
192,192,198539,128,8,198770:0:0:0:0:
320,192,198539,128,0,198770:0:0:0:0:
448,192,198539,128,0,198770:0:0:0:0:
64,192,198847,1,2,0:0:0:0:
192,192,198847,1,0,0:0:0:0:
448,192,198847,1,0,0:0:0:0:
64,192,199001,1,0,0:0:0:0:
320,192,199001,1,0,0:0:0:0:
64,192,199154,1,8,0:0:0:0:
192,192,199154,1,0,0:0:0:0:
320,192,199154,1,0,0:0:0:0:
448,192,199154,1,0,0:0:0:0:
64,192,199308,1,0,0:0:0:0:
192,192,199308,1,0,0:0:0:0:
320,192,199462,1,2,0:0:0:0:
448,192,199462,1,0,0:0:0:0:
64,192,199539,1,0,0:0:0:0:
192,192,199539,1,0,0:0:0:0:
320,192,199616,1,0,0:0:0:0:
448,192,199616,1,0,0:0:0:0:
64,192,199693,1,0,0:0:0:0:
192,192,199693,1,0,0:0:0:0:
320,192,199770,1,8,0:0:0:0:
448,192,199770,128,0,199924:0:0:0:0:
64,192,199924,128,0,200078:0:0:0:0:
192,192,200078,1,2,0:0:0:0:
320,192,200078,1,0,0:0:0:0:
448,192,200078,1,0,0:0:0:0:
64,192,200231,1,0,0:0:0:0:
320,192,200231,1,0,0:0:0:0:
64,192,200385,1,8,0:0:0:0:
192,192,200385,1,0,0:0:0:0:
320,192,200385,1,0,0:0:0:0:
448,192,200385,1,0,0:0:0:0:
192,192,200539,1,0,0:0:0:0:
448,192,200539,1,0,0:0:0:0:
64,192,200693,128,2,200847:0:0:0:0:
320,192,200693,128,0,200847:0:0:0:0:
448,192,200693,128,0,200847:0:0:0:0:
64,192,201001,128,8,201231:0:0:0:0:
192,192,201001,128,0,201231:0:0:0:0:
320,192,201001,128,0,201231:0:0:0:0:
448,192,201001,128,0,201231:0:0:0:0:
64,192,201308,1,2,0:0:0:0:
192,192,201308,1,0,0:0:0:0:
320,192,201308,1,0,0:0:0:0:
192,192,201462,1,0,0:0:0:0:
448,192,201462,1,0,0:0:0:0:
64,192,201616,1,8,0:0:0:0:
192,192,201616,1,0,0:0:0:0:
320,192,201616,1,0,0:0:0:0:
448,192,201616,1,0,0:0:0:0:
320,192,201770,1,0,0:0:0:0:
448,192,201770,1,0,0:0:0:0:
64,192,201924,1,2,0:0:0:0:
192,192,201924,1,0,0:0:0:0:
320,192,202001,1,0,0:0:0:0:
448,192,202001,1,0,0:0:0:0:
64,192,202078,1,0,0:0:0:0:
192,192,202078,1,0,0:0:0:0:
320,192,202154,1,0,0:0:0:0:
448,192,202154,1,0,0:0:0:0:
64,192,202231,128,8,202385:0:0:0:0:
192,192,202231,1,0,0:0:0:0:
448,192,202385,128,0,202539:0:0:0:0:
64,192,202539,1,2,0:0:0:0:
192,192,202539,1,0,0:0:0:0:
320,192,202539,1,0,0:0:0:0:
192,192,202693,1,0,0:0:0:0:
448,192,202693,1,0,0:0:0:0:
64,192,202847,1,0,0:0:0:70:LR4_SnareBPDT.wav
192,192,202847,1,0,0:0:0:0:
320,192,202847,1,0,0:0:0:0:
448,192,202847,1,0,0:0:0:0:
64,192,203154,128,0,203308:0:0:0:0:
192,192,203154,128,0,203308:0:0:0:0:
64,192,203462,128,8,203693:0:0:0:0:
192,192,203462,128,4,203693:0:0:0:0:
320,192,203462,128,0,203693:0:0:0:0:
448,192,203462,128,0,203693:0:0:0:0:
64,192,203770,1,2,0:0:0:0:
320,192,203770,1,0,0:0:0:0:
448,192,203770,1,0,0:0:0:0:
192,192,203924,1,0,0:0:0:0:
448,192,203924,1,0,0:0:0:0:
64,192,204078,1,8,0:0:0:0:
192,192,204078,1,0,0:0:0:0:
320,192,204078,1,0,0:0:0:0:
448,192,204078,1,0,0:0:0:0:
64,192,204231,1,0,0:0:0:0:
320,192,204231,1,0,0:0:0:0:
192,192,204385,1,2,0:0:0:0:
320,192,204385,1,0,0:0:0:0:
448,192,204385,1,0,0:0:0:0:
64,192,204539,1,0,0:0:0:0:
192,192,204539,1,0,0:0:0:0:
64,192,204693,1,8,0:0:0:0:
192,192,204693,1,0,0:0:0:0:
320,192,204693,1,0,0:0:0:0:
448,192,204693,1,0,0:0:0:0:
320,192,204847,1,0,0:0:0:0:
448,192,204847,1,0,0:0:0:0:
64,192,205001,1,2,0:0:0:0:
192,192,205001,1,0,0:0:0:0:
320,192,205001,1,0,0:0:0:0:
64,192,205154,1,0,0:0:0:0:
448,192,205154,1,0,0:0:0:0:
64,192,205308,1,8,0:0:0:0:
192,192,205308,1,0,0:0:0:0:
320,192,205308,1,0,0:0:0:0:
448,192,205308,1,0,0:0:0:0:
192,192,205462,1,0,0:0:0:0:
448,192,205462,1,0,0:0:0:0:
64,192,205616,1,2,0:0:0:0:
192,192,205616,1,0,0:0:0:0:
320,192,205616,1,0,0:0:0:0:
64,192,205770,1,0,0:0:0:0:
448,192,205770,1,0,0:0:0:0:
64,192,205924,1,8,0:0:0:0:
192,192,205924,1,0,0:0:0:0:
320,192,205924,1,0,0:0:0:0:
448,192,205924,1,0,0:0:0:0:
192,192,206078,1,0,0:0:0:0:
320,192,206078,1,0,0:0:0:0:
64,192,206231,1,2,0:0:0:0:
192,192,206231,1,0,0:0:0:0:
320,192,206231,1,0,0:0:0:0:
64,192,206385,1,0,0:0:0:0:
448,192,206385,1,0,0:0:0:0:
64,192,206539,1,8,0:0:0:0:
192,192,206539,1,0,0:0:0:0:
320,192,206539,1,0,0:0:0:0:
448,192,206539,1,0,0:0:0:0:
192,192,206693,1,0,0:0:0:0:
320,192,206693,1,0,0:0:0:0:
64,192,206847,1,4,0:0:0:0:
192,192,206847,1,2,0:0:0:0:
320,192,206847,1,0,0:0:0:0:
448,192,206847,1,0,0:0:0:0:
192,192,207001,1,0,0:0:0:0:
320,192,207078,1,0,0:0:0:0:
192,192,207154,1,0,0:0:0:0:
192,192,207308,1,0,0:0:0:0:
64,192,207462,1,0,0:0:0:70:LR4_SnareBPDT.wav
192,192,207462,1,0,0:0:0:0:
320,192,207462,1,0,0:0:0:0:
448,192,207462,1,0,0:0:0:0:
64,192,207616,1,0,0:0:0:70:LR4_SnareBPDT.wav
192,192,207616,1,0,0:0:0:0:
320,192,207616,1,0,0:0:0:0:
448,192,207616,1,0,0:0:0:0:
64,192,207770,1,0,0:0:0:70:LR4_SnareBPDT.wav
192,192,207770,1,0,0:0:0:0:
320,192,207770,1,0,0:0:0:0:
448,192,207770,1,0,0:0:0:0:
64,192,207924,1,0,0:0:0:70:LR4_SnareBPDT.wav
192,192,207924,1,0,0:0:0:0:
320,192,207924,1,0,0:0:0:0:
448,192,207924,1,0,0:0:0:0:
192,192,208078,128,2,208231:0:0:0:0:
320,192,208078,128,0,208231:0:0:0:0:
64,192,208385,128,8,208616:0:0:0:0:
192,192,208385,128,4,208616:0:0:0:0:
320,192,208385,128,0,208616:0:0:0:0:
448,192,208385,128,0,208616:0:0:0:0:
64,192,208693,1,2,0:0:0:0:
320,192,208693,1,0,0:0:0:0:
448,192,208693,1,0,0:0:0:0:
192,192,208847,1,0,0:0:0:0:
448,192,208847,1,0,0:0:0:0:
64,192,209001,1,8,0:0:0:0:
192,192,209001,1,0,0:0:0:0:
320,192,209001,1,0,0:0:0:0:
448,192,209001,1,0,0:0:0:0:
64,192,209154,1,0,0:0:0:0:
320,192,209154,1,0,0:0:0:0:
192,192,209308,1,2,0:0:0:0:
448,192,209308,1,0,0:0:0:0:
64,192,209385,1,0,0:0:0:0:
320,192,209385,1,0,0:0:0:0:
192,192,209462,1,0,0:0:0:0:
448,192,209462,1,0,0:0:0:0:
64,192,209539,1,0,0:0:0:0:
320,192,209539,1,0,0:0:0:0:
192,192,209616,1,8,0:0:0:0:
448,192,209616,128,0,209770:0:0:0:0:
64,192,209770,128,0,209924:0:0:0:0:
192,192,209924,1,2,0:0:0:0:
320,192,209924,1,0,0:0:0:0:
448,192,209924,1,0,0:0:0:0:
64,192,210078,1,0,0:0:0:0:
320,192,210078,1,0,0:0:0:0:
64,192,210231,1,8,0:0:0:0:
192,192,210231,1,0,0:0:0:0:
320,192,210231,1,0,0:0:0:0:
448,192,210231,1,0,0:0:0:0:
192,192,210385,1,0,0:0:0:0:
448,192,210385,1,0,0:0:0:0:
64,192,210539,128,2,210693:0:0:0:0:
320,192,210539,128,0,210693:0:0:0:0:
448,192,210539,128,0,210693:0:0:0:0:
64,192,210847,128,8,211078:0:0:0:0:
192,192,210847,128,0,211078:0:0:0:0:
320,192,210847,128,0,211078:0:0:0:0:
448,192,210847,128,0,211078:0:0:0:0:
64,192,211154,1,2,0:0:0:0:
320,192,211154,1,0,0:0:0:0:
448,192,211154,1,0,0:0:0:0:
64,192,211308,1,0,0:0:0:0:
192,192,211308,1,0,0:0:0:0:
64,192,211462,1,8,0:0:0:0:
192,192,211462,1,0,0:0:0:0:
320,192,211462,1,0,0:0:0:0:
448,192,211462,1,0,0:0:0:0:
192,192,211616,1,0,0:0:0:0:
448,192,211616,1,0,0:0:0:0:
64,192,211770,1,2,0:0:0:0:
320,192,211770,1,0,0:0:0:0:
192,192,211847,1,0,0:0:0:0:
448,192,211847,1,0,0:0:0:0:
64,192,211924,1,0,0:0:0:0:
320,192,211924,1,0,0:0:0:0:
192,192,212001,1,0,0:0:0:0:
448,192,212001,1,0,0:0:0:0:
64,192,212078,128,8,212231:0:0:0:0:
320,192,212078,1,0,0:0:0:0:
448,192,212231,128,0,212385:0:0:0:0:
64,192,212385,1,2,0:0:0:0:
192,192,212385,1,0,0:0:0:0:
320,192,212385,1,0,0:0:0:0:
192,192,212539,1,0,0:0:0:0:
448,192,212539,1,0,0:0:0:0:
64,192,212693,1,0,0:0:0:70:LR4_SnareBPDT.wav
192,192,212693,1,0,0:0:0:0:
320,192,212693,1,0,0:0:0:0:
448,192,212693,1,0,0:0:0:0:
64,192,213308,128,8,213924:0:0:0:0:
192,192,213308,128,4,213539:0:0:0:0:
320,192,213308,128,0,213539:0:0:0:0:
448,192,213308,128,0,213924:0:0:0:0:
192,192,213616,128,0,213924:0:0:0:0:
320,192,213616,128,0,213924:0:0:0:0:
192,192,214078,128,0,214231:0:0:0:0:
320,192,214078,128,0,214231:0:0:0:0:
64,192,214231,1,0,0:0:0:0:
448,192,214231,1,0,0:0:0:0:
192,192,214385,1,0,0:0:0:0:
320,192,214385,1,0,0:0:0:0:
64,192,214539,128,0,214770:0:0:0:50:S4.wav
448,192,214539,128,0,214770:0:0:0:0:
64,192,214847,128,0,215154:0:0:0:0:
192,192,214847,1,0,0:0:0:0:
448,192,214847,128,0,215154:0:0:0:0:
320,192,214924,1,0,0:0:0:50:S4.wav
192,192,215001,1,0,0:0:0:50:S4.wav
192,192,215154,1,0,0:0:0:50:S4.wav
320,192,215154,1,0,0:0:0:0:
64,192,215308,1,0,0:0:0:50:S4.wav
448,192,215308,1,0,0:0:0:0:
192,192,215462,1,2,0:0:0:0:
320,192,215462,1,4,0:0:0:0:
448,192,215462,1,0,0:0:0:0:
64,192,215616,1,2,0:0:0:0:
320,192,215616,1,0,0:0:0:0:
448,192,215616,1,0,0:0:0:0:
64,192,215770,1,8,0:0:0:0:
192,192,215770,1,4,0:0:0:0:
320,192,215770,1,0,0:0:0:0:
64,192,215924,1,2,0:0:0:0:
192,192,215924,1,0,0:0:0:0:
448,192,215924,1,0,0:0:0:0:
64,192,216078,1,2,0:0:0:0:
192,192,216078,1,4,0:0:0:0:
320,192,216154,1,2,0:0:0:0:
448,192,216154,1,0,0:0:0:0:
64,192,216231,1,2,0:0:0:0:
192,192,216231,1,0,0:0:0:0:
320,192,216308,1,2,0:0:0:0:
448,192,216308,1,0,0:0:0:0:
64,192,216385,1,8,0:0:0:0:
192,192,216385,1,0,0:0:0:0:
320,192,216462,1,2,0:0:0:0:
448,192,216462,1,0,0:0:0:0:
64,192,216539,1,2,0:0:0:0:
192,192,216539,1,0,0:0:0:0:
320,192,216616,1,2,0:0:0:0:
448,192,216616,1,0,0:0:0:0:
64,192,216693,1,4,0:0:0:0:
192,192,216693,1,2,0:0:0:0:
320,192,216693,1,0,0:0:0:0:
448,192,216693,1,0,0:0:0:0:
192,192,217308,1,0,0:0:0:70:LR4_SnareBPDT.wav
320,192,217308,1,0,0:0:0:0:
448,192,217308,1,0,0:0:0:0:
192,192,217462,1,0,0:0:0:70:LR4_SnareBPDT.wav
320,192,217462,1,0,0:0:0:0:
448,192,217462,1,0,0:0:0:0:
64,192,217616,1,0,0:0:0:70:LR4_SnareBPDT.wav
192,192,217616,1,0,0:0:0:0:
320,192,217616,1,0,0:0:0:0:
448,192,217616,1,0,0:0:0:0:
64,192,217770,1,0,0:0:0:70:LR4_SnareBPDT.wav
192,192,217770,1,0,0:0:0:0:
320,192,217770,1,0,0:0:0:0:
64,192,217924,1,2,0:0:0:0:
192,192,217924,1,4,0:0:0:0:
320,192,217924,1,0,0:0:0:0:
448,192,217924,1,0,0:0:0:0:
320,192,218116,1,0,0:0:0:0:
192,192,218308,1,0,0:0:0:0:
64,192,218539,1,4,0:0:0:0:
192,192,218539,1,2,0:0:0:0:
320,192,218539,1,0,0:0:0:0:
448,192,218539,1,0,0:0:0:0:
320,192,218693,1,0,0:0:0:0:
448,192,218693,1,0,0:0:0:0:
64,192,218847,1,8,0:0:0:0:
192,192,218847,1,0,0:0:0:0:
320,192,218847,1,0,0:0:0:0:
448,192,218847,1,0,0:0:0:0:
320,192,219001,1,0,0:0:0:0:
448,192,219001,1,0,0:0:0:0:
64,192,219154,1,2,0:0:0:0:
320,192,219154,1,0,0:0:0:0:
448,192,219154,1,0,0:0:0:0:
320,192,219308,1,0,0:0:0:0:
448,192,219308,1,0,0:0:0:0:
64,192,219462,1,8,0:0:0:0:
192,192,219462,1,0,0:0:0:0:
448,192,219462,1,0,0:0:0:0:
64,192,219539,1,0,0:0:0:0:
192,192,219539,1,0,0:0:0:0:
320,192,219616,1,0,0:0:0:0:
448,192,219616,1,0,0:0:0:0:
64,192,219770,1,2,0:0:0:0:
192,192,219770,1,0,0:0:0:0:
448,192,219770,1,0,0:0:0:0:
64,192,219924,1,0,0:0:0:0:
192,192,219924,1,0,0:0:0:0:
64,192,220078,1,8,0:0:0:0:
192,192,220078,1,0,0:0:0:0:
320,192,220078,1,0,0:0:0:0:
448,192,220078,1,0,0:0:0:0:
64,192,220231,1,0,0:0:0:0:
192,192,220231,1,0,0:0:0:0:
64,192,220385,1,2,0:0:0:0:
192,192,220385,1,0,0:0:0:0:
448,192,220385,128,0,220539:0:0:0:0:
64,192,220539,1,0,0:0:0:0:
192,192,220539,1,0,0:0:0:0:
64,192,220693,1,8,0:0:0:0:
192,192,220693,1,0,0:0:0:0:
320,192,220693,1,0,0:0:0:0:
448,192,220693,1,0,0:0:0:0:
320,192,220847,1,0,0:0:0:0:
448,192,220847,1,0,0:0:0:0:
64,192,221001,1,2,0:0:0:0:
320,192,221001,1,0,0:0:0:0:
448,192,221001,1,0,0:0:0:0:
320,192,221154,1,0,0:0:0:0:
448,192,221154,1,0,0:0:0:0:
64,192,221308,1,8,0:0:0:0:
192,192,221308,1,0,0:0:0:0:
320,192,221308,1,0,0:0:0:0:
448,192,221308,1,0,0:0:0:0:
192,192,221462,1,0,0:0:0:0:
320,192,221462,1,0,0:0:0:0:
64,192,221616,128,2,221847:0:0:0:0:
320,192,221616,128,0,221847:0:0:0:0:
448,192,221616,128,0,221847:0:0:0:0:
64,192,221924,1,0,0:0:0:0:
448,192,221924,1,0,0:0:0:0:
192,192,222078,128,0,222231:0:0:0:0:
320,192,222078,128,0,222231:0:0:0:0:
64,192,222231,1,2,0:0:0:0:
448,192,222231,1,0,0:0:0:0:
192,192,222385,1,0,0:0:0:0:
320,192,222462,1,0,0:0:0:0:
64,192,222539,1,0,0:0:0:70:LR4_SnareBPDT.wav
192,192,222539,1,0,0:0:0:0:
448,192,222539,1,0,0:0:0:0:
64,192,222847,128,2,222898:0:0:0:0:
192,192,222847,128,8,222898:0:0:0:0:
320,192,222847,128,0,222898:0:0:0:0:
64,192,223001,128,2,223052:0:0:0:0:
192,192,223001,128,0,223052:0:0:0:0:
320,192,223001,128,0,223052:0:0:0:0:
64,192,223154,128,4,223206:0:0:0:0:
192,192,223154,128,8,223206:0:0:0:0:
320,192,223154,128,2,223206:0:0:0:0:
448,192,223154,128,0,223206:0:0:0:0:
64,192,223308,128,0,223360:0:0:0:0:
320,192,223308,128,0,223360:0:0:0:0:
448,192,223308,128,0,223360:0:0:0:0:
192,192,223462,128,2,223513:0:0:0:0:
320,192,223462,128,0,223513:0:0:0:0:
64,192,223616,128,0,223667:0:0:0:0:
192,192,223616,128,0,223667:0:0:0:0:
448,192,223616,128,0,223667:0:0:0:0:
64,192,223770,128,8,223821:0:0:0:0:
192,192,223770,128,2,223821:0:0:0:0:
320,192,223770,128,0,223821:0:0:0:0:
448,192,223770,128,0,223821:0:0:0:0:
192,192,223924,128,0,223975:0:0:0:0:
448,192,223924,128,0,223975:0:0:0:0:
64,192,224078,128,2,224129:0:0:0:0:
192,192,224078,128,0,224129:0:0:0:0:
320,192,224078,128,0,224129:0:0:0:0:
64,192,224231,128,0,224283:0:0:0:0:
448,192,224231,128,0,224283:0:0:0:0:
64,192,224385,128,8,224436:0:0:0:0:
192,192,224385,128,2,224436:0:0:0:0:
320,192,224385,128,0,224436:0:0:0:0:
448,192,224385,128,0,224436:0:0:0:0:
192,192,224539,128,0,224590:0:0:0:0:
320,192,224539,128,0,224590:0:0:0:0:
64,192,224693,128,2,224744:0:0:0:0:
192,192,224693,128,0,224744:0:0:0:0:
448,192,224693,128,0,224744:0:0:0:0:
320,192,224847,128,0,224898:0:0:0:0:
448,192,224847,128,0,224898:0:0:0:0:
64,192,225001,128,8,225052:0:0:0:0:
192,192,225001,128,2,225052:0:0:0:0:
320,192,225001,128,0,225052:0:0:0:0:
448,192,225001,128,0,225052:0:0:0:0:
64,192,225154,128,0,225206:0:0:0:0:
192,192,225154,128,0,225206:0:0:0:0:
64,192,225308,128,2,225513:0:0:0:0:
320,192,225308,128,0,225360:0:0:0:0:
448,192,225308,128,0,225360:0:0:0:0:
320,192,225462,128,0,225513:0:0:0:0:
448,192,225462,128,0,225513:0:0:0:0:
64,192,225616,128,8,225667:0:0:0:0:
192,192,225616,128,2,225667:0:0:0:0:
320,192,225616,128,0,225667:0:0:0:0:
448,192,225616,128,0,225667:0:0:0:0:
64,192,225770,128,0,225821:0:0:0:0:
320,192,225770,128,0,225821:0:0:0:0:
64,192,225924,128,2,225975:0:0:0:0:
192,192,225924,128,0,225975:0:0:0:0:
448,192,225924,128,0,225975:0:0:0:0:
320,192,226078,128,0,226129:0:0:0:0:
448,192,226078,128,0,226129:0:0:0:0:
64,192,226231,128,8,226283:0:0:0:0:
192,192,226231,128,2,226283:0:0:0:0:
320,192,226231,128,0,226283:0:0:0:0:
448,192,226231,128,0,226283:0:0:0:0:
64,192,226385,128,0,226436:0:0:0:0:
192,192,226385,128,0,226436:0:0:0:0:
64,192,226539,1,2,0:0:0:0:
192,192,226539,1,4,0:0:0:0:
320,192,226539,1,0,0:0:0:0:
448,192,226539,1,0,0:0:0:0:
64,192,226693,1,0,0:0:0:70:LR4_SnareBPDT.wav
320,192,226693,1,0,0:0:0:0:
448,192,226693,1,0,0:0:0:0:
64,192,226847,1,0,0:0:0:70:LR4_SnareBPDT.wav
320,192,226847,1,0,0:0:0:0:
448,192,226847,1,0,0:0:0:0:
64,192,227001,1,2,0:0:0:0:
192,192,227001,1,0,0:0:0:0:
320,192,227001,1,0,0:0:0:0:
64,192,227462,1,0,0:0:0:70:LR4_SnareBPDT.wav
192,192,227462,1,0,0:0:0:0:
320,192,227462,1,0,0:0:0:0:
448,192,227462,1,0,0:0:0:0:
64,192,227616,1,0,0:0:0:70:LR4_SnareBPDT.wav
192,192,227616,1,0,0:0:0:0:
320,192,227616,1,0,0:0:0:0:
448,192,227616,1,0,0:0:0:0:
192,192,227770,1,2,0:0:0:0:
320,192,227770,1,0,0:0:0:0:
448,192,227770,1,0,0:0:0:0:
320,192,227962,1,0,0:0:0:0:
192,192,228154,1,0,0:0:0:0:
64,192,228385,1,4,0:0:0:0:
192,192,228385,1,2,0:0:0:0:
320,192,228385,1,0,0:0:0:0:
448,192,228385,1,0,0:0:0:0:
192,192,228539,1,0,0:0:0:0:
320,192,228539,1,0,0:0:0:0:
64,192,228616,1,0,0:0:0:0:
448,192,228616,1,0,0:0:0:0:
192,192,228693,1,8,0:0:0:0:
320,192,228693,1,0,0:0:0:0:
64,192,228770,1,0,0:0:0:0:
448,192,228770,1,0,0:0:0:0:
192,192,228847,1,0,0:0:0:0:
320,192,228847,1,0,0:0:0:0:
64,192,228924,1,0,0:0:0:0:
448,192,228924,1,0,0:0:0:0:
192,192,229001,1,2,0:0:0:0:
320,192,229001,1,0,0:0:0:0:
64,192,229154,1,0,0:0:0:0:
192,192,229154,1,0,0:0:0:0:
64,192,229308,1,8,0:0:0:0:
192,192,229308,1,0,0:0:0:0:
320,192,229308,1,0,0:0:0:0:
448,192,229308,1,0,0:0:0:0:
320,192,229462,1,0,0:0:0:0:
448,192,229462,1,0,0:0:0:0:
64,192,229616,1,2,0:0:0:0:
192,192,229616,1,0,0:0:0:0:
320,192,229616,1,0,0:0:0:0:
64,192,229770,1,0,0:0:0:0:
192,192,229770,1,0,0:0:0:0:
64,192,229924,1,8,0:0:0:0:
192,192,229924,1,0,0:0:0:0:
320,192,229924,1,0,0:0:0:0:
448,192,229924,1,0,0:0:0:0:
320,192,230078,1,0,0:0:0:0:
448,192,230078,1,0,0:0:0:0:
64,192,230231,128,2,230385:0:0:0:0:
192,192,230231,1,0,0:0:0:0:
448,192,230231,1,0,0:0:0:0:
320,192,230385,1,0,0:0:0:0:
448,192,230385,1,0,0:0:0:0:
64,192,230539,1,8,0:0:0:0:
192,192,230539,1,0,0:0:0:0:
320,192,230539,1,0,0:0:0:0:
448,192,230539,1,0,0:0:0:0:
64,192,230693,1,0,0:0:0:0:
192,192,230693,1,0,0:0:0:0:
64,192,230847,1,2,0:0:0:0:
320,192,230847,1,0,0:0:0:0:
448,192,230847,1,0,0:0:0:0:
64,192,231001,1,0,0:0:0:0:
192,192,231001,1,0,0:0:0:0:
320,192,231078,1,0,0:0:0:0:
448,192,231078,1,0,0:0:0:0:
64,192,231154,1,8,0:0:0:0:
192,192,231154,1,0,0:0:0:0:
320,192,231231,1,0,0:0:0:0:
448,192,231231,1,0,0:0:0:0:
64,192,231308,1,0,0:0:0:0:
192,192,231308,1,0,0:0:0:0:
320,192,231385,1,0,0:0:0:0:
448,192,231385,1,0,0:0:0:0:
64,192,231462,128,2,231693:0:0:0:0:
192,192,231462,128,0,231693:0:0:0:0:
448,192,231462,128,0,231693:0:0:0:0:
64,192,231770,1,8,0:0:0:0:
448,192,231770,1,0,0:0:0:0:
192,192,231924,128,0,232078:0:0:0:0:
320,192,231924,128,0,232078:0:0:0:0:
64,192,232078,1,2,0:0:0:0:
448,192,232078,1,0,0:0:0:0:
320,192,232231,1,0,0:0:0:0:
192,192,232308,1,0,0:0:0:0:
64,192,232385,1,0,0:0:0:70:LR4_SnareBPDT.wav
320,192,232385,1,0,0:0:0:0:
448,192,232385,1,0,0:0:0:0:
64,192,232693,128,2,232847:0:0:0:0:
192,192,232693,128,8,232847:0:0:0:0:
448,192,232693,128,0,232847:0:0:0:0:
64,192,232924,1,2,0:0:0:0:
192,192,232924,1,0,0:0:0:0:
320,192,233001,1,8,0:0:0:0:
448,192,233001,1,0,0:0:0:0:
64,192,233154,128,4,233308:0:0:0:0:
192,192,233154,128,2,233308:0:0:0:0:
448,192,233154,128,0,233308:0:0:0:0:
64,192,233385,128,2,233539:0:0:0:0:
192,192,233385,128,0,233539:0:0:0:0:
448,192,233385,128,0,233539:0:0:0:0:
192,192,233616,1,0,0:0:0:70:LR4_SnareBPDT.wav
320,192,233616,1,0,0:0:0:0:
448,192,233616,1,0,0:0:0:0:
320,192,233770,1,0,0:0:0:0:
64,192,233924,1,2,0:0:0:0:
192,192,233924,1,0,0:0:0:0:
448,192,233924,1,0,0:0:0:0:
320,192,234078,1,8,0:0:0:0:
448,192,234078,1,0,0:0:0:0:
64,192,234154,1,2,0:0:0:0:
192,192,234154,1,0,0:0:0:0:
320,192,234231,1,8,0:0:0:0:
448,192,234231,1,0,0:0:0:0:
192,192,234308,1,2,0:0:0:0:
64,192,234385,128,2,234539:0:0:0:0:
320,192,234385,128,0,234539:0:0:0:0:
448,192,234385,128,0,234539:0:0:0:0:
64,192,234616,128,2,234770:0:0:0:0:
320,192,234616,128,0,234770:0:0:0:0:
448,192,234616,128,0,234770:0:0:0:0:
64,192,234847,1,0,0:0:0:70:LR4_SnareBPDT.wav
320,192,234847,1,0,0:0:0:0:
448,192,234847,1,0,0:0:0:0:
192,192,235001,1,0,0:0:0:0:
320,192,235001,1,0,0:0:0:0:
64,192,235154,128,2,235308:0:0:0:0:
192,192,235154,128,8,235308:0:0:0:0:
448,192,235154,128,0,235308:0:0:0:0:
64,192,235385,1,2,0:0:0:0:
192,192,235385,1,0,0:0:0:0:
448,192,235385,1,0,0:0:0:0:
64,192,235462,1,8,0:0:0:0:
192,192,235462,1,0,0:0:0:0:
448,192,235462,1,0,0:0:0:0:
192,192,235616,128,8,235770:0:0:0:0:
320,192,235616,128,2,235770:0:0:0:0:
448,192,235616,128,4,235770:0:0:0:0:
64,192,235847,128,2,236001:0:0:0:0:
192,192,235847,128,8,236001:0:0:0:0:
320,192,235847,128,0,236001:0:0:0:0:
64,192,236078,1,0,0:0:0:70:LR4_SnareBPDT.wav
192,192,236078,1,0,0:0:0:0:
320,192,236078,1,0,0:0:0:0:
448,192,236078,1,0,0:0:0:0:
64,192,236385,1,2,0:0:0:0:
192,192,236385,1,4,0:0:0:0:
320,192,236385,1,0,0:0:0:0:
448,192,236385,1,0,0:0:0:0:
192,192,236539,1,0,0:0:0:0:
320,192,236693,1,0,0:0:0:0:
448,192,236847,1,0,0:0:0:0:
64,192,237001,1,0,0:0:0:70:LR4_SnareBPDT.wav
192,192,237001,1,0,0:0:0:0:
320,192,237001,1,0,0:0:0:0:
64,192,237154,1,0,0:0:0:70:LR4_SnareBPDT.wav
192,192,237154,1,0,0:0:0:0:
448,192,237154,1,0,0:0:0:0:
64,192,237308,1,0,0:0:0:70:LR4_SnareBPDT.wav
320,192,237308,1,0,0:0:0:0:
448,192,237308,1,0,0:0:0:0:
192,192,237462,1,0,0:0:0:70:LR4_SnareBPDT.wav
320,192,237462,1,0,0:0:0:0:
448,192,237462,1,0,0:0:0:0:
64,192,237616,1,2,0:0:0:0:
192,192,237616,1,4,0:0:0:0:
320,192,237616,1,0,0:0:0:0:
448,192,237616,1,0,0:0:0:0:
64,192,237770,1,0,0:0:0:0:
320,192,237770,1,0,0:0:0:0:
64,192,237924,1,2,0:0:0:0:
192,192,237924,1,0,0:0:0:0:
448,192,237924,1,0,0:0:0:0:
192,192,238078,1,0,0:0:0:0:
448,192,238078,1,0,0:0:0:0:
64,192,238231,1,2,0:0:0:0:
320,192,238231,1,0,0:0:0:0:
448,192,238231,1,0,0:0:0:0:
192,192,238385,1,0,0:0:0:0:
448,192,238385,1,0,0:0:0:0:
64,192,238539,1,2,0:0:0:0:
192,192,238539,1,0,0:0:0:0:
320,192,238539,1,0,0:0:0:0:
64,192,238693,1,0,0:0:0:0:
320,192,238693,1,0,0:0:0:0:
64,192,238847,1,2,0:0:0:0:
192,192,238847,1,0,0:0:0:0:
448,192,238847,1,0,0:0:0:0:
192,192,239001,1,0,0:0:0:0:
320,192,239001,1,0,0:0:0:0:
64,192,239154,1,2,0:0:0:0:
320,192,239154,1,0,0:0:0:0:
448,192,239154,1,0,0:0:0:0:
320,192,239308,1,0,0:0:0:0:
448,192,239308,1,0,0:0:0:0:
64,192,239462,1,2,0:0:0:0:
320,192,239462,1,0,0:0:0:0:
448,192,239462,1,0,0:0:0:0:
192,192,239539,1,0,0:0:0:0:
64,192,239616,1,0,0:0:0:0:
64,192,239770,1,2,0:0:0:0:
320,192,239770,1,0,0:0:0:0:
448,192,239770,1,0,0:0:0:0:
64,192,239924,1,0,0:0:0:0:
64,192,240078,1,2,0:0:0:0:
192,192,240078,1,0,0:0:0:0:
448,192,240078,1,0,0:0:0:0:
320,192,240154,1,0,0:0:0:0:
192,192,240231,1,0,0:0:0:0:
64,192,240385,1,2,0:0:0:0:
320,192,240385,1,0,0:0:0:0:
448,192,240385,1,0,0:0:0:0:
192,192,240462,1,0,0:0:0:0:
320,192,240539,1,0,0:0:0:0:
448,192,240616,1,0,0:0:0:0:
64,192,240693,1,2,0:0:0:0:
192,192,240693,1,0,0:0:0:0:
320,192,240693,1,0,0:0:0:0:
192,192,240847,1,0,0:0:0:0:
64,192,241001,1,2,0:0:0:0:
320,192,241001,1,0,0:0:0:0:
448,192,241001,1,0,0:0:0:0:
320,192,241154,1,0,0:0:0:0:
64,192,241308,1,2,0:0:0:0:
192,192,241308,1,0,0:0:0:0:
448,192,241308,1,0,0:0:0:0:
320,192,241462,1,0,0:0:0:0:
192,192,241539,1,0,0:0:0:0:
64,192,241616,1,2,0:0:0:0:
320,192,241616,1,0,0:0:0:0:
448,192,241616,1,0,0:0:0:0:
192,192,241693,1,0,0:0:0:0:
320,192,241770,1,0,0:0:0:0:
192,192,241847,1,0,0:0:0:0:
64,192,241924,1,2,0:0:0:0:
320,192,241924,1,0,0:0:0:0:
448,192,241924,1,0,0:0:0:0:
320,192,242078,1,0,0:0:0:0:
64,192,242231,1,2,0:0:0:0:
192,192,242231,1,0,0:0:0:0:
448,192,242231,1,0,0:0:0:0:
192,192,242385,1,0,0:0:0:0:
64,192,242539,1,2,0:0:0:0:
320,192,242539,1,4,0:0:0:0:
448,192,242539,1,0,0:0:0:0:
192,192,242693,1,0,0:0:0:0:
448,192,242693,1,0,0:0:0:0:
64,192,242847,1,2,0:0:0:0:
320,192,242847,1,0,0:0:0:0:
448,192,242847,1,0,0:0:0:0:
64,192,243001,1,0,0:0:0:0:
320,192,243001,1,0,0:0:0:0:
64,192,243154,1,2,0:0:0:0:
192,192,243154,1,0,0:0:0:0:
448,192,243154,1,0,0:0:0:0:
64,192,243308,1,0,0:0:0:0:
320,192,243308,1,0,0:0:0:0:
192,192,243462,1,2,0:0:0:0:
320,192,243462,1,0,0:0:0:0:
448,192,243462,1,0,0:0:0:0:
192,192,243616,1,0,0:0:0:0:
448,192,243616,1,0,0:0:0:0:
64,192,243770,1,2,0:0:0:0:
320,192,243770,1,0,0:0:0:0:
448,192,243770,1,0,0:0:0:0:
192,192,243924,1,0,0:0:0:0:
320,192,243924,1,0,0:0:0:0:
64,192,244078,1,2,0:0:0:0:
192,192,244078,1,0,0:0:0:0:
448,192,244078,1,0,0:0:0:0:
64,192,244231,1,0,0:0:0:0:
192,192,244231,1,0,0:0:0:0:
64,192,244385,1,2,0:0:0:0:
192,192,244385,1,0,0:0:0:0:
448,192,244385,1,0,0:0:0:0:
320,192,244462,1,0,0:0:0:0:
448,192,244539,1,0,0:0:0:0:
64,192,244693,1,2,0:0:0:0:
192,192,244693,1,0,0:0:0:0:
448,192,244693,1,0,0:0:0:0:
448,192,244847,1,0,0:0:0:0:
64,192,245001,1,2,0:0:0:0:
320,192,245001,1,0,0:0:0:0:
448,192,245001,1,0,0:0:0:0:
192,192,245078,1,0,0:0:0:0:
320,192,245154,1,0,0:0:0:0:
64,192,245308,1,2,0:0:0:0:
192,192,245308,1,0,0:0:0:0:
448,192,245308,1,0,0:0:0:0:
320,192,245385,1,0,0:0:0:0:
192,192,245462,1,0,0:0:0:0:
64,192,245539,1,0,0:0:0:0:
192,192,245616,1,2,0:0:0:0:
320,192,245616,1,0,0:0:0:0:
448,192,245616,1,0,0:0:0:0:
320,192,245770,1,0,0:0:0:0:
64,192,245924,1,2,0:0:0:0:
192,192,245924,1,0,0:0:0:0:
448,192,245924,1,0,0:0:0:0:
192,192,246078,1,0,0:0:0:0:
64,192,246231,1,2,0:0:0:0:
192,192,246231,1,4,0:0:0:0:
320,192,246231,1,0,0:0:0:0:
448,192,246231,1,0,0:0:0:0:
64,192,246385,1,2,0:0:0:0:
192,192,246385,1,0,0:0:0:0:
320,192,246462,1,2,0:0:0:0:
448,192,246462,1,0,0:0:0:0:
64,192,246539,1,2,0:0:0:0:
192,192,246539,1,0,0:0:0:0:
64,192,246693,1,2,0:0:0:0:
192,192,246693,1,0,0:0:0:0:
64,192,246847,1,2,0:0:0:0:
448,192,246847,1,0,0:0:0:0:
64,192,247001,1,2,0:0:0:0:
448,192,247001,1,0,0:0:0:0:
192,192,247154,1,2,0:0:0:0:
320,192,247154,1,0,0:0:0:0:
192,192,247308,1,2,0:0:0:0:
320,192,247308,1,0,0:0:0:0:
64,192,247462,1,2,0:0:0:0:
192,192,247462,1,4,0:0:0:0:
320,192,247462,1,0,0:0:0:0:
448,192,247462,1,0,0:0:0:0:
64,192,247616,1,0,0:0:0:0:
320,192,247616,1,0,0:0:0:0:
64,192,247770,1,2,0:0:0:0:
192,192,247770,1,0,0:0:0:0:
448,192,247770,1,0,0:0:0:0:
192,192,247924,1,0,0:0:0:0:
448,192,247924,1,0,0:0:0:0:
64,192,248078,1,2,0:0:0:0:
320,192,248078,1,0,0:0:0:0:
448,192,248078,1,0,0:0:0:0:
320,192,248231,1,0,0:0:0:0:
448,192,248231,1,0,0:0:0:0:
64,192,248385,1,2,0:0:0:0:
192,192,248385,1,0,0:0:0:0:
320,192,248385,1,0,0:0:0:0:
64,192,248539,1,0,0:0:0:0:
192,192,248539,1,0,0:0:0:0:
64,192,248693,1,2,0:0:0:0:
320,192,248693,1,0,0:0:0:0:
448,192,248693,1,0,0:0:0:0:
192,192,248847,1,0,0:0:0:0:
448,192,248847,1,0,0:0:0:0:
64,192,249001,1,2,0:0:0:0:
192,192,249001,1,0,0:0:0:0:
320,192,249001,1,0,0:0:0:0:
64,192,249154,1,0,0:0:0:0:
320,192,249154,1,0,0:0:0:0:
192,192,249308,1,2,0:0:0:0:
320,192,249308,1,0,0:0:0:0:
448,192,249308,1,0,0:0:0:0:
64,192,249385,1,0,0:0:0:0:
192,192,249462,1,0,0:0:0:0:
64,192,249616,1,2,0:0:0:0:
320,192,249616,1,0,0:0:0:0:
448,192,249616,1,0,0:0:0:0:
192,192,249693,1,0,0:0:0:0:
320,192,249770,1,0,0:0:0:0:
64,192,249924,1,2,0:0:0:0:
192,192,249924,1,0,0:0:0:0:
448,192,249924,1,0,0:0:0:0:
320,192,250001,1,0,0:0:0:0:
192,192,250078,1,0,0:0:0:0:
64,192,250231,1,2,0:0:0:0:
320,192,250231,1,0,0:0:0:0:
448,192,250231,1,0,0:0:0:0:
192,192,250308,1,0,0:0:0:0:
320,192,250385,1,0,0:0:0:0:
64,192,250539,1,2,0:0:0:0:
192,192,250539,1,0,0:0:0:0:
448,192,250539,1,0,0:0:0:0:
320,192,250616,1,0,0:0:0:0:
448,192,250693,1,0,0:0:0:0:
64,192,250847,1,2,0:0:0:0:
320,192,250847,1,0,0:0:0:0:
448,192,250847,1,0,0:0:0:0:
192,192,250924,1,0,0:0:0:0:
320,192,251001,1,0,0:0:0:0:
64,192,251154,1,2,0:0:0:0:
192,192,251154,1,0,0:0:0:0:
448,192,251154,1,0,0:0:0:0:
320,192,251231,1,0,0:0:0:0:
192,192,251308,1,0,0:0:0:0:
64,192,251462,1,2,0:0:0:0:
320,192,251462,1,0,0:0:0:0:
448,192,251462,1,0,0:0:0:0:
192,192,251539,1,0,0:0:0:0:
64,192,251616,1,0,0:0:0:0:
64,192,251770,1,2,0:0:0:0:
192,192,251770,1,0,0:0:0:0:
320,192,251770,1,0,0:0:0:0:
448,192,251847,1,0,0:0:0:0:
320,192,251924,1,0,0:0:0:0:
64,192,252078,1,2,0:0:0:0:
192,192,252078,1,0,0:0:0:0:
448,192,252078,1,0,0:0:0:0:
320,192,252154,1,0,0:0:0:0:
192,192,252231,1,0,0:0:0:0:
64,192,252385,1,2,0:0:0:0:
192,192,252385,1,4,0:0:0:0:
320,192,252385,1,0,0:0:0:0:
448,192,252385,1,0,0:0:0:0:
192,192,252539,1,0,0:0:0:0:
448,192,252539,1,0,0:0:0:0:
64,192,252693,1,2,0:0:0:0:
320,192,252693,1,0,0:0:0:0:
448,192,252693,1,0,0:0:0:0:
64,192,252847,1,0,0:0:0:0:
320,192,252847,1,0,0:0:0:0:
64,192,253001,1,2,0:0:0:0:
192,192,253001,1,0,0:0:0:0:
448,192,253001,1,0,0:0:0:0:
64,192,253154,1,0,0:0:0:0:
192,192,253154,1,0,0:0:0:0:
192,192,253308,1,2,0:0:0:0:
320,192,253308,1,0,0:0:0:0:
448,192,253308,1,0,0:0:0:0:
320,192,253462,1,0,0:0:0:0:
448,192,253462,1,0,0:0:0:0:
64,192,253616,1,2,0:0:0:0:
192,192,253616,1,0,0:0:0:0:
448,192,253616,1,0,0:0:0:0:
64,192,253770,1,0,0:0:0:0:
320,192,253770,1,0,0:0:0:0:
192,192,253924,1,2,0:0:0:0:
320,192,253924,1,0,0:0:0:0:
448,192,253924,1,0,0:0:0:0:
192,192,254078,1,0,0:0:0:0:
448,192,254078,1,0,0:0:0:0:
64,192,254231,1,2,0:0:0:0:
192,192,254231,1,0,0:0:0:0:
320,192,254231,1,0,0:0:0:0:
448,192,254308,1,0,0:0:0:0:
320,192,254385,1,0,0:0:0:0:
64,192,254539,1,2,0:0:0:0:
192,192,254539,1,0,0:0:0:0:
448,192,254539,1,0,0:0:0:0:
320,192,254616,1,0,0:0:0:0:
192,192,254693,1,0,0:0:0:0:
64,192,254847,1,2,0:0:0:0:
320,192,254847,1,0,0:0:0:0:
448,192,254847,1,0,0:0:0:0:
192,192,254924,1,0,0:0:0:0:
320,192,255001,1,0,0:0:0:0:
64,192,255154,1,2,0:0:0:0:
192,192,255154,1,0,0:0:0:0:
448,192,255154,1,0,0:0:0:0:
320,192,255231,1,0,0:0:0:0:
192,192,255308,1,0,0:0:0:0:
64,192,255462,1,2,0:0:0:0:
320,192,255462,1,0,0:0:0:0:
448,192,255462,1,0,0:0:0:0:
192,192,255539,1,0,0:0:0:0:
64,192,255616,1,0,0:0:0:0:
64,192,255770,1,2,0:0:0:0:
192,192,255770,1,0,0:0:0:0:
448,192,255770,1,0,0:0:0:0:
320,192,255847,1,0,0:0:0:0:
192,192,255924,1,0,0:0:0:0:
64,192,256078,1,2,0:0:0:0:
320,192,256078,1,4,0:0:0:0:
448,192,256078,1,0,0:0:0:0:
192,192,256231,1,2,0:0:0:0:
448,192,256231,1,0,0:0:0:0:
64,192,256308,1,0,0:0:0:0:
320,192,256385,1,0,0:0:0:0:
448,192,256385,1,0,0:0:0:0:
192,192,256462,1,0,0:0:0:0:
320,192,256539,1,0,0:0:0:0:
192,192,256616,1,0,0:0:0:0:
320,192,256693,1,0,0:0:0:0:
448,192,256693,1,0,0:0:0:0:
64,192,256770,1,0,0:0:0:0:
192,192,256770,1,0,0:0:0:0:
320,192,256847,1,0,0:0:0:0:
448,192,256847,1,0,0:0:0:0:
192,192,257001,1,0,0:0:0:0:
320,192,257001,1,0,0:0:0:0:
64,192,257154,1,0,0:0:0:0:
448,192,257154,1,0,0:0:0:0:
64,192,257308,1,0,0:0:0:50:LS-HKI Digital Kick 01 F#.wav
192,192,257308,1,0,0:0:0:0:
320,192,257308,1,0,0:0:0:0:
448,192,257308,1,0,0:0:0:0:
