osu file format v14

[General]
AudioFilename: audio.mp3
AudioLeadIn: 0
PreviewTime: 177924
Countdown: 0
SampleSet: Soft
StackLeniency: 0.7
Mode: 3
LetterboxInBreaks: 0
SpecialStyle: 0
WidescreenStoryboard: 0

[Editor]
DistanceSpacing: 1.4
BeatDivisor: 4
GridSize: 4
TimelineZoom: 1.999999

[Metadata]
Title:Drug on the Drop (Zekk Remix)
TitleUnicode:Drug on the Drop (Zekk Remix)
Artist:uet
ArtistUnicode:uet
Creator:Fontes
Version:Agy's Normal
Source:
Tags:Wonki Murumoo Agayers FAMoss Jakads STONE STATUE OF THE AZTEKS Hardcore Teknology M3-38 Pumpcore
BeatmapID:1517671
BeatmapSetID:717251

[Difficulty]
HPDrainRate:7
CircleSize:4
OverallDifficulty:7
ApproachRate:5
SliderMultiplier:1.4
SliderTickRate:1

[Events]
//Background and Video events
0,0,"BG.jpg",0,0
//Break Periods
//Storyboard Layer 0 (Background)
//Storyboard Layer 1 (Fail)
//Storyboard Layer 2 (Pass)
//Storyboard Layer 3 (Foreground)
//Storyboard Sound Samples
Sample,175001,0,"S5.wav",50
Sample,175308,0,"S5.wav",50
Sample,175616,0,"S5.wav",50
Sample,175770,0,"S5.wav",50
Sample,175924,0,"S5.wav",50

[TimingPoints]
78,307.692307692308,4,2,1,60,1,0
178847,-100,4,2,1,60,0,1
217924,-100,4,2,1,60,0,0

[HitObjects]
64,192,78,5,2,0:0:0:0:
448,192,78,128,4,385:0:0:0:0:
192,192,385,1,2,0:0:0:0:
64,192,693,128,2,1001:0:0:0:0:
320,192,1001,1,2,0:0:0:0:
448,192,1308,128,2,1616:0:0:0:0:
192,192,1616,1,2,0:0:0:0:
64,192,1924,1,2,0:0:0:0:
448,192,2078,1,0,0:0:0:0:
192,192,2231,1,2,0:0:0:0:
448,192,2385,1,0,0:0:0:0:
64,192,2539,128,2,2847:0:0:0:0:
320,192,2847,128,2,3154:0:0:0:0:
448,192,3154,1,2,0:0:0:0:
192,192,3308,1,0,0:0:0:0:
448,192,3462,1,2,0:0:0:0:
192,192,3616,1,0,0:0:0:0:
320,192,3770,128,2,4078:0:0:0:0:
64,192,4078,128,2,4385:0:0:0:0:
192,192,4385,1,2,0:0:0:0:
448,192,4539,1,0,0:0:0:0:
192,192,4693,1,2,0:0:0:0:
448,192,4847,1,0,0:0:0:0:
64,192,5001,1,2,0:0:0:0:
320,192,5001,128,4,5308:0:0:0:0:
448,192,5308,1,2,0:0:0:0:
192,192,5616,128,2,5924:0:0:0:0:
64,192,5924,1,2,0:0:0:0:
320,192,6231,128,2,6539:0:0:0:0:
448,192,6539,1,2,0:0:0:0:
192,192,6847,1,2,0:0:0:0:
448,192,7001,1,0,0:0:0:0:
64,192,7154,1,2,0:0:0:0:
448,192,7308,1,0,0:0:0:0:
192,192,7462,128,2,7770:0:0:0:0:
320,192,7770,128,2,8078:0:0:0:0:
64,192,8078,1,2,0:0:0:0:
448,192,8231,1,0,0:0:0:0:
64,192,8385,1,2,0:0:0:0:
448,192,8539,1,0,0:0:0:0:
192,192,8693,128,2,9616:0:0:0:0:
320,192,9616,1,0,0:0:0:0:
64,192,9924,128,2,10231:0:0:0:0:
448,192,9924,1,4,0:0:0:0:
320,192,10231,1,2,0:0:0:0:
64,192,10539,1,2,0:0:0:0:
448,192,10539,128,0,10847:0:0:0:0:
192,192,10847,1,2,0:0:0:0:
64,192,11154,128,2,11462:0:0:0:0:
448,192,11154,1,0,0:0:0:0:
320,192,11462,1,2,0:0:0:0:
448,192,11770,1,2,0:0:0:0:
64,192,11924,1,0,0:0:0:0:
320,192,12078,1,2,0:0:0:0:
64,192,12231,1,0,0:0:0:0:
320,192,12385,1,2,0:0:0:0:
448,192,12385,128,0,12693:0:0:0:0:
192,192,12693,128,2,13001:0:0:0:0:
64,192,13001,1,2,0:0:0:0:
448,192,13001,1,0,0:0:0:0:
64,192,13308,1,2,0:0:0:0:
448,192,13308,1,0,0:0:0:0:
64,192,13616,128,2,13924:0:0:0:0:
192,192,13616,1,0,0:0:0:0:
320,192,13924,128,2,14231:0:0:0:0:
64,192,14231,1,2,0:0:0:0:
448,192,14231,1,0,0:0:0:0:
64,192,14539,1,2,0:0:0:0:
448,192,14539,1,0,0:0:0:0:
192,192,14847,128,2,15154:0:0:0:0:
320,192,14847,1,4,0:0:0:0:
448,192,15154,1,2,0:0:0:0:
192,192,15462,1,2,0:0:0:0:
320,192,15462,128,0,15770:0:0:0:0:
64,192,15770,1,2,0:0:0:0:
192,192,16078,128,2,16385:0:0:0:0:
320,192,16078,1,0,0:0:0:0:
448,192,16385,1,2,0:0:0:0:
64,192,16693,1,2,0:0:0:0:
448,192,16847,1,0,0:0:0:0:
192,192,17001,1,2,0:0:0:0:
448,192,17154,1,0,0:0:0:0:
64,192,17308,128,2,17616:0:0:0:0:
192,192,17308,1,0,0:0:0:0:
320,192,17616,128,2,17924:0:0:0:0:
192,192,17924,1,2,0:0:0:0:
448,192,17924,1,0,0:0:0:0:
192,192,18231,1,2,0:0:0:0:
448,192,18231,1,0,0:0:0:0:
320,192,18539,128,2,18847:0:0:0:0:
448,192,18539,1,4,0:0:0:0:
64,192,18847,128,2,19154:0:0:0:0:
448,192,19154,1,2,0:0:0:0:
320,192,19308,1,2,0:0:0:0:
64,192,19462,1,2,0:0:0:0:
192,192,19616,1,2,0:0:0:0:
320,192,19770,1,2,0:0:0:0:
448,192,19770,1,4,0:0:0:0:
192,192,20231,1,0,0:0:0:50:S1.wav
320,192,20385,1,2,0:0:0:0:
448,192,20385,1,0,0:0:0:0:
64,192,20693,1,0,0:0:0:50:S1.wav
192,192,21001,1,2,0:0:0:0:
320,192,21001,128,0,21308:0:0:0:0:
448,192,21308,1,0,0:0:0:30:S2.wav
64,192,21462,1,0,0:0:0:50:S1.wav
192,192,21616,1,2,0:0:0:0:
448,192,21616,1,0,0:0:0:0:
320,192,21770,1,0,0:0:0:30:S2.wav
64,192,21924,128,0,22231:0:0:0:50:S1.wav
448,192,22078,1,0,0:0:0:30:S2.wav
192,192,22231,1,2,0:0:0:0:
320,192,22231,1,0,0:0:0:0:
320,192,22693,1,0,0:0:0:50:S1.wav
64,192,22847,1,2,0:0:0:0:
448,192,22847,1,0,0:0:0:0:
192,192,23154,1,0,0:0:0:50:S1.wav
320,192,23462,128,2,23770:0:0:0:0:
448,192,23462,1,0,0:0:0:0:
64,192,23770,1,0,0:0:0:0:
192,192,23924,1,0,0:0:0:50:S1.wav
64,192,24078,1,2,0:0:0:0:
448,192,24078,1,0,0:0:0:0:
320,192,24231,1,0,0:0:0:30:S2.wav
192,192,24385,128,0,24693:0:0:0:50:S1.wav
448,192,24539,1,0,0:0:0:30:S2.wav
64,192,24693,1,2,0:0:0:0:
320,192,24693,1,4,0:0:0:0:
448,192,25154,1,0,0:0:0:50:S1.wav
192,192,25308,1,2,0:0:0:0:
320,192,25308,1,0,0:0:0:0:
64,192,25616,1,0,0:0:0:50:S1.wav
192,192,25924,128,2,26231:0:0:0:0:
448,192,25924,1,0,0:0:0:0:
64,192,26231,1,0,0:0:0:30:S2.wav
448,192,26385,1,0,0:0:0:50:S1.wav
64,192,26539,1,2,0:0:0:0:
320,192,26539,1,0,0:0:0:0:
192,192,26693,1,0,0:0:0:30:S2.wav
448,192,26847,128,0,27154:0:0:0:50:S1.wav
320,192,27001,1,0,0:0:0:30:S2.wav
64,192,27154,128,2,27462:0:0:0:0:
192,192,27154,1,4,0:0:0:0:
448,192,27616,1,0,0:0:0:50:S1.wav
64,192,27770,1,2,0:0:0:0:
320,192,27770,128,0,28078:0:0:0:0:
192,192,28078,128,0,28231:0:0:0:0:
64,192,28231,128,0,28385:0:0:0:0:
320,192,28385,1,2,0:0:0:0:
448,192,28385,128,0,29616:0:0:0:0:
64,192,28693,1,0,0:0:0:0:
320,192,29001,1,0,0:0:0:0:
192,192,29308,1,0,0:0:0:0:
64,192,29462,1,0,0:0:0:30:S2.wav
192,192,29616,1,2,0:0:0:0:
320,192,29616,1,4,0:0:0:0:
64,192,29924,1,0,0:0:0:0:
320,192,30231,1,0,0:0:0:50:S1.wav
192,192,30385,1,2,0:0:0:0:
448,192,30385,1,0,0:0:0:0:
192,192,30847,1,2,0:0:0:0:
448,192,30847,128,0,31154:0:0:0:0:
64,192,31154,1,0,0:0:0:30:S2.wav
192,192,31308,1,0,0:0:0:0:
448,192,31462,1,0,0:0:0:50:S1.wav
320,192,31616,1,0,0:0:0:0:
64,192,31770,128,0,32078:0:0:0:0:
192,192,32078,1,2,0:0:0:0:
448,192,32078,1,0,0:0:0:0:
320,192,32385,1,0,0:0:0:0:
192,192,32693,1,0,0:0:0:50:S1.wav
64,192,32847,1,2,0:0:0:0:
448,192,32847,1,0,0:0:0:0:
64,192,33308,1,2,0:0:0:0:
448,192,33308,128,0,33616:0:0:0:0:
192,192,33616,1,0,0:0:0:30:S2.wav
320,192,33770,1,0,0:0:0:0:
448,192,33924,1,0,0:0:0:50:S1.wav
192,192,34078,1,0,0:0:0:0:
64,192,34231,128,0,34539:0:0:0:0:
448,192,34385,1,0,0:0:0:0:
192,192,34539,1,2,0:0:0:0:
320,192,34539,1,4,0:0:0:0:
320,192,34847,1,2,0:0:0:0:
448,192,34847,1,0,0:0:0:0:
64,192,35001,1,0,0:0:0:50:S1.wav
192,192,35001,1,0,0:0:0:0:
320,192,35308,1,0,0:0:0:30:S2.wav
64,192,35462,1,0,0:0:0:50:S1.wav
448,192,35462,1,0,0:0:0:0:
192,192,35770,1,0,0:0:0:0:
64,192,36078,1,2,0:0:0:0:
320,192,36078,1,0,0:0:0:50:S1.wav
448,192,36385,1,0,0:0:0:0:
192,192,36539,1,0,0:0:0:50:S1.wav
320,192,36539,1,0,0:0:0:0:
64,192,36847,1,0,0:0:0:0:
320,192,37001,1,2,0:0:0:0:
448,192,37001,1,4,0:0:0:0:
64,192,37308,1,2,0:0:0:0:
448,192,37308,1,4,0:0:0:0:
64,192,37616,1,2,0:0:0:0:
192,192,37616,1,4,0:0:0:0:
192,192,37924,1,2,0:0:0:0:
448,192,37924,1,4,0:0:0:0:
320,192,38231,1,4,0:0:0:0:
448,192,38231,1,2,0:0:0:0:
64,192,38693,128,0,39462:0:0:0:0:
192,192,39154,128,0,39462:0:0:0:0:
320,192,39462,1,4,0:0:0:0:
448,192,39462,1,2,0:0:0:0:
192,192,39770,1,0,0:0:0:50:S4.wav
64,192,40078,128,0,40385:0:0:0:50:S4.wav
448,192,40385,1,0,0:0:0:50:S4.wav
192,192,40693,1,0,0:0:0:50:S4.wav
320,192,41001,1,0,0:0:0:50:S4.wav
448,192,41308,128,0,41616:0:0:0:50:S4.wav
64,192,41616,1,0,0:0:0:50:S4.wav
320,192,41924,1,0,0:0:0:50:S4.wav
192,192,42231,1,0,0:0:0:50:S4.wav
64,192,42539,128,0,42847:0:0:0:50:S4.wav
448,192,42847,1,0,0:0:0:50:S4.wav
192,192,43154,1,0,0:0:0:50:S4.wav
320,192,43462,1,0,0:0:0:50:S4.wav
448,192,43770,128,0,44078:0:0:0:50:S4.wav
64,192,44078,1,0,0:0:0:50:S4.wav
320,192,44385,1,4,0:0:0:0:
448,192,44385,1,2,0:0:0:0:
192,192,44539,1,0,0:0:0:50:S5.wav
448,192,44693,1,0,0:0:0:50:S4.wav
64,192,44847,1,0,0:0:0:50:S5.wav
320,192,45001,128,0,45308:0:0:0:50:S4.wav
448,192,45308,1,0,0:0:0:50:S4.wav
192,192,45616,1,0,0:0:0:50:S4.wav
320,192,45770,1,0,0:0:0:50:S5.wav
64,192,45924,1,0,0:0:0:50:S4.wav
448,192,46078,1,0,0:0:0:50:S5.wav
192,192,46231,128,0,46539:0:0:0:50:S4.wav
64,192,46539,1,0,0:0:0:50:S4.wav
320,192,46847,1,0,0:0:0:50:S5.wav
192,192,47001,1,0,0:0:0:50:S5.wav
448,192,47154,1,0,0:0:0:50:S5.wav
64,192,47308,1,0,0:0:0:50:S5.wav
320,192,47462,1,0,0:0:0:50:S5.wav
192,192,47616,1,0,0:0:0:50:S5.wav
448,192,47770,1,0,0:0:0:50:S5.wav
64,192,47924,1,0,0:0:0:50:S5.wav
320,192,48078,1,2,0:0:0:0:
448,192,48078,1,4,0:0:0:0:
192,192,48385,1,0,0:0:0:0:
320,192,48693,1,0,0:0:0:0:
320,192,48981,1,0,0:0:0:0:
64,192,49308,1,2,0:0:0:0:
448,192,49308,1,0,0:0:0:0:
64,192,49924,1,4,0:0:0:0:
192,192,49924,1,8,0:0:0:0:
320,192,50078,1,0,0:0:0:0:
192,192,50231,1,0,0:0:0:0:
320,192,50385,1,0,0:0:0:0:
64,192,50539,1,2,0:0:0:0:
448,192,50539,1,0,0:0:0:0:
192,192,50847,128,0,51001:0:0:0:0:
320,192,51154,1,8,0:0:0:0:
448,192,51154,1,0,0:0:0:0:
64,192,51308,1,0,0:0:0:0:
192,192,51462,1,0,0:0:0:0:
320,192,51616,1,0,0:0:0:0:
64,192,51770,1,2,0:0:0:0:
192,192,51770,1,0,0:0:0:0:
448,192,51924,1,0,0:0:0:0:
320,192,52078,1,8,0:0:0:0:
448,192,52231,1,0,0:0:0:0:
192,192,52385,1,2,0:0:0:0:
320,192,52385,1,0,0:0:0:0:
64,192,52539,1,0,0:0:0:0:
192,192,52693,1,8,0:0:0:0:
64,192,52847,1,0,0:0:0:0:
320,192,53001,1,2,0:0:0:0:
448,192,53001,128,0,53154:0:0:0:0:
192,192,53308,1,8,0:0:0:0:
320,192,53462,1,0,0:0:0:0:
64,192,53616,1,2,0:0:0:0:
448,192,53616,1,0,0:0:0:0:
192,192,53770,1,0,0:0:0:0:
320,192,53924,1,0,0:0:0:70:LR4_SnareBPDT.wav
448,192,53924,1,0,0:0:0:0:
192,192,54078,1,0,0:0:0:0:
64,192,54231,1,6,0:0:0:0:
320,192,54385,1,2,0:0:0:0:
64,192,54539,1,4,0:0:0:0:
448,192,54539,1,8,0:0:0:0:
192,192,54847,1,2,0:0:0:0:
448,192,54847,1,0,0:0:0:0:
64,192,55154,1,8,0:0:0:0:
320,192,55154,1,0,0:0:0:0:
64,192,55462,1,2,0:0:0:0:
192,192,55462,1,0,0:0:0:0:
320,192,55770,1,8,0:0:0:0:
448,192,55770,1,0,0:0:0:0:
64,192,56078,1,2,0:0:0:0:
448,192,56078,1,0,0:0:0:0:
192,192,56385,1,8,0:0:0:0:
320,192,56385,1,0,0:0:0:0:
64,192,56693,1,2,0:0:0:0:
320,192,56693,128,0,56847:0:0:0:0:
192,192,57001,1,8,0:0:0:0:
448,192,57001,1,0,0:0:0:0:
320,192,57308,1,2,0:0:0:0:
448,192,57308,1,0,0:0:0:0:
64,192,57616,1,8,0:0:0:0:
192,192,57616,1,0,0:0:0:0:
192,192,57924,1,2,0:0:0:0:
320,192,57924,1,4,0:0:0:0:
448,192,58078,1,0,0:0:0:70:LR4_SnareBPDT.wav
64,192,58231,1,0,0:0:0:70:LR4_SnareBPDT.wav
320,192,58385,1,2,0:0:0:0:
448,192,58385,1,4,0:0:0:0:
192,192,58847,1,0,0:0:0:70:LR4_SnareBPDT.wav
320,192,59001,1,0,0:0:0:70:LR4_SnareBPDT.wav
192,192,59154,1,2,0:0:0:0:
448,192,59154,1,0,0:0:0:0:
64,192,59770,1,4,0:0:0:0:
192,192,59770,1,8,0:0:0:0:
448,192,59924,128,0,60385:0:0:0:0:
192,192,60078,1,0,0:0:0:0:
64,192,60385,1,2,0:0:0:0:
320,192,60385,1,0,0:0:0:0:
192,192,60539,1,0,0:0:0:0:
64,192,60693,1,0,0:0:0:0:
320,192,60847,1,0,0:0:0:0:
64,192,61001,1,8,0:0:0:0:
192,192,61001,1,0,0:0:0:0:
448,192,61154,1,0,0:0:0:0:
320,192,61308,1,0,0:0:0:0:
448,192,61462,1,0,0:0:0:0:
192,192,61616,1,2,0:0:0:0:
320,192,61616,1,0,0:0:0:0:
64,192,61770,1,0,0:0:0:0:
192,192,61924,1,8,0:0:0:0:
64,192,62078,1,0,0:0:0:0:
320,192,62231,1,2,0:0:0:0:
448,192,62231,1,0,0:0:0:0:
192,192,62385,128,0,62847:0:0:0:0:
320,192,62539,1,8,0:0:0:0:
64,192,62847,1,2,0:0:0:0:
448,192,62847,128,0,63001:0:0:0:0:
192,192,63154,1,8,0:0:0:0:
320,192,63154,1,0,0:0:0:0:
64,192,63308,1,0,0:0:0:0:
320,192,63462,1,2,0:0:0:0:
448,192,63462,1,0,0:0:0:0:
192,192,63616,1,0,0:0:0:0:
64,192,63770,1,0,0:0:0:70:LR4_SnareBPDT.wav
448,192,63770,1,0,0:0:0:0:
192,192,63924,1,0,0:0:0:0:
320,192,64078,128,0,64385:0:0:0:0:
64,192,64385,1,4,0:0:0:0:
192,192,64385,1,8,0:0:0:0:
64,192,64693,1,2,0:0:0:0:
320,192,64693,1,0,0:0:0:0:
192,192,65001,1,8,0:0:0:0:
448,192,65001,1,0,0:0:0:0:
320,192,65308,1,2,0:0:0:0:
448,192,65308,1,0,0:0:0:0:
64,192,65616,1,8,0:0:0:0:
192,192,65616,1,0,0:0:0:0:
192,192,65924,1,2,0:0:0:0:
448,192,65924,1,0,0:0:0:0:
64,192,66231,1,8,0:0:0:0:
320,192,66231,1,0,0:0:0:0:
64,192,66539,128,2,66693:0:0:0:0:
448,192,66539,1,0,0:0:0:0:
192,192,66847,1,8,0:0:0:0:
320,192,66847,1,0,0:0:0:0:
320,192,67154,1,2,0:0:0:0:
448,192,67154,1,0,0:0:0:0:
64,192,67462,1,8,0:0:0:0:
192,192,67462,1,0,0:0:0:0:
64,192,67770,1,2,0:0:0:0:
448,192,67770,1,4,0:0:0:0:
320,192,68385,1,0,0:0:0:70:LR4_SnareBPDT.wav
448,192,68385,1,0,0:0:0:0:
192,192,68539,1,0,0:0:0:70:LR4_SnareBPDT.wav
64,192,68693,1,0,0:0:0:70:LR4_SnareBPDT.wav
448,192,68693,1,0,0:0:0:0:
320,192,68847,1,0,0:0:0:70:LR4_SnareBPDT.wav
192,192,69001,1,6,0:0:0:0:
64,192,69308,1,2,0:0:0:0:
448,192,69308,1,0,0:0:0:0:
320,192,69616,1,2,0:0:0:0:
192,192,69924,1,2,0:0:0:0:
448,192,69924,1,0,0:0:0:0:
64,192,70231,1,2,0:0:0:0:
192,192,70539,1,2,0:0:0:0:
320,192,70539,1,0,0:0:0:0:
448,192,70847,1,2,0:0:0:0:
64,192,71154,1,2,0:0:0:0:
320,192,71154,1,0,0:0:0:0:
192,192,71462,1,2,0:0:0:0:
64,192,71770,1,2,0:0:0:0:
448,192,71770,1,0,0:0:0:0:
320,192,72078,1,2,0:0:0:0:
64,192,72385,1,2,0:0:0:0:
192,192,72385,1,0,0:0:0:0:
448,192,72693,1,2,0:0:0:0:
64,192,73001,1,2,0:0:0:0:
320,192,73001,1,0,0:0:0:0:
192,192,73308,1,2,0:0:0:0:
320,192,73616,1,0,0:0:0:70:LR4_SnareBPDT.wav
448,192,73616,1,0,0:0:0:0:
64,192,73924,1,2,0:0:0:0:
64,192,74078,1,2,0:0:0:0:
320,192,74231,1,2,0:0:0:0:
448,192,74231,1,4,0:0:0:0:
192,192,74539,1,2,0:0:0:0:
64,192,74847,1,2,0:0:0:0:
448,192,74847,1,0,0:0:0:0:
320,192,75154,1,2,0:0:0:0:
192,192,75462,1,2,0:0:0:0:
64,192,75462,1,0,0:0:0:0:
448,192,75770,1,2,0:0:0:0:
64,192,76078,1,2,0:0:0:0:
320,192,76078,1,0,0:0:0:0:
192,192,76385,1,4,0:0:0:0:
448,192,76385,1,2,0:0:0:0:
192,192,76693,1,2,0:0:0:0:
448,192,76693,1,4,0:0:0:0:
192,192,77001,1,2,0:0:0:0:
448,192,77001,1,4,0:0:0:0:
192,192,77308,1,2,0:0:0:0:
448,192,77308,1,4,0:0:0:0:
64,192,77616,1,2,0:0:0:0:
320,192,77616,1,4,0:0:0:0:
448,192,77770,1,0,0:0:0:70:LR4_SnareBPDT.wav
192,192,77924,1,0,0:0:0:70:LR4_SnareBPDT.wav
320,192,78078,1,2,0:0:0:0:
448,192,78078,1,8,0:0:0:0:
192,192,78539,1,0,0:0:0:70:LR4_SnareBPDT.wav
448,192,78693,1,0,0:0:0:70:LR4_SnareBPDT.wav
64,192,78847,1,6,0:0:0:0:
64,192,79001,1,6,0:0:0:0:
320,192,79154,1,8,0:0:0:0:
448,192,79154,1,4,0:0:0:0:
192,192,79462,1,2,0:0:0:0:
448,192,79616,128,0,79770:0:0:0:0:
64,192,79770,1,8,0:0:0:0:
320,192,79770,1,0,0:0:0:0:
192,192,79924,1,0,0:0:0:0:
64,192,80078,128,2,80385:0:0:0:0:
320,192,80385,128,8,80539:0:0:0:0:
448,192,80385,1,0,0:0:0:0:
192,192,80539,128,0,80693:0:0:0:0:
64,192,80693,1,2,0:0:0:0:
448,192,80847,128,0,81001:0:0:0:0:
192,192,81001,1,8,0:0:0:0:
320,192,81001,1,0,0:0:0:0:
64,192,81154,128,0,81308:0:0:0:0:
320,192,81308,128,2,81616:0:0:0:0:
192,192,81616,1,8,0:0:0:0:
448,192,81616,1,0,0:0:0:0:
320,192,81924,1,2,0:0:0:0:
192,192,82078,128,0,82231:0:0:0:0:
64,192,82231,1,8,0:0:0:0:
448,192,82231,1,0,0:0:0:0:
320,192,82385,1,0,0:0:0:0:
448,192,82539,128,2,82847:0:0:0:0:
64,192,82847,1,8,0:0:0:0:
192,192,82847,128,0,83001:0:0:0:0:
320,192,83001,128,0,83154:0:0:0:0:
448,192,83154,1,2,0:0:0:0:
64,192,83308,128,0,83462:0:0:0:0:
192,192,83462,1,0,0:0:0:70:LR4_SnareBPDT.wav
320,192,83462,1,0,0:0:0:0:
64,192,84078,1,4,0:0:0:0:
448,192,84078,128,2,84693:0:0:0:0:
320,192,84385,128,0,84693:0:0:0:0:
64,192,84539,1,0,0:0:0:50:S4.wav
192,192,84847,1,0,0:0:0:0:
320,192,85001,1,0,0:0:0:0:
448,192,85154,1,0,0:0:0:0:
64,192,85308,128,0,85924:0:0:0:50:S4.wav
192,192,85616,128,0,85924:0:0:0:0:
320,192,85770,1,0,0:0:0:50:S4.wav
448,192,85924,1,0,0:0:0:50:S4.wav
320,192,86078,1,0,0:0:0:50:S4.wav
64,192,86231,1,2,0:0:0:0:
192,192,86231,1,4,0:0:0:0:
448,192,86385,1,2,0:0:0:0:
64,192,86539,1,2,0:0:0:0:
320,192,86539,1,4,0:0:0:0:
192,192,86693,1,2,0:0:0:0:
320,192,86847,1,2,0:0:0:0:
448,192,86847,128,4,87462:0:0:0:0:
64,192,87001,1,2,0:0:0:0:
192,192,87154,1,6,0:0:0:0:
320,192,87308,1,2,0:0:0:0:
64,192,87462,1,2,0:0:0:0:
320,192,88078,1,2,0:0:0:0:
192,192,88231,1,2,0:0:0:0:
448,192,88385,1,2,0:0:0:0:
64,192,88693,1,2,0:0:0:0:
192,192,88693,128,0,89924:0:0:0:0:
448,192,89001,1,0,0:0:0:0:
448,192,89308,1,0,0:0:0:0:
64,192,89616,1,0,0:0:0:0:
448,192,89924,128,0,93616:0:0:0:0:
64,192,90231,1,0,0:0:0:0:
64,192,90539,1,0,0:0:0:0:
320,192,90847,1,0,0:0:0:0:
64,192,91154,1,0,0:0:0:0:
192,192,91462,1,0,0:0:0:0:
192,192,91770,1,0,0:0:0:0:
64,192,92078,1,0,0:0:0:0:
320,192,92385,1,0,0:0:0:0:
64,192,92693,1,0,0:0:0:0:
64,192,93001,1,0,0:0:0:0:
192,192,93308,1,0,0:0:0:0:
320,192,93616,128,0,94847:0:0:0:0:
64,192,93924,1,0,0:0:0:0:
64,192,94231,1,0,0:0:0:0:
448,192,94539,1,0,0:0:0:0:
64,192,94847,128,0,97308:0:0:0:0:
448,192,95154,1,0,0:0:0:0:
448,192,95462,1,0,0:0:0:0:
192,192,95770,1,0,0:0:0:0:
448,192,96078,1,0,0:0:0:0:
320,192,96385,1,0,0:0:0:0:
320,192,96693,1,0,0:0:0:0:
192,192,97001,1,0,0:0:0:0:
448,192,97308,128,0,98539:0:0:0:0:
192,192,97616,1,0,0:0:0:0:
192,192,97924,1,0,0:0:0:0:
320,192,98231,1,0,0:0:0:0:
64,192,98539,1,2,0:0:0:0:
192,192,98539,1,4,0:0:0:0:
320,192,98847,1,0,0:0:0:0:
192,192,99001,1,0,0:0:0:0:
64,192,99154,1,2,0:0:0:0:
320,192,99154,1,0,0:0:0:0:
448,192,99462,1,0,0:0:0:0:
320,192,99616,1,0,0:0:0:0:
192,192,99770,1,2,0:0:0:0:
448,192,99770,1,0,0:0:0:0:
64,192,100078,1,0,0:0:0:0:
192,192,100231,1,0,0:0:0:0:
320,192,100385,1,2,0:0:0:0:
448,192,100385,1,0,0:0:0:0:
64,192,100539,1,0,0:0:0:0:
64,192,100847,1,0,0:0:0:0:
192,192,101001,1,2,0:0:0:0:
448,192,101001,1,0,0:0:0:0:
320,192,101308,1,0,0:0:0:0:
64,192,101462,1,0,0:0:0:0:
320,192,101616,1,2,0:0:0:0:
448,192,101616,1,0,0:0:0:0:
192,192,101924,1,0,0:0:0:0:
64,192,102078,1,0,0:0:0:0:
192,192,102231,1,2,0:0:0:0:
448,192,102231,1,0,0:0:0:0:
64,192,102539,1,2,0:0:0:0:
320,192,102539,1,0,0:0:0:0:
192,192,102847,1,2,0:0:0:0:
448,192,102847,1,0,0:0:0:0:
320,192,103001,1,0,0:0:0:0:
320,192,103308,1,0,0:0:0:0:
64,192,103462,1,2,0:0:0:0:
192,192,103462,1,0,0:0:0:0:
64,192,103770,1,2,0:0:0:0:
448,192,103770,1,0,0:0:0:0:
64,192,104078,1,2,0:0:0:0:
320,192,104078,1,0,0:0:0:0:
64,192,104385,1,2,0:0:0:0:
192,192,104385,1,0,0:0:0:0:
64,192,104693,1,2,0:0:0:0:
448,192,104693,1,0,0:0:0:0:
320,192,105001,1,2,0:0:0:0:
448,192,105001,1,0,0:0:0:0:
192,192,105308,1,2,0:0:0:0:
448,192,105308,1,0,0:0:0:0:
64,192,105616,1,2,0:0:0:0:
448,192,105616,1,0,0:0:0:0:
192,192,105924,1,2,0:0:0:0:
448,192,105924,1,0,0:0:0:0:
64,192,106078,1,2,0:0:0:0:
320,192,106231,1,2,0:0:0:0:
448,192,106385,1,2,0:0:0:0:
64,192,106539,1,2,0:0:0:0:
192,192,106539,1,0,0:0:0:0:
320,192,106693,1,2,0:0:0:0:
64,192,106847,1,2,0:0:0:0:
448,192,106847,1,0,0:0:0:0:
192,192,107001,1,2,0:0:0:0:
320,192,107154,1,2,0:0:0:0:
448,192,107154,1,4,0:0:0:0:
320,192,108078,128,0,108385:0:0:0:0:
64,192,108385,1,2,0:0:0:0:
192,192,108385,1,4,0:0:0:0:
320,192,108539,1,0,0:0:0:0:
64,192,108693,1,0,0:0:0:50:S4.wav
448,192,108693,1,0,0:0:0:0:
192,192,108847,1,0,0:0:0:0:
320,192,109001,128,0,109308:0:0:0:0:
64,192,109154,1,0,0:0:0:50:S4.wav
448,192,109154,1,0,0:0:0:0:
64,192,109462,1,0,0:0:0:50:S4.wav
448,192,109462,1,0,0:0:0:0:
192,192,109616,1,0,0:0:0:0:
448,192,109770,1,0,0:0:0:0:
320,192,109924,1,2,0:0:0:0:
192,192,110078,1,0,0:0:0:0:
64,192,110231,128,0,110539:0:0:0:0:
448,192,110385,1,0,0:0:0:50:S4.wav
192,192,110539,1,0,0:0:0:70:LR4_SnareBPDT.wav
320,192,110539,1,0,0:0:0:0:
320,192,110847,128,6,111154:0:0:0:0:
64,192,111154,1,0,0:0:0:50:S4.wav
192,192,111154,1,0,0:0:0:0:
192,192,111462,128,6,111770:0:0:0:0:
320,192,111770,1,0,0:0:0:50:S4.wav
448,192,111770,1,0,0:0:0:0:
64,192,112078,128,6,112385:0:0:0:0:
192,192,112385,1,2,0:0:0:0:
448,192,112385,1,0,0:0:0:50:S4.wav
64,192,112693,1,0,0:0:0:70:LR4_SnareBPDT.wav
320,192,112693,1,0,0:0:0:0:
448,192,112847,1,2,0:0:0:0:
192,192,113001,1,6,0:0:0:0:
192,192,113154,1,8,0:0:0:0:
320,192,113308,1,2,0:0:0:0:
448,192,113308,1,4,0:0:0:0:
64,192,113616,1,8,0:0:0:0:
320,192,113616,1,2,0:0:0:0:
64,192,113924,1,2,0:0:0:0:
448,192,113924,1,0,0:0:0:0:
192,192,114231,1,8,0:0:0:0:
448,192,114231,1,2,0:0:0:0:
192,192,114539,1,2,0:0:0:0:
320,192,114539,1,0,0:0:0:0:
64,192,114847,1,8,0:0:0:0:
320,192,114847,1,2,0:0:0:0:
64,192,115154,1,2,0:0:0:0:
448,192,115154,1,0,0:0:0:0:
192,192,115462,1,8,0:0:0:0:
448,192,115462,1,2,0:0:0:0:
64,192,115770,1,2,0:0:0:0:
192,192,115770,1,0,0:0:0:0:
320,192,116078,1,0,0:0:0:0:
192,192,116385,1,0,0:0:0:50:S4.wav
448,192,116385,1,0,0:0:0:0:
64,192,116693,1,2,0:0:0:0:
320,192,116693,1,0,0:0:0:0:
448,192,116847,1,0,0:0:0:70:LR4_SnareBPDT.wav
448,192,117154,1,0,0:0:0:50:S4.wav
64,192,117308,1,2,0:0:0:0:
320,192,117308,1,0,0:0:0:0:
192,192,117616,1,0,0:0:0:70:LR4_SnareBPDT.wav
448,192,117616,1,0,0:0:0:0:
192,192,117924,1,0,0:0:0:70:LR4_SnareBPDT.wav
448,192,117924,1,0,0:0:0:0:
320,192,118078,1,0,0:0:0:70:LR4_SnareBPDT.wav
64,192,118231,1,2,0:0:0:0:
448,192,118231,1,4,0:0:0:0:
320,192,118385,1,0,0:0:0:0:
64,192,118539,1,0,0:0:0:70:LR4_SnareBPDT.wav
192,192,118539,1,0,0:0:0:0:
448,192,118693,1,2,0:0:0:0:
320,192,118847,128,0,119154:0:0:0:0:
64,192,119001,1,0,0:0:0:70:LR4_SnareBPDT.wav
192,192,119001,1,0,0:0:0:0:
192,192,119308,1,2,0:0:0:0:
320,192,119462,1,0,0:0:0:0:
64,192,119616,1,0,0:0:0:70:LR4_SnareBPDT.wav
448,192,119616,1,0,0:0:0:0:
192,192,119770,1,0,0:0:0:0:
320,192,119924,1,2,0:0:0:0:
448,192,120078,128,0,120385:0:0:0:0:
64,192,120385,1,0,0:0:0:70:LR4_SnareBPDT.wav
192,192,120385,1,0,0:0:0:0:
192,192,120693,128,6,121001:0:0:0:0:
320,192,121001,1,0,0:0:0:50:S4.wav
448,192,121001,1,0,0:0:0:0:
64,192,121154,128,2,121462:0:0:0:0:
192,192,121462,1,0,0:0:0:50:S4.wav
320,192,121616,1,8,0:0:0:0:
448,192,121616,1,0,0:0:0:0:
64,192,121770,1,0,0:0:0:0:
448,192,121924,128,2,122231:0:0:0:0:
64,192,122231,1,2,0:0:0:0:
192,192,122231,1,0,0:0:0:0:
64,192,122539,1,0,0:0:0:70:LR4_SnareBPDT.wav
320,192,122539,1,0,0:0:0:0:
448,192,122693,1,2,0:0:0:0:
192,192,122847,1,8,0:0:0:0:
192,192,123001,1,2,0:0:0:0:
320,192,123154,128,4,123462:0:0:0:0:
448,192,123154,1,2,0:0:0:0:
64,192,123462,128,8,123770:0:0:0:0:
192,192,123462,1,0,0:0:0:0:
320,192,123770,1,8,0:0:0:0:
448,192,123770,128,0,124078:0:0:0:0:
64,192,124078,1,8,0:0:0:0:
192,192,124078,128,0,124385:0:0:0:0:
320,192,124385,1,2,0:0:0:0:
64,192,124539,1,0,0:0:0:70:LR4_SnareBPDT.wav
448,192,124539,1,0,0:0:0:0:
192,192,124693,1,0,0:0:0:0:
320,192,124847,1,2,0:0:0:0:
64,192,125001,1,0,0:0:0:70:LR4_SnareBPDT.wav
448,192,125001,1,0,0:0:0:0:
192,192,125308,1,2,0:0:0:0:
320,192,125462,1,0,0:0:0:70:LR4_SnareBPDT.wav
448,192,125462,1,0,0:0:0:0:
64,192,125616,1,6,0:0:0:0:
192,192,125924,128,0,126231:0:0:0:0:
320,192,126231,1,0,0:0:0:50:S4.wav
448,192,126231,1,0,0:0:0:0:
64,192,126385,1,0,0:0:0:0:
320,192,126539,1,2,0:0:0:0:
192,192,126693,1,0,0:0:0:70:LR4_SnareBPDT.wav
448,192,126693,1,0,0:0:0:0:
192,192,127001,1,0,0:0:0:50:S4.wav
448,192,127001,1,0,0:0:0:0:
320,192,127154,1,2,0:0:0:0:
64,192,127462,1,4,0:0:0:0:
448,192,127462,128,8,127770:0:0:0:0:
192,192,127770,128,0,128078:0:0:0:0:
64,192,128078,1,2,0:0:0:0:
448,192,128078,1,4,0:0:0:0:
192,192,128385,1,8,0:0:0:0:
320,192,128385,1,2,0:0:0:0:
320,192,128693,1,2,0:0:0:0:
448,192,128693,1,0,0:0:0:0:
64,192,129001,1,8,0:0:0:0:
192,192,129001,1,2,0:0:0:0:
192,192,129308,1,2,0:0:0:0:
448,192,129308,1,0,0:0:0:0:
64,192,129616,1,8,0:0:0:0:
320,192,129616,1,2,0:0:0:0:
64,192,129924,1,2,0:0:0:0:
192,192,129924,1,0,0:0:0:0:
320,192,130231,1,8,0:0:0:0:
448,192,130231,1,2,0:0:0:0:
64,192,130539,1,2,0:0:0:0:
448,192,130539,1,0,0:0:0:0:
192,192,130847,1,8,0:0:0:0:
320,192,130847,1,2,0:0:0:0:
64,192,131154,1,2,0:0:0:0:
320,192,131154,1,0,0:0:0:0:
192,192,131462,1,8,0:0:0:0:
448,192,131462,1,2,0:0:0:0:
320,192,131770,1,2,0:0:0:0:
448,192,131770,1,4,0:0:0:0:
64,192,132078,1,0,0:0:0:0:
192,192,132231,1,0,0:0:0:50:S2.wav
448,192,132385,1,0,0:0:0:50:S5.wav
320,192,132539,1,0,0:0:0:50:S1.wav
64,192,132693,1,0,0:0:0:50:S5.wav
448,192,132693,1,0,0:0:0:0:
192,192,132847,1,0,0:0:0:50:S2.wav
320,192,133001,1,4,0:0:0:0:
448,192,133001,1,2,0:0:0:0:
64,192,133308,1,8,0:0:0:0:
192,192,133308,1,2,0:0:0:0:
64,192,133616,1,2,0:0:0:0:
448,192,133616,1,0,0:0:0:0:
192,192,133924,1,8,0:0:0:0:
320,192,133924,1,2,0:0:0:0:
64,192,134231,1,2,0:0:0:0:
320,192,134231,1,0,0:0:0:0:
192,192,134539,1,8,0:0:0:0:
448,192,134539,1,2,0:0:0:0:
320,192,134847,1,2,0:0:0:0:
448,192,134847,1,0,0:0:0:0:
64,192,135154,1,8,0:0:0:0:
192,192,135154,1,2,0:0:0:0:
64,192,135462,1,2,0:0:0:0:
448,192,135462,1,0,0:0:0:0:
320,192,135616,1,2,0:0:0:0:
192,192,135770,1,8,0:0:0:0:
448,192,135770,1,2,0:0:0:0:
64,192,136078,1,2,0:0:0:0:
192,192,136078,1,0,0:0:0:0:
320,192,136385,1,8,0:0:0:0:
448,192,136385,1,2,0:0:0:0:
64,192,136693,1,4,0:0:0:0:
448,192,136693,1,2,0:0:0:0:
192,192,137001,1,0,0:0:0:50:S1.wav
320,192,137154,1,0,0:0:0:50:S5.wav
448,192,137308,1,0,0:0:0:50:S2.wav
64,192,137462,1,0,0:0:0:50:S1.wav
192,192,137616,1,0,0:0:0:70:S4.wav
448,192,137616,1,0,0:0:0:0:
320,192,137770,1,0,0:0:0:0:
64,192,137924,1,2,0:0:0:0:
192,192,137924,1,4,0:0:0:0:
320,192,138231,1,0,0:0:0:70:S4.wav
448,192,138231,1,0,0:0:0:0:
64,192,138385,1,10,0:0:0:0:
64,192,138616,1,2,0:0:0:0:
192,192,138847,1,0,0:0:0:70:LR4_SnareBPDT.wav
448,192,138847,128,0,139154:0:0:0:0:
64,192,139154,1,2,0:0:0:0:
320,192,139154,1,4,0:0:0:0:
192,192,139462,1,0,0:0:0:70:S4.wav
320,192,139462,1,0,0:0:0:0:
448,192,139616,1,10,0:0:0:0:
448,192,139847,1,2,0:0:0:0:
64,192,140078,128,0,140385:0:0:0:70:LR4_SnareBPDT.wav
192,192,140078,1,0,0:0:0:0:
320,192,140385,1,4,0:0:0:0:
448,192,140385,1,2,0:0:0:0:
192,192,140693,1,0,0:0:0:70:S4.wav
320,192,140693,1,0,0:0:0:0:
64,192,140847,1,10,0:0:0:0:
64,192,141078,1,2,0:0:0:0:
320,192,141308,1,0,0:0:0:70:LR4_SnareBPDT.wav
448,192,141308,128,0,141616:0:0:0:0:
64,192,141616,1,2,0:0:0:0:
192,192,141616,1,4,0:0:0:0:
320,192,141924,1,0,0:0:0:50:S2.wav
448,192,142078,1,0,0:0:0:50:S1.wav
192,192,142231,1,0,0:0:0:50:S5.wav
64,192,142385,1,0,0:0:0:50:S1.wav
320,192,142539,1,0,0:0:0:50:S2.wav
448,192,142539,1,0,0:0:0:0:
192,192,142693,1,0,0:0:0:70:S4.wav
64,192,142847,1,4,0:0:0:0:
320,192,142847,1,2,0:0:0:0:
64,192,143154,1,0,0:0:0:70:S4.wav
448,192,143154,1,0,0:0:0:0:
320,192,143308,1,10,0:0:0:0:
320,192,143539,1,2,0:0:0:0:
192,192,143770,128,0,144078:0:0:0:70:LR4_SnareBPDT.wav
448,192,143770,1,0,0:0:0:0:
64,192,144078,1,2,0:0:0:0:
320,192,144078,1,4,0:0:0:0:
64,192,144385,1,0,0:0:0:70:S4.wav
448,192,144385,1,0,0:0:0:0:
192,192,144539,1,10,0:0:0:0:
192,192,144770,1,0,0:0:0:0:
320,192,145001,128,0,145308:0:0:0:70:LR4_SnareBPDT.wav
448,192,145001,1,0,0:0:0:0:
64,192,145308,1,4,0:0:0:0:
192,192,145308,1,2,0:0:0:0:
192,192,145616,1,0,0:0:0:70:S4.wav
448,192,145616,1,0,0:0:0:0:
320,192,145770,1,10,0:0:0:0:
320,192,146001,1,2,0:0:0:0:
64,192,146231,1,0,0:0:0:70:LR4_SnareBPDT.wav
192,192,146231,128,0,146539:0:0:0:0:
320,192,146539,1,2,0:0:0:0:
448,192,146539,1,4,0:0:0:0:
448,192,146847,1,0,0:0:0:50:S1.wav
320,192,147001,1,0,0:0:0:50:S5.wav
64,192,147154,1,0,0:0:0:70:LR4_SnareBPDT.wav
192,192,147154,1,0,0:0:0:0:
448,192,147308,1,0,0:0:0:70:LR4_SnareBPDT.wav
64,192,147462,1,0,0:0:0:70:LR4_SnareBPDT.wav
320,192,147462,1,0,0:0:0:0:
192,192,147616,1,0,0:0:0:70:LR4_SnareBPDT.wav
320,192,147770,1,2,0:0:0:0:
448,192,147770,1,4,0:0:0:0:
192,192,148231,1,0,0:0:0:50:S1.wav
64,192,148385,1,2,0:0:0:0:
448,192,148385,1,0,0:0:0:0:
320,192,148693,1,0,0:0:0:50:S1.wav
192,192,149001,1,2,0:0:0:0:
448,192,149001,128,0,149308:0:0:0:0:
64,192,149308,1,0,0:0:0:30:S2.wav
192,192,149462,1,0,0:0:0:50:S1.wav
64,192,149616,1,2,0:0:0:0:
448,192,149616,1,0,0:0:0:0:
320,192,149770,1,0,0:0:0:30:S2.wav
192,192,149924,128,0,150231:0:0:0:50:S1.wav
448,192,150078,1,0,0:0:0:30:S2.wav
64,192,150231,1,2,0:0:0:0:
320,192,150231,1,0,0:0:0:0:
448,192,150693,1,0,0:0:0:50:S1.wav
64,192,150847,1,2,0:0:0:0:
192,192,150847,1,0,0:0:0:0:
320,192,151154,1,0,0:0:0:50:S1.wav
192,192,151462,128,2,151770:0:0:0:0:
448,192,151462,1,0,0:0:0:0:
64,192,151770,1,0,0:0:0:0:
448,192,151924,1,0,0:0:0:50:S1.wav
64,192,152078,1,2,0:0:0:0:
320,192,152078,1,0,0:0:0:0:
192,192,152231,1,0,0:0:0:30:S2.wav
448,192,152385,128,0,152693:0:0:0:50:S1.wav
64,192,152539,1,0,0:0:0:30:S2.wav
192,192,152693,1,2,0:0:0:0:
320,192,152693,1,4,0:0:0:0:
64,192,153154,1,0,0:0:0:50:S1.wav
192,192,153308,1,2,0:0:0:0:
448,192,153308,1,0,0:0:0:0:
320,192,153616,1,0,0:0:0:50:S1.wav
64,192,153924,1,2,0:0:0:0:
192,192,153924,128,0,154231:0:0:0:0:
448,192,154231,1,0,0:0:0:30:S2.wav
64,192,154385,1,0,0:0:0:50:S1.wav
192,192,154539,1,2,0:0:0:0:
448,192,154539,1,0,0:0:0:0:
320,192,154693,1,0,0:0:0:30:S2.wav
64,192,154847,128,0,155154:0:0:0:50:S1.wav
192,192,155001,1,0,0:0:0:30:S2.wav
320,192,155154,1,2,0:0:0:0:
448,192,155154,128,4,155462:0:0:0:0:
64,192,155616,1,0,0:0:0:50:S1.wav
192,192,155770,128,2,156078:0:0:0:0:
320,192,155770,1,0,0:0:0:0:
448,192,156078,128,0,156231:0:0:0:0:
320,192,156231,128,0,156385:0:0:0:0:
64,192,156385,128,2,157616:0:0:0:0:
192,192,156385,1,0,0:0:0:0:
448,192,156693,1,0,0:0:0:0:
320,192,157001,1,0,0:0:0:0:
448,192,157308,1,0,0:0:0:0:
192,192,157462,1,0,0:0:0:30:S2.wav
320,192,157616,1,2,0:0:0:0:
448,192,157616,1,4,0:0:0:0:
192,192,157924,1,0,0:0:0:0:
320,192,158231,1,0,0:0:0:50:S1.wav
64,192,158385,1,2,0:0:0:0:
448,192,158385,1,0,0:0:0:0:
64,192,158847,128,2,159154:0:0:0:0:
448,192,158847,1,0,0:0:0:0:
320,192,159154,1,0,0:0:0:50:S4.wav
192,192,159308,1,0,0:0:0:0:
448,192,159462,1,0,0:0:0:0:
64,192,159616,1,0,0:0:0:0:
320,192,159770,128,0,160078:0:0:0:50:S1.wav
192,192,160078,1,2,0:0:0:0:
448,192,160078,1,4,0:0:0:0:
64,192,160385,1,0,0:0:0:0:
448,192,160693,1,0,0:0:0:50:S1.wav
64,192,160847,1,2,0:0:0:0:
320,192,160847,1,0,0:0:0:0:
64,192,161308,1,2,0:0:0:0:
320,192,161308,128,0,161616:0:0:0:0:
192,192,161616,1,0,0:0:0:0:
448,192,161770,1,0,0:0:0:0:
64,192,161924,1,0,0:0:0:0:
320,192,162078,1,0,0:0:0:0:
192,192,162231,128,0,162539:0:0:0:0:
64,192,162539,1,4,0:0:0:0:
320,192,162539,1,2,0:0:0:0:
448,192,162847,1,2,0:0:0:0:
192,192,163001,1,0,0:0:0:50:S1.wav
320,192,163001,1,0,0:0:0:0:
64,192,163308,1,0,0:0:0:30:S2.wav
192,192,163462,1,0,0:0:0:50:S1.wav
448,192,163462,1,0,0:0:0:0:
320,192,163770,1,0,0:0:0:30:S2.wav
64,192,164078,1,2,0:0:0:0:
448,192,164078,1,0,0:0:0:0:
320,192,164385,1,0,0:0:0:50:S2.wav
64,192,164539,1,0,0:0:0:50:S1.wav
192,192,164539,1,0,0:0:0:0:
320,192,164847,1,0,0:0:0:50:S1.wav
64,192,165001,1,2,0:0:0:0:
448,192,165001,1,4,0:0:0:0:
64,192,165308,1,2,0:0:0:0:
448,192,165308,1,4,0:0:0:0:
64,192,165616,1,2,0:0:0:0:
448,192,165616,1,4,0:0:0:0:
64,192,165924,1,2,0:0:0:0:
448,192,165924,1,4,0:0:0:0:
64,192,166231,1,4,0:0:0:0:
192,192,166231,1,2,0:0:0:0:
320,192,166539,1,0,0:0:0:0:
192,192,166693,1,0,0:0:0:0:
448,192,166847,128,0,167462:0:0:0:0:
64,192,167154,1,0,0:0:0:0:
192,192,167308,1,0,0:0:0:0:
64,192,167462,1,4,0:0:0:0:
320,192,167462,1,2,0:0:0:0:
192,192,167770,1,0,0:0:0:50:S4.wav
448,192,167924,1,0,0:0:0:0:
64,192,168078,1,0,0:0:0:50:S4.wav
320,192,168231,1,0,0:0:0:0:
192,192,168385,1,0,0:0:0:50:S4.wav
448,192,168539,1,0,0:0:0:0:
64,192,168693,1,0,0:0:0:50:S4.wav
320,192,168693,1,0,0:0:0:0:
448,192,169001,1,0,0:0:0:50:S4.wav
192,192,169154,1,0,0:0:0:0:
320,192,169308,1,0,0:0:0:50:S4.wav
64,192,169462,1,0,0:0:0:0:
448,192,169616,1,0,0:0:0:50:S4.wav
192,192,169770,1,0,0:0:0:0:
320,192,169924,1,0,0:0:0:50:S4.wav
448,192,169924,1,0,0:0:0:0:
64,192,170231,1,0,0:0:0:50:S4.wav
448,192,170385,1,0,0:0:0:0:
192,192,170539,1,0,0:0:0:50:S4.wav
320,192,170693,1,0,0:0:0:0:
64,192,170847,1,0,0:0:0:50:S4.wav
448,192,171001,1,0,0:0:0:0:
64,192,171154,1,0,0:0:0:50:S4.wav
192,192,171154,1,0,0:0:0:0:
320,192,171462,1,0,0:0:0:50:S4.wav
192,192,171616,1,0,0:0:0:0:
448,192,171770,1,0,0:0:0:50:S4.wav
64,192,171924,1,0,0:0:0:0:
320,192,172078,1,0,0:0:0:50:S4.wav
192,192,172231,1,0,0:0:0:0:
64,192,172385,1,4,0:0:0:0:
448,192,172385,1,2,0:0:0:0:
320,192,172539,1,0,0:0:0:50:S5.wav
192,192,172693,1,0,0:0:0:50:S4.wav
320,192,172847,1,0,0:0:0:50:S5.wav
64,192,173001,1,6,0:0:0:0:
448,192,173001,1,0,0:0:0:50:S4.wav
192,192,173154,1,0,0:0:0:50:S5.wav
320,192,173308,1,0,0:0:0:50:S4.wav
192,192,173462,1,0,0:0:0:50:S5.wav
64,192,173616,1,6,0:0:0:0:
448,192,173616,1,0,0:0:0:50:S4.wav
320,192,173770,1,0,0:0:0:50:S5.wav
448,192,173924,1,0,0:0:0:50:S4.wav
320,192,174078,1,0,0:0:0:50:S5.wav
64,192,174231,1,6,0:0:0:0:
448,192,174231,1,0,0:0:0:50:S4.wav
192,192,174385,1,0,0:0:0:50:S5.wav
64,192,174539,1,0,0:0:0:50:S4.wav
192,192,174693,1,0,0:0:0:50:S5.wav
64,192,174847,1,6,0:0:0:0:
448,192,174847,1,0,0:0:0:50:S5.wav
320,192,175001,1,2,0:0:0:0:
192,192,175154,1,2,0:0:0:0:
448,192,175154,1,0,0:0:0:50:S5.wav
320,192,175308,1,2,0:0:0:0:
64,192,175462,128,6,176078:0:0:0:0:
192,192,175462,1,0,0:0:0:50:S5.wav
448,192,175616,1,2,0:0:0:0:
320,192,175770,1,6,0:0:0:0:
192,192,175924,1,2,0:0:0:0:
448,192,176078,1,4,0:0:0:0:
320,192,177924,1,0,0:0:0:70:LR4_SnareBPDT.wav
448,192,177924,1,0,0:0:0:0:
64,192,178078,1,0,0:0:0:70:soft-hitclap.wav
192,192,178231,1,0,0:0:0:70:soft-hitclap.wav
320,192,178231,1,0,0:0:0:0:
448,192,178385,1,0,0:0:0:70:LR4_SnareBPDT.wav
64,192,178539,1,2,0:0:0:0:
192,192,178539,1,4,0:0:0:0:
320,192,178693,1,2,0:0:0:0:
64,192,178847,1,8,0:0:0:0:
448,192,178847,1,0,0:0:0:0:
192,192,179001,1,0,0:0:0:0:
320,192,179154,1,2,0:0:0:0:
64,192,179308,1,0,0:0:0:0:
320,192,179462,1,8,0:0:0:0:
448,192,179462,1,0,0:0:0:0:
192,192,179616,1,0,0:0:0:0:
64,192,179770,1,2,0:0:0:0:
448,192,179924,1,0,0:0:0:0:
64,192,180078,1,8,0:0:0:0:
320,192,180078,1,0,0:0:0:0:
192,192,180231,1,0,0:0:0:0:
448,192,180385,1,2,0:0:0:0:
64,192,180539,1,0,0:0:0:0:
192,192,180693,1,8,0:0:0:0:
448,192,180693,1,0,0:0:0:0:
320,192,180847,1,0,0:0:0:0:
64,192,181001,1,2,0:0:0:0:
192,192,181154,1,0,0:0:0:0:
64,192,181308,1,8,0:0:0:0:
448,192,181308,1,0,0:0:0:0:
320,192,181462,1,0,0:0:0:0:
192,192,181616,1,2,0:0:0:0:
448,192,181770,1,0,0:0:0:0:
192,192,181924,1,8,0:0:0:0:
320,192,181924,1,0,0:0:0:0:
64,192,182078,1,0,0:0:0:0:
448,192,182231,1,2,0:0:0:0:
192,192,182385,1,0,0:0:0:0:
64,192,182539,1,8,0:0:0:0:
448,192,182539,1,0,0:0:0:0:
320,192,182693,1,0,0:0:0:0:
192,192,182847,1,2,0:0:0:0:
64,192,183001,1,0,0:0:0:0:
192,192,183154,1,0,0:0:0:70:LR4_SnareBPDT.wav
448,192,183154,1,0,0:0:0:0:
448,192,183462,1,0,0:0:0:0:
64,192,183770,1,4,0:0:0:0:
320,192,183770,1,8,0:0:0:0:
448,192,183924,1,0,0:0:0:0:
192,192,184078,1,2,0:0:0:0:
320,192,184231,1,0,0:0:0:0:
64,192,184385,1,8,0:0:0:0:
192,192,184385,1,0,0:0:0:0:
448,192,184539,1,0,0:0:0:0:
320,192,184693,1,2,0:0:0:0:
64,192,184847,1,0,0:0:0:0:
192,192,185001,1,8,0:0:0:0:
320,192,185001,1,0,0:0:0:0:
448,192,185154,1,0,0:0:0:0:
64,192,185308,1,2,0:0:0:0:
192,192,185462,1,0,0:0:0:0:
64,192,185616,1,8,0:0:0:0:
320,192,185616,1,0,0:0:0:0:
448,192,185770,1,0,0:0:0:0:
192,192,185924,1,2,0:0:0:0:
320,192,186078,1,0,0:0:0:0:
192,192,186231,1,8,0:0:0:0:
448,192,186231,1,0,0:0:0:0:
64,192,186385,1,0,0:0:0:0:
320,192,186539,1,2,0:0:0:0:
192,192,186693,1,0,0:0:0:0:
320,192,186847,1,8,0:0:0:0:
448,192,186847,1,0,0:0:0:0:
192,192,187001,1,0,0:0:0:0:
64,192,187154,1,2,0:0:0:0:
448,192,187154,1,4,0:0:0:0:
192,192,187308,1,0,0:0:0:0:
320,192,187462,1,0,0:0:0:0:
192,192,187616,1,0,0:0:0:0:
320,192,187770,1,0,0:0:0:70:LR4_SnareBPDT.wav
448,192,187770,1,0,0:0:0:0:
448,192,187924,1,0,0:0:0:70:soft-hitclap.wav
64,192,188078,1,0,0:0:0:70:soft-hitclap.wav
192,192,188078,1,0,0:0:0:0:
64,192,188231,1,0,0:0:0:70:LR4_SnareBPDT.wav
320,192,188385,1,2,0:0:0:0:
448,192,188385,1,0,0:0:0:0:
192,192,188693,1,4,0:0:0:0:
448,192,188693,1,8,0:0:0:0:
64,192,188847,1,0,0:0:0:0:
320,192,189001,1,2,0:0:0:0:
192,192,189154,1,0,0:0:0:0:
64,192,189308,1,8,0:0:0:0:
320,192,189308,1,0,0:0:0:0:
448,192,189462,1,0,0:0:0:0:
192,192,189616,1,2,0:0:0:0:
320,192,189770,1,0,0:0:0:0:
64,192,189924,1,8,0:0:0:0:
192,192,189924,1,0,0:0:0:0:
448,192,190078,1,0,0:0:0:0:
320,192,190231,1,2,0:0:0:0:
192,192,190385,1,0,0:0:0:0:
320,192,190539,1,8,0:0:0:0:
448,192,190539,1,0,0:0:0:0:
64,192,190693,1,0,0:0:0:0:
192,192,190847,1,2,0:0:0:0:
448,192,191001,1,0,0:0:0:0:
192,192,191154,1,8,0:0:0:0:
320,192,191154,1,0,0:0:0:0:
64,192,191308,1,0,0:0:0:0:
448,192,191462,1,2,0:0:0:0:
320,192,191616,1,0,0:0:0:0:
64,192,191770,1,8,0:0:0:0:
448,192,191770,1,0,0:0:0:0:
192,192,191924,1,0,0:0:0:0:
320,192,192078,1,2,0:0:0:0:
64,192,192231,1,0,0:0:0:0:
192,192,192385,1,8,0:0:0:0:
320,192,192385,1,0,0:0:0:0:
64,192,192539,1,0,0:0:0:0:
448,192,192693,1,2,0:0:0:0:
320,192,192847,1,0,0:0:0:0:
192,192,193001,1,0,0:0:0:70:LR4_SnareBPDT.wav
448,192,193001,1,0,0:0:0:0:
192,192,193308,1,0,0:0:0:0:
64,192,193616,1,4,0:0:0:0:
448,192,193616,1,8,0:0:0:0:
320,192,193770,1,0,0:0:0:0:
192,192,193924,1,2,0:0:0:0:
448,192,194078,1,0,0:0:0:0:
192,192,194231,1,8,0:0:0:0:
320,192,194231,1,0,0:0:0:0:
64,192,194385,1,0,0:0:0:0:
448,192,194539,1,2,0:0:0:0:
64,192,194693,1,0,0:0:0:0:
192,192,194847,1,8,0:0:0:0:
448,192,194847,1,0,0:0:0:0:
320,192,195001,1,0,0:0:0:0:
64,192,195154,1,2,0:0:0:0:
192,192,195308,1,0,0:0:0:0:
64,192,195462,1,8,0:0:0:0:
448,192,195462,1,0,0:0:0:0:
320,192,195616,1,0,0:0:0:0:
192,192,195770,1,2,0:0:0:0:
320,192,195924,1,0,0:0:0:0:
64,192,196078,1,8,0:0:0:0:
192,192,196078,1,0,0:0:0:0:
448,192,196231,1,0,0:0:0:0:
320,192,196385,1,2,0:0:0:0:
192,192,196539,1,0,0:0:0:0:
64,192,196693,1,8,0:0:0:0:
320,192,196693,1,0,0:0:0:0:
192,192,196847,1,0,0:0:0:0:
64,192,197001,1,2,0:0:0:0:
448,192,197001,1,4,0:0:0:0:
320,192,197154,1,0,0:0:0:0:
192,192,197308,1,0,0:0:0:0:
320,192,197462,1,0,0:0:0:0:
64,192,197616,1,0,0:0:0:70:LR4_SnareBPDT.wav
192,192,197616,1,0,0:0:0:0:
64,192,197770,1,0,0:0:0:70:LR4_SnareBPDT.wav
320,192,197924,1,0,0:0:0:70:LR4_SnareBPDT.wav
448,192,197924,1,0,0:0:0:0:
448,192,198078,1,0,0:0:0:70:LR4_SnareBPDT.wav
64,192,198231,1,2,0:0:0:0:
192,192,198231,1,0,0:0:0:0:
320,192,198385,1,2,0:0:0:0:
64,192,198539,1,4,0:0:0:0:
448,192,198539,1,8,0:0:0:0:
192,192,198847,1,2,0:0:0:0:
320,192,199001,128,0,199154:0:0:0:0:
64,192,199154,1,8,0:0:0:0:
448,192,199154,1,0,0:0:0:0:
320,192,199308,1,0,0:0:0:0:
192,192,199462,1,2,0:0:0:0:
64,192,199616,128,0,199770:0:0:0:0:
320,192,199770,1,8,0:0:0:0:
448,192,199770,128,0,199924:0:0:0:0:
192,192,199924,128,0,200078:0:0:0:0:
64,192,200078,1,2,0:0:0:0:
448,192,200231,128,0,200385:0:0:0:0:
64,192,200385,1,8,0:0:0:0:
320,192,200385,1,0,0:0:0:0:
192,192,200539,128,0,200693:0:0:0:0:
320,192,200693,128,2,201001:0:0:0:0:
64,192,201001,1,8,0:0:0:0:
448,192,201001,1,0,0:0:0:0:
192,192,201154,1,0,0:0:0:0:
320,192,201308,1,2,0:0:0:0:
192,192,201462,128,0,201616:0:0:0:0:
64,192,201616,1,8,0:0:0:0:
448,192,201616,1,0,0:0:0:0:
192,192,201770,1,0,0:0:0:0:
320,192,201924,1,2,0:0:0:0:
448,192,202078,128,0,202231:0:0:0:0:
64,192,202231,128,8,202385:0:0:0:0:
192,192,202231,1,0,0:0:0:0:
320,192,202385,128,0,202539:0:0:0:0:
448,192,202539,1,2,0:0:0:0:
192,192,202693,128,0,202847:0:0:0:0:
64,192,202847,1,0,0:0:0:70:LR4_SnareBPDT.wav
448,192,202847,1,0,0:0:0:0:
320,192,203154,1,0,0:0:0:0:
64,192,203462,128,8,203616:0:0:0:0:
448,192,203462,1,4,0:0:0:0:
320,192,203616,1,0,0:0:0:0:
192,192,203770,128,2,203924:0:0:0:0:
448,192,203924,1,0,0:0:0:0:
64,192,204078,1,8,0:0:0:0:
320,192,204078,128,0,204231:0:0:0:0:
192,192,204231,1,0,0:0:0:0:
448,192,204385,1,2,0:0:0:0:
192,192,204539,1,0,0:0:0:0:
64,192,204693,1,8,0:0:0:0:
448,192,204693,128,0,204847:0:0:0:0:
192,192,204847,1,0,0:0:0:0:
320,192,205001,128,2,205154:0:0:0:0:
64,192,205154,1,0,0:0:0:0:
192,192,205308,128,8,205462:0:0:0:0:
448,192,205308,1,0,0:0:0:0:
320,192,205462,1,0,0:0:0:0:
64,192,205616,1,2,0:0:0:0:
320,192,205770,1,0,0:0:0:0:
64,192,205924,1,8,0:0:0:0:
448,192,205924,1,0,0:0:0:0:
192,192,206078,1,0,0:0:0:0:
320,192,206231,1,2,0:0:0:0:
192,192,206385,1,0,0:0:0:0:
320,192,206539,1,8,0:0:0:0:
448,192,206539,1,0,0:0:0:0:
64,192,206693,1,0,0:0:0:0:
192,192,206847,1,4,0:0:0:0:
320,192,206847,1,2,0:0:0:0:
448,192,207001,1,0,0:0:0:0:
64,192,207154,1,0,0:0:0:0:
448,192,207308,1,0,0:0:0:0:
64,192,207462,1,0,0:0:0:70:LR4_SnareBPDT.wav
320,192,207462,1,0,0:0:0:0:
320,192,207616,1,0,0:0:0:70:LR4_SnareBPDT.wav
192,192,207770,1,0,0:0:0:70:LR4_SnareBPDT.wav
448,192,207770,1,0,0:0:0:0:
192,192,207924,1,0,0:0:0:70:LR4_SnareBPDT.wav
320,192,208078,128,2,208385:0:0:0:0:
64,192,208385,1,8,0:0:0:0:
448,192,208385,1,4,0:0:0:0:
320,192,208693,1,2,0:0:0:0:
64,192,208847,128,0,209001:0:0:0:0:
192,192,209001,1,8,0:0:0:0:
448,192,209001,1,0,0:0:0:0:
64,192,209154,1,0,0:0:0:0:
320,192,209308,1,2,0:0:0:0:
448,192,209462,128,0,209616:0:0:0:0:
64,192,209616,1,8,0:0:0:0:
192,192,209616,128,0,209770:0:0:0:0:
320,192,209770,128,0,209924:0:0:0:0:
448,192,209924,1,2,0:0:0:0:
192,192,210078,128,0,210231:0:0:0:0:
64,192,210231,1,8,0:0:0:0:
448,192,210231,1,0,0:0:0:0:
320,192,210385,128,0,210539:0:0:0:0:
64,192,210539,128,2,210847:0:0:0:0:
192,192,210847,1,8,0:0:0:0:
448,192,210847,1,0,0:0:0:0:
320,192,211001,1,0,0:0:0:0:
192,192,211154,1,2,0:0:0:0:
448,192,211308,128,0,211462:0:0:0:0:
64,192,211462,1,8,0:0:0:0:
320,192,211462,1,0,0:0:0:0:
448,192,211616,1,0,0:0:0:0:
192,192,211770,1,2,0:0:0:0:
64,192,211924,128,0,212078:0:0:0:0:
320,192,212078,128,8,212231:0:0:0:0:
448,192,212078,1,0,0:0:0:0:
192,192,212231,128,0,212385:0:0:0:0:
64,192,212385,1,2,0:0:0:0:
320,192,212539,128,0,212693:0:0:0:0:
64,192,212693,1,0,0:0:0:70:LR4_SnareBPDT.wav
448,192,212693,1,0,0:0:0:0:
192,192,213001,1,0,0:0:0:0:
64,192,213308,1,8,0:0:0:0:
448,192,213308,128,4,213462:0:0:0:0:
192,192,213462,1,0,0:0:0:0:
320,192,213616,128,0,213770:0:0:0:0:
64,192,213770,1,0,0:0:0:50:S4.wav
448,192,213770,1,0,0:0:0:0:
192,192,213924,128,0,214078:0:0:0:0:
448,192,214078,1,0,0:0:0:0:
320,192,214231,1,0,0:0:0:0:
192,192,214385,1,0,0:0:0:0:
64,192,214539,128,0,214693:0:0:0:50:S4.wav
448,192,214539,1,0,0:0:0:0:
320,192,214693,1,0,0:0:0:0:
192,192,214847,128,0,215001:0:0:0:0:
448,192,215001,1,0,0:0:0:50:S4.wav
320,192,215154,128,0,215308:0:0:0:50:S4.wav
64,192,215308,1,0,0:0:0:50:S4.wav
320,192,215462,1,2,0:0:0:0:
448,192,215462,1,4,0:0:0:0:
192,192,215616,1,2,0:0:0:0:
64,192,215770,1,8,0:0:0:0:
448,192,215770,1,4,0:0:0:0:
320,192,215924,1,2,0:0:0:0:
64,192,216078,128,2,216693:0:0:0:0:
192,192,216078,1,4,0:0:0:0:
320,192,216231,1,2,0:0:0:0:
448,192,216385,1,8,0:0:0:0:
192,192,216539,1,2,0:0:0:0:
320,192,216693,1,4,0:0:0:0:
448,192,216693,1,2,0:0:0:0:
320,192,217308,1,0,0:0:0:70:LR4_SnareBPDT.wav
448,192,217308,1,0,0:0:0:0:
64,192,217462,1,0,0:0:0:70:LR4_SnareBPDT.wav
192,192,217616,1,0,0:0:0:70:LR4_SnareBPDT.wav
448,192,217616,1,0,0:0:0:0:
320,192,217770,1,0,0:0:0:70:LR4_SnareBPDT.wav
64,192,217924,1,2,0:0:0:0:
192,192,217924,1,4,0:0:0:0:
320,192,218231,128,0,218539:0:0:0:0:
64,192,218539,1,4,0:0:0:0:
448,192,218539,1,2,0:0:0:0:
192,192,218847,1,8,0:0:0:0:
320,192,218847,1,0,0:0:0:0:
192,192,219154,1,2,0:0:0:0:
448,192,219154,1,0,0:0:0:0:
64,192,219462,1,8,0:0:0:0:
320,192,219462,1,0,0:0:0:0:
64,192,219770,1,2,0:0:0:0:
192,192,219770,1,0,0:0:0:0:
320,192,220078,1,8,0:0:0:0:
448,192,220078,1,0,0:0:0:0:
64,192,220385,128,2,220539:0:0:0:0:
320,192,220385,1,0,0:0:0:0:
192,192,220693,1,8,0:0:0:0:
448,192,220693,1,0,0:0:0:0:
320,192,221001,1,2,0:0:0:0:
448,192,221001,1,0,0:0:0:0:
64,192,221308,1,8,0:0:0:0:
192,192,221308,1,0,0:0:0:0:
64,192,221616,1,2,0:0:0:0:
448,192,221616,128,0,221770:0:0:0:0:
192,192,221924,1,0,0:0:0:0:
320,192,221924,1,0,0:0:0:0:
64,192,222078,128,0,222231:0:0:0:0:
320,192,222231,1,2,0:0:0:0:
192,192,222385,1,0,0:0:0:0:
64,192,222539,1,0,0:0:0:70:LR4_SnareBPDT.wav
448,192,222539,1,0,0:0:0:0:
192,192,222847,1,2,0:0:0:0:
448,192,222847,1,8,0:0:0:0:
320,192,223001,1,2,0:0:0:0:
64,192,223154,1,12,0:0:0:0:
192,192,223154,1,2,0:0:0:0:
64,192,223462,1,2,0:0:0:0:
448,192,223462,1,0,0:0:0:0:
192,192,223770,1,8,0:0:0:0:
448,192,223770,1,2,0:0:0:0:
192,192,224078,1,2,0:0:0:0:
320,192,224078,1,0,0:0:0:0:
64,192,224385,1,8,0:0:0:0:
320,192,224385,1,2,0:0:0:0:
64,192,224693,1,2,0:0:0:0:
192,192,224693,1,0,0:0:0:0:
192,192,225001,1,8,0:0:0:0:
448,192,225001,1,2,0:0:0:0:
64,192,225308,1,2,0:0:0:0:
448,192,225308,128,0,225462:0:0:0:0:
64,192,225616,1,8,0:0:0:0:
320,192,225616,1,2,0:0:0:0:
320,192,225924,1,2,0:0:0:0:
448,192,225924,1,0,0:0:0:0:
192,192,226231,1,8,0:0:0:0:
448,192,226231,1,2,0:0:0:0:
64,192,226539,1,2,0:0:0:0:
192,192,226539,1,4,0:0:0:0:
320,192,226693,1,0,0:0:0:70:LR4_SnareBPDT.wav
192,192,226847,1,0,0:0:0:70:LR4_SnareBPDT.wav
64,192,227001,1,2,0:0:0:0:
448,192,227001,1,0,0:0:0:0:
320,192,227462,1,0,0:0:0:70:LR4_SnareBPDT.wav
448,192,227616,1,0,0:0:0:70:LR4_SnareBPDT.wav
64,192,227770,1,2,0:0:0:0:
192,192,227770,1,0,0:0:0:0:
64,192,228385,1,4,0:0:0:0:
448,192,228385,1,2,0:0:0:0:
192,192,228539,128,0,229001:0:0:0:0:
320,192,228693,1,8,0:0:0:0:
448,192,228693,1,0,0:0:0:0:
64,192,229001,1,2,0:0:0:0:
320,192,229001,1,0,0:0:0:0:
192,192,229308,1,8,0:0:0:0:
448,192,229308,1,0,0:0:0:0:
64,192,229616,1,2,0:0:0:0:
192,192,229616,1,0,0:0:0:0:
320,192,229924,1,8,0:0:0:0:
448,192,229924,1,0,0:0:0:0:
192,192,230231,128,2,230385:0:0:0:0:
448,192,230231,1,0,0:0:0:0:
64,192,230539,1,8,0:0:0:0:
320,192,230539,1,0,0:0:0:0:
64,192,230847,1,2,0:0:0:0:
192,192,230847,1,0,0:0:0:0:
448,192,231001,128,0,231462:0:0:0:0:
192,192,231154,1,8,0:0:0:0:
320,192,231154,1,0,0:0:0:0:
64,192,231462,128,2,231616:0:0:0:0:
320,192,231462,1,0,0:0:0:0:
192,192,231770,1,8,0:0:0:0:
448,192,231770,1,0,0:0:0:0:
320,192,231924,128,0,232078:0:0:0:0:
64,192,232078,1,2,0:0:0:0:
192,192,232078,1,0,0:0:0:0:
64,192,232385,1,0,0:0:0:70:LR4_SnareBPDT.wav
448,192,232385,1,0,0:0:0:0:
192,192,232693,1,2,0:0:0:0:
320,192,232693,1,8,0:0:0:0:
64,192,233001,1,8,0:0:0:0:
320,192,233001,1,0,0:0:0:0:
448,192,233154,1,6,0:0:0:0:
448,192,233385,1,2,0:0:0:0:
64,192,233616,128,0,233924:0:0:0:70:LR4_SnareBPDT.wav
192,192,233616,1,0,0:0:0:0:
320,192,233924,1,2,0:0:0:0:
448,192,233924,1,0,0:0:0:0:
192,192,234231,1,8,0:0:0:0:
320,192,234231,1,0,0:0:0:0:
64,192,234385,1,2,0:0:0:0:
64,192,234616,1,2,0:0:0:0:
192,192,234847,1,0,0:0:0:70:LR4_SnareBPDT.wav
448,192,234847,128,0,235154:0:0:0:0:
64,192,235154,1,2,0:0:0:0:
320,192,235154,1,8,0:0:0:0:
192,192,235462,1,8,0:0:0:0:
320,192,235462,1,0,0:0:0:0:
448,192,235616,1,14,0:0:0:0:
448,192,235847,1,10,0:0:0:0:
64,192,236078,128,0,236385:0:0:0:70:LR4_SnareBPDT.wav
192,192,236078,1,0,0:0:0:0:
320,192,236385,1,2,0:0:0:0:
448,192,236385,1,4,0:0:0:0:
64,192,237001,1,0,0:0:0:70:LR4_SnareBPDT.wav
192,192,237001,1,0,0:0:0:0:
448,192,237154,1,0,0:0:0:70:LR4_SnareBPDT.wav
192,192,237308,1,0,0:0:0:70:LR4_SnareBPDT.wav
320,192,237308,1,0,0:0:0:0:
64,192,237462,1,0,0:0:0:70:LR4_SnareBPDT.wav
320,192,237616,128,2,237924:0:0:0:0:
448,192,237616,1,4,0:0:0:0:
192,192,237924,1,2,0:0:0:0:
64,192,238231,128,2,238539:0:0:0:0:
192,192,238231,1,0,0:0:0:0:
320,192,238539,1,2,0:0:0:0:
320,192,238847,128,2,239154:0:0:0:0:
448,192,238847,1,0,0:0:0:0:
192,192,239154,1,2,0:0:0:0:
64,192,239462,1,2,0:0:0:0:
448,192,239616,1,0,0:0:0:0:
192,192,239770,1,2,0:0:0:0:
448,192,239924,1,0,0:0:0:0:
320,192,240078,128,2,240385:0:0:0:0:
64,192,240385,1,2,0:0:0:0:
192,192,240539,1,0,0:0:0:0:
448,192,240693,1,2,0:0:0:0:
320,192,240847,1,0,0:0:0:0:
448,192,241001,1,2,0:0:0:0:
320,192,241154,1,0,0:0:0:0:
192,192,241308,128,2,241616:0:0:0:0:
448,192,241616,128,2,241924:0:0:0:0:
64,192,241924,1,2,0:0:0:0:
192,192,242078,1,0,0:0:0:0:
64,192,242231,1,2,0:0:0:0:
192,192,242385,1,0,0:0:0:0:
320,192,242539,1,2,0:0:0:0:
448,192,242539,128,4,242847:0:0:0:0:
64,192,242847,1,2,0:0:0:0:
64,192,243154,128,2,243462:0:0:0:0:
192,192,243154,1,0,0:0:0:0:
448,192,243462,1,2,0:0:0:0:
320,192,243770,1,2,0:0:0:0:
448,192,243770,128,0,244078:0:0:0:0:
64,192,244078,1,2,0:0:0:0:
192,192,244385,1,2,0:0:0:0:
320,192,244539,1,0,0:0:0:0:
64,192,244693,1,2,0:0:0:0:
320,192,244847,1,0,0:0:0:0:
448,192,245001,128,2,245308:0:0:0:0:
192,192,245308,1,2,0:0:0:0:
320,192,245462,1,0,0:0:0:0:
64,192,245616,1,2,0:0:0:0:
448,192,245770,1,0,0:0:0:0:
64,192,245924,1,2,0:0:0:0:
448,192,246078,1,0,0:0:0:0:
64,192,246231,1,2,0:0:0:0:
192,192,246231,128,4,246847:0:0:0:0:
320,192,246539,128,2,246847:0:0:0:0:
448,192,246847,1,2,0:0:0:0:
64,192,247001,1,2,0:0:0:0:
320,192,247154,1,2,0:0:0:0:
192,192,247308,1,2,0:0:0:0:
64,192,247462,1,2,0:0:0:0:
448,192,247462,128,4,247770:0:0:0:0:
192,192,247770,1,2,0:0:0:0:
320,192,247924,1,0,0:0:0:0:
64,192,248078,128,2,248385:0:0:0:0:
448,192,248078,1,0,0:0:0:0:
320,192,248385,1,2,0:0:0:0:
64,192,248693,1,2,0:0:0:0:
448,192,248693,128,0,249001:0:0:0:0:
192,192,249001,1,2,0:0:0:0:
320,192,249308,1,2,0:0:0:0:
448,192,249462,1,0,0:0:0:0:
64,192,249616,1,2,0:0:0:0:
448,192,249770,1,0,0:0:0:0:
192,192,249924,1,2,0:0:0:0:
192,192,250231,1,2,0:0:0:0:
320,192,250385,1,0,0:0:0:0:
64,192,250539,1,2,0:0:0:0:
64,192,250847,1,2,0:0:0:0:
320,192,251154,1,2,0:0:0:0:
320,192,251462,1,2,0:0:0:0:
192,192,251770,1,2,0:0:0:0:
448,192,251924,1,0,0:0:0:0:
64,192,252078,1,2,0:0:0:0:
448,192,252231,1,0,0:0:0:0:
192,192,252385,128,2,252693:0:0:0:0:
320,192,252385,1,4,0:0:0:0:
64,192,252693,1,2,0:0:0:0:
448,192,252847,1,0,0:0:0:0:
192,192,253001,1,2,0:0:0:0:
320,192,253001,128,0,253308:0:0:0:0:
448,192,253308,1,2,0:0:0:0:
192,192,253616,128,2,253924:0:0:0:0:
320,192,253616,1,0,0:0:0:0:
64,192,253924,1,2,0:0:0:0:
448,192,254231,1,2,0:0:0:0:
192,192,254385,1,0,0:0:0:0:
320,192,254539,1,2,0:0:0:0:
192,192,254693,1,0,0:0:0:0:
448,192,254847,1,2,0:0:0:0:
448,192,255154,1,2,0:0:0:0:
192,192,255308,1,0,0:0:0:0:
64,192,255462,1,2,0:0:0:0:
64,192,255770,1,2,0:0:0:0:
320,192,256078,1,2,0:0:0:0:
448,192,256078,1,4,0:0:0:0:
192,192,256385,1,0,0:0:0:0:
320,192,256539,1,0,0:0:0:0:
448,192,256693,1,0,0:0:0:0:
64,192,256847,1,0,0:0:0:0:
192,192,257001,1,0,0:0:0:0:
448,192,257001,1,0,0:0:0:0:
320,192,257154,1,0,0:0:0:0:
64,192,257308,1,0,0:0:0:50:LS-HKI Digital Kick 01 F#.wav
192,192,257308,1,0,0:0:0:0:
