osu file format v14

[General]
AudioFilename: audio.mp3
AudioLeadIn: 0
PreviewTime: 136709
Countdown: 0
SampleSet: Soft
StackLeniency: 0.7
Mode: 0
LetterboxInBreaks: 0
WidescreenStoryboard: 1

[Editor]
DistanceSpacing: 0.9
BeatDivisor: 2
GridSize: 4
TimelineZoom: 1.500001

[Metadata]
Title:Snow halation
TitleUnicode:Snow halation
Artist:u's
ArtistUnicode:μ's
Creator:SkyFlame
Version:Nyantiaz's Easy
Source:ラブライブ! School idol project
Tags:christmas muse nyantiaz glaceon asuka_- love live japanese anime kousaka honoka ayase eri minami kotori sonoda umi hoshizora rin nishikino maki toujou nozomi koizumi hanayo yazawa niko sunrise best album collection ラブライブ LoveLive! Kosaka 高坂穂乃果 Eli 絢瀬絵里 南ことり 園田海未 星空凛 西木野真姫 Tojo 東條希 小泉花陽 Nico 矢澤にこ Nitta Emi 新田恵海 Nanjo Nanjou Nanjō Yoshino 南條愛乃 Uchida Aya 内田彩 Mimori Suzuko 三森すずこ Iida Riho 飯田里穂 Pile Hori Eriko 堀絵梨子 Kusuda Aina 楠田亜衣奈 Kubo Yurika 久保ユリカ Tokui Sora 徳井青空 2nd Single シングル full ver. version
BeatmapID:1872328
BeatmapSetID:893614

[Difficulty]
HPDrainRate:3
CircleSize:2.8
OverallDifficulty:2.5
ApproachRate:3.5
SliderMultiplier:0.999999999999999
SliderTickRate:1

[Events]
//Background and Video events
0,0,"bg.jpg",0,0
//Break Periods
2,98151,107670
2,170290,190907
//Storyboard Layer 0 (Background)
//Storyboard Layer 1 (Fail)
//Storyboard Layer 2 (Pass)
//Storyboard Layer 3 (Foreground)
//Storyboard Sound Samples

[TimingPoints]
842,346.820809248555,4,2,3,40,1,0
2229,-100,4,2,10,30,0,0
2402,-100,4,2,17,30,0,0
2575,-100,4,2,29,30,0,0
2749,-100,4,2,26,30,0,0
2922,-100,4,2,36,30,0,0
3269,-100,4,2,33,30,0,0
3442,-100,4,2,34,30,0,0
3616,-100,4,2,14,30,0,0
3789,-100,4,2,22,30,0,0
3963,-100,4,2,24,30,0,0
4136,-100,4,2,29,30,0,0
4310,-100,4,2,29,5,0,0
4483,-100,4,2,34,30,0,0
4656,-100,4,2,33,30,0,0
4830,-100,4,2,34,30,0,0
5003,-100,4,2,33,30,0,0
5350,-100,4,2,31,30,0,0
5523,-100,4,2,29,30,0,0
6390,-100,4,2,17,30,0,0
6564,-100,4,2,12,30,0,0
6737,-100,4,2,17,30,0,0
6911,-100,4,2,19,30,0,0
7084,-100,4,2,36,30,0,0
7431,-100,4,2,14,5,0,0
7778,-100,4,2,34,30,0,0
7951,-100,4,2,14,30,0,0
8124,-100,4,2,21,30,0,0
8298,-100,4,2,22,30,0,0
8645,-100,4,2,34,30,0,0
8818,-100,4,2,33,30,0,0
8992,-100,4,2,34,30,0,0
9165,-100,4,2,41,30,0,0
9338,-100,4,2,12,30,0,0
9512,-100,4,2,34,30,0,0
9685,-100,4,2,21,30,0,0
10032,-100,4,2,29,30,0,0
10552,-100,4,2,31,30,0,0
10726,-100,4,2,10,30,0,0
10899,-100,4,2,14,5,0,0
11072,-100,4,2,38,30,0,0
11419,-100,4,2,34,30,0,0
11593,-100,4,2,31,30,0,0
11766,-100,4,2,26,30,0,0
11939,-100,4,2,22,40,0,0
13327,-100,4,2,41,40,0,0
14541,-100,4,2,1,80,0,0
14714,-100,4,2,3,40,0,0
24425,-100,4,2,1,60,0,0
25813,-100,4,2,1,65,0,0
36911,-100,4,2,1,60,0,0
53558,-100,4,2,1,80,0,1
75755,-100,4,2,1,70,0,0
86853,-100,4,2,1,80,0,0
97951,-100,4,2,1,60,0,0
109050,-100,4,2,1,70,0,0
120148,-100,4,2,1,60,0,0
136795,-100,4,2,1,80,0,1
158992,-100,4,2,1,70,0,0
170090,-100,4,2,1,40,0,0
192287,-100,4,2,1,60,0,0
203385,-100,4,2,1,90,0,1
214483,-100,4,2,1,80,0,0
222807,-100,4,2,1,80,0,0
233905,-100,4,2,1,80,0,1
245350,-100,4,2,1,50,0,0
248125,-100,4,2,1,40,0,0
250206,-100,4,2,1,30,0,0
251940,-100,4,2,1,20,0,0
253674,-100,4,2,1,10,0,0

[Colours]
Combo1 : 252,210,173
Combo2 : 222,87,84
Combo3 : 218,200,129
Combo4 : 203,177,250

[HitObjects]
0,271,2229,6,0,B|106:239|82:327|211:278,1,200,2|2,0:0|0:0,0:0:0:0:
322,159,3616,2,0,P|364:72|336:13,2,150,2|2|2,0:0|0:0|0:0,0:0:0:0:
255,219,5003,2,0,P|240:290|280:351,1,150,10|2,0:0|0:0,0:0:0:0:
473,235,6391,1,10,0:0:0:0:
467,55,7084,1,10,0:0:0:0:
316,154,7778,6,0,L|130:172,2,150,14|2|2,0:0|0:0|0:0,0:0:0:0:
393,199,9165,2,0,P|408:284|344:349,1,150,14|2,0:0|0:0,0:0:0:0:
291,368,10032,1,2,0:0:0:0:
208,260,10552,6,0,P|129:238|30:299,2,200,14|2|14,0:0|0:0|0:0,0:0:0:0:
393,199,13327,1,10,0:0:0:0:
64,110,14714,6,0,P|101:136|245:93,1,200,2|0,0:0|0:0,0:0:0:0:
403,25,16102,2,0,B|387:86|387:86|438:219,1,200,0|2,0:0|0:0,0:0:0:0:
316,348,17489,2,0,B|233:323|242:371|161:351,1,150,2|2,0:0|0:0,0:0:0:0:
21,233,19050,2,0,P|66:219|99:115,1,150,2|2,0:0|0:0,0:0:0:0:
166,65,19917,1,2,0:0:0:0:
233,5,20263,6,0,P|263:77|269:206,1,200,2|0,0:0|0:0,0:0:0:0:
206,352,21651,2,0,P|282:362|362:306,1,150,2|2,0:0|0:0,0:0:0:0:
400,258,22518,1,2,0:0:0:0:
459,136,23038,2,0,P|409:144|303:50,1,200,2|0,0:0|3:0,0:0:0:0:
124,35,24425,2,0,L|147:238,1,200,4|4,1:1|1:1,0:0:0:0:
191,312,25466,1,8,0:0:0:0:
126,374,25813,6,0,P|214:340|319:358,1,200,4|4,0:0|3:0,0:0:0:0:
476,281,27200,2,0,P|444:239|484:104,1,200,4|6,3:0|3:0,0:0:0:0:
462,19,28240,1,10,0:0:0:0:
372,8,28587,2,0,L|168:34,1,200,6|6,3:0|3:0,0:0:0:0:
15,119,29974,2,0,P|48:177|13:304,1,200,4|4,3:0|3:0,0:0:0:0:
91,350,31015,1,8,0:0:0:0:
175,381,31362,6,0,L|381:363,1,200,4|4,0:0|3:0,0:0:0:0:
443,197,32749,2,0,L|243:179,1,200,4|4,3:0|3:0,0:0:0:0:
162,218,33789,1,8,0:0:0:0:
81,177,34136,2,0,P|79:124|186:5,1,200,6|8,3:0|0:0,0:0:0:0:
329,86,35524,2,0,L|439:79,1,99.9999999999999,10|8,0:0|0:0,0:0:0:0:
495,140,36217,2,0,P|485:188|504:249,1,99.9999999999999,8|4,0:0|3:0,0:0:0:0:
500,326,36911,6,0,B|388:304|423:385|293:350,1,200,4|10,0:0|0:0,0:0:0:0:
129,330,38298,2,0,P|124:268|217:169,1,200,2|8,0:0|0:0,0:0:0:0:
357,65,39685,2,0,L|152:38,1,200,4|10,0:0|0:0,0:0:0:0:
24,159,41073,2,0,P|66:202|99:338,1,200,2|10,0:0|0:0,0:0:0:0:
279,341,42460,6,0,L|412:328,1,99.9999999999999,6|10,0:0|0:0,0:0:0:0:
462,297,43154,2,0,P|486:241|476:194,1,99.9999999999999,6|10,3:0|0:0,0:0:0:0:
440,123,43847,2,0,L|231:112,1,200,6|0,3:0|0:0,0:0:0:0:
156,146,44888,1,10,0:0:0:0:
109,222,45235,6,0,P|100:265|119:334,1,99.9999999999999,4|10,0:0|0:0,0:0:0:0:
196,347,45928,2,0,L|299:331,1,99.9999999999999,6|10,3:0|0:0,0:0:0:0:
381,305,46622,2,0,P|421:215|384:107,1,200,6|0,3:0|0:0,0:0:0:0:
347,44,47662,1,8,0:0:0:0:
266,84,48009,6,0,L|158:69,1,99.9999999999999,4|10,0:0|0:0,0:0:0:0:
77,61,48703,2,0,P|52:115|53:171,1,99.9999999999999,6|10,3:0|0:0,0:0:0:0:
94,233,49396,2,0,L|83:348,2,99.9999999999999,6|8|2,3:0|0:0|0:0,0:0:0:0:
161,173,50437,1,8,0:0:0:0:
244,206,50784,6,0,L|354:185,1,99.9999999999999,10|10,0:0|0:0,0:0:0:0:
423,226,51477,2,0,P|428:292|411:334,1,99.9999999999999,10|10,0:0|0:0,0:0:0:0:
329,343,52171,2,0,L|269:349,1,50,4|12,0:0|0:0,0:0:0:0:
440,70,53558,6,0,P|399:91|238:52,1,200,4|6,0:0|3:0,0:0:0:0:
178,15,54599,1,10,0:0:0:0:
117,81,54946,2,0,P|98:136|106:181,1,99.9999999999999,4|10,3:0|0:0,0:0:0:0:
161,245,55639,2,0,L|283:230,1,99.9999999999999,2|10,0:0|0:0,0:0:0:0:
344,201,56333,6,0,P|375:152|290:28,1,200,6|0,3:0|0:0,0:0:0:0:
231,12,57373,1,8,0:0:0:0:
151,53,57720,2,0,P|120:102|128:164,1,99.9999999999999,6|8,3:0|0:0,0:0:0:0:
178,211,58414,2,0,L|286:197,1,99.9999999999999,2|8,0:0|0:0,0:0:0:0:
367,193,59107,6,0,P|391:280|303:378,1,200,4|6,0:0|3:0,0:0:0:0:
259,313,60148,1,10,0:0:0:0:
180,357,60495,2,0,P|114:362|34:242,1,200,4|0,3:0|0:0,0:0:0:0:
99,208,61535,1,10,0:0:0:0:
52,131,61882,6,0,L|272:106,1,200,6|6,0:0|3:0,0:0:0:0:
340,101,62922,1,8,0:0:0:0:
340,101,63269,1,4,0:0:0:0:
177,23,63963,1,4,0:0:0:0:
171,198,64657,6,0,P|272:211|390:253,1,200,4|6,0:0|3:0,0:0:0:0:
419,312,65697,1,10,0:0:0:0:
491,258,66044,2,0,L|495:155,1,99.9999999999999,4|10,3:0|0:0,0:0:0:0:
442,84,66737,2,0,P|359:69|317:82,1,99.9999999999999,2|10,0:0|0:0,0:0:0:0:
290,144,67431,6,0,P|144:170|70:147,1,200,6|0,3:0|0:0,0:0:0:0:
29,97,68472,1,8,0:0:0:0:
5,183,68818,2,0,L|19:290,1,99.9999999999999,6|10,3:0|0:0,0:0:0:0:
77,349,69512,2,0,P|115:336|188:340,1,99.9999999999999,2|10,0:0|0:0,0:0:0:0:
263,350,70206,6,0,L|227:145,1,200,4|6,0:0|3:0,0:0:0:0:
170,83,71246,1,10,0:0:0:0:
247,37,71593,2,0,P|316:32|429:126,1,200,6|0,3:0|0:0,0:0:0:0:
441,192,72633,1,10,0:0:0:0:
368,245,72980,6,0,B|274:218|285:283|167:251,1,200,4|6,0:0|3:0,0:0:0:0:
102,194,74021,1,8,0:0:0:0:
161,125,74368,2,0,L|316:107,2,150,4|6|8,0:0|0:0|0:0,0:0:0:0:
72,106,75755,6,0,P|24:150|57:285,1,200,4|8,0:0|0:0,0:0:0:0:
120,318,76795,1,0,0:0:0:0:
204,286,77142,2,0,L|415:269,1,200,2|10,0:0|0:0,0:0:0:0:
452,96,78529,6,0,P|376:157|279:148,1,200,4|8,0:0|0:0,0:0:0:0:
208,92,79570,1,2,0:0:0:0:
208,92,79917,1,2,0:0:0:0:
279,256,80610,1,8,0:0:0:0:
405,127,81304,6,0,L|396:342,2,200,4|8|4,0:0|0:0|3:0,0:0:0:0:
325,84,83038,1,2,0:0:0:0:
258,144,83385,2,0,L|268:248,1,99.9999999999999,8|4,0:0|0:0,0:0:0:0:
276,333,84078,2,0,B|163:356|182:268|72:298,1,200,6|0,0:0|0:0,0:0:0:0:
15,128,85466,2,0,B|128:105|109:193|219:163,1,200,4|4,0:0|0:0,0:0:0:0:
379,123,86853,6,0,P|407:202|394:328,1,200,4|6,0:0|3:0,0:0:0:0:
318,358,87894,1,8,0:0:0:0:
238,316,88240,2,0,L|61:306,1,150,6|6,3:0|3:0,0:0:0:0:
36,182,89281,1,8,0:0:0:0:
36,182,89628,2,0,P|73:147|205:157,1,150,6|2,3:0|0:0,0:0:0:0:
278,215,90668,1,8,0:0:0:0:
278,215,91015,2,0,P|367:256|461:230,1,200,6|6,3:0|3:0,0:0:0:0:
500,149,92055,1,10,0:0:0:0:
462,66,92402,6,0,L|287:38,1,150,4|2,0:0|0:0,0:0:0:0:
182,72,93443,1,8,0:0:0:0:
182,72,93789,2,0,P|202:132|197:259,1,150,6|6,3:0|3:0,0:0:0:0:
159,345,94830,1,8,0:0:0:0:
159,345,95177,2,0,B|264:351|250:292|355:300,1,200,4|8,0:0|0:0,0:0:0:0:
432,139,96564,2,0,B|327:145|341:86|236:94,1,200,8|4,0:0|0:0,0:0:0:0:
184,264,97951,5,2,0:0:0:0:
512,273,109050,6,0,P|438:214|401:114,1,200,4|4,0:0|3:0,0:0:0:0:
260,4,110437,2,0,P|239:52|102:85,1,200,4|6,3:0|3:0,0:0:0:0:
23,120,111477,1,10,0:0:0:0:
29,209,111824,2,0,P|30:269|139:364,1,200,6|6,3:0|3:0,0:0:0:0:
257,239,113211,2,0,P|290:181|418:148,1,200,4|4,3:0|3:0,0:0:0:0:
495,180,114252,1,8,0:0:0:0:
486,271,114599,6,0,P|453:329|325:362,1,200,4|4,0:0|3:0,0:0:0:0:
187,255,115986,2,0,P|220:197|346:173,1,200,4|4,3:0|3:0,0:0:0:0:
332,261,117026,1,8,0:0:0:0:
277,333,117373,2,0,P|232:361|75:328,1,200,6|10,3:0|0:0,0:0:0:0:
20,177,118761,2,0,L|75:93,1,99.9999999999999,10|10,0:0|0:0,0:0:0:0:
137,28,119454,2,0,P|178:52|238:57,1,99.9999999999999,8|4,0:0|3:0,0:0:0:0:
305,106,120148,6,0,B|417:128|382:47|512:82,1,200,4|10,0:0|0:0,0:0:0:0:
491,258,121535,2,0,P|427:268|314:194,1,200,2|8,0:0|0:0,0:0:0:0:
238,361,122922,2,0,L|39:334,1,200,4|10,0:0|0:0,0:0:0:0:
172,211,124310,2,0,L|370:184,1,200,2|10,0:0|0:0,0:0:0:0:
434,120,125350,1,10,0:0:0:0:
361,67,125697,6,0,L|262:80,1,99.9999999999999,6|10,0:0|0:0,0:0:0:0:
178,114,126391,2,0,P|154:170|164:217,1,99.9999999999999,6|10,3:0|0:0,0:0:0:0:
213,279,127084,2,0,L|422:290,1,200,6|0,0:0|0:0,0:0:0:0:
476,226,128125,1,8,0:0:0:0:
413,160,128472,6,0,P|388:102|395:58,1,99.9999999999999,4|10,0:0|0:0,0:0:0:0:
314,21,129165,2,0,L|203:33,1,99.9999999999999,6|10,3:0|0:0,0:0:0:0:
133,72,129859,2,0,P|108:145|158:266,1,200,6|0,3:0|0:0,0:0:0:0:
232,225,130899,1,10,0:0:0:0:
295,289,131246,6,0,L|406:304,1,99.9999999999999,4|10,0:0|0:0,0:0:0:0:
479,273,131940,2,0,P|498:227|490:179,1,99.9999999999999,6|10,3:0|0:0,0:0:0:0:
411,135,132633,2,0,L|312:150,2,99.9999999999999,8|8|0,0:0|0:0|0:0,0:0:0:0:
473,69,133674,1,8,0:0:0:0:
398,18,134021,6,0,L|299:33,1,99.9999999999999,10|10,0:0|0:0,0:0:0:0:
244,104,134714,2,0,L|145:89,1,99.9999999999999,10|10,0:0|0:0,0:0:0:0:
62,51,135408,2,0,L|12:58,1,50,4|12,0:0|0:0,0:0:0:0:
178,326,136795,6,0,P|219:347|380:308,1,200,4|6,0:0|3:0,0:0:0:0:
439,271,137836,1,10,0:0:0:0:
473,187,138183,2,0,L|463:77,1,99.9999999999999,4|10,3:0|0:0,0:0:0:0:
392,33,138876,2,0,P|332:29|286:56,1,99.9999999999999,2|10,0:0|0:0,0:0:0:0:
236,112,139570,6,0,B|146:138|143:71|31:109,1,200,6|4,3:0|3:0,0:0:0:0:
73,189,140610,1,8,0:0:0:0:
19,261,140957,2,0,P|31:309|61:348,1,99.9999999999999,6|10,3:0|0:0,0:0:0:0:
144,313,141651,2,0,L|252:299,1,99.9999999999999,2|10,0:0|0:0,0:0:0:0:
331,319,142344,6,0,P|366:239|374:126,1,200,4|6,0:0|3:0,0:0:0:0:
305,69,143385,1,10,0:0:0:0:
241,132,143732,2,0,P|161:167|48:175,1,200,4|0,3:0|0:0,0:0:0:0:
54,265,144772,1,10,0:0:0:0:
124,321,145119,6,0,P|239:315|297:225,1,200,4|6,0:0|3:0,0:0:0:0:
331,175,146159,1,8,0:0:0:0:
331,175,146506,1,4,0:0:0:0:
170,93,147200,1,4,0:0:0:0:
33,230,147894,6,0,P|88:253|199:181,1,200,4|6,0:0|3:0,0:0:0:0:
264,123,148934,1,10,0:0:0:0:
335,177,149281,2,0,P|380:201|433:208,2,99.9999999999999,4|10|2,3:0|0:0|0:0,0:0:0:0:
354,88,150321,1,10,0:0:0:0:
280,35,150668,6,0,P|206:41|90:115,1,200,4|4,0:0|3:0,0:0:0:0:
74,191,151709,1,8,0:0:0:0:
128,262,152055,2,0,L|235:276,1,99.9999999999999,6|10,3:0|0:0,0:0:0:0:
295,216,152749,2,0,P|333:203|406:207,1,99.9999999999999,2|10,0:0|0:0,0:0:0:0:
446,275,153443,6,0,L|411:78,1,200,4|6,0:0|3:0,0:0:0:0:
325,49,154483,1,10,0:0:0:0:
267,118,154830,2,0,P|168:125|50:173,1,200,6|0,3:0|0:0,0:0:0:0:
41,243,155870,1,10,0:0:0:0:
96,314,156217,6,0,B|190:341|179:276|297:308,1,200,4|6,0:0|3:0,0:0:0:0:
373,268,157258,1,8,0:0:0:0:
319,195,157605,2,0,L|164:213,2,150,4|6|8,0:0|0:0|0:0,0:0:0:0:
398,152,158992,6,0,P|397:118|246:63,1,200,4|10,0:0|0:0,0:0:0:0:
190,94,160032,1,2,0:0:0:0:
157,178,160379,2,0,P|157:211|309:267,1,200,2|8,0:0|0:0,0:0:0:0:
466,277,161766,6,0,B|496:208|496:208|467:81,1,200,4|10,0:0|0:0,0:0:0:0:
447,0,162807,1,2,0:0:0:0:
447,0,163154,1,2,0:0:0:0:
387,169,163847,1,8,0:0:0:0:
217,107,164541,6,0,L|2:116,2,200,4|10|2,0:0|0:0|0:0,0:0:0:0:
289,160,166275,1,2,0:0:0:0:
236,233,166622,2,0,L|226:337,1,99.9999999999999,8|4,0:0|0:0,0:0:0:0:
312,360,167315,2,0,B|425:383|406:295|516:325,1,200,6|0,0:0|0:0,0:0:0:0:
494,141,168703,2,0,B|381:118|400:206|290:176,1,200,4|4,0:0|0:0,0:0:0:0:
207,28,170090,5,4,0:0:0:0:
47,38,192287,6,0,P|79:74|235:55,2,200,4|2|0,0:0|0:0|0:0,0:0:0:0:
76,215,194368,1,6,3:0:0:0:
0,378,195061,2,0,P|68:337|175:339,1,150,4|4,0:0|0:0,0:0:0:0:
358,367,196448,2,0,L|330:161,1,200,2|6,0:0|3:0,0:0:0:0:
365,85,197489,1,8,0:0:0:0:
309,14,197836,5,4,0:0:0:0:
76,152,199223,1,4,0:0:0:0:
234,350,200610,2,0,L|343:339,1,99.9999999999999,6|8,3:0|0:0,0:0:0:0:
417,308,201304,2,0,B|397:266|397:266|408:197,1,99.9999999999999,8|8,0:0|0:0,0:0:0:0:
463,143,201998,2,0,L|530:133,1,50,4|12,0:0|0:0,0:0:0:0:
397,65,202691,2,0,L|330:55,1,50,4|12,0:0|0:0,0:0:0:0:
222,108,203385,6,0,L|12:125,1,200,4|6,0:0|3:0,0:0:0:0:
59,206,204425,1,8,0:0:0:0:
4,277,204772,2,0,P|0:337|17:378,2,99.9999999999999,4|10|2,3:0|0:0|0:0,0:0:0:0:
93,290,205812,1,10,0:0:0:0:
148,219,206159,6,0,P|222:223|338:296,1,200,6|4,3:0|3:0,0:0:0:0:
386,355,207200,1,8,0:0:0:0:
463,309,207547,2,0,L|477:202,1,99.9999999999999,6|10,3:0|0:0,0:0:0:0:
432,130,208240,2,0,P|382:131|334:117,1,99.9999999999999,2|10,0:0|0:0,0:0:0:0:
274,50,208934,6,0,L|310:255,1,200,4|6,0:0|3:0,0:0:0:0:
330,334,209974,1,10,0:0:0:0:
243,309,210321,2,0,P|165:327|50:246,1,200,4|0,3:0|0:0,0:0:0:0:
31,187,211362,1,10,0:0:0:0:
95,122,211708,6,0,B|189:149|178:84|296:116,1,200,6|6,0:0|3:0,0:0:0:0:
369,158,212749,1,8,0:0:0:0:
351,246,213096,2,0,L|196:264,2,150,6|6|8,0:0|0:0|0:0,0:0:0:0:
380,331,214483,6,0,L|159:356,1,200,4|10,0:0|0:0,0:0:0:0:
116,291,215523,1,2,0:0:0:0:
182,229,215870,2,0,P|220:162|202:35,1,200,2|8,0:0|0:0,0:0:0:0:
304,194,217258,6,0,P|381:209|404:83,1,200,4|10,0:0|0:0,0:0:0:0:
381,33,218298,1,2,0:0:0:0:
381,33,218645,1,6,3:0:0:0:
224,120,219338,1,8,0:0:0:0:
280,290,220032,6,0,L|65:299,1,200,4|10,0:0|0:0,0:0:0:0:
18,232,221073,1,6,3:0:0:0:
63,154,221420,2,0,L|132:148,1,50,12|12,0:0|0:0,0:0:0:0:
337,131,222460,1,8,0:0:0:0:
271,192,222807,6,0,P|237:264|298:357,1,200,4|6,0:0|3:0,0:0:0:0:
380,322,223847,1,8,0:0:0:0:
464,352,224194,2,0,B|489:309|489:309|468:138,1,200,6|2,3:0|0:0,0:0:0:0:
392,114,225235,1,10,0:0:0:0:
322,171,225581,6,0,P|205:191|118:120,1,200,6|6,3:0|3:0,0:0:0:0:
85,79,226622,1,8,0:0:0:0:
35,154,226969,2,0,P|16:207|38:277,1,99.9999999999999,6|8,3:0|0:0,0:0:0:0:
73,323,227662,2,0,L|195:307,1,99.9999999999999,2|8,0:0|0:0,0:0:0:0:
250,265,228356,6,0,L|435:289,1,150,4|2,0:0|0:0,0:0:0:0:
463,164,229396,1,10,0:0:0:0:
463,164,229743,2,0,P|377:111|306:129,1,150,6|6,3:0|3:0,0:0:0:0:
203,159,230784,1,8,0:0:0:0:
203,159,231131,6,0,L|85:173,2,99.9999999999999,4|8|6,0:0|0:0|3:0,0:0:0:0:
287,193,232171,1,8,0:0:0:0:
368,232,232518,2,0,L|378:336,2,99.9999999999999,2|8|2,0:0|0:0|0:0,0:0:0:0:
416,155,233558,1,8,0:0:0:0:
345,98,233905,6,0,L|228:103,1,99.9999999999999,4|10,0:0|0:0,0:0:0:0:
167,146,234599,1,10,0:0:0:0:
103,315,235292,2,0,L|220:320,1,99.9999999999999,10|10,0:0|0:0,0:0:0:0:
279,369,235986,1,10,0:0:0:0:
436,280,236680,2,0,P|424:230|433:177,1,99.9999999999999,10|10,0:0|0:0,0:0:0:0:
482,109,237373,1,10,0:0:0:0:
319,31,238067,2,0,L|213:25,2,99.9999999999999,10|10|10,0:0|0:0|0:0,0:0:0:0:
376,100,239107,1,10,0:0:0:0:
327,175,239454,6,0,L|317:283,1,99.9999999999999,4|10,0:0|0:0,0:0:0:0:
233,305,240148,1,10,0:0:0:0:
147,146,240842,2,0,L|39:156,1,99.9999999999999,10|10,0:0|0:0,0:0:0:0:
28,241,241535,1,10,0:0:0:0:
180,336,242229,2,0,P|225:346|279:334,1,99.9999999999999,10|10,0:0|0:0,0:0:0:0:
343,275,242922,2,0,P|353:230|341:176,1,99.9999999999999,10|10,0:0|0:0,0:0:0:0:
283,110,243616,6,0,L|230:112,1,50,10|4,0:0|0:0,0:0:0:0:
156,224,244310,2,0,L|165:168,1,50,10|12,0:0|0:0,0:0:0:0:
370,86,245350,5,2,0:0:0:0:
256,192,245437,12,0,254714,0:0:0:0:
