osu file format v14

[General]
AudioFilename: audio.mp3
AudioLeadIn: 0
PreviewTime: 136709
Countdown: 0
SampleSet: Soft
StackLeniency: 0.7
Mode: 0
LetterboxInBreaks: 0
WidescreenStoryboard: 1

[Editor]
DistanceSpacing: 1.4
BeatDivisor: 2
GridSize: 4
TimelineZoom: 2.100001

[Metadata]
Title:Snow halation
TitleUnicode:Snow halation
Artist:u's
ArtistUnicode:μ's
Creator:SkyFlame
Version:Hard
Source:ラブライブ! School idol project
Tags:christmas muse nyantiaz glaceon asuka_- love live japanese anime kousaka honoka ayase eri minami kotori sonoda umi hoshizora rin nishikino maki toujou nozomi koizumi hanayo yazawa niko sunrise best album collection ラブライブ LoveLive! Kosaka 高坂穂乃果 Eli 絢瀬絵里 南ことり 園田海未 星空凛 西木野真姫 Tojo 東條希 小泉花陽 Nico 矢澤にこ Nitta Emi 新田恵海 Nanjo Nanjou Nanjō Yoshino 南條愛乃 Uchida Aya 内田彩 Mimori Suzuko 三森すずこ Iida Riho 飯田里穂 Pile Hori Eriko 堀絵梨子 Kusuda Aina 楠田亜衣奈 Kubo Yurika 久保ユリカ Tokui Sora 徳井青空 2nd Single シングル full ver. version
BeatmapID:1874453
BeatmapSetID:893614

[Difficulty]
HPDrainRate:5
CircleSize:4
OverallDifficulty:6
ApproachRate:7
SliderMultiplier:1.3
SliderTickRate:1

[Events]
//Background and Video events
0,0,"bg.jpg",0,0
//Break Periods
2,98151,106762
2,174452,180288
//Storyboard Layer 0 (Background)
//Storyboard Layer 1 (Fail)
//Storyboard Layer 2 (Pass)
//Storyboard Layer 3 (Foreground)
//Storyboard Sound Samples

[TimingPoints]
842,346.820809248555,4,2,3,40,1,0
2229,-117.647058823529,4,2,10,30,0,0
2402,-117.647058823529,4,2,17,30,0,0
2575,-117.647058823529,4,2,29,30,0,0
2749,-117.647058823529,4,2,26,30,0,0
2922,-117.647058823529,4,2,36,30,0,0
3269,-117.647058823529,4,2,33,30,0,0
3442,-117.647058823529,4,2,34,30,0,0
3616,-117.647058823529,4,2,14,30,0,0
3789,-117.647058823529,4,2,22,30,0,0
3963,-117.647058823529,4,2,24,30,0,0
4136,-117.647058823529,4,2,29,30,0,0
4310,-117.647058823529,4,2,29,5,0,0
4483,-117.647058823529,4,2,34,30,0,0
4656,-117.647058823529,4,2,33,30,0,0
4830,-117.647058823529,4,2,34,30,0,0
5003,-117.647058823529,4,2,33,30,0,0
5350,-117.647058823529,4,2,31,30,0,0
5523,-117.647058823529,4,2,29,30,0,0
6390,-117.647058823529,4,2,17,30,0,0
6564,-117.647058823529,4,2,12,30,0,0
6737,-117.647058823529,4,2,17,30,0,0
6911,-117.647058823529,4,2,19,30,0,0
7084,-117.647058823529,4,2,36,30,0,0
7431,-117.647058823529,4,2,14,5,0,0
7778,-117.647058823529,4,2,34,30,0,0
7951,-117.647058823529,4,2,14,30,0,0
8124,-117.647058823529,4,2,21,30,0,0
8298,-117.647058823529,4,2,22,30,0,0
8645,-117.647058823529,4,2,34,30,0,0
8818,-117.647058823529,4,2,33,30,0,0
8992,-117.647058823529,4,2,34,30,0,0
9165,-117.647058823529,4,2,41,30,0,0
9338,-117.647058823529,4,2,12,30,0,0
9512,-117.647058823529,4,2,34,30,0,0
9685,-117.647058823529,4,2,21,30,0,0
9859,-117.647058823529,4,2,21,5,0,0
10032,-117.647058823529,4,2,29,30,0,0
10379,-117.647058823529,4,2,29,5,0,0
10552,-117.647058823529,4,2,31,30,0,0
10726,-117.647058823529,4,2,10,30,0,0
10899,-117.647058823529,4,2,14,5,0,0
11072,-117.647058823529,4,2,38,30,0,0
11419,-117.647058823529,4,2,34,30,0,0
11593,-117.647058823529,4,2,31,30,0,0
11766,-117.647058823529,4,2,26,30,0,0
11939,-117.647058823529,4,2,22,40,0,0
13327,-117.647058823529,4,2,41,40,0,0
14541,-117.647058823529,4,2,22,60,0,0
14714,-117.647058823529,4,2,3,75,0,0
14888,-117.647058823529,4,2,1,40,0,0
20263,-117.647058823529,4,2,3,75,0,0
20437,-117.647058823529,4,2,1,40,0,0
23732,-117.647058823529,4,2,1,40,0,0
23818,-117.647058823529,4,2,1,40,0,0
24425,-100,4,2,1,60,0,0
25813,-100,4,2,1,65,0,0
36911,-117.647058823529,4,2,1,60,0,0
39339,-117.647058823529,4,2,1,50,0,0
39512,-117.647058823529,4,2,1,60,0,0
42460,-100,4,2,1,60,0,0
42547,-100,4,2,1,70,0,0
53558,-90.9090909090909,4,2,1,80,0,1
63269,-90.9090909090909,4,2,1,80,0,0
64657,-90.9090909090909,4,2,1,80,0,1
75755,-117.647058823529,4,2,1,80,0,0
76102,-117.647058823529,4,2,1,70,0,0
84078,-117.647058823529,4,2,1,40,0,0
85466,-117.647058823529,4,2,1,60,0,0
86159,-100,4,2,1,70,0,0
97951,-117.647058823529,4,2,3,80,0,0
98038,-117.647058823529,4,2,1,60,0,0
103500,-117.647058823529,4,2,3,80,0,0
103587,-117.647058823529,4,2,1,60,0,0
107662,-117.647058823529,4,2,1,30,0,0
109050,-100,4,2,1,70,0,0
118761,-100,4,2,1,80,0,0
119801,-100,4,2,1,70,0,0
120148,-117.647058823529,4,2,1,60,0,0
125697,-100,4,2,1,60,0,0
125870,-100,4,2,1,70,0,0
136795,-90.9090909090909,4,2,1,80,0,1
146506,-90.9090909090909,4,2,1,80,0,0
147894,-90.9090909090909,4,2,1,80,0,1
158992,-117.647058823529,4,2,1,70,0,0
167315,-117.647058823529,4,2,1,40,0,0
168703,-117.647058823529,4,2,1,60,0,0
169396,-100,4,2,1,70,0,0
170090,-117.647058823529,4,2,1,40,0,0
174252,-117.647058823529,4,2,1,20,0,0
181188,-117.647058823529,4,2,1,50,0,0
189512,-117.647058823529,4,2,1,70,0,0
189859,-117.647058823529,4,2,1,60,0,0
190206,-117.647058823529,4,2,1,50,0,0
190552,-117.647058823529,4,2,1,40,0,0
190899,-117.647058823529,4,2,1,30,0,0
191246,-117.647058823529,4,2,1,25,0,0
191593,-117.647058823529,4,2,1,20,0,0
191940,-117.647058823529,4,2,1,15,0,0
192287,-117.647058823529,4,2,1,60,0,0
200610,-117.647058823529,4,2,1,60,0,0
201304,-105.263157894737,4,2,1,60,0,0
201477,-105.263157894737,4,2,1,75,0,0
201998,-100,4,2,1,75,0,0
203385,-90.9090909090909,4,2,1,90,0,1
214483,-117.647058823529,4,2,1,80,0,0
221420,-100,4,2,1,80,0,0
221766,-100,4,2,1,80,0,0
222807,-100,4,2,1,80,0,0
233905,-90.9090909090909,4,2,1,80,0,1
244657,-100,4,2,1,60,0,0
245350,-100,4,2,1,50,0,0
248125,-100,4,2,1,40,0,0
250206,-100,4,2,1,30,0,0
251940,-100,4,2,1,20,0,0
253674,-100,4,2,1,10,0,0

[Colours]
Combo1 : 252,210,173
Combo2 : 222,87,84
Combo3 : 218,200,129
Combo4 : 203,177,250

[HitObjects]
47,370,2229,6,0,L|38:304,1,55.2500010538101,2|2,0:0|0:0,0:0:0:0:
78,248,2576,2,0,P|108:242|137:247,1,55.2500010538101,10|2,0:0|0:0,0:0:0:0:
196,288,2922,2,0,P|244:303|301:287,1,110.50000210762,2|2,0:0|0:0,0:0:0:0:
353,229,3443,1,2,0:0:0:0:
406,284,3616,6,0,L|402:339,2,55.2500010538101,2|2|2,0:0|0:0|0:0,0:0:0:0:
362,220,4136,2,0,L|351:109,1,110.50000210762,2|2,0:0|0:0,0:0:0:0:
275,95,4657,2,0,L|280:150,1,55.2500010538101,2|2,0:0|0:0,0:0:0:0:
252,222,5003,6,0,P|220:224|144:187,1,110.50000210762,10|2,0:0|0:0,0:0:0:0:
122,119,5524,1,2,0:0:0:0:
122,119,6391,6,0,P|128:88|130:55,2,55.2500010538101,10|2|2,0:0|0:0|0:0,0:0:0:0:
53,155,6911,1,2,0:0:0:0:
115,200,7084,2,0,P|143:219|230:202,1,110.50000210762,10|2,0:0|0:0,0:0:0:0:
310,90,7778,6,0,P|308:61|303:30,2,55.2500010538101,14|2|2,0:0|0:0|0:0,0:0:0:0:
277,160,8298,2,0,P|314:137|381:158,1,110.50000210762,2|2,0:0|0:0,0:0:0:0:
332,217,8818,2,0,L|335:274,1,55.2500010538101,2|2,0:0|0:0,0:0:0:0:
389,326,9165,6,0,P|418:353|436:374,2,55.2500010538101,14|2|2,0:0|0:0|0:0,0:0:0:0:
313,343,9685,2,0,P|279:335|246:322,1,55.2500010538101,2|0,0:0|0:0,0:0:0:0:
182,338,10032,2,0,P|218:312|213:236,1,110.50000210762,2|0,0:0|0:0,0:0:0:0:
146,266,10552,6,0,P|95:259|32:254,1,110.50000210762,14|2,0:0|0:0,0:0:0:0:
19,177,11073,1,10,0:0:0:0:
19,177,11246,2,0,P|48:167|81:163,1,55.2500010538101,2|2,0:0|0:0,0:0:0:0:
148,177,11593,2,0,P|177:187|210:191,1,55.2500010538101,2|2,0:0|0:0,0:0:0:0:
275,166,11940,5,14,0:0:0:0:
256,192,12026,12,10,13327,0:0:0:0:
142,88,14714,6,0,P|158:129|161:197,1,110.50000210762,2|0,0:0|0:0,0:0:0:0:
109,253,15235,2,0,P|155:244|226:262,1,110.50000210762,2|0,0:0|0:0,0:0:0:0:
275,307,15755,1,2,0:0:0:0:
339,264,15928,6,0,L|363:138,1,110.50000210762,2|0,0:0|0:0,0:0:0:0:
340,80,16448,2,0,P|310:88|277:91,1,55.2500010538101,2|0,0:0|0:0,0:0:0:0:
214,120,16795,2,0,P|184:112|151:109,1,55.2500010538101,2|0,0:0|0:0,0:0:0:0:
89,141,17142,1,2,0:0:0:0:
89,141,17489,6,0,P|64:190|93:261,1,110.50000210762,2|0,0:0|0:0,0:0:0:0:
147,280,18009,2,0,B|226:248|252:276|290:307|374:285,1,221.000004215241,2|2,0:0|0:0,0:0:0:0:
363,288,19050,6,0,P|362:315|358:342,2,55.2500010538101,2|2|2,0:0|0:0|0:0,0:0:0:0:
332,216,19570,2,0,P|332:188|336:161,1,55.2500010538101,2|0,0:0|0:0,0:0:0:0:
382,98,19917,1,2,0:0:0:0:
382,98,20090,1,2,0:0:0:0:
324,46,20263,6,0,P|293:30|213:48,1,110.50000210762,2|0,0:0|0:0,0:0:0:0:
174,104,20784,2,0,L|180:162,1,55.2500010538101,2|0,0:0|0:0,0:0:0:0:
216,227,21131,2,0,L|199:356,1,110.50000210762,2|2,0:0|0:0,0:0:0:0:
139,383,21651,6,0,P|180:377|259:375,1,110.50000210762,2|0,0:0|0:0,0:0:0:0:
326,383,22171,2,0,P|332:353|335:325,1,55.2500010538101,2|0,0:0|0:0,0:0:0:0:
321,252,22518,2,0,P|308:210|302:129,1,110.50000210762,2|0,0:0|0:0,0:0:0:0:
351,84,23038,6,0,P|303:99|247:73,1,110.50000210762,2|0,0:0|0:0,0:0:0:0:
183,35,23558,1,0,0:0:0:0:
116,174,23905,6,0,L|108:111,2,55.2500010538101,2|2|2,0:0|0:0|0:0,0:0:0:0:
88,261,24425,1,4,1:1:0:0:
88,261,24599,1,4,1:1:0:0:
287,74,25119,5,4,1:1:0:0:
287,74,25292,1,4,1:1:0:0:
362,125,25466,2,0,L|368:170,3,32.5,8|8|8|8,0:0|0:0|0:0|0:0,0:0:0:0:
368,202,25813,6,0,P|306:193|247:238,1,130,4|10,0:0|0:0,0:0:0:0:
201,305,26333,2,0,P|143:293|63:284,1,130,2|0,0:0|0:0,0:0:0:0:
9,219,26853,2,0,P|1:183|0:134,1,65,10|2,0:0|0:0,0:0:0:0:
61,88,27200,6,0,P|106:76|144:78,1,65,4|0,3:0|0:0,0:0:0:0:
207,112,27547,2,0,P|252:124|290:122,1,65,10|0,0:0|0:0,0:0:0:0:
353,88,27894,2,0,P|398:76|436:78,1,65,6|0,3:0|0:0,0:0:0:0:
492,124,28240,1,10,0:0:0:0:
492,124,28414,1,0,0:0:0:0:
421,180,28587,6,0,P|423:215|429:252,1,65,6|0,3:0|0:0,0:0:0:0:
454,331,28934,2,0,P|419:329|382:323,1,65,10|0,0:0|0:0,0:0:0:0:
303,295,29281,2,0,P|268:297|231:303,1,65,6|0,3:0|0:0,0:0:0:0:
170,362,29628,6,0,P|198:303|165:226,1,130,10|4,0:0|3:0,0:0:0:0:
148,157,30148,2,0,L|229:148,1,65,2|8,0:0|0:0,0:0:0:0:
181,243,30495,2,0,L|111:234,1,65,2|4,0:0|3:0,0:0:0:0:
45,186,30842,1,2,0:0:0:0:
15,103,31015,1,8,0:0:0:0:
60,28,31188,1,8,0:0:0:0:
147,11,31362,6,0,P|179:3|211:8,1,65,4|0,0:0|0:0,0:0:0:0:
284,60,31709,1,10,0:0:0:0:
284,60,31882,2,0,L|289:124,1,65,2|4,0:0|3:0,0:0:0:0:
258,210,32229,2,0,L|253:274,1,65,2|8,0:0|0:0,0:0:0:0:
204,351,32576,1,2,0:0:0:0:
294,361,32749,6,0,P|331:353|378:356,1,65,4|0,3:0|0:0,0:0:0:0:
444,381,33096,1,10,0:0:0:0:
444,381,33269,2,0,L|438:309,1,65,2|4,0:0|3:0,0:0:0:0:
371,254,33616,2,0,L|377:175,1,65,2|8,0:0|0:0,0:0:0:0:
404,102,33963,1,2,0:0:0:0:
368,23,34136,6,0,P|331:19|291:30,1,65,6|0,3:0|0:0,0:0:0:0:
248,95,34483,2,0,L|240:170,1,65,8|2,0:0|0:0,0:0:0:0:
196,239,34830,2,0,L|125:244,2,65,8|2|10,0:0|0:0|0:0,0:0:0:0:
262,302,35350,1,2,0:0:0:0:
342,259,35524,2,0,L|340:188,1,65,10|0,0:0|0:0,0:0:0:0:
300,117,35870,1,8,0:0:0:0:
220,79,36044,6,0,L|220:37,2,32.5,4|4|8,3:0|3:0|0:0,0:0:0:0:
141,116,36391,1,8,0:0:0:0:
115,201,36564,2,0,P|103:231|105:264,1,65,4|4,3:0|3:0,0:0:0:0:
149,327,36911,6,0,L|285:316,1,110.50000210762,4|2,0:0|0:0,0:0:0:0:
327,281,37431,1,6,3:0:0:0:
327,281,37605,2,0,L|333:201,1,55.2500010538101,10|0,0:0|0:0,0:0:0:0:
379,165,37951,1,2,0:0:0:0:
379,165,38125,6,0,P|325:148|269:179,1,110.50000210762,10|0,0:0|0:0,0:0:0:0:
228,228,38645,2,0,P|192:231|157:221,1,55.2500010538101,8|2,0:0|0:0,0:0:0:0:
115,176,38992,2,0,P|84:172|55:177,1,55.2500010538101,8|4,0:0|3:0,0:0:0:0:
3,228,39339,2,0,L|10:299,1,55.2500010538101,12|0,0:0|0:0,0:0:0:0:
56,343,39685,6,0,L|179:356,1,110.50000210762,4|2,0:0|0:0,0:0:0:0:
240,377,40206,1,4,3:0:0:0:
240,377,40379,2,0,P|248:344|247:306,1,55.2500010538101,10|0,0:0|0:0,0:0:0:0:
182,281,40726,1,2,0:0:0:0:
182,281,40899,6,0,P|175:253|176:209,1,55.2500010538101,10|2,0:0|0:0,0:0:0:0:
195,153,41246,2,0,P|202:125|201:81,1,55.2500010538101,10|6,0:0|3:0,0:0:0:0:
167,30,41593,2,0,P|136:26|107:14,2,55.2500010538101,2|10|0,3:0|0:0|0:0,0:0:0:0:
244,32,42113,2,0,P|275:28|304:16,1,55.2500010538101,10|0,0:0|0:0,0:0:0:0:
388,11,42460,6,0,L|381:96,1,65,6|0,0:0|0:0,0:0:0:0:
351,154,42807,2,0,P|316:146|270:156,1,65,10|0,0:0|0:0,0:0:0:0:
220,201,43154,2,0,P|185:209|139:199,1,65,6|4,3:0|3:0,0:0:0:0:
85,159,43500,1,10,0:0:0:0:
85,159,43674,1,0,0:0:0:0:
20,213,43847,6,0,P|10:249|20:291,1,65,6|0,3:0|0:0,0:0:0:0:
65,343,44194,1,8,0:0:0:0:
65,343,44368,2,0,B|215:352,1,130,6|4,3:0|3:0,0:0:0:0:
272,316,44888,2,0,P|280:285|276:251,1,65,10|0,0:0|0:0,0:0:0:0:
243,174,45235,6,0,L|322:167,1,65,4|0,0:0|0:0,0:0:0:0:
383,129,45581,2,0,L|447:134,1,65,10|0,0:0|0:0,0:0:0:0:
494,205,45928,2,0,P|499:239|490:277,1,65,6|4,3:0|3:0,0:0:0:0:
455,344,46275,1,10,0:0:0:0:
455,344,46448,1,0,0:0:0:0:
376,312,46622,6,0,L|296:318,1,65,6|0,3:0|0:0,0:0:0:0:
243,266,46969,1,10,0:0:0:0:
243,266,47142,2,0,P|219:205|244:127,1,130,6|4,3:0|3:0,0:0:0:0:
294,85,47662,2,0,L|358:92,1,65,8|0,0:0|0:0,0:0:0:0:
426,143,48009,6,0,L|435:219,1,65,4|0,0:0|0:0,0:0:0:0:
374,269,48356,2,0,P|335:280|300:272,1,65,10|0,0:0|0:0,0:0:0:0:
252,216,48703,2,0,P|213:205|178:213,1,65,6|4,3:0|3:0,0:0:0:0:
145,282,49050,1,10,0:0:0:0:
145,282,49223,6,0,L|58:276,1,65,2|6,0:0|3:0,0:0:0:0:
2,311,49570,2,0,P|-3:277|7:244,1,65,2|8,0:0|0:0,0:0:0:0:
54,178,49917,2,0,L|50:99,1,65,6|2,3:0|0:0,0:0:0:0:
0,42,50263,1,6,3:0:0:0:
66,93,50437,1,8,0:0:0:0:
124,31,50610,1,8,0:0:0:0:
190,82,50784,6,0,P|226:73|279:69,1,65,10|4,0:0|3:0,0:0:0:0:
318,124,51131,2,0,P|352:119|386:111,1,65,10|4,0:0|3:0,0:0:0:0:
464,97,51477,2,0,P|456:132|465:181,1,65,10|10,0:0|0:0,0:0:0:0:
496,236,51824,1,10,0:0:0:0:
496,236,51998,1,4,3:0:0:0:
427,284,52171,5,4,0:0:0:0:
356,237,52344,1,12,0:0:0:0:
356,237,52865,6,0,L|294:227,3,32.5,2|2|4|2,0:0|0:0|3:0|0:0,0:0:0:0:
285,226,53211,2,0,L|223:216,3,32.5,10|8|2|2,0:0|0:0|3:0|3:0,0:0:0:0:
212,206,53558,6,0,P|203:163|214:123,1,71.5000021820069,4|0,0:0|0:0,0:0:0:0:
225,52,53905,2,0,L|296:45,1,71.5000021820069,10|0,0:0|0:0,0:0:0:0:
367,94,54252,2,0,L|466:104,1,71.5000021820069,6|4,3:0|3:0,0:0:0:0:
503,44,54599,1,10,0:0:0:0:
450,111,54772,6,0,B|425:198|458:252,1,143.000004364014,2|0,0:0|0:0,0:0:0:0:
503,322,55292,2,0,P|458:325|413:333,1,71.5000021820069,10|4,0:0|3:0,0:0:0:0:
354,365,55639,2,0,P|309:363|264:354,1,71.5000021820069,2|4,0:0|3:0,0:0:0:0:
205,322,55986,2,0,P|160:324|115:333,1,71.5000021820069,10|0,0:0|0:0,0:0:0:0:
57,368,56333,6,0,L|49:296,1,71.5000021820069,6|0,3:0|0:0,0:0:0:0:
16,217,56680,1,10,0:0:0:0:
87,169,56853,2,0,P|128:164|190:174,1,71.5000021820069,6|0,3:0|0:0,0:0:0:0:
226,217,57200,1,4,3:0:0:0:
299,173,57373,2,0,P|310:129|314:74,1,71.5000021820069,8|0,0:0|0:0,0:0:0:0:
265,31,57720,6,0,P|301:16|335:19,1,71.5000021820069,6|0,3:0|0:0,0:0:0:0:
385,87,58067,1,8,0:0:0:0:
455,37,58240,1,4,3:0:0:0:
398,101,58414,2,0,L|409:196,1,71.5000021820069,2|8,0:0|0:0,0:0:0:0:
457,240,58761,1,8,0:0:0:0:
380,266,58934,1,4,3:0:0:0:
315,210,59107,6,0,L|306:139,1,71.5000021820069,4|0,0:0|0:0,0:0:0:0:
249,75,59454,2,0,P|213:71|179:80,1,71.5000021820069,10|0,0:0|0:0,0:0:0:0:
118,142,59801,2,0,P|109:182|117:223,1,71.5000021820069,6|4,3:0|3:0,0:0:0:0:
160,284,60148,1,10,0:0:0:0:
105,351,60321,6,0,P|176:322|249:357,1,143.000004364014,2|0,0:0|0:0,0:0:0:0:
313,380,60842,2,0,P|323:345|316:308,1,71.5000021820069,8|6,0:0|3:0,0:0:0:0:
275,236,61188,2,0,P|265:201|272:164,1,71.5000021820069,0|4,0:0|3:0,0:0:0:0:
323,98,61535,1,10,0:0:0:0:
266,33,61709,1,2,0:0:0:0:
333,86,61882,6,0,B|495:115,1,143.000004364014,6|8,0:0|0:0,0:0:0:0:
428,184,62402,1,0,0:0:0:0:
466,261,62576,2,0,P|473:304|460:345,2,71.5000021820069,6|8|8,3:0|0:0|0:0,0:0:0:0:
416,190,63096,1,2,0:0:0:0:
347,241,63269,5,4,0:0:0:0:
284,181,63443,1,12,0:0:0:0:
284,181,63963,5,4,0:0:0:0:
224,244,64136,1,12,0:0:0:0:
287,304,64310,2,0,L|283:344,3,35.7500010910034,2|2|6|6,0:0|0:0|3:0|3:0,0:0:0:0:
265,378,64657,6,0,L|176:367,1,71.5000021820069,4|0,0:0|0:0,0:0:0:0:
112,344,65003,2,0,P|99:310|101:275,1,71.5000021820069,10|0,0:0|0:0,0:0:0:0:
135,196,65350,2,0,L|221:186,1,71.5000021820069,6|4,3:0|3:0,0:0:0:0:
274,239,65697,1,10,0:0:0:0:
347,194,65870,6,0,P|365:110|369:25,1,143.000004364014,2|0,0:0|0:0,0:0:0:0:
292,12,66391,2,0,L|200:9,1,71.5000021820069,10|4,0:0|3:0,0:0:0:0:
152,61,66737,2,0,P|147:97|165:146,1,71.5000021820069,2|8,0:0|0:0,0:0:0:0:
203,202,67084,2,0,P|208:238|190:287,1,71.5000021820069,10|0,0:0|0:0,0:0:0:0:
178,355,67431,6,0,P|220:342|267:348,1,71.5000021820069,6|0,3:0|0:0,0:0:0:0:
326,375,67778,1,10,0:0:0:0:
398,329,67951,2,0,P|431:257|391:173,1,143.000004364014,6|4,3:0|3:0,0:0:0:0:
352,138,68472,2,0,L|255:129,1,71.5000021820069,8|0,0:0|0:0,0:0:0:0:
197,113,68818,6,0,P|193:145|203:184,1,71.5000021820069,6|0,3:0|0:0,0:0:0:0:
248,255,69165,2,0,P|252:287|241:326,1,71.5000021820069,10|4,0:0|3:0,0:0:0:0:
160,359,69512,1,2,0:0:0:0:
87,313,69685,1,8,0:0:0:0:
7,346,69859,2,0,L|16:249,1,71.5000021820069,10|4,0:0|3:0,0:0:0:0:
16,188,70206,6,0,P|58:178|102:194,1,71.5000021820069,4|0,0:0|0:0,0:0:0:0:
151,238,70552,2,0,P|193:248|237:232,1,71.5000021820069,10|0,0:0|0:0,0:0:0:0:
274,174,70899,2,0,L|377:164,1,71.5000021820069,6|4,3:0|3:0,0:0:0:0:
421,127,71246,1,10,0:0:0:0:
470,197,71420,6,0,L|486:345,1,143.000004364014,2|0,0:0|0:0,0:0:0:0:
403,313,71940,2,0,L|395:241,2,71.5000021820069,8|6|0,0:0|3:0|0:0,0:0:0:0:
333,363,72460,1,4,3:0:0:0:
256,324,72633,1,10,0:0:0:0:
177,358,72807,1,2,0:0:0:0:
97,326,72980,6,0,P|64:252|109:176,1,143.000004364014,4|8,0:0|0:0,0:0:0:0:
159,155,73500,1,2,0:0:0:0:
227,207,73674,2,0,P|268:216|320:200,2,71.5000021820069,6|4|8,3:0|3:0|0:0,0:0:0:0:
167,144,74194,1,2,0:0:0:0:
226,82,74368,6,0,L|297:75,1,71.5000021820069,4|4,0:0|3:0,0:0:0:0:
378,100,74714,1,10,0:0:0:0:
456,64,74888,2,0,P|465:104|454:154,1,71.5000021820069,6|0,0:0|0:0,0:0:0:0:
409,202,75235,1,6,3:0:0:0:
452,275,75408,1,8,0:0:0:0:
391,335,75581,1,2,3:0:0:0:
391,335,75668,1,2,3:0:0:0:
391,335,75755,6,0,P|334:343|261:348,1,110.50000210762,4|0,0:0|0:0,0:0:0:0:
211,313,76275,1,4,3:0:0:0:
211,313,76448,2,0,L|138:305,1,55.2500010538101,8|0,0:0|0:0,0:0:0:0:
85,275,76795,2,0,L|77:202,1,55.2500010538101,0|4,0:0|3:0,0:0:0:0:
25,163,77142,6,0,P|76:174|130:130,1,110.50000210762,2|0,0:0|0:0,0:0:0:0:
170,82,77662,2,0,L|164:12,2,55.2500010538101,4|10|0,3:0|0:0|0:0,0:0:0:0:
215,145,78183,2,0,L|277:153,1,55.2500010538101,4|0,0:0|0:0,0:0:0:0:
332,197,78529,6,0,L|339:252,1,55.2500010538101,4|0,0:0|0:0,0:0:0:0:
307,323,78876,2,0,P|274:330|236:327,1,55.2500010538101,2|4,0:0|3:0,0:0:0:0:
191,281,79223,2,0,L|180:145,1,110.50000210762,8|2,0:0|0:0,0:0:0:0:
127,115,79743,1,4,3:0:0:0:
127,115,79917,6,0,L|50:127,2,55.2500010538101,2|10|2,0:0|0:0|0:0,0:0:0:0:
196,79,80437,1,6,3:0:0:0:
196,79,80610,2,0,L|251:87,1,55.2500010538101,8|4,0:0|3:0,0:0:0:0:
325,62,80957,2,0,L|404:55,1,55.2500010538101,4|0,0:0|0:0,0:0:0:0:
450,89,81304,6,0,L|455:144,1,55.2500010538101,4|0,0:0|0:0,0:0:0:0:
416,211,81651,2,0,P|385:212|355:220,2,55.2500010538101,2|4|8,0:0|3:0|0:0,0:0:0:0:
494,211,82171,1,2,0:0:0:0:
469,283,82344,1,0,0:0:0:0:
512,348,82518,1,6,3:0:0:0:
436,356,82691,6,0,L|319:373,1,110.50000210762,4|2,3:0|0:0,0:0:0:0:
268,321,83211,1,4,3:0:0:0:
197,351,83385,2,0,P|161:347|129:339,1,55.2500010538101,8|2,0:0|0:0,0:0:0:0:
85,291,83732,2,0,P|69:255|61:223,1,55.2500010538101,4|2,0:0|0:0,0:0:0:0:
78,162,84078,5,6,0:0:0:0:
256,192,84165,12,4,85466,0:0:0:0:
50,96,86159,5,4,0:0:0:0:
84,179,86333,1,12,0:0:0:0:
84,179,86853,6,0,P|80:263|63:325,2,130,4|8|6,0:0|0:0|3:0,0:0:0:0:
141,108,87720,1,4,3:0:0:0:
210,167,87894,2,0,P|242:162|274:156,1,65,8|0,0:0|0:0,0:0:0:0:
339,93,88240,6,0,P|331:181|373:216,1,130,6|8,3:0|0:0,0:0:0:0:
422,269,88761,2,0,P|430:357|388:392,1,130,6|4,3:0|3:0,0:0:0:0:
344,315,89281,2,0,L|275:302,1,65,8|0,0:0|0:0,0:0:0:0:
214,239,89628,6,0,L|62:251,1,130,6|8,3:0|0:0,0:0:0:0:
4,293,90148,2,0,P|49:214|22:169,1,130,2|4,0:0|3:0,0:0:0:0:
3,100,90668,2,0,P|47:84|91:72,1,65,8|0,0:0|0:0,0:0:0:0:
153,99,91015,6,0,L|158:163,1,65,6|0,3:0|0:0,0:0:0:0:
124,248,91362,2,0,L|188:242,1,65,10|6,0:0|3:0,0:0:0:0:
273,277,91709,2,0,L|267:212,1,65,6|10,3:0|0:0,0:0:0:0:
302,128,92055,2,0,L|237:133,1,65,10|4,0:0|3:0,0:0:0:0:
158,163,92402,6,0,P|191:110|161:51,1,130,4|8,0:0|0:0,0:0:0:0:
79,21,92922,2,0,L|214:8,1,130,2|4,0:0|3:0,0:0:0:0:
283,61,93443,2,0,L|375:49,1,65,8|0,0:0|0:0,0:0:0:0:
413,114,93789,6,0,L|425:266,1,130,6|8,3:0|0:0,0:0:0:0:
465,309,94310,2,0,P|426:283|339:305,1,130,6|4,3:0|3:0,0:0:0:0:
278,331,94830,2,0,P|262:287|250:243,1,65,8|0,0:0|0:0,0:0:0:0:
225,190,95177,6,0,P|162:193|101:232,1,130,4|8,0:0|0:0,0:0:0:0:
58,297,95697,1,2,3:0:0:0:
5,222,95870,1,8,0:0:0:0:
61,150,96044,1,4,3:0:0:0:
15,79,96217,2,0,L|84:57,1,65,8|2,0:0|3:0,0:0:0:0:
164,66,96564,5,8,0:0:0:0:
164,66,96737,1,4,0:0:0:0:
328,284,97258,5,4,0:0:0:0:
328,284,97431,1,8,0:0:0:0:
393,96,97951,5,2,0:0:0:0:
256,192,107662,12,0,108703,0:0:0:0:
23,40,109050,6,0,P|85:31|144:76,1,130,4|8,0:0|0:0,0:0:0:0:
175,150,109570,2,0,L|162:283,1,130,2|0,0:0|0:0,0:0:0:0:
138,367,110090,2,0,P|174:359|223:358,1,65,10|2,0:0|0:0,0:0:0:0:
293,349,110437,6,0,P|305:304|303:266,1,65,4|0,3:0|0:0,0:0:0:0:
257,207,110784,2,0,P|261:174|270:143,1,65,10|2,0:0|0:0,0:0:0:0:
276,52,111131,2,0,L|202:66,1,65,6|2,3:0|0:0,0:0:0:0:
123,81,111477,1,10,0:0:0:0:
123,81,111651,1,0,0:0:0:0:
177,153,111824,6,0,P|175:185|171:217,1,65,6|0,3:0|0:0,0:0:0:0:
114,289,112171,2,0,P|79:287|42:281,1,65,10|0,0:0|0:0,0:0:0:0:
10,200,112518,2,0,P|3:165|0:124,1,65,6|0,3:0|0:0,0:0:0:0:
38,52,112865,6,0,P|97:80|178:58,1,130,10|4,0:0|3:0,0:0:0:0:
240,28,113385,2,0,L|321:37,1,65,2|8,0:0|0:0,0:0:0:0:
356,110,113732,2,0,L|286:119,1,65,2|4,0:0|3:0,0:0:0:0:
208,154,114078,1,2,0:0:0:0:
280,209,114252,1,8,0:0:0:0:
203,257,114425,1,8,0:0:0:0:
280,305,114599,6,0,P|312:313|344:308,1,65,4|0,0:0|0:0,0:0:0:0:
427,273,114946,1,10,0:0:0:0:
427,273,115119,2,0,L|422:209,1,65,2|4,0:0|3:0,0:0:0:0:
363,137,115466,2,0,L|368:73,1,65,2|8,0:0|0:0,0:0:0:0:
436,11,115813,1,2,0:0:0:0:
354,50,115986,6,0,P|317:58|270:55,1,65,4|0,3:0|0:0,0:0:0:0:
204,25,116333,1,10,0:0:0:0:
204,25,116506,2,0,L|210:97,1,65,2|4,0:0|3:0,0:0:0:0:
260,165,116853,2,0,L|254:244,1,65,2|8,0:0|0:0,0:0:0:0:
209,308,117200,1,0,0:0:0:0:
127,347,117373,6,0,P|90:351|50:340,1,65,6|0,3:0|0:0,0:0:0:0:
30,260,117720,2,0,L|22:185,1,65,8|2,0:0|0:0,0:0:0:0:
71,118,118067,2,0,L|66:47,2,65,10|2|10,0:0|0:0|0:0,0:0:0:0:
110,200,118587,1,2,0:0:0:0:
172,133,118761,6,0,P|207:137|245:147,1,65,10|0,0:0|0:0,0:0:0:0:
306,201,119107,2,0,P|341:197|379:187,1,65,10|4,0:0|3:0,0:0:0:0:
436,127,119454,1,8,0:0:0:0:
436,127,119628,1,8,0:0:0:0:
462,213,119801,1,4,3:0:0:0:
462,213,119974,1,4,3:0:0:0:
428,283,120148,6,0,P|376:311|309:312,1,110.50000210762,4|2,0:0|0:0,0:0:0:0:
259,274,120668,1,4,3:0:0:0:
259,274,120842,2,0,L|253:194,1,55.2500010538101,10|0,0:0|0:0,0:0:0:0:
208,156,121188,1,2,0:0:0:0:
208,156,121362,6,0,P|266:142|318:170,1,110.50000210762,10|0,0:0|0:0,0:0:0:0:
345,231,121882,2,0,L|338:302,1,55.2500010538101,8|0,0:0|0:0,0:0:0:0:
316,359,122229,2,0,P|347:363|376:358,1,55.2500010538101,8|4,0:0|3:0,0:0:0:0:
443,333,122576,2,0,L|436:262,1,55.2500010538101,12|0,0:0|0:0,0:0:0:0:
416,203,122922,6,0,L|429:80,1,110.50000210762,4|2,0:0|0:0,0:0:0:0:
368,42,123443,1,4,3:0:0:0:
368,42,123616,2,0,L|297:49,1,55.2500010538101,10|0,0:0|0:0,0:0:0:0:
245,85,123963,1,2,0:0:0:0:
245,85,124136,6,0,P|217:78|173:79,1,55.2500010538101,10|2,0:0|0:0,0:0:0:0:
114,93,124483,2,0,P|121:121|120:165,1,55.2500010538101,10|6,0:0|3:0,0:0:0:0:
91,232,124830,2,0,P|60:236|31:248,2,55.2500010538101,6|10|0,3:0|0:0|0:0,0:0:0:0:
167,218,125350,2,0,P|198:222|227:234,1,55.2500010538101,10|0,0:0|0:0,0:0:0:0:
279,300,125697,6,0,L|364:307,1,65,6|0,0:0|0:0,0:0:0:0:
429,336,126044,2,0,P|432:303|424:272,1,65,10|0,0:0|0:0,0:0:0:0:
350,218,126391,2,0,L|345:138,1,65,6|4,3:0|3:0,0:0:0:0:
338,62,126737,1,10,0:0:0:0:
338,62,126911,1,0,0:0:0:0:
263,113,127084,6,0,P|227:123|185:113,1,65,6|0,0:0|0:0,0:0:0:0:
126,65,127431,1,8,0:0:0:0:
56,124,127605,2,0,P|45:192|66:266,1,130,6|4,3:0|3:0,0:0:0:0:
116,321,128125,2,0,L|195:327,1,65,8|0,0:0|0:0,0:0:0:0:
263,363,128472,6,0,L|270:284,1,65,4|0,0:0|0:0,0:0:0:0:
312,219,128818,2,0,L|305:140,1,65,10|0,0:0|0:0,0:0:0:0:
225,112,129165,2,0,P|191:107|153:116,1,65,6|4,3:0|3:0,0:0:0:0:
76,147,129512,1,10,0:0:0:0:
76,147,129685,1,0,0:0:0:0:
122,225,129859,6,0,L|186:220,1,65,6|0,3:0|0:0,0:0:0:0:
258,163,130206,1,10,0:0:0:0:
258,163,130379,2,0,P|234:224|276:295,1,130,6|6,3:0|3:0,0:0:0:0:
326,340,130899,2,0,L|408:350,1,65,10|0,0:0|0:0,0:0:0:0:
461,290,131246,6,0,L|470:214,1,65,4|0,0:0|0:0,0:0:0:0:
435,140,131593,2,0,P|396:129|361:137,1,65,10|0,0:0|0:0,0:0:0:0:
288,168,131940,2,0,P|249:179|214:171,1,65,6|4,3:0|3:0,0:0:0:0:
143,134,132287,1,10,0:0:0:0:
143,134,132460,6,0,L|149:221,1,65,2|8,0:0|0:0,0:0:0:0:
203,271,132807,2,0,P|211:302|205:334,1,65,2|8,0:0|0:0,0:0:0:0:
121,299,133154,2,0,L|42:295,1,65,6|0,3:0|0:0,0:0:0:0:
4,221,133500,1,6,3:0:0:0:
65,153,133674,1,8,0:0:0:0:
7,82,133847,1,8,0:0:0:0:
87,38,134021,6,0,P|123:47|176:51,1,65,10|4,0:0|3:0,0:0:0:0:
239,28,134368,2,0,P|244:62|252:96,1,65,10|4,0:0|3:0,0:0:0:0:
289,174,134714,2,0,P|256:171|225:179,1,65,10|10,0:0|0:0,0:0:0:0:
178,258,135061,1,10,0:0:0:0:
178,258,135235,1,4,3:0:0:0:
107,201,135408,5,4,0:0:0:0:
107,201,135581,1,12,0:0:0:0:
107,201,136102,6,0,L|117:139,3,32.5,2|2|4|2,0:0|0:0|3:0|0:0,0:0:0:0:
120,124,136448,2,0,L|130:62,3,32.5,10|8|14|4,0:0|0:0|3:0|3:0,0:0:0:0:
135,42,136795,6,0,P|178:33|218:44,1,71.5000021820069,4|0,0:0|0:0,0:0:0:0:
278,82,137142,2,0,L|285:153,1,71.5000021820069,10|0,0:0|0:0,0:0:0:0:
236,223,137489,2,0,L|226:322,1,71.5000021820069,6|4,3:0|3:0,0:0:0:0:
283,360,137836,1,10,0:0:0:0:
352,310,138009,6,0,B|501:296,1,143.000004364014,2|0,0:0|0:0,0:0:0:0:
464,216,138529,2,0,L|475:126,1,71.5000021820069,10|4,0:0|3:0,0:0:0:0:
408,87,138876,2,0,P|363:89|318:98,1,71.5000021820069,2|4,0:0|3:0,0:0:0:0:
259,130,139223,2,0,P|214:128|169:119,1,71.5000021820069,10|0,0:0|0:0,0:0:0:0:
111,84,139570,6,0,L|103:156,1,71.5000021820069,6|0,3:0|0:0,0:0:0:0:
70,235,139917,1,10,0:0:0:0:
141,283,140090,2,0,P|182:288|244:278,1,71.5000021820069,2|4,0:0|3:0,0:0:0:0:
280,235,140437,1,4,3:0:0:0:
350,283,140610,2,0,P|391:288|453:278,1,71.5000021820069,8|0,0:0|0:0,0:0:0:0:
496,245,140957,6,0,P|511:209|508:175,1,71.5000021820069,6|0,3:0|0:0,0:0:0:0:
440,125,141304,1,10,0:0:0:0:
490,55,141477,1,4,3:0:0:0:
426,112,141651,2,0,L|331:101,1,71.5000021820069,2|8,0:0|0:0,0:0:0:0:
287,53,141998,2,0,P|282:89|272:123,1,71.5000021820069,10|4,0:0|3:0,0:0:0:0:
201,170,142344,6,0,L|103:158,1,71.5000021820069,4|0,0:0|0:0,0:0:0:0:
51,196,142691,2,0,P|42:237|54:286,1,71.5000021820069,10|0,0:0|0:0,0:0:0:0:
99,333,143038,2,0,P|139:342|180:334,1,71.5000021820069,6|4,3:0|3:0,0:0:0:0:
234,282,143385,1,10,0:0:0:0:
303,332,143558,6,0,P|274:261|309:188,1,143.000004364014,2|0,0:0|0:0,0:0:0:0:
332,124,144078,2,0,P|297:114|260:121,1,71.5000021820069,8|6,0:0|3:0,0:0:0:0:
188,162,144425,2,0,P|153:172|116:165,1,71.5000021820069,0|4,0:0|3:0,0:0:0:0:
47,118,144772,1,10,0:0:0:0:
109,177,144946,1,2,0:0:0:0:
42,230,145119,6,0,P|16:297|40:366,1,143.000004364014,4|8,0:0|0:0,0:0:0:0:
112,321,145639,1,2,0:0:0:0:
172,382,145813,2,0,P|215:389|256:376,1,71.5000021820069,6|4,3:0|3:0,0:0:0:0:
308,329,146159,2,0,P|351:322|392:335,1,71.5000021820069,8|2,0:0|0:0,0:0:0:0:
449,376,146506,5,4,0:0:0:0:
449,376,146680,1,12,0:0:0:0:
300,166,147200,5,4,0:0:0:0:
300,166,147373,1,12,0:0:0:0:
241,102,147547,2,0,L|185:96,3,35.7500010910034,2|2|6|6,0:0|0:0|3:0|3:0,0:0:0:0:
162,98,147894,6,0,P|144:141|149:186,1,71.5000021820069,4|0,0:0|0:0,0:0:0:0:
183,240,148240,2,0,P|201:283|195:328,1,71.5000021820069,10|0,0:0|0:0,0:0:0:0:
139,368,148587,2,0,L|43:357,1,71.5000021820069,6|4,3:0|3:0,0:0:0:0:
26,284,148934,1,10,0:0:0:0:
80,217,149107,6,0,P|102:147|80:68,1,143.000004364014,2|0,0:0|0:0,0:0:0:0:
41,6,149628,2,0,L|112:3,1,71.5000021820069,10|4,0:0|3:0,0:0:0:0:
178,58,149974,2,0,P|214:63|263:45,1,71.5000021820069,2|4,0:0|3:0,0:0:0:0:
319,7,150321,2,0,P|355:2|404:20,1,71.5000021820069,10|0,0:0|0:0,0:0:0:0:
454,66,150668,6,0,P|442:108|411:144,1,71.5000021820069,4|0,0:0|0:0,0:0:0:0:
356,179,151015,1,10,0:0:0:0:
284,132,151188,2,0,P|217:174|204:266,1,143.000004364014,2|4,0:0|3:0,0:0:0:0:
247,304,151709,2,0,L|318:297,1,71.5000021820069,8|0,0:0|0:0,0:0:0:0:
397,328,152055,6,0,P|401:296|391:257,1,71.5000021820069,6|0,3:0|0:0,0:0:0:0:
346,186,152402,2,0,P|342:154|353:115,1,71.5000021820069,10|4,0:0|3:0,0:0:0:0:
434,82,152749,1,2,0:0:0:0:
361,36,152922,1,8,0:0:0:0:
283,72,153096,2,0,L|186:81,1,71.5000021820069,10|4,0:0|3:0,0:0:0:0:
137,34,153443,6,0,P|127:76|143:120,1,71.5000021820069,4|0,0:0|0:0,0:0:0:0:
187,169,153789,2,0,P|197:211|181:255,1,71.5000021820069,10|0,0:0|0:0,0:0:0:0:
123,292,154136,2,0,L|113:395,1,71.5000021820069,6|4,3:0|3:0,0:0:0:0:
196,333,154483,1,10,0:0:0:0:
263,378,154657,6,0,L|408:363,1,143.000004364014,2|0,0:0|0:0,0:0:0:0:
367,285,155177,2,0,L|295:292,2,71.5000021820069,8|6|0,0:0|3:0|0:0,0:0:0:0:
436,234,155697,1,4,3:0:0:0:
382,167,155870,1,10,0:0:0:0:
425,92,156044,1,2,0:0:0:0:
358,38,156217,6,0,P|277:35|223:105,1,143.000004364014,4|8,0:0|0:0,0:0:0:0:
181,142,156737,1,2,0:0:0:0:
122,78,156911,2,0,P|80:82|35:113,1,71.5000021820069,6|4,3:0|3:0,0:0:0:0:
23,175,157258,1,8,0:0:0:0:
23,175,157431,1,2,0:0:0:0:
77,241,157605,6,0,L|84:312,1,71.5000021820069,4|4,0:0|3:0,0:0:0:0:
158,269,157951,1,10,0:0:0:0:
230,314,158125,2,0,P|239:274|228:224,1,71.5000021820069,6|0,0:0|0:0,0:0:0:0:
181,177,158472,1,6,3:0:0:0:
235,109,158645,1,8,0:0:0:0:
180,42,158818,1,2,3:0:0:0:
180,42,158905,1,2,3:0:0:0:
180,42,158992,6,0,P|123:34|50:29,1,110.50000210762,4|2,0:0|0:0,0:0:0:0:
8,83,159512,1,4,3:0:0:0:
8,83,159685,2,0,L|16:156,1,55.2500010538101,10|0,0:0|0:0,0:0:0:0:
58,201,160032,2,0,L|131:193,1,55.2500010538101,2|4,0:0|3:0,0:0:0:0:
169,141,160379,6,0,P|148:189|183:250,1,110.50000210762,2|2,0:0|0:0,0:0:0:0:
228,290,160899,2,0,L|234:360,2,55.2500010538101,6|8|0,3:0|0:0|0:0,0:0:0:0:
267,222,161420,2,0,L|275:160,1,55.2500010538101,4|0,0:0|0:0,0:0:0:0:
298,93,161766,6,0,L|352:86,1,55.2500010538101,4|0,0:0|0:0,0:0:0:0:
404,144,162113,2,0,P|411:177|408:215,1,55.2500010538101,2|6,0:0|3:0,0:0:0:0:
364,261,162460,2,0,L|351:390,1,110.50000210762,10|2,0:0|0:0,0:0:0:0:
282,337,162980,1,6,3:0:0:0:
211,369,163154,6,0,L|136:378,2,55.2500010538101,2|10|2,0:0|0:0|0:0,0:0:0:0:
213,291,163674,1,6,3:0:0:0:
213,291,163847,2,0,L|220:212,1,55.2500010538101,8|4,0:0|3:0,0:0:0:0:
167,169,164194,2,0,P|201:160|246:162,1,55.2500010538101,6|4,0:0|3:0,0:0:0:0:
288,197,164541,6,0,P|298:161|294:124,1,55.2500010538101,4|0,0:0|0:0,0:0:0:0:
245,85,164888,2,0,L|184:76,2,55.2500010538101,2|6|10,0:0|3:0|0:0,0:0:0:0:
320,66,165408,1,2,0:0:0:0:
368,126,165581,6,0,L|425:116,1,55.2500010538101,0|6,0:0|3:0,0:0:0:0:
490,78,165928,2,0,P|502:126|458:189,1,110.50000210762,2|2,0:0|0:0,0:0:0:0:
398,188,166448,2,0,L|385:252,1,55.2500010538101,6|8,3:0|0:0,0:0:0:0:
431,305,166795,2,0,L|425:369,1,55.2500010538101,2|4,0:0|0:0,0:0:0:0:
352,334,167142,1,2,0:0:0:0:
284,371,167315,5,6,0:0:0:0:
256,192,167402,12,4,168703,0:0:0:0:
462,96,169396,5,4,0:0:0:0:
428,179,169570,1,12,0:0:0:0:
244,35,170090,5,4,0:0:0:0:
256,192,170177,12,2,174252,0:0:0:0:
116,152,181188,6,0,L|98:279,1,110.50000210762,2|2,0:0|0:0,0:0:0:0:
148,330,181709,1,2,0:0:0:0:
148,330,181795,1,2,0:0:0:0:
148,330,181882,2,0,P|202:347|259:320,1,110.50000210762,2|2,0:0|0:0,0:0:0:0:
307,267,182402,2,0,L|312:199,1,55.2500010538101,2|0,0:0|0:0,0:0:0:0:
270,139,182749,2,0,L|265:71,1,55.2500010538101,2|2,0:0|0:0,0:0:0:0:
313,15,183096,2,0,P|233:53|155:17,1,165.75000316143,2|0,0:0|0:0,0:0:0:0:
84,44,183789,1,0,0:0:0:0:
35,111,183963,6,0,P|28:161|70:234,1,110.50000210762,2|2,0:0|0:0,0:0:0:0:
109,274,184483,1,2,0:0:0:0:
109,274,184570,1,2,0:0:0:0:
109,274,184657,2,0,L|226:261,1,110.50000210762,2|2,0:0|0:0,0:0:0:0:
279,205,185177,2,0,L|337:198,1,55.2500010538101,2|0,0:0|0:0,0:0:0:0:
400,248,185524,2,0,L|458:241,1,55.2500010538101,2|0,0:0|0:0,0:0:0:0:
505,176,185870,2,0,P|514:109|485:66,1,110.50000210762,2|2,0:0|0:0,0:0:0:0:
418,38,186391,2,0,L|355:32,1,55.2500010538101,2|2,0:0|0:0,0:0:0:0:
296,81,186737,6,0,P|241:80|176:50,2,110.50000210762,2|2|2,0:0|0:0|0:0,0:0:0:0:
363,129,187605,1,0,0:0:0:0:
363,129,187778,2,0,L|371:254,1,110.50000210762,2|2,0:0|0:0,0:0:0:0:
244,348,188472,1,2,0:0:0:0:
244,348,188645,6,0,P|175:358|124:323,1,110.50000210762,2|2,0:0|0:0,0:0:0:0:
101,267,189165,2,0,L|88:190,1,55.2500010538101,2|2,0:0|0:0,0:0:0:0:
78,130,189512,2,0,L|126:123,1,36.8333340358734,2|2,0:0|0:0,0:0:0:0:
256,192,189685,12,0,190899,0:0:0:0:
206,136,192287,5,4,0:0:0:0:
347,196,192633,1,2,0:0:0:0:
219,283,192980,2,0,P|163:295|88:287,1,110.50000210762,2|2,0:0|0:0,0:0:0:0:
46,247,193500,1,2,0:0:0:0:
46,247,194021,6,0,P|30:167|34:119,2,110.50000210762,2|6|2,0:0|3:0|0:0,0:0:0:0:
178,327,195061,2,0,L|291:339,1,110.50000210762,4|2,0:0|0:0,0:0:0:0:
365,346,195581,1,4,0:0:0:0:
365,346,196448,5,2,0:0:0:0:
350,269,196622,2,0,L|342:233,2,27.6250005269051,8|8|8,0:0|0:0|0:0,0:0:0:0:
423,293,196969,1,0,0:0:0:0:
420,215,197142,2,0,P|476:235|500:286,1,110.50000210762,6|8,3:0|0:0,0:0:0:0:
365,346,197836,5,4,0:0:0:0:
365,346,199223,5,4,0:0:0:0:
365,346,200610,6,0,L|359:291,1,55.2500010538101,6|2,3:0|3:0,0:0:0:0:
306,234,200957,2,0,L|311:179,1,55.2500010538101,8|4,0:0|3:0,0:0:0:0:
365,122,201304,2,0,L|358:57,1,61.7499983510972,8|8,0:0|0:0,0:0:0:0:
285,13,201651,2,0,L|206:10,1,61.7499983510972,8|8,0:0|0:0,0:0:0:0:
155,71,201998,1,4,0:0:0:0:
71,34,202171,1,12,0:0:0:0:
71,34,202691,5,4,0:0:0:0:
155,71,202865,1,12,0:0:0:0:
79,122,203038,2,0,L|39:144,3,32.5,10|2|2|2,0:0|0:0|3:0|3:0,0:0:0:0:
15,173,203385,6,0,L|24:268,1,71.5000021820069,4|0,0:0|0:0,0:0:0:0:
79,307,203732,2,0,P|116:319|172:304,1,71.5000021820069,10|0,0:0|0:0,0:0:0:0:
212,258,204078,2,0,P|224:221|209:165,1,71.5000021820069,6|4,3:0|3:0,0:0:0:0:
177,114,204425,1,8,0:0:0:0:
225,42,204599,6,0,P|296:48|365:64,1,143.000004364014,2|0,0:0|0:0,0:0:0:0:
439,109,205119,2,0,P|449:151|452:202,1,71.5000021820069,10|4,0:0|3:0,0:0:0:0:
430,262,205466,2,0,P|388:272|337:275,1,71.5000021820069,2|4,0:0|3:0,0:0:0:0:
291,222,205813,2,0,P|282:187|278:151,1,71.5000021820069,10|0,0:0|0:0,0:0:0:0:
303,70,206159,6,0,P|267:70|233:82,1,71.5000021820069,6|0,3:0|0:0,0:0:0:0:
192,156,206506,1,10,0:0:0:0:
120,108,206680,2,0,P|153:162|104:230,1,143.000004364014,2|0,0:0|0:0,0:0:0:0:
61,290,207200,2,0,L|70:387,1,71.5000021820069,8|0,0:0|0:0,0:0:0:0:
145,324,207547,6,0,P|176:319|221:325,1,71.5000021820069,6|0,3:0|0:0,0:0:0:0:
292,362,207894,2,0,P|323:366|368:361,1,71.5000021820069,10|4,0:0|3:0,0:0:0:0:
427,306,208240,1,2,0:0:0:0:
378,235,208414,1,8,0:0:0:0:
435,171,208587,2,0,L|444:74,1,71.5000021820069,10|4,0:0|3:0,0:0:0:0:
398,25,208934,6,0,P|356:15|312:31,1,71.5000021820069,4|0,0:0|0:0,0:0:0:0:
260,73,209281,2,0,P|225:79|191:69,1,71.5000021820069,10|0,0:0|0:0,0:0:0:0:
108,46,209628,2,0,L|118:149,1,71.5000021820069,6|4,3:0|3:0,0:0:0:0:
79,194,209974,1,10,0:0:0:0:
132,261,210148,6,0,P|206:284|264:230,1,143.000004364014,2|0,0:0|0:0,0:0:0:0:
319,192,210668,2,0,L|401:198,2,71.5000021820069,8|6|0,0:0|3:0|0:0,0:0:0:0:
236,167,211188,1,4,3:0:0:0:
298,107,211362,1,10,0:0:0:0:
229,56,211535,1,2,0:0:0:0:
302,11,211709,6,0,L|461:29,1,143.000004364014,6|8,0:0|0:0,0:0:0:0:
416,108,212229,1,2,0:0:0:0:
459,181,212402,2,0,P|468:222|452:274,2,71.5000021820069,6|4|8,3:0|3:0|0:0,0:0:0:0:
397,120,212922,1,2,0:0:0:0:
327,171,213096,6,0,L|234:161,1,71.5000021820069,6|4,0:0|3:0,0:0:0:0:
193,222,213443,1,10,0:0:0:0:
245,289,213616,2,0,P|254:329|243:379,1,71.5000021820069,6|0,0:0|0:0,0:0:0:0:
168,331,213963,1,6,3:0:0:0:
88,362,214136,1,8,0:0:0:0:
21,321,214310,1,6,3:0:0:0:
21,321,214396,1,6,3:0:0:0:
21,321,214483,6,0,P|13:264|8:191,1,110.50000210762,4|2,0:0|0:0,0:0:0:0:
58,151,215003,1,4,3:0:0:0:
58,151,215177,2,0,L|131:159,1,55.2500010538101,10|0,0:0|0:0,0:0:0:0:
177,202,215524,2,0,L|250:194,1,55.2500010538101,2|4,0:0|3:0,0:0:0:0:
288,143,215870,6,0,P|266:192|300:254,1,110.50000210762,2|2,0:0|0:0,0:0:0:0:
344,294,216391,2,0,L|414:300,2,55.2500010538101,6|8|0,3:0|0:0|0:0,0:0:0:0:
276,332,216911,2,0,L|221:325,1,55.2500010538101,4|0,0:0|0:0,0:0:0:0:
162,274,217258,6,0,L|155:212,1,55.2500010538101,4|0,0:0|0:0,0:0:0:0:
187,148,217605,2,0,P|220:141|258:144,1,55.2500010538101,2|6,0:0|3:0,0:0:0:0:
300,190,217951,2,0,P|362:194|413:173,1,110.50000210762,10|2,0:0|0:0,0:0:0:0:
452,113,218472,1,6,3:0:0:0:
452,113,218645,6,0,L|443:38,1,55.2500010538101,6|10,3:0|0:0,0:0:0:0:
370,39,218992,2,0,P|336:30|291:32,1,55.2500010538101,2|6,0:0|3:0,0:0:0:0:
240,44,219339,2,0,P|206:53|161:51,1,55.2500010538101,8|4,0:0|3:0,0:0:0:0:
133,110,219685,2,0,L|143:178,1,55.2500010538101,4|0,0:0|0:0,0:0:0:0:
204,209,220032,6,0,L|277:215,1,55.2500010538101,4|0,0:0|0:0,0:0:0:0:
323,256,220379,2,0,P|322:287|314:317,2,55.2500010538101,2|6|10,0:0|3:0|0:0,0:0:0:0:
328,178,220899,1,2,0:0:0:0:
279,117,221073,2,0,L|273:71,2,27.6250005269051,6|4|6,3:0|3:0|3:0,0:0:0:0:
263,16,221420,5,12,0:0:0:0:
263,16,221593,1,12,0:0:0:0:
412,279,222287,5,4,3:0:0:0:
389,191,222460,2,0,L|398:127,1,65,8|2,0:0|0:0,0:0:0:0:
470,70,222807,6,0,P|406:39|338:55,1,130,4|8,0:0|0:0,0:0:0:0:
282,109,223327,1,0,0:0:0:0:
282,109,223500,2,0,L|274:192,2,65,6|4|8,3:0|3:0|0:0,0:0:0:0:
219,41,224021,1,0,0:0:0:0:
219,41,224107,1,0,0:0:0:0:
219,41,224194,6,0,P|152:45|91:97,1,130,6|8,3:0|0:0,0:0:0:0:
149,158,224714,1,6,3:0:0:0:
149,158,224888,2,0,P|188:162|231:159,2,65,2|6|10,0:0|3:0|0:0,0:0:0:0:
57,155,225408,1,2,0:0:0:0:
57,155,225581,6,0,P|33:220|59:293,1,130,6|8,3:0|0:0,0:0:0:0:
125,228,226102,1,2,0:0:0:0:
125,228,226275,2,0,L|212:219,1,65,6|4,3:0|3:0,0:0:0:0:
276,248,226622,2,0,L|283:317,1,65,8|0,0:0|0:0,0:0:0:0:
365,274,226969,6,0,L|356:187,1,65,6|0,3:0|0:0,0:0:0:0:
285,155,227315,2,0,L|292:73,2,65,8|4|2,0:0|3:0|0:0,0:0:0:0:
276,248,227836,1,10,0:0:0:0:
189,221,228009,1,8,0:0:0:0:
101,245,228183,1,4,3:0:0:0:
21,201,228356,6,0,P|2:154|32:58,1,130,4|10,0:0|0:0,0:0:0:0:
105,56,228876,1,2,0:0:0:0:
105,56,229050,2,0,L|175:64,1,65,4|0,3:0|0:0,0:0:0:0:
231,130,229396,2,0,L|309:121,1,65,10|0,0:0|0:0,0:0:0:0:
356,54,229743,6,0,P|343:117|399:176,1,130,6|8,3:0|0:0,0:0:0:0:
449,226,230263,1,6,3:0:0:0:
449,226,230437,2,0,P|497:236|544:241,2,65,0|4|8,0:0|3:0|0:0,0:0:0:0:
360,247,230957,1,2,0:0:0:0:
419,316,231131,6,0,P|349:338|291:302,1,130,4|8,0:0|0:0,0:0:0:0:
221,270,231651,1,2,0:0:0:0:
221,270,231824,2,0,P|184:263|143:270,1,65,6|4,3:0|3:0,0:0:0:0:
70,296,232171,2,0,P|33:303|-8:296,1,65,8|0,0:0|0:0,0:0:0:0:
35,213,232518,6,0,L|42:74,1,130,6|8,3:0|0:0,0:0:0:0:
122,40,233038,2,0,L|119:-6,2,32.5,4|0|2,0:0|0:0|0:0,0:0:0:0:
190,100,233385,1,8,0:0:0:0:
263,47,233558,1,8,0:0:0:0:
263,47,233645,1,8,0:0:0:0:
263,47,233732,1,8,0:0:0:0:
327,123,233905,6,0,L|337:215,1,71.5000021820069,4|2,0:0|0:0,0:0:0:0:
342,279,234252,2,0,P|300:266|241:270,1,71.5000021820069,10|2,0:0|0:0,0:0:0:0:
192,297,234599,2,0,L|202:205,1,71.5000021820069,10|4,0:0|3:0,0:0:0:0:
207,141,234946,2,0,P|165:154|106:150,1,71.5000021820069,10|4,0:0|3:0,0:0:0:0:
72,100,235292,6,0,P|30:85|-18:91,2,71.5000021820069,10|2|10,0:0|0:0|0:0,0:0:0:0:
137,155,235813,1,4,3:0:0:0:
208,103,235986,2,0,L|196:16,1,71.5000021820069,10|4,0:0|3:0,0:0:0:0:
281,9,236333,2,0,L|351:19,1,71.5000021820069,10|4,0:0|3:0,0:0:0:0:
419,72,236680,6,0,P|428:109|415:160,1,71.5000021820069,10|2,0:0|0:0,0:0:0:0:
352,190,237026,2,0,P|343:230|353:271,1,71.5000021820069,10|2,0:0|0:0,0:0:0:0:
385,337,237373,2,0,L|288:328,1,71.5000021820069,10|4,0:0|3:0,0:0:0:0:
240,375,237720,2,0,L|143:366,1,71.5000021820069,10|4,0:0|3:0,0:0:0:0:
97,320,238067,6,0,P|88:283|101:232,1,71.5000021820069,10|4,0:0|3:0,0:0:0:0:
164,202,238414,2,0,P|173:162|163:121,1,71.5000021820069,10|4,0:0|3:0,0:0:0:0:
131,55,238761,1,10,0:0:0:0:
131,55,238847,1,8,0:0:0:0:
131,55,238934,1,4,3:0:0:0:
207,15,239107,2,0,L|304:24,1,71.5000021820069,10|4,0:0|3:0,0:0:0:0:
343,77,239454,6,0,L|353:169,1,71.5000021820069,4|2,0:0|0:0,0:0:0:0:
358,233,239801,2,0,P|316:220|257:224,1,71.5000021820069,10|2,0:0|0:0,0:0:0:0:
208,251,240148,2,0,L|218:159,1,71.5000021820069,10|4,0:0|3:0,0:0:0:0:
223,95,240495,2,0,P|181:108|122:104,1,71.5000021820069,10|4,0:0|3:0,0:0:0:0:
76,70,240842,6,0,L|85:-15,2,71.5000021820069,10|2|10,0:0|0:0|0:0,0:0:0:0:
76,156,241362,1,4,3:0:0:0:
124,226,241535,2,0,L|115:322,1,71.5000021820069,10|4,0:0|3:0,0:0:0:0:
70,369,241882,2,0,P|112:377|159:367,1,71.5000021820069,10|4,0:0|3:0,0:0:0:0:
198,310,242229,6,0,L|294:301,1,71.5000021820069,10|2,0:0|0:0,0:0:0:0:
335,358,242576,2,0,L|431:367,1,71.5000021820069,10|4,0:0|3:0,0:0:0:0:
480,321,242922,2,0,P|498:274|485:230,1,71.5000021820069,10|4,0:0|3:0,0:0:0:0:
456,177,243269,2,0,P|438:130|451:86,1,71.5000021820069,10|4,0:0|3:0,0:0:0:0:
448,24,243616,5,10,0:0:0:0:
448,24,243789,1,4,0:0:0:0:
220,145,244310,1,10,0:0:0:0:
232,229,244483,2,0,L|237:264,3,35.7500010910034,12|8|8|8,0:0|0:0|0:0|0:0,0:0:0:0:
245,302,244830,1,8,0:0:0:0:
256,192,245350,12,0,254714,0:0:0:0:
