osu file format v14

[General]
AudioFilename: audio.mp3
AudioLeadIn: 0
PreviewTime: 66734
Countdown: 0
SampleSet: Normal
StackLeniency: 0.7
Mode: 1
LetterboxInBreaks: 0
WidescreenStoryboard: 0

[Editor]
DistanceSpacing: 1
BeatDivisor: 4
GridSize: 32
TimelineZoom: 2.3

[Metadata]
Title:SUNNY DAY SONG
TitleUnicode:SUNNY DAY SONG
Artist:u's
ArtistUnicode:μ's
Creator:Stefan
Version:Oni
Source:ラブライブ! The School Idol Movie
Tags:畑亜貴 倉内達矢 hata aki kurauchi tatsuya love live! project muse nitta emi nanjou yoshino uchida aya iida riho mimori suzuko pile hori eriko kusuda aina kubo yurika tokui sora lacm-14362 japanese anime thenutritiousguy tng
BeatmapID:2260341
BeatmapSetID:1080398

[Difficulty]
HPDrainRate:5
CircleSize:5
OverallDifficulty:5
ApproachRate:5
SliderMultiplier:1.4
SliderTickRate:1

[Events]
//Background and Video events
0,0,"d4p7.jpg",0,65
//Break Periods
//Storyboard Layer 0 (Background)
//Storyboard Layer 1 (Fail)
//Storyboard Layer 2 (Pass)
//Storyboard Layer 3 (Foreground)
//Storyboard Layer 4 (Overlay)
//Storyboard Sound Samples

[TimingPoints]
933,346.820809248555,4,1,0,90,1,0
933,-125,4,1,0,90,0,0
7175,-86.9565217391304,4,1,0,90,0,0
21222,-95.2380952380952,4,1,0,90,0,0
21742,-100,4,1,0,90,0,0
60586,-103.092783505155,4,1,0,90,0,0
60933,-107.52688172043,4,1,0,90,0,0
64748,-100,4,1,0,90,0,0
67522,-90.9090909090909,4,1,0,90,0,1
89719,-90.9090909090909,4,1,0,90,0,0
90586,-100,4,1,0,90,0,0
91800,-86.9565217391304,4,1,0,90,0,0
105326,-95.2380952380952,4,1,0,90,0,0
106366,-101.010101010101,4,1,0,90,0,0
128389,-102.040816326531,4,1,0,90,0,0
128563,-103.092783505155,4,1,0,90,0,0
129083,-107.52688172043,4,1,0,90,0,0
133591,-106.382978723404,4,1,0,90,0,0
133765,-104.166666666667,4,1,0,90,0,0
133938,-102.040816326531,4,1,0,90,0,0
134025,-101.010101010101,4,1,0,90,0,0
134112,-100,4,1,0,90,0,0
142435,-90.9090909090909,4,1,0,90,0,1
164632,-90.9090909090909,4,1,0,90,0,0
165499,-100,4,1,0,90,0,0
190297,-105.263157894737,4,1,0,70,0,0
195672,-108.695652173913,4,1,0,70,0,0
206250,-106.382978723404,4,1,0,70,0,0
207638,-103.092783505155,4,1,0,70,0,0
209025,-99.009900990099,4,1,0,70,0,0
212146,-95.2380952380952,4,1,0,90,0,0
214921,-93.4579439252336,4,1,0,90,0,0
215441,-90.9090909090909,4,1,0,90,0,0
216308,-100,4,1,0,90,0,0
217349,-95.2380952380952,4,1,0,90,0,0
219083,-86.9565217391304,4,1,0,90,0,1
240933,-86.9565217391304,4,1,0,90,0,0
241800,-95.2380952380952,4,1,0,90,0,0
243013,-86.9565217391304,4,1,0,90,0,0
254805,-83.3333333333333,4,1,0,90,0,1
260354,-80,4,1,0,90,0,1
268678,-80,4,1,0,90,0,0

[HitObjects]
303,206,933,5,0,0:0:0:0:
303,206,1279,5,0,0:0:0:0:
303,206,1453,5,8,0:0:0:0:
303,206,2320,5,0,0:0:0:0:
303,206,2667,5,0,0:0:0:0:
303,206,2840,5,8,0:0:0:0:
303,206,3707,5,0,0:0:0:0:
303,206,4054,5,8,0:0:0:0:
303,206,4227,5,0,0:0:0:0:
303,206,4574,5,8,0:0:0:0:
303,206,4921,5,0,0:0:0:0:
303,206,5008,5,0,0:0:0:0:
303,206,5094,5,0,0:0:0:0:
256,192,5268,12,0,6828,0:0:0:0:
303,206,7175,5,0,0:0:0:0:
303,206,7262,5,0,0:0:0:0:
303,206,7349,5,0,0:0:0:0:
303,206,7435,5,0,0:0:0:0:
303,206,7522,5,8,0:0:0:0:
303,206,7609,5,8,0:0:0:0:
303,206,7696,5,0,0:0:0:0:
303,206,7782,5,0,0:0:0:0:
303,206,7869,5,12,0:0:0:0:
303,206,8042,5,0,0:0:0:0:
303,206,8216,5,8,0:0:0:0:
303,206,8302,5,8,0:0:0:0:
303,206,8389,5,0,0:0:0:0:
303,206,8563,5,0,0:0:0:0:
303,206,8736,5,8,0:0:0:0:
303,206,8909,5,0,0:0:0:0:
303,206,9083,5,8,0:0:0:0:
303,206,9169,5,0,0:0:0:0:
303,206,9256,5,8,0:0:0:0:
303,206,9430,5,0,0:0:0:0:
303,206,9603,5,8,0:0:0:0:
303,206,9776,5,0,0:0:0:0:
303,206,9950,5,8,0:0:0:0:
303,206,10123,5,4,0:0:0:0:
303,206,10297,5,4,0:0:0:0:
303,206,10643,5,8,0:0:0:0:
303,206,10730,5,8,0:0:0:0:
303,206,10817,5,0,0:0:0:0:
303,206,10904,5,0,0:0:0:0:
303,206,10990,5,8,0:0:0:0:
303,206,11164,5,8,0:0:0:0:
303,206,11337,5,0,0:0:0:0:
303,206,11511,5,8,0:0:0:0:
303,206,11684,5,0,0:0:0:0:
303,206,11857,5,0,0:0:0:0:
303,206,11944,5,0,0:0:0:0:
303,206,12031,5,8,0:0:0:0:
303,206,12204,5,0,0:0:0:0:
303,206,12378,5,8,0:0:0:0:
303,206,12551,5,0,0:0:0:0:
303,206,12724,5,8,0:0:0:0:
303,206,12898,5,0,0:0:0:0:
303,206,13071,5,4,0:0:0:0:
303,206,13245,5,4,0:0:0:0:
303,206,13418,5,12,0:0:0:0:
303,206,13591,5,0,0:0:0:0:
303,206,13765,5,8,0:0:0:0:
303,206,13852,5,8,0:0:0:0:
303,206,13938,5,0,0:0:0:0:
303,206,14112,5,0,0:0:0:0:
303,206,14285,5,8,0:0:0:0:
303,206,14459,5,0,0:0:0:0:
303,206,14632,5,8,0:0:0:0:
303,206,14719,5,0,0:0:0:0:
303,206,14805,5,8,0:0:0:0:
303,206,14979,5,0,0:0:0:0:
303,206,15152,5,8,0:0:0:0:
303,206,15326,5,0,0:0:0:0:
303,206,15499,5,8,0:0:0:0:
303,206,15672,5,4,0:0:0:0:
303,206,15846,5,4,0:0:0:0:
303,206,16193,5,8,0:0:0:0:
303,206,16279,5,8,0:0:0:0:
303,206,16366,5,8,0:0:0:0:
303,206,16453,5,0,0:0:0:0:
303,206,16539,5,8,0:0:0:0:
303,206,16713,5,8,0:0:0:0:
303,206,16800,5,8,0:0:0:0:
303,206,16886,5,0,0:0:0:0:
303,206,17060,5,0,0:0:0:0:
303,206,17233,5,8,0:0:0:0:
303,206,17406,5,0,0:0:0:0:
303,206,17493,5,0,0:0:0:0:
303,206,17580,5,8,0:0:0:0:
303,206,17753,5,0,0:0:0:0:
303,206,17927,5,8,0:0:0:0:
303,206,18100,5,0,0:0:0:0:
303,206,18274,5,8,0:0:0:0:
303,206,18447,5,0,0:0:0:0:
303,206,18534,5,0,0:0:0:0:
303,206,18620,5,8,0:0:0:0:
303,206,18794,5,0,0:0:0:0:
303,206,18967,5,12,0:0:0:0:
303,206,19141,5,12,0:0:0:0:
303,206,19487,5,4,0:0:0:0:
303,206,19661,5,12,0:0:0:0:
303,206,20008,5,12,0:0:0:0:
303,206,20181,5,4,0:0:0:0:
303,206,21222,5,0,0:0:0:0:
303,206,21395,5,8,0:0:0:0:
303,206,21742,5,4,0:0:0:0:
303,206,22089,5,8,0:0:0:0:
303,206,22435,5,0,0:0:0:0:
303,206,22609,5,0,0:0:0:0:
303,206,22782,5,8,0:0:0:0:
303,206,23129,5,0,0:0:0:0:
303,206,23476,5,8,0:0:0:0:
303,206,23823,5,0,0:0:0:0:
303,206,23996,5,8,0:0:0:0:
303,206,24343,5,8,0:0:0:0:
303,206,24516,5,8,0:0:0:0:
303,206,24863,5,0,0:0:0:0:
303,206,25210,5,8,0:0:0:0:
303,206,25383,5,0,0:0:0:0:
303,206,25557,5,8,0:0:0:0:
303,206,25904,5,0,0:0:0:0:
303,206,26250,5,8,0:0:0:0:
303,206,26597,5,0,0:0:0:0:
303,206,26771,5,8,0:0:0:0:
303,206,27117,5,8,0:0:0:0:
303,206,27291,5,4,0:0:0:0:
303,206,27638,5,0,0:0:0:0:
303,206,27811,5,8,0:0:0:0:
303,206,28158,5,8,0:0:0:0:
303,206,28505,5,8,0:0:0:0:
303,206,28678,5,0,0:0:0:0:
303,206,29025,5,0,0:0:0:0:
303,206,29198,5,8,0:0:0:0:
303,206,29545,5,0,0:0:0:0:
303,206,29719,5,8,0:0:0:0:
303,206,29892,5,0,0:0:0:0:
303,206,30065,5,8,0:0:0:0:
303,206,30412,5,0,0:0:0:0:
303,206,30759,5,0,0:0:0:0:
303,206,31106,5,0,0:0:0:0:
303,206,31279,5,12,0:0:0:0:
303,206,31626,5,8,0:0:0:0:
303,206,31800,5,0,0:0:0:0:
303,206,31973,5,0,0:0:0:0:
303,206,32146,5,8,0:0:0:0:
303,206,32320,5,0,0:0:0:0:
303,206,32493,5,8,0:0:0:0:
303,206,32840,5,4,0:0:0:0:
303,206,33187,5,8,0:0:0:0:
303,206,33534,5,8,0:0:0:0:
303,206,33707,5,0,0:0:0:0:
303,206,33880,5,8,0:0:0:0:
303,206,34227,5,0,0:0:0:0:
303,206,34574,5,8,0:0:0:0:
303,206,34921,5,0,0:0:0:0:
303,206,35094,5,8,0:0:0:0:
303,206,35441,5,8,0:0:0:0:
303,206,35615,5,0,0:0:0:0:
303,206,35961,5,8,0:0:0:0:
303,206,36308,5,8,0:0:0:0:
303,206,36482,5,0,0:0:0:0:
303,206,36655,5,8,0:0:0:0:
303,206,37002,5,0,0:0:0:0:
303,206,37349,5,8,0:0:0:0:
303,206,37696,5,0,0:0:0:0:
303,206,37869,5,8,0:0:0:0:
303,206,38216,5,8,0:0:0:0:
303,206,38389,5,4,0:0:0:0:
303,206,38736,5,0,0:0:0:0:
303,206,38909,5,8,0:0:0:0:
303,206,39256,5,8,0:0:0:0:
303,206,39603,5,8,0:0:0:0:
303,206,39776,5,4,0:0:0:0:
303,206,40123,5,0,0:0:0:0:
303,206,40297,5,8,0:0:0:0:
303,206,40643,5,0,0:0:0:0:
303,206,40817,5,8,0:0:0:0:
303,206,40990,5,8,0:0:0:0:
303,206,41164,5,4,0:0:0:0:
303,206,41511,5,8,0:0:0:0:
303,206,41684,5,8,0:0:0:0:
303,206,41857,5,0,0:0:0:0:
303,206,42031,5,8,0:0:0:0:
303,206,42378,5,8,0:0:0:0:
303,206,42551,5,4,0:0:0:0:
303,206,42724,5,0,0:0:0:0:
303,206,42898,5,8,0:0:0:0:
303,206,43071,5,0,0:0:0:0:
303,206,43158,5,0,0:0:0:0:
303,206,43245,5,0,0:0:0:0:
303,206,43418,5,0,0:0:0:0:
303,206,43591,5,8,0:0:0:0:
303,206,43765,5,0,0:0:0:0:
303,206,43938,5,4,0:0:0:0:
303,206,44459,5,8,0:0:0:0:
303,206,44979,5,0,0:0:0:0:
303,206,45326,5,0,0:0:0:0:
303,206,45846,5,8,0:0:0:0:
303,206,46713,5,0,0:0:0:0:
303,206,47233,5,8,0:0:0:0:
303,206,47753,5,0,0:0:0:0:
303,206,48100,5,0,0:0:0:0:
303,206,48447,5,0,0:0:0:0:
303,206,48620,5,8,0:0:0:0:
303,206,49487,5,0,0:0:0:0:
303,206,49834,5,0,0:0:0:0:
303,206,50181,5,8,0:0:0:0:
303,206,50528,5,0,0:0:0:0:
303,206,50701,5,8,0:0:0:0:
303,206,51048,5,8,0:0:0:0:
303,206,51222,5,0,0:0:0:0:
303,206,51568,5,8,0:0:0:0:
303,206,51915,5,0,0:0:0:0:
303,206,52262,5,8,0:0:0:0:
303,206,52782,5,0,0:0:0:0:
303,206,52956,5,8,0:0:0:0:
303,206,53302,5,0,0:0:0:0:
303,206,53476,5,0,0:0:0:0:
303,206,53563,5,0,0:0:0:0:
303,206,53649,5,8,0:0:0:0:
303,206,53823,5,8,0:0:0:0:
303,206,53996,5,0,0:0:0:0:
303,206,54169,5,8,0:0:0:0:
303,206,54516,5,8,0:0:0:0:
303,206,55037,5,0,0:0:0:0:
303,206,55383,5,0,0:0:0:0:
303,206,55557,5,8,0:0:0:0:
303,206,55730,5,0,0:0:0:0:
303,206,56077,5,8,0:0:0:0:
303,206,56424,5,0,0:0:0:0:
303,206,56771,5,0,0:0:0:0:
303,206,56944,5,8,0:0:0:0:
303,206,57291,5,0,0:0:0:0:
303,206,57464,5,0,0:0:0:0:
303,206,57811,5,0,0:0:0:0:
303,206,58158,5,0,0:0:0:0:
303,206,58331,5,8,0:0:0:0:
303,206,58505,5,0,0:0:0:0:
303,206,58852,5,0,0:0:0:0:
303,206,59198,5,8,0:0:0:0:
303,206,59545,5,0,0:0:0:0:
303,206,59719,5,8,0:0:0:0:
303,206,60065,5,8,0:0:0:0:
303,206,60239,5,0,0:0:0:0:
303,206,60586,5,8,0:0:0:0:
303,206,60933,5,0,0:0:0:0:
303,206,61106,5,8,0:0:0:0:
303,206,61279,5,8,0:0:0:0:
303,206,61626,5,0,0:0:0:0:
303,206,61800,5,8,0:0:0:0:
303,206,61973,5,8,0:0:0:0:
303,206,62320,5,8,0:0:0:0:
303,206,62493,5,8,0:0:0:0:
303,206,62667,5,0,0:0:0:0:
303,206,62840,5,0,0:0:0:0:
303,206,63013,5,8,0:0:0:0:
303,206,63187,5,0,0:0:0:0:
303,206,63360,5,8,0:0:0:0:
303,206,63707,5,0,0:0:0:0:
303,206,63880,5,0,0:0:0:0:
303,206,63967,5,0,0:0:0:0:
303,206,64054,5,8,0:0:0:0:
303,206,64401,5,0,0:0:0:0:
303,206,64748,5,12,0:0:0:0:
303,206,64921,5,0,0:0:0:0:
303,206,65094,5,0,0:0:0:0:
303,206,65268,5,12,0:0:0:0:
303,206,65441,5,0,0:0:0:0:
303,206,65615,5,8,0:0:0:0:
303,206,65788,5,0,0:0:0:0:
303,206,65961,5,12,0:0:0:0:
303,206,66308,5,12,0:0:0:0:
303,206,66482,5,12,0:0:0:0:
303,206,67522,5,4,0:0:0:0:
303,206,67869,5,8,0:0:0:0:
303,206,68042,5,0,0:0:0:0:
303,206,68216,5,8,0:0:0:0:
303,206,68302,5,0,0:0:0:0:
303,206,68389,5,8,0:0:0:0:
303,206,68563,5,8,0:0:0:0:
303,206,68736,5,0,0:0:0:0:
303,206,68909,5,8,0:0:0:0:
303,206,69256,5,8,0:0:0:0:
303,206,69430,5,0,0:0:0:0:
303,206,69603,5,8,0:0:0:0:
303,206,69776,5,0,0:0:0:0:
303,206,69863,5,8,0:0:0:0:
303,206,69950,5,0,0:0:0:0:
303,206,70123,5,0,0:0:0:0:
303,206,70297,5,8,0:0:0:0:
303,206,70643,5,0,0:0:0:0:
303,206,70817,5,0,0:0:0:0:
303,206,70990,5,8,0:0:0:0:
303,206,71337,5,8,0:0:0:0:
303,206,71511,5,0,0:0:0:0:
303,206,71597,5,0,0:0:0:0:
303,206,71684,5,0,0:0:0:0:
303,206,71857,5,8,0:0:0:0:
303,206,72031,5,0,0:0:0:0:
303,206,72204,5,0,0:0:0:0:
303,206,72378,5,8,0:0:0:0:
303,206,72724,5,8,0:0:0:0:
303,206,72898,5,0,0:0:0:0:
303,206,73071,5,0,0:0:0:0:
303,206,73418,5,0,0:0:0:0:
303,206,73591,5,8,0:0:0:0:
303,206,73765,5,0,0:0:0:0:
303,206,74112,5,8,0:0:0:0:
303,206,74285,5,0,0:0:0:0:
303,206,74459,5,8,0:0:0:0:
303,206,74632,5,8,0:0:0:0:
303,206,74805,5,0,0:0:0:0:
303,206,74979,5,8,0:0:0:0:
303,206,75152,5,0,0:0:0:0:
303,206,75326,5,8,0:0:0:0:
303,206,75499,5,8,0:0:0:0:
303,206,75672,5,0,0:0:0:0:
303,206,75759,5,0,0:0:0:0:
303,206,75846,5,8,0:0:0:0:
303,206,76193,5,0,0:0:0:0:
303,206,76366,5,8,0:0:0:0:
303,206,76713,5,0,0:0:0:0:
303,206,77060,5,8,0:0:0:0:
82,214,77233,2,0,L|144:204,6,38.5000011749268
214,156,77927,1,8,0:0:0:0:
303,206,78100,5,8,0:0:0:0:
303,206,78274,5,8,0:0:0:0:
303,206,78620,5,4,0:0:0:0:
303,206,78967,5,8,0:0:0:0:
303,206,79141,5,0,0:0:0:0:
303,206,79314,5,8,0:0:0:0:
303,206,79401,5,0,0:0:0:0:
303,206,79487,5,8,0:0:0:0:
303,206,79661,5,8,0:0:0:0:
303,206,79834,5,0,0:0:0:0:
303,206,80008,5,8,0:0:0:0:
303,206,80354,5,8,0:0:0:0:
303,206,80528,5,0,0:0:0:0:
303,206,80701,5,8,0:0:0:0:
303,206,80875,5,0,0:0:0:0:
303,206,80961,5,8,0:0:0:0:
303,206,81048,5,0,0:0:0:0:
303,206,81222,5,0,0:0:0:0:
303,206,81395,5,8,0:0:0:0:
303,206,81742,5,0,0:0:0:0:
303,206,81915,5,0,0:0:0:0:
303,206,82089,5,8,0:0:0:0:
303,206,82435,5,8,0:0:0:0:
303,206,82609,5,0,0:0:0:0:
303,206,82696,5,0,0:0:0:0:
303,206,82782,5,0,0:0:0:0:
303,206,82956,5,8,0:0:0:0:
303,206,83129,5,0,0:0:0:0:
303,206,83302,5,0,0:0:0:0:
303,206,83476,5,8,0:0:0:0:
303,206,83823,5,8,0:0:0:0:
303,206,83909,5,0,0:0:0:0:
303,206,83996,5,0,0:0:0:0:
303,206,84169,5,4,0:0:0:0:
303,206,84516,5,0,0:0:0:0:
303,206,84690,5,8,0:0:0:0:
303,206,84863,5,0,0:0:0:0:
303,206,85210,5,12,0:0:0:0:
303,206,85557,5,0,0:0:0:0:
303,206,85730,5,8,0:0:0:0:
303,206,85904,5,0,0:0:0:0:
303,206,86077,5,0,0:0:0:0:
303,206,86164,5,0,0:0:0:0:
303,206,86250,5,8,0:0:0:0:
303,206,86424,5,0,0:0:0:0:
303,206,86597,5,0,0:0:0:0:
303,206,86944,5,12,0:0:0:0:
303,206,87291,5,0,0:0:0:0:
303,206,87464,5,8,0:0:0:0:
303,206,87811,5,0,0:0:0:0:
303,206,87985,5,0,0:0:0:0:
303,206,88158,5,0,0:0:0:0:
303,206,88331,5,8,0:0:0:0:
303,206,88678,5,0,0:0:0:0:
303,206,88852,5,8,0:0:0:0:
303,206,88938,5,0,0:0:0:0:
303,206,89025,5,8,0:0:0:0:
303,206,89198,5,8,0:0:0:0:
303,206,89285,5,8,0:0:0:0:
303,206,89372,5,0,0:0:0:0:
303,206,89719,5,12,0:0:0:0:
303,206,90586,5,0,0:0:0:0:
303,206,90759,5,8,0:0:0:0:
303,206,90933,5,0,0:0:0:0:
303,206,91800,5,0,0:0:0:0:
303,206,91886,5,0,0:0:0:0:
303,206,91973,5,0,0:0:0:0:
303,206,92060,5,0,0:0:0:0:
303,206,92146,5,8,0:0:0:0:
303,206,92233,5,8,0:0:0:0:
303,206,92320,5,8,0:0:0:0:
303,206,92406,5,8,0:0:0:0:
303,206,92493,5,4,0:0:0:0:
303,206,92667,5,0,0:0:0:0:
303,206,92840,5,8,0:0:0:0:
303,206,92927,5,8,0:0:0:0:
303,206,93013,5,0,0:0:0:0:
303,206,93187,5,8,0:0:0:0:
303,206,93360,5,0,0:0:0:0:
303,206,93534,5,8,0:0:0:0:
303,206,93620,5,0,0:0:0:0:
303,206,93707,5,8,0:0:0:0:
303,206,93880,5,8,0:0:0:0:
303,206,94054,5,0,0:0:0:0:
303,206,94227,5,8,0:0:0:0:
303,206,94401,5,0,0:0:0:0:
303,206,94574,5,8,0:0:0:0:
303,206,94661,5,8,0:0:0:0:
303,206,94748,5,0,0:0:0:0:
303,206,94921,5,8,0:0:0:0:
303,206,95008,5,0,0:0:0:0:
303,206,95094,5,8,0:0:0:0:
303,206,95181,5,8,0:0:0:0:
303,206,95268,5,8,0:0:0:0:
303,206,95441,5,0,0:0:0:0:
303,206,95528,5,0,0:0:0:0:
303,206,95615,5,8,0:0:0:0:
303,206,95788,5,8,0:0:0:0:
303,206,95961,5,0,0:0:0:0:
303,206,96135,5,8,0:0:0:0:
303,206,96308,5,0,0:0:0:0:
303,206,96482,5,0,0:0:0:0:
303,206,96568,5,0,0:0:0:0:
303,206,96655,5,8,0:0:0:0:
303,206,96828,5,0,0:0:0:0:
303,206,97002,5,8,0:0:0:0:
303,206,97175,5,0,0:0:0:0:
303,206,97349,5,8,0:0:0:0:
303,206,97522,5,4,0:0:0:0:
303,206,97696,5,4,0:0:0:0:
303,206,98042,5,12,0:0:0:0:
303,206,98216,5,0,0:0:0:0:
303,206,98389,5,8,0:0:0:0:
303,206,98476,5,8,0:0:0:0:
303,206,98563,5,0,0:0:0:0:
303,206,98736,5,8,0:0:0:0:
303,206,98909,5,0,0:0:0:0:
303,206,99083,5,8,0:0:0:0:
303,206,99169,5,0,0:0:0:0:
303,206,99256,5,8,0:0:0:0:
303,206,99430,5,8,0:0:0:0:
303,206,99603,5,0,0:0:0:0:
303,206,99776,5,8,0:0:0:0:
303,206,99950,5,0,0:0:0:0:
303,206,100123,5,8,0:0:0:0:
303,206,100210,5,8,0:0:0:0:
303,206,100297,5,0,0:0:0:0:
303,206,100470,5,8,0:0:0:0:
303,206,100557,5,0,0:0:0:0:
303,206,100643,5,8,0:0:0:0:
303,206,100730,5,8,0:0:0:0:
303,206,100817,5,8,0:0:0:0:
303,206,100990,5,0,0:0:0:0:
303,206,101077,5,0,0:0:0:0:
303,206,101164,5,8,0:0:0:0:
303,206,101337,5,8,0:0:0:0:
303,206,101511,5,0,0:0:0:0:
303,206,101684,5,8,0:0:0:0:
303,206,101857,5,0,0:0:0:0:
303,206,102031,5,0,0:0:0:0:
303,206,102117,5,0,0:0:0:0:
303,206,102204,5,8,0:0:0:0:
303,206,102378,5,0,0:0:0:0:
303,206,102551,5,8,0:0:0:0:
303,206,102724,5,0,0:0:0:0:
303,206,102898,5,8,0:0:0:0:
303,206,102985,5,8,0:0:0:0:
303,206,103071,5,0,0:0:0:0:
303,206,103158,5,0,0:0:0:0:
303,206,103245,5,8,0:0:0:0:
303,206,103765,5,12,0:0:0:0:
303,206,103938,5,12,0:0:0:0:
303,206,104112,5,12,0:0:0:0:
303,206,105326,5,0,0:0:0:0:
303,206,105412,5,0,0:0:0:0:
303,206,105499,5,0,0:0:0:0:
303,206,105586,5,0,0:0:0:0:
303,206,105672,5,8,0:0:0:0:
303,206,105846,5,0,0:0:0:0:
303,206,106019,5,8,0:0:0:0:
303,206,106366,5,4,0:0:0:0:
303,206,106713,5,8,0:0:0:0:
303,206,107060,5,8,0:0:0:0:
303,206,107233,5,8,0:0:0:0:
303,206,107406,5,0,0:0:0:0:
303,206,107753,5,0,0:0:0:0:
303,206,108100,5,8,0:0:0:0:
303,206,108447,5,0,0:0:0:0:
303,206,108620,5,8,0:0:0:0:
303,206,108967,5,0,0:0:0:0:
303,206,109141,5,8,0:0:0:0:
303,206,109487,5,0,0:0:0:0:
303,206,109834,5,8,0:0:0:0:
303,206,110008,5,0,0:0:0:0:
303,206,110181,5,8,0:0:0:0:
303,206,110528,5,0,0:0:0:0:
303,206,110875,5,8,0:0:0:0:
303,206,111222,5,0,0:0:0:0:
303,206,111395,5,8,0:0:0:0:
303,206,111742,5,8,0:0:0:0:
303,206,111915,5,4,0:0:0:0:
303,206,112262,5,0,0:0:0:0:
303,206,112435,5,8,0:0:0:0:
303,206,112782,5,8,0:0:0:0:
303,206,113129,5,8,0:0:0:0:
303,206,113302,5,0,0:0:0:0:
303,206,113649,5,0,0:0:0:0:
303,206,113823,5,8,0:0:0:0:
303,206,114169,5,0,0:0:0:0:
303,206,114343,5,8,0:0:0:0:
303,206,114516,5,0,0:0:0:0:
303,206,114690,5,8,0:0:0:0:
303,206,115037,5,0,0:0:0:0:
303,206,115383,5,0,0:0:0:0:
303,206,115730,5,0,0:0:0:0:
303,206,115904,5,12,0:0:0:0:
303,206,116250,5,8,0:0:0:0:
303,206,116424,5,8,0:0:0:0:
303,206,116597,5,0,0:0:0:0:
303,206,116771,5,8,0:0:0:0:
303,206,116944,5,0,0:0:0:0:
303,206,117117,5,8,0:0:0:0:
303,206,117464,5,4,0:0:0:0:
303,206,117811,5,8,0:0:0:0:
303,206,118158,5,8,0:0:0:0:
303,206,118331,5,0,0:0:0:0:
303,206,118505,5,8,0:0:0:0:
303,206,118852,5,0,0:0:0:0:
303,206,119198,5,8,0:0:0:0:
303,206,119545,5,8,0:0:0:0:
303,206,119719,5,0,0:0:0:0:
303,206,120065,5,0,0:0:0:0:
303,206,120239,5,8,0:0:0:0:
303,206,120586,5,8,0:0:0:0:
303,206,120933,5,8,0:0:0:0:
303,206,121106,5,0,0:0:0:0:
303,206,121279,5,8,0:0:0:0:
303,206,121626,5,0,0:0:0:0:
303,206,121973,5,8,0:0:0:0:
303,206,122320,5,8,0:0:0:0:
303,206,122493,5,0,0:0:0:0:
303,206,122840,5,0,0:0:0:0:
303,206,123013,5,4,0:0:0:0:
303,206,123360,5,0,0:0:0:0:
303,206,123534,5,8,0:0:0:0:
303,206,123880,5,8,0:0:0:0:
303,206,124227,5,8,0:0:0:0:
303,206,124401,5,4,0:0:0:0:
303,206,124748,5,0,0:0:0:0:
303,206,124921,5,8,0:0:0:0:
303,206,125268,5,0,0:0:0:0:
303,206,125441,5,8,0:0:0:0:
303,206,125615,5,8,0:0:0:0:
303,206,125788,5,4,0:0:0:0:
303,206,126135,5,8,0:0:0:0:
303,206,126308,5,0,0:0:0:0:
303,206,126482,5,0,0:0:0:0:
303,206,126655,5,8,0:0:0:0:
303,206,127002,5,8,0:0:0:0:
303,206,127175,5,4,0:0:0:0:
303,206,127522,5,8,0:0:0:0:
303,206,127696,5,0,0:0:0:0:
303,206,127782,5,0,0:0:0:0:
303,206,127869,5,0,0:0:0:0:
303,206,128042,5,8,0:0:0:0:
303,206,128216,5,8,0:0:0:0:
303,206,128389,5,0,0:0:0:0:
303,206,128563,5,4,0:0:0:0:
303,206,129083,5,8,0:0:0:0:
303,206,129603,5,0,0:0:0:0:
303,206,129950,5,0,0:0:0:0:
303,206,130470,5,8,0:0:0:0:
303,206,131337,5,0,0:0:0:0:
303,206,131857,5,8,0:0:0:0:
303,206,132378,5,0,0:0:0:0:
303,206,132724,5,12,0:0:0:0:
303,206,133071,5,0,0:0:0:0:
303,206,133245,5,8,0:0:0:0:
303,206,133591,5,8,0:0:0:0:
303,206,133765,5,0,0:0:0:0:
303,206,133938,5,0,0:0:0:0:
303,206,134025,5,0,0:0:0:0:
303,206,134112,5,0,0:0:0:0:
303,206,134285,5,0,0:0:0:0:
303,206,134459,5,12,0:0:0:0:
303,206,134632,5,0,0:0:0:0:
303,206,134805,5,8,0:0:0:0:
303,206,135152,5,12,0:0:0:0:
303,206,135326,5,0,0:0:0:0:
303,206,135499,5,0,0:0:0:0:
303,206,135846,5,12,0:0:0:0:
303,206,136019,5,0,0:0:0:0:
303,206,136193,5,8,0:0:0:0:
303,206,136366,5,0,0:0:0:0:
303,206,136539,5,12,0:0:0:0:
303,206,136713,5,0,0:0:0:0:
303,206,136886,5,0,0:0:0:0:
303,206,137233,5,12,0:0:0:0:
303,206,137406,5,0,0:0:0:0:
303,206,137580,5,0,0:0:0:0:
303,206,137927,5,12,0:0:0:0:
303,206,138100,5,0,0:0:0:0:
303,206,138274,5,8,0:0:0:0:
303,206,138447,5,0,0:0:0:0:
303,206,138620,5,8,0:0:0:0:
303,206,138794,5,8,0:0:0:0:
303,206,138967,5,0,0:0:0:0:
303,206,139141,5,8,0:0:0:0:
303,206,139314,5,8,0:0:0:0:
303,206,139487,5,4,0:0:0:0:
303,206,140008,5,12,0:0:0:0:
303,206,140354,5,0,0:0:0:0:
303,206,140701,5,0,0:0:0:0:
303,206,141048,5,4,0:0:0:0:
303,206,141222,5,4,0:0:0:0:
303,206,141395,5,12,0:0:0:0:
303,206,142435,5,4,0:0:0:0:
303,206,142782,5,8,0:0:0:0:
303,206,142956,5,0,0:0:0:0:
303,206,143129,5,8,0:0:0:0:
303,206,143216,5,0,0:0:0:0:
303,206,143302,5,8,0:0:0:0:
303,206,143476,5,8,0:0:0:0:
303,206,143649,5,0,0:0:0:0:
303,206,143823,5,8,0:0:0:0:
303,206,144169,5,8,0:0:0:0:
303,206,144343,5,0,0:0:0:0:
303,206,144516,5,8,0:0:0:0:
303,206,144690,5,0,0:0:0:0:
303,206,144776,5,8,0:0:0:0:
303,206,144863,5,0,0:0:0:0:
303,206,145037,5,0,0:0:0:0:
303,206,145210,5,8,0:0:0:0:
303,206,145557,5,0,0:0:0:0:
303,206,145730,5,0,0:0:0:0:
303,206,145904,5,8,0:0:0:0:
303,206,146250,5,8,0:0:0:0:
303,206,146424,5,0,0:0:0:0:
303,206,146511,5,0,0:0:0:0:
303,206,146597,5,0,0:0:0:0:
303,206,146771,5,8,0:0:0:0:
303,206,146944,5,0,0:0:0:0:
303,206,147117,5,0,0:0:0:0:
303,206,147291,5,8,0:0:0:0:
303,206,147638,5,8,0:0:0:0:
303,206,147811,5,0,0:0:0:0:
303,206,147985,5,4,0:0:0:0:
303,206,148331,5,0,0:0:0:0:
303,206,148505,5,8,0:0:0:0:
303,206,148678,5,0,0:0:0:0:
303,206,149025,5,8,0:0:0:0:
303,206,149198,5,0,0:0:0:0:
303,206,149372,5,8,0:0:0:0:
303,206,149545,5,8,0:0:0:0:
303,206,149719,5,0,0:0:0:0:
303,206,149892,5,8,0:0:0:0:
303,206,150065,5,0,0:0:0:0:
303,206,150239,5,8,0:0:0:0:
303,206,150412,5,8,0:0:0:0:
303,206,150586,5,0,0:0:0:0:
303,206,150672,5,0,0:0:0:0:
303,206,150759,5,8,0:0:0:0:
303,206,151106,5,0,0:0:0:0:
303,206,151279,5,8,0:0:0:0:
303,206,151626,5,0,0:0:0:0:
303,206,151973,5,8,0:0:0:0:
87,198,152146,2,0,L|132:180,6,38.5000011749268
303,206,152840,5,8,0:0:0:0:
303,206,153013,5,8,0:0:0:0:
303,206,153187,5,8,0:0:0:0:
303,206,153534,5,4,0:0:0:0:
303,206,153880,5,8,0:0:0:0:
303,206,154054,5,0,0:0:0:0:
303,206,154227,5,8,0:0:0:0:
303,206,154314,5,0,0:0:0:0:
303,206,154401,5,8,0:0:0:0:
303,206,154574,5,8,0:0:0:0:
303,206,154748,5,0,0:0:0:0:
303,206,154921,5,8,0:0:0:0:
303,206,155268,5,8,0:0:0:0:
303,206,155441,5,0,0:0:0:0:
303,206,155615,5,8,0:0:0:0:
303,206,155788,5,0,0:0:0:0:
303,206,155875,5,8,0:0:0:0:
303,206,155961,5,0,0:0:0:0:
303,206,156135,5,0,0:0:0:0:
303,206,156308,5,8,0:0:0:0:
303,206,156655,5,0,0:0:0:0:
303,206,156828,5,0,0:0:0:0:
303,206,157002,5,8,0:0:0:0:
303,206,157349,5,8,0:0:0:0:
303,206,157522,5,0,0:0:0:0:
303,206,157609,5,0,0:0:0:0:
303,206,157696,5,0,0:0:0:0:
303,206,157869,5,8,0:0:0:0:
303,206,158042,5,0,0:0:0:0:
303,206,158216,5,0,0:0:0:0:
303,206,158389,5,8,0:0:0:0:
303,206,158736,5,8,0:0:0:0:
303,206,158823,5,0,0:0:0:0:
303,206,158909,5,0,0:0:0:0:
303,206,159083,5,4,0:0:0:0:
303,206,159430,5,0,0:0:0:0:
303,206,159603,5,8,0:0:0:0:
303,206,159776,5,0,0:0:0:0:
303,206,160123,5,12,0:0:0:0:
303,206,160470,5,0,0:0:0:0:
303,206,160643,5,8,0:0:0:0:
303,206,160817,5,0,0:0:0:0:
303,206,160990,5,0,0:0:0:0:
303,206,161077,5,0,0:0:0:0:
303,206,161164,5,8,0:0:0:0:
303,206,161337,5,0,0:0:0:0:
303,206,161511,5,8,0:0:0:0:
303,206,161857,5,12,0:0:0:0:
303,206,162204,5,0,0:0:0:0:
303,206,162378,5,8,0:0:0:0:
303,206,162724,5,0,0:0:0:0:
303,206,162898,5,0,0:0:0:0:
303,206,163071,5,0,0:0:0:0:
303,206,163245,5,8,0:0:0:0:
303,206,163591,5,0,0:0:0:0:
303,206,163765,5,8,0:0:0:0:
303,206,163852,5,0,0:0:0:0:
303,206,163938,5,8,0:0:0:0:
303,206,164112,5,8,0:0:0:0:
303,206,164198,5,8,0:0:0:0:
303,206,164285,5,0,0:0:0:0:
303,206,164632,5,12,0:0:0:0:
303,206,165499,5,0,0:0:0:0:
303,206,165672,5,0,0:0:0:0:
303,206,165846,5,8,0:0:0:0:
303,206,167406,5,8,0:0:0:0:
303,206,168447,5,8,0:0:0:0:
303,206,168620,5,0,0:0:0:0:
303,206,168794,5,0,0:0:0:0:
303,206,169487,5,8,0:0:0:0:
303,206,170181,5,0,0:0:0:0:
303,206,171048,5,0,0:0:0:0:
303,206,171222,5,0,0:0:0:0:
303,206,171395,5,8,0:0:0:0:
303,206,172262,5,0,0:0:0:0:
303,206,172956,5,0,0:0:0:0:
303,206,173823,5,0,0:0:0:0:
303,206,173996,5,0,0:0:0:0:
303,206,174169,5,8,0:0:0:0:
257,102,175037,2,0,L|251:97,16,8.75
189,125,175557,1,12,0:0:0:0:
189,125,175904,1,12,0:0:0:0:
189,125,176077,1,4,0:0:0:0:
189,125,176424,1,12,0:0:0:0:
189,125,176771,1,8,0:0:0:0:
189,125,176944,1,0,0:0:0:0:
189,125,177117,1,4,0:0:0:0:
189,125,177291,1,0,0:0:0:0:
189,125,177378,1,0,0:0:0:0:
189,125,177464,1,8,0:0:0:0:
189,125,177638,1,0,0:0:0:0:
189,125,177811,1,8,0:0:0:0:
189,125,177985,1,0,0:0:0:0:
189,125,178158,1,8,0:0:0:0:
189,125,178245,1,8,0:0:0:0:
189,125,178331,1,8,0:0:0:0:
189,125,178418,1,8,0:0:0:0:
189,125,178505,1,0,0:0:0:0:
189,125,178678,1,0,0:0:0:0:
189,125,178852,1,8,0:0:0:0:
189,125,179025,1,0,0:0:0:0:
189,125,179198,1,8,0:0:0:0:
189,125,179285,1,8,0:0:0:0:
189,125,179372,1,0,0:0:0:0:
189,125,179459,1,0,0:0:0:0:
189,125,179545,1,8,0:0:0:0:
189,125,179719,1,0,0:0:0:0:
189,125,179892,1,4,0:0:0:0:
189,125,180065,1,0,0:0:0:0:
189,125,180239,1,8,0:0:0:0:
189,125,180586,1,0,0:0:0:0:
189,125,180672,1,0,0:0:0:0:
189,125,180759,1,0,0:0:0:0:
189,125,180933,1,0,0:0:0:0:
189,125,181106,1,8,0:0:0:0:
189,125,181453,1,0,0:0:0:0:
189,125,181539,1,0,0:0:0:0:
189,125,181626,1,8,0:0:0:0:
189,125,181800,1,8,0:0:0:0:
189,125,181973,1,0,0:0:0:0:
189,125,182320,1,8,0:0:0:0:
189,125,182667,1,8,0:0:0:0:
189,125,182840,1,0,0:0:0:0:
189,125,183013,1,8,0:0:0:0:
189,125,183187,1,0,0:0:0:0:
189,125,183274,1,0,0:0:0:0:
189,125,183360,1,8,0:0:0:0:
189,125,183534,1,0,0:0:0:0:
189,125,183707,1,8,0:0:0:0:
189,125,183880,1,0,0:0:0:0:
189,125,184054,1,4,0:0:0:0:
189,125,184401,1,0,0:0:0:0:
189,125,184574,1,8,0:0:0:0:
189,125,184748,1,8,0:0:0:0:
189,125,184921,1,0,0:0:0:0:
189,125,185094,1,8,0:0:0:0:
189,125,185268,1,0,0:0:0:0:
189,125,185354,1,0,0:0:0:0:
189,125,185441,1,8,0:0:0:0:
189,125,185615,1,0,0:0:0:0:
189,125,185788,1,8,0:0:0:0:
189,125,185961,1,8,0:0:0:0:
189,125,186048,1,0,0:0:0:0:
189,125,186135,1,8,0:0:0:0:
189,125,186222,1,8,0:0:0:0:
189,125,186308,1,0,0:0:0:0:
189,125,186655,1,0,0:0:0:0:
189,125,186828,1,12,0:0:0:0:
189,125,187175,1,0,0:0:0:0:
189,125,187349,1,12,0:0:0:0:
189,125,187522,1,0,0:0:0:0:
189,125,187869,1,8,0:0:0:0:
189,125,188216,1,12,0:0:0:0:
189,125,188389,1,0,0:0:0:0:
189,125,188476,1,0,0:0:0:0:
189,125,188563,1,0,0:0:0:0:
189,125,188736,1,12,0:0:0:0:
189,125,188909,1,0,0:0:0:0:
189,125,188996,1,0,0:0:0:0:
189,125,189083,1,0,0:0:0:0:
189,125,189256,1,8,0:0:0:0:
189,125,189603,1,4,0:0:0:0:
189,125,190297,1,0,0:0:0:0:
189,125,190470,1,0,0:0:0:0:
189,125,190557,1,0,0:0:0:0:
189,125,190643,1,0,0:0:0:0:
189,125,190817,1,0,0:0:0:0:
189,125,190990,1,8,0:0:0:0:
189,125,191511,1,8,0:0:0:0:
189,125,191597,1,8,0:0:0:0:
189,125,191684,1,8,0:0:0:0:
189,125,191857,1,8,0:0:0:0:
189,125,192031,1,0,0:0:0:0:
189,125,192204,1,0,0:0:0:0:
189,125,192378,1,12,0:0:0:0:
189,125,193071,1,0,0:0:0:0:
189,125,193765,1,0,0:0:0:0:
189,125,193938,1,0,0:0:0:0:
189,125,194459,1,0,0:0:0:0:
189,125,194632,1,0,0:0:0:0:
189,125,194805,1,8,0:0:0:0:
189,125,195152,1,8,0:0:0:0:
189,125,195672,1,0,0:0:0:0:
189,125,195759,1,0,0:0:0:0:
189,125,195846,1,8,0:0:0:0:
189,125,196019,1,0,0:0:0:0:
189,125,196193,1,8,0:0:0:0:
189,125,196539,1,8,0:0:0:0:
189,125,196886,1,0,0:0:0:0:
189,125,197233,1,8,0:0:0:0:
189,125,197493,1,8,0:0:0:0:
189,125,197580,1,0,0:0:0:0:
189,125,197753,1,0,0:0:0:0:
189,125,197927,1,8,0:0:0:0:
189,125,198274,1,0,0:0:0:0:
189,125,198447,1,0,0:0:0:0:
189,125,198534,1,0,0:0:0:0:
189,125,198620,1,8,0:0:0:0:
189,125,198794,1,0,0:0:0:0:
189,125,198967,1,8,0:0:0:0:
189,125,199141,1,8,0:0:0:0:
189,125,199314,1,0,0:0:0:0:
189,125,199487,1,0,0:0:0:0:
189,125,199834,1,0,0:0:0:0:
189,125,199921,1,0,0:0:0:0:
189,125,200008,1,8,0:0:0:0:
189,125,200181,1,0,0:0:0:0:
189,125,200354,1,8,0:0:0:0:
189,125,200528,1,0,0:0:0:0:
189,125,200615,1,0,0:0:0:0:
189,125,200701,1,8,0:0:0:0:
189,125,201048,1,0,0:0:0:0:
189,125,201222,1,8,0:0:0:0:
189,125,201395,1,0,0:0:0:0:
189,125,201742,1,0,0:0:0:0:
189,125,201915,1,8,0:0:0:0:
189,125,202089,1,8,0:0:0:0:
189,125,202262,1,0,0:0:0:0:
189,125,202435,1,8,0:0:0:0:
189,125,202782,1,0,0:0:0:0:
189,125,203129,1,0,0:0:0:0:
189,125,203302,1,0,0:0:0:0:
189,125,203476,1,8,0:0:0:0:
189,125,203823,1,0,0:0:0:0:
189,125,203996,1,8,0:0:0:0:
189,125,204083,1,8,0:0:0:0:
189,125,204169,1,0,0:0:0:0:
189,125,204343,1,8,0:0:0:0:
189,125,204516,1,0,0:0:0:0:
189,125,204690,1,8,0:0:0:0:
189,125,204863,1,0,0:0:0:0:
189,125,205037,1,0,0:0:0:0:
189,125,205383,1,0,0:0:0:0:
189,125,205557,1,8,0:0:0:0:
189,125,205730,1,0,0:0:0:0:
189,125,205904,1,8,0:0:0:0:
189,125,206250,1,8,0:0:0:0:
189,125,206597,1,0,0:0:0:0:
189,125,206771,1,0,0:0:0:0:
189,125,206944,1,8,0:0:0:0:
189,125,207117,1,0,0:0:0:0:
189,125,207291,1,8,0:0:0:0:
189,125,207638,1,8,0:0:0:0:
189,125,207985,1,0,0:0:0:0:
189,125,208331,1,8,0:0:0:0:
189,125,208591,1,8,0:0:0:0:
189,125,208852,1,0,0:0:0:0:
189,125,209025,1,8,0:0:0:0:
189,125,209372,1,0,0:0:0:0:
189,125,209545,1,0,0:0:0:0:
189,125,209719,1,8,0:0:0:0:
189,125,210065,1,8,0:0:0:0:
189,125,210239,1,8,0:0:0:0:
189,125,210412,1,0,0:0:0:0:
189,125,210586,1,0,0:0:0:0:
189,125,210759,1,8,0:0:0:0:
189,125,210933,1,0,0:0:0:0:
189,125,211279,1,0,0:0:0:0:
189,125,211453,1,8,0:0:0:0:
189,125,211626,1,0,0:0:0:0:
189,125,211713,1,0,0:0:0:0:
189,125,211800,1,8,0:0:0:0:
189,125,212146,1,0,0:0:0:0:
189,125,212320,1,8,0:0:0:0:
189,125,212493,1,0,0:0:0:0:
189,125,212667,1,0,0:0:0:0:
189,125,212840,1,0,0:0:0:0:
189,125,213013,1,8,0:0:0:0:
189,125,213187,1,0,0:0:0:0:
189,125,213360,1,8,0:0:0:0:
189,125,213534,1,8,0:0:0:0:
189,125,213707,1,0,0:0:0:0:
189,125,213880,1,0,0:0:0:0:
189,125,214054,1,0,0:0:0:0:
189,125,214227,1,0,0:0:0:0:
189,125,214314,1,0,0:0:0:0:
189,125,214401,1,0,0:0:0:0:
189,125,214487,1,0,0:0:0:0:
189,125,214574,1,12,0:0:0:0:
189,125,214921,1,0,0:0:0:0:
189,125,215094,1,12,0:0:0:0:
189,125,215441,1,0,0:0:0:0:
189,125,215615,1,8,0:0:0:0:
189,125,215788,1,4,0:0:0:0:
189,125,216308,1,0,0:0:0:0:
189,125,216655,1,8,0:0:0:0:
189,125,217002,1,0,0:0:0:0:
189,125,217349,1,8,0:0:0:0:
189,125,217522,1,0,0:0:0:0:
189,125,217696,1,8,0:0:0:0:
189,125,217869,1,0,0:0:0:0:
189,125,218042,1,8,0:0:0:0:
189,125,218216,1,8,0:0:0:0:
189,125,218389,1,8,0:0:0:0:
303,206,218736,1,0,0:0:0:0:
303,206,219083,5,12,0:0:0:0:
303,206,219256,5,0,0:0:0:0:
303,206,219430,5,8,0:0:0:0:
303,206,219516,5,0,0:0:0:0:
303,206,219603,5,8,0:0:0:0:
303,206,219776,5,8,0:0:0:0:
303,206,219950,5,0,0:0:0:0:
303,206,220123,5,12,0:0:0:0:
303,206,220470,5,8,0:0:0:0:
303,206,220643,5,0,0:0:0:0:
303,206,220817,5,8,0:0:0:0:
303,206,220904,5,0,0:0:0:0:
303,206,220990,5,0,0:0:0:0:
303,206,221077,5,8,0:0:0:0:
303,206,221164,5,0,0:0:0:0:
303,206,221337,5,0,0:0:0:0:
303,206,221511,5,12,0:0:0:0:
303,206,221857,5,0,0:0:0:0:
303,206,222031,5,0,0:0:0:0:
303,206,222204,5,8,0:0:0:0:
303,206,222551,5,8,0:0:0:0:
303,206,222724,5,0,0:0:0:0:
303,206,222811,5,0,0:0:0:0:
303,206,222898,5,0,0:0:0:0:
303,206,222985,5,0,0:0:0:0:
303,206,223071,5,8,0:0:0:0:
303,206,223245,5,0,0:0:0:0:
303,206,223418,5,0,0:0:0:0:
303,206,223591,5,8,0:0:0:0:
303,206,223765,5,0,0:0:0:0:
303,206,223938,5,8,0:0:0:0:
303,206,224025,5,0,0:0:0:0:
303,206,224112,5,0,0:0:0:0:
303,206,224285,5,4,0:0:0:0:
303,206,224632,5,8,0:0:0:0:
303,206,224805,5,8,0:0:0:0:
303,206,224979,5,0,0:0:0:0:
303,206,225326,5,8,0:0:0:0:
303,206,225499,5,0,0:0:0:0:
303,206,225672,5,8,0:0:0:0:
303,206,225846,5,8,0:0:0:0:
303,206,226019,5,0,0:0:0:0:
303,206,226193,5,8,0:0:0:0:
303,206,226366,5,0,0:0:0:0:
303,206,226539,5,8,0:0:0:0:
303,206,226713,5,8,0:0:0:0:
303,206,226886,5,0,0:0:0:0:
303,206,226973,5,0,0:0:0:0:
303,206,227060,5,12,0:0:0:0:
303,206,227406,5,0,0:0:0:0:
303,206,227580,5,8,0:0:0:0:
303,206,227927,5,0,0:0:0:0:
303,206,228274,5,8,0:0:0:0:
162,118,228447,2,0,L|183:69,6,40.2500007677078
303,206,229141,5,8,0:0:0:0:
303,206,229314,5,8,0:0:0:0:
303,206,229487,5,8,0:0:0:0:
303,206,229834,5,4,0:0:0:0:
303,206,230181,5,8,0:0:0:0:
303,206,230354,5,0,0:0:0:0:
303,206,230528,5,8,0:0:0:0:
303,206,230615,5,0,0:0:0:0:
303,206,230701,5,8,0:0:0:0:
303,206,230875,5,8,0:0:0:0:
303,206,231048,5,0,0:0:0:0:
303,206,231222,5,12,0:0:0:0:
303,206,231568,5,8,0:0:0:0:
303,206,231742,5,0,0:0:0:0:
303,206,231915,5,8,0:0:0:0:
303,206,232002,5,0,0:0:0:0:
303,206,232089,5,0,0:0:0:0:
303,206,232175,5,8,0:0:0:0:
303,206,232262,5,0,0:0:0:0:
303,206,232435,5,0,0:0:0:0:
303,206,232609,5,12,0:0:0:0:
303,206,232956,5,0,0:0:0:0:
303,206,233129,5,0,0:0:0:0:
303,206,233302,5,8,0:0:0:0:
303,206,233649,5,8,0:0:0:0:
303,206,233823,5,0,0:0:0:0:
303,206,233909,5,0,0:0:0:0:
303,206,233996,5,0,0:0:0:0:
303,206,234083,5,0,0:0:0:0:
303,206,234169,5,8,0:0:0:0:
303,206,234343,5,0,0:0:0:0:
303,206,234516,5,0,0:0:0:0:
303,206,234690,5,8,0:0:0:0:
303,206,234863,5,0,0:0:0:0:
303,206,235037,5,8,0:0:0:0:
303,206,235123,5,0,0:0:0:0:
303,206,235210,5,0,0:0:0:0:
303,206,235383,5,4,0:0:0:0:
303,206,235730,5,0,0:0:0:0:
303,206,235904,5,8,0:0:0:0:
303,206,236077,5,0,0:0:0:0:
303,206,236424,5,12,0:0:0:0:
303,206,236771,5,0,0:0:0:0:
303,206,236944,5,8,0:0:0:0:
303,206,237117,5,0,0:0:0:0:
303,206,237291,5,0,0:0:0:0:
303,206,237377,5,0,0:0:0:0:
303,206,237464,5,8,0:0:0:0:
303,206,237551,5,0,0:0:0:0:
303,206,237638,5,0,0:0:0:0:
303,206,237811,5,8,0:0:0:0:
303,206,238158,5,12,0:0:0:0:
303,206,238505,5,0,0:0:0:0:
303,206,238678,5,8,0:0:0:0:
303,206,239025,5,0,0:0:0:0:
303,206,239198,5,0,0:0:0:0:
303,206,239545,5,8,0:0:0:0:
303,206,239719,5,0,0:0:0:0:
303,206,239805,5,0,0:0:0:0:
303,206,239892,5,8,0:0:0:0:
303,206,240065,5,8,0:0:0:0:
303,206,240152,5,0,0:0:0:0:
303,206,240239,5,8,0:0:0:0:
303,206,240412,5,8,0:0:0:0:
303,206,240499,5,8,0:0:0:0:
303,206,240586,5,0,0:0:0:0:
303,206,240759,5,0,0:0:0:0:
303,206,240933,5,12,0:0:0:0:
303,206,241800,5,0,0:0:0:0:
303,206,241973,5,0,0:0:0:0:
303,206,242146,5,8,0:0:0:0:
303,206,243013,5,0,0:0:0:0:
303,206,243100,5,0,0:0:0:0:
303,206,243187,5,0,0:0:0:0:
303,206,243274,5,0,0:0:0:0:
303,206,243360,5,8,0:0:0:0:
303,206,243447,5,8,0:0:0:0:
303,206,243534,5,0,0:0:0:0:
303,206,243620,5,0,0:0:0:0:
303,206,243707,5,12,0:0:0:0:
303,206,243880,5,0,0:0:0:0:
303,206,244054,5,8,0:0:0:0:
303,206,244141,5,8,0:0:0:0:
303,206,244227,5,0,0:0:0:0:
303,206,244401,5,8,0:0:0:0:
303,206,244574,5,0,0:0:0:0:
303,206,244748,5,8,0:0:0:0:
303,206,244834,5,0,0:0:0:0:
303,206,244921,5,8,0:0:0:0:
303,206,245094,5,8,0:0:0:0:
303,206,245268,5,0,0:0:0:0:
303,206,245441,5,8,0:0:0:0:
303,206,245615,5,0,0:0:0:0:
303,206,245788,5,8,0:0:0:0:
303,206,245875,5,8,0:0:0:0:
303,206,245961,5,0,0:0:0:0:
303,206,246135,5,8,0:0:0:0:
303,206,246222,5,0,0:0:0:0:
303,206,246308,5,8,0:0:0:0:
303,206,246395,5,8,0:0:0:0:
303,206,246482,5,8,0:0:0:0:
303,206,246655,5,0,0:0:0:0:
303,206,246742,5,0,0:0:0:0:
303,206,246828,5,8,0:0:0:0:
303,206,247002,5,8,0:0:0:0:
303,206,247175,5,0,0:0:0:0:
303,206,247349,5,8,0:0:0:0:
303,206,247522,5,0,0:0:0:0:
303,206,247696,5,0,0:0:0:0:
303,206,247782,5,0,0:0:0:0:
303,206,247869,5,8,0:0:0:0:
303,206,248042,5,0,0:0:0:0:
303,206,248216,5,8,0:0:0:0:
303,206,248389,5,0,0:0:0:0:
303,206,248563,5,8,0:0:0:0:
303,206,248736,5,4,0:0:0:0:
303,206,248909,5,4,0:0:0:0:
303,206,249256,5,12,0:0:0:0:
303,206,249430,5,0,0:0:0:0:
303,206,249603,5,8,0:0:0:0:
303,206,249690,5,8,0:0:0:0:
303,206,249776,5,0,0:0:0:0:
303,206,249950,5,8,0:0:0:0:
303,206,250123,5,0,0:0:0:0:
303,206,250297,5,8,0:0:0:0:
303,206,250383,5,0,0:0:0:0:
303,206,250470,5,8,0:0:0:0:
303,206,250643,5,8,0:0:0:0:
303,206,250817,5,0,0:0:0:0:
303,206,250990,5,8,0:0:0:0:
303,206,251164,5,0,0:0:0:0:
303,206,251337,5,8,0:0:0:0:
303,206,251424,5,8,0:0:0:0:
303,206,251511,5,0,0:0:0:0:
303,206,251684,5,8,0:0:0:0:
303,206,251771,5,0,0:0:0:0:
303,206,251857,5,8,0:0:0:0:
303,206,251944,5,8,0:0:0:0:
303,206,252031,5,8,0:0:0:0:
303,206,252204,5,0,0:0:0:0:
303,206,252291,5,0,0:0:0:0:
303,206,252378,5,8,0:0:0:0:
303,206,252551,5,8,0:0:0:0:
303,206,252724,5,0,0:0:0:0:
303,206,252898,5,8,0:0:0:0:
303,206,253071,5,0,0:0:0:0:
303,206,253245,5,0,0:0:0:0:
303,206,253331,5,0,0:0:0:0:
303,206,253418,5,8,0:0:0:0:
303,206,253591,5,0,0:0:0:0:
303,206,253765,5,8,0:0:0:0:
303,206,254112,5,8,0:0:0:0:
303,206,254198,5,8,0:0:0:0:
303,206,254285,5,0,0:0:0:0:
303,206,254372,5,0,0:0:0:0:
303,206,254459,5,8,0:0:0:0:
303,206,254632,5,0,0:0:0:0:
303,206,254805,5,12,0:0:0:0:
303,206,254979,5,0,0:0:0:0:
303,206,255065,5,0,0:0:0:0:
303,206,255152,5,8,0:0:0:0:
303,206,255326,5,0,0:0:0:0:
303,206,255499,5,8,0:0:0:0:
303,206,255586,5,8,0:0:0:0:
303,206,255672,5,0,0:0:0:0:
303,206,255846,5,8,0:0:0:0:
303,206,255933,5,0,0:0:0:0:
303,206,256019,5,8,0:0:0:0:
303,206,256193,5,8,0:0:0:0:
303,206,256539,5,8,0:0:0:0:
303,206,256713,5,0,0:0:0:0:
303,206,256886,5,8,0:0:0:0:
303,206,256973,5,8,0:0:0:0:
303,206,257060,5,0,0:0:0:0:
303,206,257233,5,8,0:0:0:0:
303,206,257320,5,0,0:0:0:0:
303,206,257406,5,8,0:0:0:0:
303,206,257493,5,8,0:0:0:0:
303,206,257580,5,8,0:0:0:0:
303,206,257753,5,0,0:0:0:0:
303,206,257927,5,8,0:0:0:0:
303,206,258100,5,8,0:0:0:0:
303,206,258187,5,8,0:0:0:0:
303,206,258274,5,0,0:0:0:0:
303,206,258447,5,8,0:0:0:0:
303,206,258620,5,0,0:0:0:0:
303,206,258794,5,0,0:0:0:0:
303,206,258880,5,0,0:0:0:0:
303,206,258967,5,8,0:0:0:0:
303,206,259141,5,0,0:0:0:0:
303,206,259314,5,8,0:0:0:0:
303,206,259487,5,0,0:0:0:0:
303,206,259574,5,0,0:0:0:0:
303,206,259661,5,8,0:0:0:0:
303,206,259834,5,4,0:0:0:0:
303,206,260008,5,4,0:0:0:0:
303,206,260181,5,0,0:0:0:0:
303,206,260354,5,12,0:0:0:0:
303,206,260528,5,0,0:0:0:0:
303,206,260615,5,0,0:0:0:0:
303,206,260701,5,8,0:0:0:0:
303,206,260875,5,0,0:0:0:0:
303,206,261048,5,8,0:0:0:0:
303,206,261135,5,8,0:0:0:0:
303,206,261222,5,0,0:0:0:0:
303,206,261395,5,8,0:0:0:0:
303,206,261482,5,0,0:0:0:0:
303,206,261568,5,8,0:0:0:0:
303,206,261742,5,8,0:0:0:0:
303,206,262089,5,8,0:0:0:0:
303,206,262262,5,0,0:0:0:0:
303,206,262435,5,8,0:0:0:0:
303,206,262522,5,8,0:0:0:0:
303,206,262609,5,0,0:0:0:0:
303,206,262782,5,8,0:0:0:0:
303,206,262869,5,0,0:0:0:0:
303,206,262956,5,8,0:0:0:0:
303,206,263042,5,8,0:0:0:0:
303,206,263129,5,8,0:0:0:0:
303,206,263302,5,0,0:0:0:0:
303,206,263389,5,0,0:0:0:0:
303,206,263476,5,8,0:0:0:0:
303,206,263649,5,8,0:0:0:0:
303,206,263823,5,0,0:0:0:0:
303,206,263996,5,8,0:0:0:0:
303,206,264169,5,0,0:0:0:0:
303,206,264343,5,0,0:0:0:0:
303,206,264430,5,0,0:0:0:0:
303,206,264516,5,8,0:0:0:0:
303,206,264690,5,0,0:0:0:0:
303,206,264863,5,8,0:0:0:0:
303,206,265037,5,0,0:0:0:0:
303,206,265210,5,8,0:0:0:0:
303,206,265297,5,8,0:0:0:0:
303,206,265383,5,0,0:0:0:0:
303,206,265470,5,0,0:0:0:0:
303,206,265557,5,8,0:0:0:0:
303,206,265730,5,0,0:0:0:0:
303,206,265904,5,12,0:0:0:0:
303,206,266077,5,12,0:0:0:0:
303,206,266424,5,4,0:0:0:0:
303,206,266597,5,12,0:0:0:0:
303,206,266944,5,12,0:0:0:0:
303,206,267117,5,4,0:0:0:0:
303,206,267464,5,0,0:0:0:0:
303,206,267811,5,0,0:0:0:0:
303,206,268158,5,0,0:0:0:0:
303,206,268505,5,0,0:0:0:0:
303,206,268678,5,12,0:0:0:0:
