osu file format v14

[General]
AudioFilename: audio.mp3
AudioLeadIn: 1500
PreviewTime: 146250
Countdown: 0
SampleSet: Soft
StackLeniency: 0.7
Mode: 2
LetterboxInBreaks: 0
WidescreenStoryboard: 0

[Editor]
Bookmarks: 8450,10450,20050,24450,24850,26050,26450,38850,56450,56650,166450,167250,168050
DistanceSpacing: 0.7
BeatDivisor: 4
GridSize: 16
TimelineZoom: 1.4

[Metadata]
Title:START:DASH!!
TitleUnicode:START:DASH!!
Artist:u's
ArtistUnicode:u's
Creator:Dapuluous
Version:Hopes and Dreams
Source:Love Live! School Idol Project
Tags:muse lantis sunrise ラブライブ ending ost
BeatmapID:1707932
BeatmapSetID:814442

[Difficulty]
HPDrainRate:6
CircleSize:4
OverallDifficulty:9
ApproachRate:9
SliderMultiplier:1.8
SliderTickRate:2

[Events]
//Background and Video events
0,0,"97.jpg",0,0
Video,0,"video.avi"
//Break Periods
//Storyboard Layer 0 (Background)
//Storyboard Layer 1 (Fail)
//Storyboard Layer 2 (Pass)
//Storyboard Layer 3 (Foreground)
//Storyboard Sound Samples

[TimingPoints]
-750,400,4,2,2,50,1,0
5850,-100,4,2,1,40,0,0
6250,-100,4,2,1,44,0,0
6450,-100,4,2,1,48,0,0
6650,-100,4,2,1,52,0,0
6850,-100,4,2,1,56,0,0
7050,-100,4,2,1,60,0,0
7250,-100,4,2,1,65,0,0
10450,-100,4,2,1,60,0,0
19450,-100,4,2,1,50,0,0
20050,-100,4,2,1,45,0,0
23250,-100,4,2,1,50,0,0
34850,-100,4,2,1,60,0,0
35250,-100,4,2,1,50,0,0
45650,-100,4,2,1,60,0,0
48850,-100,4,2,1,40,0,0
54450,-100,4,2,1,50,0,0
55250,-100,4,2,1,55,0,0
59850,-100,4,2,1,60,0,0
61450,-100,4,2,1,70,0,0
63250,-100,4,2,1,80,0,1
90450,-100,4,2,1,50,0,0
92050,-100,4,2,1,65,0,0
93650,-100,4,2,1,45,0,0
106450,-100,4,2,1,50,0,0
116050,-100,4,2,1,70,0,0
119250,-100,4,2,1,40,0,0
124850,-100,4,2,1,50,0,0
125650,-100,4,2,1,55,0,0
130250,-100,4,2,1,60,0,0
131850,-100,4,2,1,70,0,0
133650,-100,4,2,1,80,0,1
145650,-100,4,2,1,55,0,1
146450,-100,4,2,1,80,0,1
158450,-100,4,2,1,55,0,0
159250,-100,4,2,1,80,0,0
160850,-100,4,2,1,50,0,0
172850,-100,4,2,1,40,0,0
173250,-100,4,2,1,50,0,0
173650,-100,4,2,1,60,0,0
175250,-100,4,2,1,70,0,0
188050,-100,4,2,1,60,0,0
189450,-100,4,2,1,70,0,0
190650,-100,4,2,1,60,0,0
190850,-100,4,2,1,50,0,0
191050,-100,4,2,1,40,0,0
191250,-100,4,2,1,50,0,0
197650,-100,4,2,1,55,0,0
200850,-100,4,2,1,40,0,0
201250,-100,4,2,1,44,0,0
201650,-100,4,2,1,48,0,0
202050,-100,4,2,1,52,0,0
202450,-100,4,2,1,56,0,0
202850,-100,4,2,1,60,0,0
203250,-100,4,2,1,65,0,0
203650,-100,4,2,1,55,0,0
204050,-100,4,2,1,80,0,1
208450,-100,4,3,1,70,0,1
208550,-100,4,2,1,80,0,1
211650,-100,4,3,1,70,0,1
211750,-100,4,2,1,80,0,1
216050,-100,4,2,1,55,0,1
216850,-100,4,2,1,80,0,1
223250,-100,4,2,1,50,0,1
223450,-100,4,2,1,55,0,1
224250,-100,4,2,1,50,0,1
225050,-100,4,2,1,55,0,1
225850,-100,4,2,1,50,0,1
226650,-100,4,2,1,55,0,1
227450,-100,4,2,1,50,0,1
229650,-100,4,2,1,80,0,1
231250,-100,4,2,1,55,0,1
232850,-100,4,2,1,65,0,0
234450,-100,4,2,1,55,0,0
245650,-100,4,2,1,45,0,0
246050,-100,4,2,1,40,0,0
246450,-100,4,2,1,35,0,0
246850,-100,4,2,1,32,0,0
247250,-100,4,2,1,29,0,0
247650,-100,4,2,1,26,0,0
248050,-100,4,2,1,23,0,0
248450,-100,4,2,1,20,0,0
248850,-100,4,2,1,17,0,0
249250,-100,4,2,1,14,0,0
249650,-100,4,2,1,11,0,0
250050,-100,4,2,1,8,0,0
250450,-100,4,2,1,5,0,0

[Colours]
Combo1 : 192,192,192
Combo2 : 128,128,255
Combo3 : 255,128,128
Combo4 : 128,255,255
Combo5 : 0,255,128
Combo6 : 255,128,0

[HitObjects]
80,352,650,5,2,0:0:0:0:
128,352,750,1,2,0:0:0:0:
336,352,850,2,0,P|384:272|304:224,1,180,2|2,0:0|0:0,0:0:0:0:
32,224,1450,1,2,0:0:0:0:
416,160,2250,5,2,0:0:0:0:
368,160,2350,1,2,0:0:0:0:
160,160,2450,2,0,P|112:80|192:32,1,180,2|2,0:0|0:0,0:0:0:0:
480,32,3050,1,2,0:0:0:0:
160,144,3450,5,0,0:0:0:0:
208,144,3550,1,0,0:0:0:0:
240,192,3650,1,0,0:0:0:0:
240,240,3750,1,0,0:0:0:0:
208,272,3850,1,2,0:0:0:0:
160,272,3950,1,2,0:0:0:0:
400,272,4050,6,0,L|480:336,2,90,2|0|0,0:0|0:0|0:0,0:0:0:0:
96,32,4650,2,0,P|48:80|112:160,1,180,2|0,0:0|0:0,0:0:0:0:
480,320,5250,1,0,0:0:0:0:
208,240,5450,2,0,P|176:288|272:304,1,180,2|8,0:0|0:0,0:0:0:0:
432,144,6050,5,8,0:0:0:0:
256,144,6250,1,8,0:0:0:0:
448,144,6450,1,8,0:0:0:0:
240,144,6650,1,8,0:0:0:0:
464,32,6850,2,0,L|496:96,1,45,8|0,0:0|0:0,0:0:0:0:
208,32,7050,2,0,L|192:80,1,45,8|0,0:0|0:0,0:0:0:0:
416,224,7250,6,0,P|448:272|448:336,1,90,6|0,0:0|0:0,0:0:0:0:
176,336,7650,1,8,0:0:0:0:
384,144,7850,2,0,L|294:144,2,90,0|2|0,0:0|0:0|0:0,0:0:0:0:
112,336,8450,1,8,0:0:0:0:
240,336,8650,2,0,P|256:256|160:240,1,180,2|2,0:0|0:0,0:0:0:0:
448,48,9250,1,8,0:0:0:0:
304,48,9450,1,0,0:0:0:0:
448,144,9650,2,0,P|464:192|448:256,1,90,2|0,0:0|0:0,0:0:0:0:
176,144,10050,2,0,P|160:192|176:256,1,90,8|0,0:0|0:0,0:0:0:0:
448,320,10450,5,2,0:0:0:0:
64,320,10850,2,0,P|32:224|96:144,1,180,8|2,0:0|0:0,0:0:0:0:
160,320,11450,1,0,0:0:0:0:
448,48,11650,1,8,0:0:0:0:
464,88,11750,1,0,0:0:0:0:
447,128,11850,1,0,0:0:0:0:
406,144,11950,1,0,0:0:0:0:
208,32,12050,2,0,L|112:80,1,90,2|0,0:0|0:0,0:0:0:0:
304,192,12450,6,0,L|384:240,1,90,8|0,0:0|0:0,0:0:0:0:
96,192,12850,2,0,L|16:272,1,90,2|0,0:0|0:0,0:0:0:0:
352,64,13250,1,8,0:0:0:0:
224,64,13450,2,0,L|208:112,1,45,2|0,0:0|0:0,0:0:0:0:
432,288,13650,6,0,L|336:288,1,90,6|0,0:0|0:0,0:0:0:0:
64,288,14050,2,0,L|144:192,1,90,8|0,0:0|0:0,0:0:0:0:
272,352,14450,2,0,L|160:352,1,90,2|0,0:0|0:0,0:0:0:0:
464,224,14850,1,8,0:0:0:0:
336,144,15050,2,0,L|464:144,2,90,2|0|2,0:0|0:0|0:0,0:0:0:0:
64,144,15650,2,0,L|32:240,1,90,8|0,0:0|0:0,0:0:0:0:
160,64,16050,2,0,L|70:64,1,90,2|0,0:0|0:0,0:0:0:0:
368,304,16450,2,0,L|464:304,1,90,8|0,0:0|0:0,0:0:0:0:
128,192,16850,5,2,0:0:0:0:
480,192,17250,2,0,P|480:112|384:64,1,180,8|2,0:0|0:0,0:0:0:0:
304,64,17850,1,0,0:0:0:0:
32,64,18050,2,0,L|32:160,1,90,8|0,0:0|0:0,0:0:0:0:
304,192,18450,6,0,L|192:192,1,90,2|0,0:0|0:0,0:0:0:0:
480,192,18850,2,0,L|480:288,1,90,8|2,0:0|0:0,0:0:0:0:
192,288,19250,1,8,0:0:0:0:
464,112,19450,5,8,0:0:0:0:
448,64,19550,1,8,0:0:0:0:
400,48,19650,1,8,0:0:0:0:
128,48,19750,5,8,0:0:0:0:
80,64,19850,1,8,0:0:0:0:
64,112,19950,1,8,0:0:0:0:
320,192,20050,2,0,P|416:224|480:288,1,180,6|2,0:0|0:0,0:0:0:0:
288,320,20650,1,0,0:0:0:0:
96,320,20850,2,0,L|32:256,1,90,2|0,0:0|0:0,0:0:0:0:
304,192,21250,1,8,0:0:0:0:
32,192,21650,6,0,L|96:256,1,90,2|0,0:0|0:0,0:0:0:0:
240,272,22050,2,0,L|176:208,1,90,2|0,0:0|0:0,0:0:0:0:
32,80,22450,2,0,L|96:144,1,90,2|2,0:0|0:0,0:0:0:0:
384,144,22850,2,0,L|444:56,1,90,2|2,0:0|3:0,0:0:0:0:
112,32,23250,1,2,0:0:0:0:
432,256,23650,5,2,0:0:0:0:
304,320,23850,1,0,0:0:0:0:
432,256,24050,1,2,0:0:0:0:
304,320,24250,1,0,0:0:0:0:
32,192,24450,2,0,L|144:192,1,90,8|0,0:0|0:0,0:0:0:0:
400,176,24850,6,0,P|408:104|320:48,1,180,2|2,0:0|0:0,0:0:0:0:
48,32,25450,2,0,L|160:32,1,90,0|2,0:0|0:0,0:0:0:0:
352,256,25850,1,8,3:0:0:0:
160,256,26050,1,2,0:0:0:0:
352,256,26250,1,8,0:0:0:0:
64,256,26450,1,2,0:0:0:0:
432,128,26850,5,2,0:0:0:0:
304,128,27050,1,0,0:0:0:0:
176,128,27250,1,2,0:0:0:0:
304,128,27450,1,0,0:0:0:0:
32,96,27650,2,0,L|32:192,1,90,8|0,0:0|0:0,0:0:0:0:
320,240,28050,6,0,L|432:240,1,90,2|0,0:0|0:0,0:0:0:0:
192,336,28450,2,0,L|282:336,2,90,2|0|2,0:0|0:0|0:0,0:0:0:0:
400,336,29050,1,8,3:0:0:0:
224,208,29250,1,2,0:0:0:0:
48,96,29450,1,8,0:0:0:0:
336,96,29650,5,2,0:0:0:0:
32,208,30050,2,0,L|128:208,1,90,2|0,0:0|0:0,0:0:0:0:
304,272,30450,2,0,L|208:272,1,90,2|0,0:0|0:0,0:0:0:0:
496,224,30850,2,0,L|400:224,1,90,8|0,0:0|0:0,0:0:0:0:
128,80,31250,6,0,P|192:64|304:128,1,180,2|2,0:0|0:0,0:0:0:0:
96,192,31850,1,0,0:0:0:0:
288,192,32050,2,0,L|404:128,1,90,2|8,0:0|3:0,0:0:0:0:
208,192,32450,2,0,L|112:256,1,90,2|8,0:0|0:0,0:0:0:0:
464,320,32850,5,2,0:0:0:0:
392,268,33050,1,0,0:0:0:0:
365,184,33250,1,2,0:0:0:0:
394,100,33450,1,0,0:0:0:0:
467,50,33650,1,2,0:0:0:0:
128,320,33850,2,0,L|32:320,2,90,8|8|0,0:0|0:0|0:0,0:0:0:0:
400,352,34450,5,2,0:0:0:0:
80,208,34850,2,0,P|32:160|96:96,1,135,12|0,0:0|0:0,0:0:0:0:
288,48,35250,5,8,0:0:0:0:
336,48,35350,1,8,0:0:0:0:
384,48,35450,1,8,0:0:0:0:
336,48,35550,1,8,0:0:0:0:
128,48,35650,5,2,0:0:0:0:
80,48,35750,1,2,0:0:0:0:
32,48,35850,1,2,0:0:0:0:
80,48,35950,1,2,0:0:0:0:
320,192,36050,6,0,P|368:256|368:288,1,90,6|0,0:0|0:0,0:0:0:0:
80,320,36450,1,8,0:0:0:0:
208,320,36650,1,0,0:0:0:0:
336,320,36850,1,2,0:0:0:0:
208,320,37050,1,2,0:0:0:0:
480,320,37250,2,0,L|480:224,1,90,8|0,0:0|0:0,0:0:0:0:
176,192,37650,6,0,P|128:128|144:96,1,90,2|0,0:0|0:0,0:0:0:0:
416,144,38050,2,0,L|496:80,1,90,8|0,0:0|0:0,0:0:0:0:
320,112,38450,2,0,L|400:48,1,90,2|2,0:0|0:0,0:0:0:0:
112,240,38850,2,0,L|32:288,1,90,8|0,0:0|0:0,0:0:0:0:
320,240,39250,5,2,0:0:0:0:
32,96,39650,6,0,L|32:192,1,90,8|0,0:0|0:0,0:0:0:0:
176,112,40051,2,0,L|80:112,1,90,2|2,0:0|0:0,0:0:0:0:
384,240,40450,1,8,0:0:0:0:
64,288,40850,6,0,L|176:288,1,90,2|0,0:0|0:0,0:0:0:0:
432,144,41250,2,0,L|304:144,1,90,8|0,0:0|0:0,0:0:0:0:
144,144,41650,2,0,L|64:208,1,90,2|2,0:0|0:0,0:0:0:0:
368,192,42050,2,0,L|304:272,1,90,8|0,0:0|0:0,0:0:0:0:
32,64,42450,5,2,0:0:0:0:
352,336,42850,1,8,0:0:0:0:
480,336,43050,1,0,0:0:0:0:
352,336,43250,1,2,0:0:0:0:
224,336,43450,1,2,0:0:0:0:
496,192,43650,2,0,L|480:96,1,90,8|0,0:0|0:0,0:0:0:0:
160,192,44050,6,0,L|176:80,1,90,2|0,0:0|0:0,0:0:0:0:
496,192,44450,2,0,L|480:288,1,90,8|2,0:0|0:0,0:0:0:0:
336,352,44850,2,0,L|448:352,1,90,0|2,0:0|0:0,0:0:0:0:
112,288,45250,2,0,L|16:288,1,90,8|2,0:0|0:0,0:0:0:0:
304,64,45650,6,0,P|391:75|464:144,1,180,6|8,0:0|0:0,0:0:0:0:
176,144,46250,2,0,P|100:152|44:60,1,180,6|2,0:0|0:0,0:0:0:0:
224,64,46850,1,8,0:0:0:0:
496,256,47050,2,0,P|453:333|367:346,1,180,6|2,0:0|0:0,0:0:0:0:
160,256,47650,2,0,L|288:256,1,90,8|2,0:0|0:0,0:0:0:0:
32,128,48050,5,8,0:0:0:0:
304,128,48250,1,8,0:0:0:0:
32,128,48450,1,2,0:0:0:0:
356,72,48850,5,6,0:0:0:0:
208,48,49050,2,0,L|112:48,2,90,2|0|2,0:0|0:0|0:0,0:0:0:0:
416,176,49650,2,0,L|480:240,2,90,8|0|2,0:0|0:0|0:0,0:0:0:0:
192,192,50250,2,0,L|144:288,1,90,8|0,0:0|0:0,0:0:0:0:
368,272,50650,2,0,L|272:272,2,90,8|0|2,0:0|0:0|0:0,0:0:0:0:
80,160,51250,2,0,L|48:64,1,90,8|0,0:0|0:0,0:0:0:0:
272,32,51650,2,0,L|160:32,1,90,2|8,0:0|0:0,0:0:0:0:
480,192,52050,5,2,0:0:0:0:
208,192,52450,2,0,L|112:192,1,90,0|2,0:0|0:0,0:0:0:0:
336,320,52850,2,0,L|246:320,2,90,8|0|2,0:0|0:0|0:0,0:0:0:0:
112,112,53450,2,0,L|144:16,1,90,8|0,0:0|0:0,0:0:0:0:
352,112,53850,2,0,L|256:112,2,90,8|0|2,0:0|0:0|0:0,0:0:0:0:
48,192,54450,1,8,0:0:0:0:
320,192,54850,2,0,L|432:192,1,90,8|0,0:0|0:0,0:0:0:0:
112,32,55250,6,0,L|64:128,1,90,6|0,0:0|0:0,0:0:0:0:
352,272,55650,2,0,L|464:272,1,90,8|0,0:0|0:0,0:0:0:0:
304,352,56050,2,0,L|432:352,1,90,2|2,0:0|0:0,0:0:0:0:
112,352,56450,1,8,0:0:0:0:
384,112,56650,2,0,P|272:48|208:64,1,180,2|2,0:0|0:0,0:0:0:0:
496,192,57250,2,0,L|416:256,1,90,8|0,0:0|0:0,0:0:0:0:
208,272,57650,2,0,L|128:192,1,90,2|2,0:0|0:0,0:0:0:0:
416,32,58050,2,0,L|496:112,1,90,8|0,0:0|0:0,0:0:0:0:
192,32,58450,6,0,P|224:112|320:112,1,180,6|8,0:0|0:0,0:0:0:0:
96,208,59050,2,0,L|16:288,1,90,0|2,0:0|0:0,0:0:0:0:
256,224,59450,2,0,L|176:304,1,90,0|8,0:0|0:0,0:0:0:0:
480,208,59850,6,0,P|448:288|352:288,1,180,6|2,0:0|0:0,0:0:0:0:
144,128,60450,2,0,L|256:128,2,90,8|0|2,0:0|0:0|0:0,0:0:0:0:
432,128,61050,2,0,L|496:32,1,90,0|8,0:0|0:0,0:0:0:0:
96,48,61450,5,6,0:0:0:0:
368,256,62450,2,0,L|400:256,6,30,2|0|0|0|0|0|8,0:0|0:0|0:0|0:0|0:0|0:0|0:0,0:0:0:0:
160,192,63050,2,0,L|96:144,1,45,2|0,0:0|0:0,0:0:0:0:
352,144,63250,6,0,B|416:144|432:96,2,90,6|0|8,0:0|0:0|0:0,0:0:0:0:
128,80,63850,2,0,L|240:80,1,90,0|2,0:0|0:0,0:0:0:0:
432,288,64250,2,0,L|342:288,2,90,2|8|0,0:0|0:0|0:0,0:0:0:0:
144,288,64850,2,0,L|32:288,2,90,2|2|8,0:0|0:0|0:0,0:0:0:0:
368,224,65450,2,0,P|448:192|464:80,1,180,2|2,0:0|0:0,0:0:0:0:
256,64,66050,2,0,L|368:64,1,90,8|0,0:0|0:0,0:0:0:0:
64,192,66450,6,0,L|32:288,1,90,2|2,0:0|0:0,0:0:0:0:
176,192,66850,1,8,0:0:0:0:
448,192,67050,2,0,L|320:192,2,90,2|0|2,0:0|0:0|0:0,0:0:0:0:
304,288,67650,2,0,L|416:288,1,90,8|0,0:0|0:0,0:0:0:0:
80,192,68050,5,2,0:0:0:0:
352,192,68250,2,0,L|448:192,1,90,2|8,0:0|0:0,0:0:0:0:
160,192,68650,2,0,P|80:224|32:304,1,180,2|2,0:0|0:0,0:0:0:0:
256,336,69250,2,0,L|368:336,1,90,8|0,0:0|0:0,0:0:0:0:
32,336,69650,5,6,0:0:0:0:
304,256,69850,1,2,0:0:0:0:
32,336,70050,1,8,0:0:0:0:
304,256,70250,2,0,L|416:256,1,90,2|0,0:0|0:0,0:0:0:0:
176,256,70650,2,0,L|80:256,2,90,2|8|0,0:0|0:0|0:0,0:0:0:0:
448,192,71250,6,0,P|468:144|432:96,1,90,2|2,0:0|0:0,0:0:0:0:
320,80,71650,1,8,0:0:0:0:
32,80,71850,2,0,P|48:160|160:192,1,180,2|2,0:0|0:0,0:0:0:0:
336,192,72450,2,0,L|432:192,1,90,8|2,0:0|0:0,0:0:0:0:
112,288,72850,5,2,0:0:0:0:
464,240,73250,1,8,0:0:0:0:
112,288,73650,1,2,0:0:0:0:
464,240,74050,1,8,0:0:0:0:
64,304,74450,5,2,0:0:0:0:
432,256,74850,1,8,0:0:0:0:
96,192,75250,2,0,L|32:144,1,45,8|8,0:0|0:0,0:0:0:0:
240,192,75450,2,0,L|304:144,1,45,8|0,0:0|0:0,0:0:0:0:
464,96,75650,2,0,L|416:64,1,45,8|0,0:0|0:0,0:0:0:0:
240,80,75850,2,0,L|192:47,1,45,8|0,0:0|0:0,0:0:0:0:
416,192,76050,6,0,L|496:272,2,90,6|2|8,0:0|0:0|0:0,0:0:0:0:
144,192,76650,2,0,L|32:192,1,90,2|0,0:0|0:0,0:0:0:0:
336,304,77050,2,0,L|464:304,2,90,2|8|0,0:0|0:0|0:0,0:0:0:0:
48,288,77650,6,0,L|144:288,2,90,2|2|8,0:0|0:0|0:0,0:0:0:0:
240,256,78250,2,0,P|288:208|208:128,1,180,2|2,0:0|0:0,0:0:0:0:
32,112,78850,2,0,L|32:208,1,90,8|0,0:0|0:0,0:0:0:0:
400,256,79250,6,0,L|512:256,2,90,2|2|8,0:0|0:0|0:0,0:0:0:0:
128,192,79850,2,0,L|240:192,1,90,2|0,0:0|0:0,0:0:0:0:
432,64,80250,2,0,L|336:64,2,90,2|8|0,0:0|0:0|0:0,0:0:0:0:
112,112,80850,5,2,0:0:0:0:
384,224,81050,1,2,0:0:0:0:
112,112,81250,1,8,0:0:0:0:
384,144,81450,2,0,L|496:144,1,90,2|0,0:0|0:0,0:0:0:0:
272,240,81850,1,2,0:0:0:0:
144,240,82050,1,8,0:0:0:0:
16,240,82250,1,2,0:0:0:0:
400,240,82450,5,6,0:0:0:0:
208,144,82650,2,0,L|320:144,2,90,0|8|0,0:0|0:0|0:0,0:0:0:0:
336,144,83250,1,2,0:0:0:0:
112,288,83450,2,0,L|39:340,2,90,0|8|0,0:0|0:0|0:0,0:0:0:0:
384,288,84050,5,2,0:0:0:0:
192,288,84250,2,0,L|282:288,2,90,0|8|0,0:0|0:0|0:0,0:0:0:0:
304,288,84850,5,2,0:0:0:0:
96,80,85050,2,0,L|208:80,2,90,0|8|0,0:0|0:0|0:0,0:0:0:0:
368,80,85650,5,2,0:0:0:0:
96,160,85850,2,0,L|16:240,2,90,0|8|0,0:0|0:0|0:0,0:0:0:0:
288,64,86450,5,2,0:0:0:0:
432,64,86650,1,2,0:0:0:0:
288,64,86850,1,8,0:0:0:0:
144,64,87050,1,0,0:0:0:0:
416,192,87250,6,0,P|448:240|432:288,1,90,2|0,0:0|0:0,0:0:0:0:
224,192,87650,2,0,L|96:192,1,90,8|2,0:0|0:0,0:0:0:0:
432,48,88050,1,8,0:0:0:0:
463,78,88150,1,8,0:0:0:0:
465,122,88250,1,8,0:0:0:0:
438,156,88350,1,8,0:0:0:0:
208,304,88450,2,0,L|114:256,1,90,8|2,0:0|0:0,0:0:0:0:
438,156,88850,6,0,P|480:192|416:304,1,180,6|8,0:0|0:0,0:0:0:0:
320,304,89450,1,2,0:0:0:0:
32,304,89650,2,0,P|96:240|208:240,1,180,2|8,0:0|0:0,0:0:0:0:
32,144,90250,1,2,0:0:0:0:
336,144,90450,5,6,0:0:0:0:
128,48,91250,1,0,0:0:0:0:
32,48,91450,1,0,0:0:0:0:
128,48,91650,1,2,0:0:0:0:
464,48,92050,5,6,0:0:0:0:
256,192,92250,12,0,95250,0:0:0:0:
112,192,95650,6,0,P|176:96|256:112,1,180,0|0,0:0|0:0,0:0:0:0:
368,96,96250,1,0,0:0:0:0:
80,288,96450,2,0,L|192:288,1,90,0|0,0:0|0:0,0:0:0:0:
448,208,96850,6,0,L|336:208,1,90,0|0,0:0|0:0,0:0:0:0:
80,192,97250,2,0,L|16:96,1,90,0|0,0:0|0:0,0:0:0:0:
256,192,97650,2,0,L|368:192,1,90,0|0,0:0|0:0,0:0:0:0:
32,48,98050,1,0,0:0:0:0:
240,48,98250,2,0,L|320:48,1,45,0|0,0:0|0:0,0:0:0:0:
96,288,98450,6,0,L|16:368,1,90,0|0,0:0|0:0,0:0:0:0:
256,288,98850,2,0,L|144:288,1,90,0|0,0:0|0:0,0:0:0:0:
304,208,99250,2,0,L|214:208,1,90,0|0,0:0|0:0,0:0:0:0:
496,208,99650,1,0,0:0:0:0:
352,96,99850,2,0,L|224:96,2,90,0|0|0,0:0|0:0|0:0,0:0:0:0:
64,96,100450,2,0,L|32:192,1,90,0|0,0:0|0:0,0:0:0:0:
240,64,100850,6,0,L|150:64,1,90,0|0,0:0|0:0,0:0:0:0:
448,320,101250,2,0,L|352:320,1,90,0|0,0:0|0:0,0:0:0:0:
80,320,101650,5,0,0:0:0:0:
432,192,102050,2,0,P|400:112|288:96,1,180,0|0,0:0|0:0,0:0:0:0:
464,32,102650,1,0,0:0:0:0:
176,48,102850,2,0,L|112:128,1,90,0|0,0:0|0:0,0:0:0:0:
400,272,103250,6,0,L|496:208,1,90,0|0,0:0|0:0,0:0:0:0:
192,192,103650,2,0,L|304:192,1,90,0|0,0:0|0:0,0:0:0:0:
16,192,104050,1,0,0:0:0:0:
288,112,104250,5,0,0:0:0:0:
272,64,104350,1,0,0:0:0:0:
224,48,104450,1,0,0:0:0:0:
400,48,104550,1,0,0:0:0:0:
448,64,104650,1,0,0:0:0:0:
464,112,104750,1,0,0:0:0:0:
256,192,104850,6,0,P|160:224|48:368,1,270,0|0,0:0|0:0,0:0:0:0:
352,320,105650,1,0,0:0:0:0:
32,192,106050,1,8,0:0:0:0:
352,320,106450,5,6,0:0:0:0:
80,256,106850,2,0,P|32:320|32:352,1,90,8|0,0:0|0:0,0:0:0:0:
176,64,107250,1,2,0:0:0:0:
48,64,107450,1,2,0:0:0:0:
320,128,107650,1,8,0:0:0:0:
176,128,107850,1,0,0:0:0:0:
448,192,108050,6,0,L|496:304,1,90,2|0,0:0|0:0,0:0:0:0:
192,288,108450,6,0,L|128:208,1,90,8|0,0:0|0:0,0:0:0:0:
282,288,108850,2,0,L|186:288,1,90,2|2,0:0|0:0,0:0:0:0:
480,48,109250,2,0,L|416:112,1,90,8|2,0:0|0:0,0:0:0:0:
80,112,109650,1,2,0:0:0:0:
400,192,110050,6,0,L|512:192,1,90,8|0,0:0|0:0,0:0:0:0:
336,288,110451,2,0,L|432:288,1,90,2|2,0:0|0:0,0:0:0:0:
128,240,110850,2,0,L|80:144,1,90,8|0,0:0|0:0,0:0:0:0:
304,80,111250,6,0,L|192:80,1,90,2|0,0:0|0:0,0:0:0:0:
496,48,111650,2,0,L|480:176,1,90,8|0,0:0|0:0,0:0:0:0:
336,192,112050,2,0,L|416:256,1,90,2|2,0:0|0:0,0:0:0:0:
128,192,112450,2,0,L|208:272,1,90,8|0,0:0|0:0,0:0:0:0:
480,64,112850,5,2,0:0:0:0:
160,80,113250,6,0,L|64:80,1,90,8|0,0:0|0:0,0:0:0:0:
224,80,113650,2,0,L|320:80,1,90,2|2,0:0|0:0,0:0:0:0:
37,302,114050,2,0,L|112:352,1,90,8|0,0:0|0:0,0:0:0:0:
336,352,114450,6,0,L|448:352,1,90,2|0,0:0|0:0,0:0:0:0:
144,192,114850,2,0,L|32:192,2,90,8|0|2,0:0|0:0|0:0,0:0:0:0:
16,96,115450,1,2,0:0:0:0:
304,96,115650,2,0,L|416:96,1,90,8|2,0:0|0:0,0:0:0:0:
112,192,116050,6,0,P|35:231|30:317,1,180,6|8,0:0|0:0,0:0:0:0:
352,48,116650,2,0,P|432:48|482:143,1,180,6|2,0:0|0:0,0:0:0:0:
352,144,117250,1,8,0:0:0:0:
29,316,117450,2,0,P|21:264|123:187,1,180,6|2,0:0|0:0,0:0:0:0:
416,176,118050,2,0,P|447:209|455:253,1,90,8|2,0:0|0:0,0:0:0:0:
176,112,118450,5,8,0:0:0:0:
448,112,118650,1,8,0:0:0:0:
176,112,118850,1,2,0:0:0:0:
480,272,119250,5,6,0:0:0:0:
336,272,119450,2,0,L|232:272,2,90,2|0|2,0:0|0:0|0:0,0:0:0:0:
112,192,120050,2,0,L|16:192,2,90,8|0|2,0:0|0:0|0:0,0:0:0:0:
224,192,120650,1,8,0:0:0:0:
496,192,120850,5,0,0:0:0:0:
170,75,121250,1,0,0:0:0:0:
496,192,121650,1,8,0:0:0:0:
256,192,122050,2,0,L|368:192,1,90,2|8,0:0|0:0,0:0:0:0:
32,192,122450,5,2,0:0:0:0:
176,288,122650,1,2,0:0:0:0:
304,288,122850,1,0,0:0:0:0:
432,288,123050,1,2,0:0:0:0:
208,192,123250,1,8,0:0:0:0:
336,192,123450,1,0,0:0:0:0:
464,192,123650,2,0,L|368:192,1,90,2|8,0:0|0:0,0:0:0:0:
80,192,124050,5,0,0:0:0:0:
416,48,124450,1,0,0:0:0:0:
80,192,124850,5,8,0:0:0:0:
32,208,124950,1,8,0:0:0:0:
48,256,125050,1,2,0:0:0:0:
368,192,125250,1,8,0:0:0:0:
416,192,125350,1,8,0:0:0:0:
464,256,125450,1,2,0:0:0:0:
416,256,125550,1,2,0:0:0:0:
112,32,125650,6,0,L|64:128,1,90,6|0,0:0|0:0,0:0:0:0:
352,272,126050,2,0,L|464:272,1,90,8|0,0:0|0:0,0:0:0:0:
304,352,126450,2,0,L|432:352,1,90,2|2,0:0|0:0,0:0:0:0:
112,352,126850,1,8,0:0:0:0:
384,112,127050,2,0,P|272:48|208:64,1,180,0|0,0:0|0:0,0:0:0:0:
16,192,127650,2,0,L|96:256,1,90,8|0,0:0|0:0,0:0:0:0:
304,272,128050,2,0,L|384:192,1,90,2|2,0:0|0:0,0:0:0:0:
96,32,128450,6,0,L|16:112,1,90,8|2,0:0|0:0,0:0:0:0:
320,32,128850,6,0,P|288:112|192:112,1,180,6|8,0:0|0:0,0:0:0:0:
416,208,129450,2,0,L|496:288,1,90,0|2,0:0|0:0,0:0:0:0:
256,224,129850,2,0,L|336:304,1,90,0|8,0:0|0:0,0:0:0:0:
32,208,130250,6,0,P|64:288|160:288,1,180,6|2,0:0|0:0,0:0:0:0:
368,144,130850,2,0,L|480:144,2,90,8|0|2,0:0|0:0|0:0,0:0:0:0:
80,128,131450,2,0,L|16:32,1,90,0|8,0:0|0:0,0:0:0:0:
416,48,131850,5,6,0:0:0:0:
128,256,132850,2,0,L|96:256,6,30,2|0|0|0|0|0|8,0:0|0:0|0:0|0:0|0:0|0:0|0:0,0:0:0:0:
352,192,133450,2,0,L|416:144,1,45,2|0,0:0|0:0,0:0:0:0:
160,144,133650,6,0,B|96:144|80:96,2,90,6|0|8,0:0|0:0|0:0,0:0:0:0:
384,80,134250,2,0,L|272:80,1,90,0|2,0:0|0:0,0:0:0:0:
80,288,134650,2,0,L|170:288,2,90,2|8|0,0:0|0:0|0:0,0:0:0:0:
368,288,135250,6,0,L|480:288,2,90,2|0|8,0:0|0:0|0:0,0:0:0:0:
144,224,135850,2,0,P|64:192|48:80,1,180,2|2,0:0|0:0,0:0:0:0:
256,64,136450,2,0,L|144:64,1,90,8|0,0:0|0:0,0:0:0:0:
448,192,136850,6,0,L|480:288,1,90,2|2,0:0|0:0,0:0:0:0:
352,192,137250,1,8,0:0:0:0:
64,192,137450,2,0,L|192:192,2,90,2|0|2,0:0|0:0|0:0,0:0:0:0:
208,288,138050,2,0,L|96:288,1,90,8|0,0:0|0:0,0:0:0:0:
432,192,138450,5,2,0:0:0:0:
160,192,138650,2,0,L|64:192,1,90,2|8,0:0|0:0,0:0:0:0:
352,192,139050,2,0,P|432:224|480:304,1,180,2|2,0:0|0:0,0:0:0:0:
256,336,139650,2,0,L|144:336,1,90,8|2,0:0|0:0,0:0:0:0:
480,336,140050,5,6,0:0:0:0:
208,256,140250,1,0,0:0:0:0:
480,336,140450,1,8,0:0:0:0:
208,256,140650,2,0,L|96:256,1,90,2|0,0:0|0:0,0:0:0:0:
336,256,141050,2,0,L|432:256,2,90,2|8|0,0:0|0:0|0:0,0:0:0:0:
64,192,141650,6,0,P|44:144|80:96,1,90,2|2,0:0|0:0,0:0:0:0:
192,80,142050,1,8,0:0:0:0:
480,80,142250,2,0,P|464:160|352:192,1,180,2|2,0:0|0:0,0:0:0:0:
176,192,142850,2,0,L|80:192,1,90,8|2,0:0|0:0,0:0:0:0:
400,288,143250,5,2,0:0:0:0:
48,240,143650,1,8,0:0:0:0:
400,288,144050,1,2,0:0:0:0:
48,240,144450,1,8,0:0:0:0:
448,304,144850,5,2,0:0:0:0:
80,256,145250,1,8,0:0:0:0:
416,192,145650,2,0,L|480:144,1,45,8|8,0:0|0:0,0:0:0:0:
272,192,145850,2,0,L|208:144,1,45,8|8,0:0|0:0,0:0:0:0:
48,96,146050,2,0,L|96:64,1,45,8|8,0:0|0:0,0:0:0:0:
272,80,146250,2,0,L|320:47,1,45,8|8,0:0|0:0,0:0:0:0:
96,192,146450,6,0,L|16:272,2,90,6|0|8,0:0|0:0|0:0,0:0:0:0:
368,192,147050,2,0,L|480:192,1,90,2|0,0:0|0:0,0:0:0:0:
176,304,147450,2,0,L|48:304,2,90,2|8|0,0:0|0:0|0:0,0:0:0:0:
464,288,148050,6,0,L|368:288,2,90,2|2|8,0:0|0:0|0:0,0:0:0:0:
256,288,148650,2,0,P|208:240|288:160,1,180,2|2,0:0|0:0,0:0:0:0:
480,112,149250,2,0,L|480:208,1,90,8|2,0:0|0:0,0:0:0:0:
112,256,149650,6,0,L|0:256,2,90,2|2|8,0:0|0:0|0:0,0:0:0:0:
384,192,150250,2,0,L|272:192,1,90,2|0,0:0|0:0,0:0:0:0:
80,64,150650,2,0,L|176:64,2,90,2|8|2,0:0|0:0|0:0,0:0:0:0:
400,112,151250,5,2,0:0:0:0:
128,224,151450,1,2,0:0:0:0:
400,112,151650,1,8,0:0:0:0:
128,144,151850,2,0,L|16:144,1,90,2|0,0:0|0:0,0:0:0:0:
240,240,152250,1,2,0:0:0:0:
368,240,152450,1,8,0:0:0:0:
496,240,152650,1,2,0:0:0:0:
176,144,152850,5,6,0:0:0:0:
320,144,153050,1,0,0:0:0:0:
464,144,153250,1,8,0:0:0:0:
320,144,153450,1,0,0:0:0:0:
176,144,153650,1,2,0:0:0:0:
400,48,153850,2,0,L|512:48,2,90,0|8|0,0:0|0:0|0:0,0:0:0:0:
128,288,154450,5,2,0:0:0:0:
272,288,154650,1,0,0:0:0:0:
416,288,154850,1,8,0:0:0:0:
272,288,155050,1,0,0:0:0:0:
128,288,155250,5,2,0:0:0:0:
416,80,155450,2,0,L|304:80,2,90,0|8|0,0:0|0:0|0:0,0:0:0:0:
144,64,156050,5,2,0:0:0:0:
16,64,156250,1,0,0:0:0:0:
144,64,156450,1,8,0:0:0:0:
272,64,156650,1,0,0:0:0:0:
144,64,156850,5,2,0:0:0:0:
368,192,157050,1,0,0:0:0:0:
224,192,157250,1,8,0:0:0:0:
80,192,157450,1,0,0:0:0:0:
400,192,157650,6,0,P|432:240|416:288,1,90,2|0,0:0|0:0,0:0:0:0:
208,192,158050,2,0,L|80:192,1,90,8|2,0:0|0:0,0:0:0:0:
416,48,158450,1,8,0:0:0:0:
447,78,158550,1,8,0:0:0:0:
449,122,158650,1,8,0:0:0:0:
422,156,158750,1,8,0:0:0:0:
192,304,158850,2,0,L|98:256,1,90,8|8,0:0|0:0,0:0:0:0:
422,156,159250,6,0,P|464:192|400:304,1,180,6|8,0:0|0:0,0:0:0:0:
304,304,159850,1,2,0:0:0:0:
16,304,160050,2,0,P|80:240|192:240,1,180,2|8,0:0|0:0,0:0:0:0:
16,144,160650,1,2,0:0:0:0:
320,144,160850,5,6,0:0:0:0:
16,272,161650,1,0,0:0:0:0:
144,272,161850,1,0,0:0:0:0:
272,272,162050,1,0,0:0:0:0:
144,272,162250,1,0,0:0:0:0:
416,272,162450,5,0,0:0:0:0:
256,192,162650,12,0,164050,0:0:0:0:
448,192,164850,5,0,0:0:0:0:
96,192,165250,1,0,0:0:0:0:
448,304,165650,6,0,L|80:304,3,360,0|0|0|0,0:0|0:0|0:0|0:0,0:0:0:0:
352,192,168450,1,0,0:0:0:0:
32,192,168850,2,0,P|128:96|304:224,2,360,0|0|0,0:0|0:0|0:0,0:0:0:0:
352,192,171250,1,0,0:0:0:0:
144,192,171650,1,0,0:0:0:0:
496,192,172050,5,0,0:0:0:0:
144,192,172850,1,2,0:0:0:0:
352,192,173250,1,0,0:0:0:0:
32,192,173650,5,8,0:0:0:0:
176,304,173850,1,2,0:0:0:0:
32,192,174050,1,2,0:0:0:0:
416,192,174250,5,8,0:0:0:0:
272,304,174450,1,2,0:0:0:0:
416,192,174650,1,2,0:0:0:0:
112,64,174850,2,0,L|0:64,1,90,8|2,0:0|0:0,0:0:0:0:
320,192,175250,6,0,L|448:192,1,90,6|0,0:0|0:0,0:0:0:0:
192,192,175650,2,0,L|144:112,1,90,8|0,0:0|0:0,0:0:0:0:
464,192,176050,2,0,L|476:103,1,90,2|2,0:0|0:0,0:0:0:0:
160,192,176450,2,0,L|149:282,1,90,8|2,0:0|0:0,0:0:0:0:
464,272,177050,5,2,0:0:0:0:
192,96,177250,1,8,0:0:0:0:
336,96,177450,1,2,0:0:0:0:
128,304,177650,2,0,L|39:298,1,90,2|0,0:0|0:0,0:0:0:0:
352,304,178050,2,0,L|448:304,1,90,8|0,0:0|0:0,0:0:0:0:
160,192,178450,6,0,L|32:192,1,90,2|0,0:0|0:0,0:0:0:0:
288,192,178850,2,0,L|336:112,1,90,8|0,0:0|0:0,0:0:0:0:
16,192,179250,2,0,L|64:112,1,90,2|2,0:0|0:0,0:0:0:0:
368,192,179650,2,0,L|416:288,1,90,8|2,0:0|0:0,0:0:0:0:
64,272,180250,5,2,0:0:0:0:
336,96,180450,1,8,0:0:0:0:
192,96,180650,1,2,0:0:0:0:
400,304,180850,2,0,L|496:304,1,90,0|2,0:0|0:0,0:0:0:0:
176,304,181250,2,0,L|80:304,1,90,8|0,0:0|0:0,0:0:0:0:
368,192,181650,5,6,0:0:0:0:
224,192,181850,1,0,0:0:0:0:
64,192,182050,1,8,0:0:0:0:
224,192,182250,1,0,0:0:0:0:
496,112,182450,1,2,0:0:0:0:
352,112,182650,1,2,0:0:0:0:
208,112,182850,1,8,0:0:0:0:
496,112,183050,1,2,0:0:0:0:
176,256,183450,5,2,0:0:0:0:
448,256,183650,2,0,L|320:256,1,90,8|2,0:0|0:0,0:0:0:0:
48,256,184050,2,0,L|144:256,1,90,2|0,0:0|0:0,0:0:0:0:
448,256,184450,1,8,0:0:0:0:
144,192,184850,5,2,0:0:0:0:
448,144,185250,1,8,0:0:0:0:
128,208,185650,1,2,0:0:0:0:
464,128,186050,1,8,0:0:0:0:
112,224,186450,5,2,0:0:0:0:
480,112,186850,1,8,0:0:0:0:
96,240,187250,1,2,0:0:0:0:
468,192,187450,6,0,L|448:236,1,45,8|8,0:0|0:0,0:0:0:0:
288,240,187650,2,0,L|307:200,1,45,8|8,0:0|0:0,0:0:0:0:
464,304,187850,2,0,L|445:344,1,45,8|8,0:0|0:0,0:0:0:0:
192,64,188050,5,6,0:0:0:0:
480,48,188250,1,10,0:0:0:0:
176,144,188650,2,0,L|80:144,1,90,10|10,0:0|0:0,0:0:0:0:
352,144,189250,5,10,0:0:0:0:
64,256,189450,1,12,0:0:0:0:
256,192,189650,12,2,191050,0:0:0:0:
80,192,191250,5,8,0:0:0:0:
448,192,192650,1,8,0:0:0:0:
224,192,192850,5,8,0:0:0:0:
32,192,193850,5,8,0:0:0:0:
352,192,194250,1,8,0:0:0:0:
128,192,194450,5,8,0:0:0:0:
464,192,195850,1,8,0:0:0:0:
240,192,196050,5,8,0:0:0:0:
32,192,197050,5,8,0:0:0:0:
192,192,197450,1,8,0:0:0:0:
464,48,197650,6,0,L|352:48,1,90,6|0,0:0|0:0,0:0:0:0:
240,112,198050,2,0,L|368:112,2,90,2|0|2,0:0|0:0|0:0,0:0:0:0:
112,112,198650,1,0,0:0:0:0:
384,96,198850,1,8,0:0:0:0:
112,112,199050,1,0,0:0:0:0:
432,192,199250,6,0,L|320:192,1,90,2|0,0:0|0:0,0:0:0:0:
128,272,199650,2,0,L|240:272,1,90,2|0,0:0|0:0,0:0:0:0:
16,192,200049,2,0,L|106:192,1,90,2|0,0:0|0:0,0:0:0:0:
400,336,200450,2,0,L|512:336,1,90,8|2,0:0|0:0,0:0:0:0:
176,256,200850,5,2,0:0:0:0:
320,256,201050,1,8,0:0:0:0:
464,256,201250,1,8,0:0:0:0:
320,256,201450,1,8,0:0:0:0:
32,96,201650,5,8,0:0:0:0:
176,96,201850,1,8,0:0:0:0:
320,96,202050,1,8,0:0:0:0:
176,96,202250,1,8,0:0:0:0:
464,96,202450,5,10,0:0:0:0:
128,288,202850,1,10,0:0:0:0:
464,288,203250,1,10,0:0:0:0:
128,192,203650,5,2,0:0:0:0:
80,176,203750,1,2,0:0:0:0:
48,144,203850,1,2,0:0:0:0:
64,96,203950,1,2,0:0:0:0:
288,224,204050,6,0,L|416:224,1,90,6|0,0:0|0:0,0:0:0:0:
96,256,204450,2,0,L|16:336,1,90,8|0,0:0|0:0,0:0:0:0:
176,288,204850,2,0,L|112:351,1,90,2|2,0:0|0:0,0:0:0:0:
400,272,205250,2,0,L|496:272,1,90,8|0,0:0|0:0,0:0:0:0:
208,192,205650,5,2,0:0:0:0:
80,192,205850,1,2,0:0:0:0:
208,192,206050,1,8,0:0:0:0:
480,64,206250,2,0,P|428:52|304:112,1,180,2|2,0:0|0:0,0:0:0:0:
32,64,206850,2,0,L|121:67,1,90,8|0,0:0|0:0,0:0:0:0:
416,240,207250,5,2,0:0:0:0:
272,240,207450,1,2,0:0:0:0:
128,240,207650,1,8,0:0:0:0:
416,240,207850,1,2,0:0:0:0:
272,240,208050,1,0,0:0:0:0:
128,240,208250,2,0,P|64:160|112:96,1,180,2|0,0:0|0:0,0:0:0:0:
368,96,208850,5,2,0:0:0:0:
224,96,209050,1,2,0:0:0:0:
368,96,209250,1,8,0:0:0:0:
74,81,209450,2,0,P|132:47|226:101,1,180,2|2,0:0|0:0,0:0:0:0:
448,192,210050,1,8,0:0:0:0:
304,192,210250,1,0,0:0:0:0:
32,272,210450,5,6,0:0:0:0:
304,192,210650,1,0,0:0:0:0:
32,272,210850,1,8,0:0:0:0:
304,272,211050,2,0,L|416:272,1,90,2|0,0:0|0:0,0:0:0:0:
176,320,211450,2,0,L|272:320,2,90,2|0|0,0:0|0:0|0:0,0:0:0:0:
448,112,212050,5,2,0:0:0:0:
256,112,212250,2,0,L|368:112,1,90,2|8,0:0|0:0,0:0:0:0:
32,112,212650,6,0,P|32:224|112:224,1,180,2|2,0:0|0:0,0:0:0:0:
224,240,213250,1,8,0:0:0:0:
368,240,213450,1,2,0:0:0:0:
80,320,213650,5,2,0:0:0:0:
400,320,214050,1,8,0:0:0:0:
64,304,214450,1,2,0:0:0:0:
416,304,214850,1,8,0:0:0:0:
48,288,215250,5,2,0:0:0:0:
432,288,215650,1,8,0:0:0:0:
112,192,216050,2,0,L|64:128,1,45,8|8,0:0|0:0,0:0:0:0:
256,192,216250,2,0,L|288:144,1,45,8|8,0:0|0:0,0:0:0:0:
80,96,216450,2,0,L|48:48,1,45,8|8,0:0|0:0,0:0:0:0:
272,96,216650,2,0,L|320:32,1,45,8|8,0:0|0:0,0:0:0:0:
80,192,216850,5,6,0:0:0:0:
192,192,217050,2,0,L|282:192,2,90,2|8|2,0:0|0:0|0:0,0:0:0:0:
464,304,217650,2,0,L|416:208,1,90,0|2,0:0|0:0,0:0:0:0:
208,224,218050,2,0,L|336:224,1,90,8|0,0:0|0:0,0:0:0:0:
16,96,218450,6,0,L|128:96,1,90,2|2,0:0|0:0,0:0:0:0:
400,96,218850,2,0,L|288:96,2,90,8|2|0,0:0|0:0|0:0,0:0:0:0:
496,96,219450,1,2,0:0:0:0:
224,192,219650,2,8,L|112:192,1,90,8|2,0:0|0:0,0:0:0:0:
432,192,220050,6,0,L|480:288,1,90,2|0,0:0|0:0,0:0:0:0:
202,288,220450,1,8,0:0:0:0:
416,288,220650,2,0,L|320:288,1,90,2|0,0:0|0:0,0:0:0:0:
112,288,221050,2,0,L|16:288,2,90,2|8|2,0:0|0:0|0:0,0:0:0:0:
384,224,221650,5,6,0:0:0:0:
112,144,221850,1,0,0:0:0:0:
384,224,222050,1,8,0:0:0:0:
112,144,222250,2,0,P|144:80|240:32,1,180,2|2,0:0|0:0,0:0:0:0:
448,64,222850,2,0,L|384:144,1,90,8|2,0:0|0:0,0:0:0:0:
96,240,223250,5,6,0:0:0:0:
288,144,223450,2,0,L|176:144,2,90,0|8|0,0:0|0:0|0:0,0:0:0:0:
160,144,224050,1,2,0:0:0:0:
384,288,224250,2,0,L|457:340,2,90,0|8|0,0:0|0:0|0:0,0:0:0:0:
112,288,224850,5,2,0:0:0:0:
304,288,225050,2,0,L|214:288,2,90,0|8|0,0:0|0:0|0:0,0:0:0:0:
192,288,225650,5,2,0:0:0:0:
400,80,225850,2,0,L|288:80,2,90,0|8|0,0:0|0:0|0:0,0:0:0:0:
80,64,226450,5,2,0:0:0:0:
352,160,226650,2,0,L|480:160,2,90,0|8|0,0:0|0:0|0:0,0:0:0:0:
208,64,227250,5,2,0:0:0:0:
64,64,227450,1,0,0:0:0:0:
208,64,227650,1,8,0:0:0:0:
352,64,227850,1,0,0:0:0:0:
80,192,228050,6,0,P|48:240|64:288,1,90,2|0,0:0|0:0,0:0:0:0:
272,192,228450,2,0,L|400:192,1,90,8|2,0:0|0:0,0:0:0:0:
64,48,228850,1,8,0:0:0:0:
33,78,228950,1,8,0:0:0:0:
240,48,229050,1,8,0:0:0:0:
267,82,229150,1,8,0:0:0:0:
48,288,229250,2,0,L|142:240,1,90,8|8,0:0|0:0,0:0:0:0:
432,192,229650,5,6,0:0:0:0:
240,304,229850,2,0,L|192:320,2,45,0|0|8,0:0|0:0|0:0,0:0:0:0:
448,112,230250,2,0,L|496:112,1,45,2|0,0:0|0:0,0:0:0:0:
224,192,230450,2,0,L|112:192,1,90,2|0,0:0|0:0,0:0:0:0:
352,192,230850,2,0,L|480:192,1,90,2|0,0:0|0:0,0:0:0:0:
142,190,231250,5,6,0:0:0:0:
416,80,232050,1,0,0:0:0:0:
272,80,232250,1,0,0:0:0:0:
144,80,232450,1,2,0:0:0:0:
272,80,232650,2,0,L|320:80,1,45,0|0,0:0|0:0,0:0:0:0:
80,288,232850,6,0,L|176:288,1,90,6|0,0:0|0:0,0:0:0:0:
464,288,233250,2,0,L|384:208,1,90,8|0,0:0|0:0,0:0:0:0:
240,352,233650,2,0,L|352:352,1,90,2|2,0:0|0:0,0:0:0:0:
48,224,234050,1,8,0:0:0:0:
176,144,234250,2,0,L|48:144,2,90,2|0|2,0:0|0:0|0:0,0:0:0:0:
448,144,234850,2,0,L|480:240,1,90,8|2,0:0|0:0,0:0:0:0:
352,64,235250,2,0,L|442:64,1,90,2|2,0:0|0:0,0:0:0:0:
144,304,235650,2,0,L|48:304,1,90,8|0,0:0|0:0,0:0:0:0:
384,192,236050,5,2,0:0:0:0:
48,192,236450,2,0,P|48:112|144:64,1,180,8|2,0:0|0:0,0:0:0:0:
224,64,237050,1,0,0:0:0:0:
496,64,237250,2,0,L|496:160,1,90,8|0,0:0|0:0,0:0:0:0:
224,192,237650,6,0,L|112:192,1,90,2|0,0:0|0:0,0:0:0:0:
464,192,238050,2,0,L|464:288,1,90,8|0,0:0|0:0,0:0:0:0:
176,288,238450,2,0,L|128:192,1,90,2|0,0:0|0:0,0:0:0:0:
464,112,238850,5,8,0:0:0:0:
336,48,239050,2,0,L|416:48,1,45,2|0,0:0|0:0,0:0:0:0:
160,48,239250,6,0,L|64:48,1,90,6|0,0:0|0:0,0:0:0:0:
368,192,239650,2,0,L|458:192,1,90,8|0,0:0|0:0,0:0:0:0:
304,256,240050,2,0,L|394:256,1,90,2|2,0:0|0:0,0:0:0:0:
80,192,240450,5,8,0:0:0:0:
208,112,240650,2,0,L|336:112,2,90,2|0|2,0:0|0:0|0:0,0:0:0:0:
480,112,241250,2,0,L|384:112,1,90,8|2,0:0|0:0,0:0:0:0:
256,32,241650,6,0,L|346:32,1,90,2|0,0:0|0:0,0:0:0:0:
48,320,242050,2,0,L|144:320,1,90,8|0,0:0|0:0,0:0:0:0:
432,304,242450,5,2,0:0:0:0:
80,192,242850,2,0,P|112:112|224:96,1,180,8|2,0:0|0:0,0:0:0:0:
48,32,243450,1,0,0:0:0:0:
336,48,243650,2,0,L|400:128,1,90,8|2,0:0|0:0,0:0:0:0:
368,160,243950,1,0,0:0:0:0:
176,192,244050,5,2,0:0:0:0:
400,192,244250,5,2,0:0:0:0:
432,224,244350,1,0,0:0:0:0:
256,304,244450,1,8,0:0:0:0:
400,192,244650,5,2,0:0:0:0:
368,224,244750,1,0,0:0:0:0:
192,304,244850,1,8,0:0:0:0:
464,48,245050,5,2,0:0:0:0:
475,89,245150,1,0,0:0:0:0:
447,123,245250,1,8,0:0:0:0:
404,120,245350,1,0,0:0:0:0:
224,64,245450,1,8,0:0:0:0:
181,53,245550,1,0,0:0:0:0:
448,272,245650,5,6,0:0:0:0:
256,192,245850,12,0,252050,0:0:0:0:
