osu file format v14

[General]
AudioFilename: audio.mp3
AudioLeadIn: 0
PreviewTime: 59367
Countdown: 0
SampleSet: Soft
StackLeniency: 0.4
Mode: 0
LetterboxInBreaks: 0
WidescreenStoryboard: 0

[Editor]
Bookmarks: 337,11631,22925,34220,45514,59631,70925,87867,107984
DistanceSpacing: 1
BeatDivisor: 4
GridSize: 8
TimelineZoom: 2.1

[Metadata]
Title:Natte Shimatta!
TitleUnicode:なってしまった!
Artist:u's
ArtistUnicode:μ's
Creator:Severon
Version:yuituri's Insane
Source:ラブライブ! School idol project
Tags:love live! lovelive! anime japanese pop j-pop jpop スクールアイドルフェスティバル school idol festival a song for you! you? you!! tamaki kotatsu yuituri mbmasher konoe kanata azunyan- mayu sakuma xexyz 高坂穂乃果 honoka kousaka 新田恵海 emi nitta 絢瀬絵里 eli ayase 南條愛乃 yoshino nanjou 南ことり kotori minami 内田彩 aya uchida 園田海未 umi sonoda 三森すずこ suzuko mimori 星空凛 rin hoshizora 飯田里穂 riho iida 西木野真姫 maki nishikino 堀絵梨子 eriko hori pile 東條希 nozomi toujou 楠田亜衣奈 aina kusuda 小泉花陽 hanayo koizumi 久保ユリカ yurika kubo 矢澤にこ nico yazawa 徳井青空 sora tokui 畑亜貴 aki hata 山田高弘 takahiro yamada 中西亮輔 ryousuke nakanishi
BeatmapID:2877085
BeatmapSetID:1171327

[Difficulty]
HPDrainRate:5
CircleSize:4
OverallDifficulty:8
ApproachRate:9
SliderMultiplier:1.4
SliderTickRate:1

[Events]
//Background and Video events
0,0,"45197010_p0.jpg",0,0
//Break Periods
//Storyboard Layer 0 (Background)
//Storyboard Layer 1 (Fail)
//Storyboard Layer 2 (Pass)
//Storyboard Layer 3 (Foreground)
//Storyboard Layer 4 (Overlay)
//Storyboard Sound Samples

[TimingPoints]
-1074,352.941176470588,4,2,1,25,1,0
161,-125,4,2,1,15,0,0
337,-125,4,2,1,25,0,0
1131,-125,4,2,2,5,0,0
1220,-125,4,2,1,25,0,0
2014,-125,4,2,2,5,0,0
2102,-125,4,2,1,25,0,0
2984,-125,4,2,1,15,0,0
3161,-125,4,2,1,25,0,0
4308,-125,4,2,2,5,0,0
4396,-125,4,2,1,25,0,0
5631,-125,4,2,1,35,0,0
5984,-100,4,2,1,60,0,0
6249,-100,4,2,2,5,0,0
6337,-100,4,2,1,60,0,0
8896,-100,4,2,2,5,0,0
9161,-100,4,2,1,60,0,0
9249,-100,4,2,2,5,0,0
9514,-100,4,2,1,60,0,0
11013,-100,4,2,2,5,0,0
11102,-100,4,2,1,60,0,0
11631,-111.111111111111,4,2,1,60,0,0
13925,-111.111111111111,4,2,1,40,0,0
14102,-111.111111111111,4,2,1,60,0,0
15337,-111.111111111111,4,2,1,40,0,0
15514,-111.111111111111,4,2,1,60,0,0
17102,-111.111111111111,4,2,1,40,0,0
17278,-111.111111111111,4,2,1,60,0,0
18514,-111.111111111111,4,2,1,40,0,0
18690,-111.111111111111,4,2,1,60,0,0
19925,-111.111111111111,4,2,1,40,0,0
20102,-111.111111111111,4,2,1,60,0,0
20367,-111.111111111111,4,2,2,5,0,0
20455,-100,4,2,1,60,0,0
22925,-83.3333333333333,4,2,1,80,0,0
32189,-83.3333333333333,4,2,2,5,0,0
32278,-83.3333333333333,4,2,1,80,0,0
33249,-83.3333333333333,4,2,1,40,0,0
33337,-83.3333333333333,4,2,1,80,0,0
35102,-166.666666666667,4,2,1,80,0,0
35366,-166.666666666667,4,2,2,5,0,0
35455,-83.3333333333333,4,2,1,80,0,0
37837,-83.3333333333333,4,2,1,40,0,0
37925,-83.3333333333333,4,2,1,80,0,0
42955,-83.3333333333333,4,2,2,5,0,0
43043,-83.3333333333333,4,2,1,80,0,0
44013,-83.3333333333333,4,2,2,5,0,0
44102,-83.3333333333333,4,2,1,80,0,0
44896,-83.3333333333333,4,2,2,5,0,0
44984,-83.3333333333333,4,2,1,80,0,0
48601,-83.3333333333333,4,2,2,5,0,0
48690,-83.3333333333333,4,2,1,80,0,0
50808,-153.846153846153,4,2,1,80,0,0
51072,-153.846153846153,4,2,2,5,0,0
51161,-83.3333333333333,4,2,1,80,0,0
52220,-153.846153846153,4,2,1,80,0,0
52484,-153.846153846153,4,2,2,5,0,0
52573,-83.3333333333333,4,2,1,80,0,0
53984,-76.9230769230769,4,2,1,80,0,0
55484,-76.9230769230769,4,2,2,5,0,0
55573,-76.9230769230769,4,2,1,60,0,0
56720,-76.9230769230769,4,2,1,40,0,0
56808,-76.9230769230769,4,2,1,80,0,0
57867,-200,4,2,1,80,0,0
58220,-200,4,2,1,40,0,0
58573,-200,4,2,1,60,0,0
59102,-111.111111111111,4,2,1,80,0,0
59543,-111.111111111111,4,2,2,5,0,0
59631,-71.4285714285714,4,2,1,80,0,1
62367,-71.4285714285714,4,2,2,5,0,1
62455,-71.4285714285714,4,2,1,80,0,1
70307,-71.4285714285714,4,2,2,5,0,1
70396,-71.4285714285714,4,2,1,80,0,1
80896,-71.4285714285714,4,2,2,5,0,1
80984,-71.4285714285714,4,2,1,80,0,1
82484,-71.4285714285714,4,2,2,5,0,1
82573,-71.4285714285714,4,2,1,80,0,1
83455,-71.4285714285714,4,2,1,80,0,0
84955,-71.4285714285714,4,2,2,5,0,0
85043,-71.4285714285714,4,2,1,80,0,0
87514,-71.4285714285714,4,2,3,80,0,0
87690,-71.4285714285714,4,2,1,80,0,0
87867,-83.3333333333333,4,2,1,80,0,0
89190,-83.3333333333333,4,2,2,5,0,0
89278,-83.3333333333333,4,2,1,80,0,0
90601,-83.3333333333333,4,2,2,5,0,0
90690,-83.3333333333333,4,2,1,80,0,0
92189,-83.3333333333333,4,2,2,5,0,0
92278,-83.3333333333333,4,2,1,80,0,0
92895,-83.3333333333333,4,2,2,5,0,0
92984,-83.3333333333333,4,2,1,80,0,0
93778,-83.3333333333333,4,2,2,5,0,0
93867,-83.3333333333333,4,2,1,80,0,0
94837,-83.3333333333333,4,2,2,5,0,0
94925,-83.3333333333333,4,2,1,80,0,0
96248,-83.3333333333333,4,2,2,5,0,0
96337,-83.3333333333333,4,2,1,80,0,0
97837,-83.3333333333333,4,2,2,5,0,0
97925,-83.3333333333333,4,2,1,80,0,0
102073,-83.3333333333333,4,2,2,5,0,0
102337,-83.3333333333333,4,2,1,80,0,0
102425,-83.3333333333333,4,2,2,5,0,0
102690,-83.3333333333333,4,2,1,80,0,0
103220,-76.9230769230769,4,2,1,80,0,0
103484,-76.9230769230769,4,2,2,5,0,0
103573,-76.9230769230769,4,2,1,80,0,0
104190,-76.9230769230769,4,2,2,5,0,0
104278,-76.9230769230769,4,2,1,80,0,0
104895,-76.9230769230769,4,2,2,5,0,0
104984,-76.9230769230769,4,2,1,80,0,0
105601,-76.9230769230769,4,2,2,5,0,0
105690,-76.9230769230769,4,2,1,80,0,0
106307,-76.9230769230769,4,2,2,5,0,0
106396,-76.9230769230769,4,2,1,80,0,0
107190,-76.9230769230769,4,2,2,5,0,0
107455,-76.9230769230769,4,2,1,80,0,0
107543,-76.9230769230769,4,2,2,5,0,0
107984,-76.9230769230769,4,2,1,80,0,0
109396,-55.5555555555556,4,2,1,75,0,0
109749,-55.5555555555556,4,2,1,70,0,0
110102,-55.5555555555556,4,2,1,65,0,0
110455,-55.5555555555556,4,2,1,60,0,0
110808,-55.5555555555556,4,2,1,55,0,0
111161,-55.5555555555556,4,2,1,50,0,0
111514,-55.5555555555556,4,2,1,45,0,0
111867,-55.5555555555556,4,2,1,40,0,0
112220,-55.5555555555556,4,2,1,35,0,0
112573,-55.5555555555556,4,2,1,30,0,0
112925,-55.5555555555556,4,2,1,25,0,0
113278,-55.5555555555556,4,2,1,20,0,0
113631,-55.5555555555556,4,2,1,15,0,0
113984,-55.5555555555556,4,2,1,10,0,0
114337,-55.5555555555556,4,2,2,5,0,0

[Colours]
Combo1 : 245,128,59
Combo2 : 243,49,135
Combo3 : 245,88,96

[HitObjects]
11,42,161,5,2,0:0:0:0:
11,42,249,1,2,0:0:0:0:
11,42,337,2,0,P|20:71|29:116,1,56,2|0,0:0|0:0,0:0:0:0:
0,184,690,1,2,0:0:0:0:
0,184,867,2,0,P|44:176|91:171,1,84,2|0,0:0|0:0,0:0:0:0:
94,188,1220,2,0,P|79:231|66:296,1,112,2|0,0:0|0:0,0:0:0:0:
147,374,1749,6,0,L|241:362,1,84,2|0,0:0|0:0,0:0:0:0:
245,350,2102,1,2,0:0:0:0:
216,259,2278,2,0,L|149:250,1,56,2|0,0:0|0:0,0:0:0:0:
294,167,2631,2,0,P|301:227|311:283,1,112,2|2,0:0|0:0,0:0:0:0:
328,296,3073,1,2,0:0:0:0:
328,296,3161,6,0,L|400:284,1,56,2|0,0:0|0:0,0:0:0:0:
471,376,3514,1,2,0:0:0:0:
471,376,3690,2,0,L|399:364,1,56,2|0,0:0|0:0,0:0:0:0:
431,208,4043,2,0,P|463:243|472:294,1,84,2|0,0:0|0:0,0:0:0:0:
491,293,4396,6,0,L|502:230,1,56,2|0,0:0|0:0,0:0:0:0:
501,146,4749,2,0,L|451:104,1,56,2|0,0:0|0:0,0:0:0:0:
378,63,5102,2,0,L|317:84,1,56,2|0,0:0|0:0,0:0:0:0:
244,128,5455,1,2,0:0:0:0:
310,290,5631,5,2,1:2:0:0:
313,262,5720,1,0,1:0:0:0:
317,234,5808,1,0,1:0:0:0:
320,206,5896,1,0,1:0:0:0:
324,178,5984,2,0,P|280:161|218:141,1,105,14|0,3:2|0:0,0:0:0:0:
210,155,6337,5,8,0:3:0:0:
230,284,6514,1,8,0:3:0:0:
230,284,6602,1,8,0:3:0:0:
230,284,6690,2,0,P|194:297|157:309,1,70,8|10,3:0|0:3,0:0:0:0:
14,261,7043,1,10,0:3:0:0:
109,236,7220,2,0,P|121:305|136:393,1,140,14|10,3:2|0:3,0:0:0:0:
41,163,7925,6,0,P|116:140|185:175,1,140,6|8,3:2|0:0,0:0:0:0:
222,218,8455,1,8,0:0:0:0:
227,252,8543,1,8,0:3:0:0:
233,286,8631,1,8,0:3:0:0:
240,315,8719,1,0,3:0:0:0:
245,342,8808,6,0,P|262:348|278:354,1,35,14|0,3:2|0:0,0:0:0:0:
512,226,9161,6,0,P|495:232|479:238,1,35,14|0,3:2|0:0,0:0:0:0:
286,130,9514,5,14,3:2:0:0:
319,118,9602,1,8,0:0:0:0:
352,106,9690,1,8,0:3:0:0:
385,95,9778,1,8,0:3:0:0:
418,83,9867,1,8,3:0:0:0:
451,72,9955,1,8,0:3:0:0:
484,60,10043,6,0,P|413:47|327:29,1,140,6|10,3:2|0:3,0:0:0:0:
466,158,10573,1,10,0:3:0:0:
325,249,10749,2,0,P|315:197|301:129,1,105,6|0,3:2|0:0,0:0:0:0:
286,130,11102,1,8,0:3:0:0:
209,287,11278,2,0,P|216:247|227:195,1,70,8|0,3:0|3:0,0:0:0:0:
203,194,11543,1,0,3:0:0:0:
207,198,11631,6,0,P|176:206|130:215,1,62.9999980773926,4|2,3:2|0:0,0:0:0:0:
77,160,11984,1,2,3:2:0:0:
77,160,12161,1,2,0:0:0:0:
160,56,12337,2,0,L|151:141,1,62.9999980773926,2|0,3:2|0:0,0:0:0:0:
92,0,12690,1,2,3:2:0:0:
92,0,12867,1,2,0:0:0:0:
6,90,13043,6,0,P|38:82|75:76,1,62.9999980773926,2|2,3:2|0:0,0:0:0:0:
140,198,13396,2,0,P|109:191|78:185,1,62.9999980773926,2|2,3:2|0:0,0:0:0:0:
31,272,13749,1,0,3:0:0:0:
157,384,13925,1,0,1:0:0:0:
157,384,14014,1,0,1:0:0:0:
157,384,14102,1,0,3:0:0:0:
124,283,14278,1,0,0:0:0:0:
226,184,14455,6,0,P|221:217|217:256,1,62.9999980773926,0|2,3:0|0:0,0:0:0:0:
289,325,14808,1,2,3:2:0:0:
289,325,14984,1,2,0:0:0:0:
361,250,15161,2,0,P|357:218|352:187,1,62.9999980773926,2|0,3:2|1:0,0:0:0:0:
368,173,15425,1,0,1:0:0:0:
368,173,15514,1,2,3:2:0:0:
293,99,15690,1,2,0:0:0:0:
393,16,15867,6,0,P|385:49|377:92,1,62.9999980773926,2|2,3:2|0:0,0:0:0:0:
512,78,16220,2,0,P|505:47|498:16,1,62.9999980773926,2|2,3:2|0:0,0:0:0:0:
449,142,16573,1,0,3:0:0:0:
512,309,16749,1,8,0:0:0:0:
440,233,16925,1,0,3:0:0:0:
411,334,17102,1,0,1:0:0:0:
411,334,17190,1,0,1:0:0:0:
411,334,17278,6,0,P|371:326|336:321,1,62.9999980773926,4|2,3:2|0:0,0:0:0:0:
272,384,17631,1,2,3:2:0:0:
272,384,17808,1,2,0:0:0:0:
194,302,17984,2,0,P|225:297|255:290,1,62.9999980773926,2|0,3:2|0:0,0:0:0:0:
332,226,18337,1,2,3:2:0:0:
277,140,18514,1,2,1:2:0:0:
277,140,18602,1,0,1:0:0:0:
277,140,18690,6,0,P|246:133|215:128,1,62.9999980773926,2|0,3:2|0:0,0:0:0:0:
151,211,19043,1,2,3:2:0:0:
57,127,19220,2,0,P|87:120|118:115,2,62.9999980773926,2|0|0,0:0|3:0|0:0,0:0:0:0:
68,18,19749,1,2,3:2:0:0:
177,44,19925,1,2,1:2:0:0:
177,44,20014,1,0,1:0:0:0:
177,44,20102,6,0,P|225:35|287:26,1,94.499997116089,0|0,3:0|0:0,0:0:0:0:
286,45,20455,1,2,3:2:0:0:
417,115,20631,2,0,P|382:108|348:102,1,70,2|0,0:0|3:0,0:0:0:0:
439,0,20984,2,0,P|405:4|371:11,1,70,2|0,0:0|3:0,0:0:0:0:
501,80,21337,2,0,P|506:110|516:155,1,70,2|0,0:0|0:0,0:0:0:0:
438,261,21690,2,0,P|445:230|450:192,1,70,2|2,0:0|3:2,0:0:0:0:
512,320,22043,5,2,0:0:0:0:
384,384,22220,1,0,3:0:0:0:
338,207,22396,2,0,P|344:241|348:276,1,70,8|0,0:0|3:0,0:0:0:0:
390,119,22749,1,8,0:0:0:0:
390,119,22837,1,8,0:0:0:0:
390,119,22925,6,0,P|349:116|289:104,1,83.9999974365235,4|2,3:2|0:0,0:0:0:0:
164,187,23278,2,0,P|205:179|247:176,1,83.9999974365235,10|0,0:0|0:0,0:0:0:0:
238,10,23631,2,0,P|230:53|220:107,1,83.9999974365235,2|0,3:2|3:0,0:0:0:0:
67,163,23984,1,10,0:0:0:0:
128,89,24161,1,2,0:0:0:0:
99,253,24337,6,0,P|107:291|116:344,1,83.9999974365235,2|2,3:2|0:0,0:0:0:0:
228,384,24690,2,0,P|234:342|243:301,1,83.9999974365235,10|2,0:0|3:2,0:0:0:0:
350,232,25043,1,0,0:0:0:0:
266,185,25220,1,0,3:0:0:0:
422,186,25396,2,0,P|465:197|508:207,1,83.9999974365235,8|0,0:0|0:0,0:0:0:0:
401,78,25749,6,0,P|369:109|339:141,1,83.9999974365235,0|2,3:0|0:0,0:0:0:0:
496,106,26102,1,10,0:0:0:0:
474,20,26278,1,2,0:0:0:0:
315,47,26455,2,0,P|270:39|216:26,1,83.9999974365235,2|0,3:2|0:0,0:0:0:0:
166,163,26808,1,10,0:0:0:0:
252,117,26984,1,2,0:0:0:0:
338,241,27161,6,0,P|301:228|247:214,1,83.9999974365235,2|2,3:2|3:2,0:0:0:0:
103,280,27514,1,10,0:0:0:0:
192,329,27690,2,0,L|179:231,1,83.9999974365235,6|0,3:2|0:0,0:0:0:0:
127,110,28043,2,0,L|115:193,1,83.9999974365235,4|8,3:2|0:0,0:0:0:0:
188,41,28396,1,8,0:3:0:0:
188,41,28484,1,8,0:3:0:0:
188,41,28573,6,0,P|148:35|103:26,1,83.9999974365235,4|2,3:2|0:0,0:0:0:0:
36,92,28925,1,10,0:0:0:0:
9,3,29102,1,2,0:0:0:0:
127,125,29278,2,0,P|121:164|114:216,1,83.9999974365235,2|0,3:2|3:0,0:0:0:0:
0,298,29631,1,10,0:0:0:0:
32,209,29808,1,2,0:0:0:0:
173,313,29984,6,0,P|136:302|77:287,1,83.9999974365235,2|0,3:2|0:0,0:0:0:0:
49,376,30337,1,10,0:0:0:0:
225,384,30514,2,0,P|211:305|194:207,1,167.999994873047,2|0,3:2|3:0,0:0:0:0:
301,146,31043,2,0,P|293:187|286:228,1,83.9999974365235,8|0,0:0|0:0,0:0:0:0:
354,71,31396,6,0,P|316:54|275:59,1,83.9999974365235,6|8,3:2|0:3,0:0:0:0:
214,130,31749,1,10,0:0:0:0:
395,152,31925,2,0,P|407:225|420:298,1,125.999996154785,6|0,3:2|0:0,0:0:0:0:
404,295,32278,2,0,P|361:303|304:316,1,83.9999974365235,2|8,3:2|0:0,0:0:0:0:
482,376,32631,6,0,P|497:287|513:198,1,167.999994873047,6|0,3:2|3:0,0:0:0:0:
395,152,33161,2,0,L|332:167,1,41.9999987182618,8|0,0:0|0:0,0:0:0:0:
495,99,33337,1,8,0:0:0:0:
503,57,33425,1,8,0:0:0:0:
512,16,33514,1,8,3:0:0:0:
363,73,33690,1,8,0:0:0:0:
363,73,33778,1,8,0:0:0:0:
363,73,33867,2,0,P|323:62|269:50,1,83.9999974365235,8|0,0:0|0:0,0:0:0:0:
349,182,34220,5,10,3:2:0:0:
427,14,34396,1,10,0:0:0:0:
261,182,35102,6,0,P|270:212|281:260,1,62.9999980773926,2|0,0:0|0:0,0:0:0:0:
267,258,35455,2,0,P|188:244|102:231,1,167.999994873047,6|10,3:2|0:3,0:0:0:0:
23,304,35984,1,8,0:0:0:0:
0,159,36161,2,0,P|41:152|82:145,1,83.9999974365235,2|0,0:0|3:0,0:0:0:0:
153,28,36514,1,10,0:0:0:0:
156,59,36602,1,8,0:0:0:0:
160,90,36690,1,8,0:0:0:0:
164,121,36778,1,8,0:3:0:0:
168,153,36867,1,8,0:3:0:0:
283,232,37043,5,10,3:2:0:0:
325,43,37220,1,10,0:0:0:0:
359,195,37749,6,0,L|374:254,1,41.9999987182618,8|0,0:0|0:0,0:0:0:0:
334,311,37925,1,2,3:2:0:0:
334,311,38014,1,0,3:0:0:0:
334,311,38102,1,8,0:0:0:0:
444,210,38278,6,0,P|453:169|465:123,1,83.9999974365235,6|0,3:2|0:0,0:0:0:0:
512,30,38631,1,10,0:3:0:0:
384,120,38808,2,0,P|342:109|287:97,1,83.9999974365235,10|2,0:0|0:0,0:0:0:0:
359,195,39161,1,10,0:3:0:0:
430,52,39337,1,10,0:0:0:0:
430,52,39425,1,8,0:0:0:0:
430,52,39514,1,10,0:0:0:0:
275,19,39690,1,8,0:3:0:0:
257,30,39778,1,8,0:3:0:0:
244,46,39867,6,0,P|256:123|269:219,1,167.999994873047,4|8,3:2|0:0,0:0:0:0:
188,289,40396,1,2,0:0:0:0:
103,184,40573,2,0,P|142:194|193:204,1,83.9999974365235,2|0,3:2|3:0,0:0:0:0:
276,300,40925,1,10,0:0:0:0:
232,376,41102,1,2,0:0:0:0:
360,300,41278,2,0,P|350:253|342:199,1,83.9999974365235,0|0,3:0|0:0,0:0:0:0:
444,155,41631,6,0,P|437:196|428:237,1,83.9999974365235,10|0,0:0|3:0,0:0:0:0:
420,72,41984,2,0,P|459:57|499:44,1,83.9999974365235,2|0,0:0|3:0,0:0:0:0:
360,133,42337,2,0,P|327:106|296:78,1,83.9999974365235,10|0,0:0|0:0,0:0:0:0:
192,0,42690,6,0,P|201:66|209:132,1,125.999996154785,2|0,3:2|0:0,0:0:0:0:
196,141,43043,1,10,0:0:0:0:
75,84,43220,2,0,P|79:42|85:0,2,83.9999974365235,2|0|0,3:2|0:0|3:0,0:0:0:0:
107,187,43749,2,0,P|115:249|122:312,1,125.999996154785,8|0,0:0|0:0,0:0:0:0:
106,328,44102,6,0,P|63:320|8:313,1,83.9999974365235,4|8,3:2|0:3,0:0:0:0:
170,383,44455,1,8,0:0:0:0:
204,234,44631,2,0,P|278:223|353:210,1,125.999996154785,4|0,3:2|0:0,0:0:0:0:
341,197,44984,1,8,0:3:0:0:
277,304,45161,1,8,0:0:0:0:
375,384,45337,1,8,0:0:0:0:
375,384,45425,1,8,0:0:0:0:
375,384,45514,6,0,P|381:339|392:280,1,83.9999974365235,6|0,3:2|0:0,0:0:0:0:
512,201,45867,1,10,0:0:0:0:
424,149,46043,2,0,P|431:190|437:231,1,83.9999974365235,2|0,0:0|3:0,0:0:0:0:
451,65,46396,1,2,0:0:0:0:
366,24,46573,2,0,P|358:65|352:106,1,83.9999974365235,10|0,0:0|0:0,0:0:0:0:
200,176,46925,6,0,P|227:144|272:132,1,83.9999974365235,2|0,3:2|0:0,0:0:0:0:
199,267,47278,2,0,P|157:259|124:226,1,83.9999974365235,10|0,0:0|0:0,0:0:0:0:
296,299,47631,2,0,P|285:258|274:203,1,83.9999974365235,2|0,3:2|3:0,0:0:0:0:
220,355,47984,2,0,P|260:366|314:383,1,83.9999974365235,10|0,0:0|0:0,0:0:0:0:
138,334,48337,6,0,P|73:351|-10:379,1,125.999996154785,6|0,3:2|0:0,0:0:0:0:
0,384,48690,2,0,P|-6:340|-16:291,1,83.9999974365235,10|0,0:0|0:0,0:0:0:0:
83,182,49043,2,0,P|74:223|69:264,1,83.9999974365235,6|0,3:2|0:0,0:0:0:0:
10,135,49396,1,10,0:0:0:0:
164,213,49573,6,0,P|166:146|78:96,1,167.999994873047,6|0,3:2|3:0,0:0:0:0:
0,14,50102,2,0,P|47:7|93:-3,1,83.9999974365235,8|0,0:0|3:0,0:0:0:0:
166,32,50455,2,0,P|213:39|259:49,1,83.9999974365235,0|0,0:0|3:0,0:0:0:0:
328,15,50808,6,0,L|341:91,1,68.2499968757631,10|0,0:0|0:0,0:0:0:0:
321,95,51161,2,0,P|308:184|297:280,1,167.999994873047,6|8,3:2|0:0,0:0:0:0:
319,358,51690,1,2,0:0:0:0:
461,317,51867,2,0,P|421:308|368:295,1,83.9999974365235,2|0,3:2|3:0,0:0:0:0:
398,147,52220,6,0,L|412:216,1,68.2499968757631,8|0,0:0|0:0,0:0:0:0:
426,225,52573,2,0,P|465:216|519:203,1,83.9999974365235,6|0,3:2|0:0,0:0:0:0:
512,49,52925,2,0,P|499:87|484:140,1,83.9999974365235,10|0,0:0|0:0,0:0:0:0:
412,31,53278,2,0,P|370:22|330:12,1,83.9999974365235,2|0,3:2|3:0,0:0:0:0:
235,58,53631,1,10,0:0:0:0:
281,173,53808,1,2,0:0:0:0:
217,40,53984,6,0,P|170:51|123:61,1,90.9999958343508,4|0,3:2|0:0,0:0:0:0:
0,121,54337,2,0,P|44:130|88:141,1,90.9999958343508,8|0,0:0|0:0,0:0:0:0:
145,217,54690,1,0,3:0:0:0:
177,133,54867,1,0,3:0:0:0:
188,293,55043,1,8,0:0:0:0:
60,216,55220,2,0,P|49:280|34:355,1,136.499993751526,4|0,3:2|0:0,0:0:0:0:
11,368,55573,1,0,3:0:0:0:
134,361,55749,2,0,P|180:374|234:387,1,90.9999958343508,8|0,0:0|0:0,0:0:0:0:
229,222,56102,5,2,3:2:0:0:
318,332,56278,1,8,0:0:0:0:
295,326,56367,1,8,0:0:0:0:
273,320,56455,1,10,0:0:0:0:
393,242,56631,2,0,L|401:286,1,45.4999979171754,2|0,3:2|0:0,0:0:0:0:
470,381,56808,5,12,0:0:0:0:
512,198,56984,1,0,3:0:0:0:
512,198,57161,1,0,3:0:0:0:
352,162,57337,5,12,0:0:0:0:
489,289,57514,1,0,3:0:0:0:
489,289,57690,1,0,3:0:0:0:
450,79,57867,6,0,P|441:114|434:161,1,70,12|0,0:0|3:0,0:0:0:0:
436,148,58308,1,0,3:0:0:0:
436,148,58396,1,0,3:0:0:0:
370,285,58573,5,8,0:0:0:0:
340,203,58749,2,0,L|337:175,3,17.5,0|0|0|0,1:0|1:0|1:0|1:0,0:0:0:0:
352,162,59102,5,0,3:0:0:0:
467,12,59278,2,0,P|424:22|363:31,1,94.499997116089,8|0,0:0|0:0,0:0:0:0:
354,18,59631,6,0,B|317:153|317:153|345:213,1,195.999994018555,6|10,3:2|0:0,0:0:0:0:
434,270,60161,2,0,P|435:321|397:375,1,97.9999970092774,2|0,0:0|3:0,0:0:0:0:
252,312,60514,2,0,P|299:305|359:301,1,97.9999970092774,2|8,0:0|0:0,0:0:0:0:
195,384,60867,1,2,0:0:0:0:
141,207,61043,2,0,P|154:256|166:311,1,97.9999970092774,0|2,3:0|0:0,0:0:0:0:
200,137,61396,2,0,P|151:123|97:106,1,97.9999970092774,10|0,0:0|3:0,0:0:0:0:
231,223,61749,2,0,P|266:187|308:149,1,97.9999970092774,2|0,0:0|3:0,0:0:0:0:
179,46,62102,6,0,P|109:60|33:71,1,146.999995513916,10|0,0:0|0:0,0:0:0:0:
12,58,62455,2,0,B|45:200|45:200|10:262,1,195.999994018555,2|8,3:2|0:0,0:0:0:0:
120,339,62984,2,0,B|174:317|174:317|229:371|229:371|302:388,1,195.999994018555,2|0,3:2|3:0,0:0:0:0:
369,262,63514,2,0,P|328:268|263:276,1,97.9999970092774,8|2,0:0|0:0,0:0:0:0:
400,384,63867,6,0,P|409:292|423:178,1,195.999994018555,6|8,3:2|0:0,0:0:0:0:
512,98,64396,2,0,B|449:88|418:131|440:135|407:179|338:162,1,195.999994018555,2|0,3:2|3:0,0:0:0:0:
271,2,64925,1,10,0:0:0:0:
360,83,65102,1,8,0:0:0:0:
365,59,65190,1,8,0:0:0:0:
368,35,65278,6,0,P|263:94|184:46,1,195.999994018555,6|10,3:2|0:0,0:0:0:0:
239,218,65808,2,0,P|249:171|263:113,2,97.9999970092774,2|0|0,0:0|3:0|3:0,0:0:0:0:
80,173,66337,1,10,0:0:0:0:
172,143,66514,1,2,0:0:0:0:
83,288,66690,2,0,P|76:238|67:183,1,97.9999970092774,2|0,3:2|0:0,0:0:0:0:
107,81,67043,1,10,0:0:0:0:
0,18,67220,2,0,P|97:36|203:48,1,195.999994018555,2|0,3:2|3:0,0:0:0:0:
301,0,67749,2,0,P|289:44|275:114,1,97.9999970092774,8|2,0:0|0:0,0:0:0:0:
222,227,68102,6,0,P|214:181|202:114,1,97.9999970092774,6|0,3:2|0:0,0:0:0:0:
156,282,68455,2,0,P|191:308|259:305,1,97.9999970092774,10|0,0:0|0:0,0:0:0:0:
139,197,68808,2,0,P|98:214|67:274,1,97.9999970092774,6|0,3:2|0:0,0:0:0:0:
0,363,69161,2,0,P|48:355|96:346,1,97.9999970092774,10|0,0:0|0:0,0:0:0:0:
202,384,69514,5,6,3:2:0:0:
256,303,69690,1,8,0:0:0:0:
371,384,69867,1,10,0:0:0:0:
311,236,70043,2,0,P|376:292|446:289,1,146.999995513916,6|0,3:2|0:0,0:0:0:0:
449,276,70396,2,0,L|426:171,1,97.9999970092774,4|8,3:2|0:0,0:0:0:0:
463,55,70749,1,10,0:3:0:0:
487,59,70837,1,8,0:3:0:0:
512,64,70925,6,0,P|450:130|327:117,1,195.999994018555,6|10,3:2|0:0,0:0:0:0:
252,0,71455,2,0,P|261:48|268:102,1,97.9999970092774,2|0,0:0|3:0,0:0:0:0:
198,245,71808,2,0,P|242:211|285:178,1,97.9999970092774,2|8,3:2|0:0,0:0:0:0:
173,380,72161,2,0,P|161:290|144:168,1,195.999994018555,2|2,3:2|3:2,0:0:0:0:
0,81,72690,2,0,P|41:98|99:121,1,97.9999970092774,10|0,0:0|3:0,0:0:0:0:
253,44,73043,2,0,P|217:71|168:109,1,97.9999970092774,2|0,0:0|3:0,0:0:0:0:
162,282,73396,2,0,P|153:233|144:172,1,97.9999970092774,10|0,0:0|0:0,0:0:0:0:
85,373,73749,6,0,P|174:321|283:348,1,195.999994018555,2|8,3:2|0:0,0:0:0:0:
326,193,74278,2,0,P|278:199|237:173,1,97.9999970092774,2|0,3:2|0:0,0:0:0:0:
299,109,74631,1,0,3:0:0:0:
415,210,74808,2,0,P|396:254|354:277,1,97.9999970092774,8|2,0:0|0:0,0:0:0:0:
391,120,75161,6,0,P|446:133|503:143,2,97.9999970092774,6|0|8,3:2|3:0|0:0,0:0:0:0:
326,0,75690,2,0,P|347:93|360:195,1,195.999994018555,2|0,3:2|3:0,0:0:0:0:
272,317,76220,1,10,0:0:0:0:
238,172,76396,1,8,0:0:0:0:
238,172,76484,1,8,0:0:0:0:
238,172,76573,6,0,P|151:192|36:207,1,195.999994018555,6|8,3:2|0:0,0:0:0:0:
134,277,77102,1,0,0:0:0:0:
96,116,77278,2,0,P|52:106|-5:98,1,97.9999970092774,2|0,3:2|3:0,0:0:0:0:
160,190,77631,1,10,0:0:0:0:
180,33,77808,2,0,B|170:96|213:127|217:105|261:138|244:207,1,195.999994018555,2|0,3:2|3:0,0:0:0:0:
262,53,78337,1,10,0:0:0:0:
418,136,78514,2,0,P|377:127|316:117,1,97.9999970092774,2|0,3:2|0:0,0:0:0:0:
512,154,78867,2,0,P|498:114|477:56,1,97.9999970092774,2|8,3:2|0:0,0:0:0:0:
452,226,79220,6,0,P|366:243|237:265,1,195.999994018555,6|0,3:2|3:0,0:0:0:0:
154,151,79749,2,0,P|202:159|250:168,1,97.9999970092774,8|0,0:0|0:0,0:0:0:0:
189,328,80102,1,0,3:0:0:0:
172,238,80278,1,0,3:0:0:0:
280,352,80455,1,8,0:0:0:0:
105,310,80631,6,0,P|123:233|138:153,1,146.999995513916,4|0,3:2|0:0,0:0:0:0:
154,151,80984,1,8,0:3:0:0:
43,215,81161,1,8,0:0:0:0:
0,61,81337,2,0,P|50:78|97:90,1,97.9999970092774,4|2,3:2|0:0,0:0:0:0:
233,200,81690,1,8,0:3:0:0:
173,61,81867,1,10,0:0:0:0:
309,158,82043,1,8,0:0:0:0:
309,158,82131,1,8,0:0:0:0:
309,158,82220,6,0,P|324:86|342:7,1,146.999995513916,6|0,3:2|0:0,0:0:0:0:
367,4,82573,1,8,0:0:0:0:
231,118,82749,1,0,3:0:0:0:
310,246,82925,2,0,P|319:292|331:342,1,97.9999970092774,10|0,0:0|3:0,0:0:0:0:
387,196,83278,1,10,0:0:0:0:
199,278,83455,5,6,3:2:0:0:
361,302,84514,6,0,L|369:351,1,48.9999985046387,0|0,3:0|3:0,0:0:0:0:
439,384,84690,2,0,P|368:372|274:352,1,146.999995513916,8|0,0:0|0:0,0:0:0:0:
274,338,85043,6,0,L|290:236,1,97.9999970092774,4|0,3:2|0:0,0:0:0:0:
370,210,85396,1,8,0:3:0:0:
240,163,85573,1,8,0:3:0:0:
413,128,85749,1,8,0:3:0:0:
277,251,85925,1,8,0:3:0:0:
358,50,86102,1,0,3:0:0:0:
186,79,86278,5,0,1:0:0:0:
186,79,86367,1,0,1:0:0:0:
186,79,86455,1,0,3:0:0:0:
152,113,86543,1,0,1:0:0:0:
139,160,86631,1,8,1:3:0:0:
151,207,86720,1,0,1:0:0:0:
184,243,86808,5,0,3:0:0:0:
204,273,86896,1,8,0:0:0:0:
211,309,86984,1,8,0:0:0:0:
201,344,87073,1,8,0:0:0:0:
178,372,87161,6,0,L|116:362,1,48.9999985046387,8|8,3:0|0:3,0:0:0:0:
66,294,87337,2,0,L|114:285,1,48.9999985046387,8|8,0:3|0:3,0:0:0:0:
240,163,87514,5,12,3:2:0:0:
186,79,87690,5,2,3:2:0:0:
186,79,87778,1,0,3:0:0:0:
186,79,87867,2,0,P|229:73|287:62,1,83.9999974365235,6|0,3:2|0:0,0:0:0:0:
335,0,88220,1,10,0:0:0:0:
439,82,88396,2,0,P|446:44|461:-16,1,83.9999974365235,2|0,0:0|3:0,0:0:0:0:
368,136,88749,1,2,3:2:0:0:
510,265,88925,2,0,P|449:254|379:242,1,125.999996154785,10|0,0:0|0:0,0:0:0:0:
364,233,89278,6,0,P|410:224|456:216,1,83.9999974365235,2|0,3:2|0:0,0:0:0:0:
281,164,89631,1,10,0:0:0:0:
217,239,89808,2,0,P|224:278|233:329,1,83.9999974365235,2|0,3:2|0:0,0:0:0:0:
187,152,90161,1,2,3:2:0:0:
142,295,90337,2,0,P|81:279|7:260,1,125.999996154785,8|0,0:0|0:0,0:0:0:0:
1,280,90690,6,0,P|11:325|21:378,1,83.9999974365235,2|0,3:2|0:0,0:0:0:0:
95,231,91043,1,10,0:0:0:0:
46,94,91220,2,0,P|35:139|26:192,1,83.9999974365235,2|0,3:2|0:0,0:0:0:0:
121,64,91573,2,0,P|97:29|49:8,1,83.9999974365235,2|8,3:2|0:0,0:0:0:0:
116,150,91925,6,0,P|186:139|255:131,1,125.999996154785,6|0,3:2|0:0,0:0:0:0:
251,148,92278,1,2,3:2:0:0:
212,52,92455,1,8,0:0:0:0:
198,224,92631,2,0,P|268:234|337:243,1,125.999996154785,2|0,3:2|0:0,0:0:0:0:
340,225,92984,1,6,3:2:0:0:
296,344,93161,5,8,0:0:0:0:
420,326,93337,1,8,0:0:0:0:
420,326,93425,1,8,0:0:0:0:
420,326,93514,6,0,P|428:260|437:189,1,125.999996154785,6|0,3:2|0:0,0:0:0:0:
419,184,93867,1,10,0:0:0:0:
512,112,94043,2,0,P|474:106|413:95,1,83.9999974365235,2|0,0:0|3:0,0:0:0:0:
388,10,94396,1,2,3:2:0:0:
347,133,94573,2,0,P|289:141|194:159,1,125.999996154785,8|0,0:0|0:0,0:0:0:0:
203,144,94925,6,0,P|218:235|232:327,1,167.999994873047,2|10,3:2|0:0,0:0:0:0:
110,183,95455,2,0,P|116:141|123:100,1,83.9999974365235,2|0,3:2|0:0,0:0:0:0:
239,47,95808,1,2,3:2:0:0:
55,15,95984,2,0,P|42:85|32:155,1,125.999996154785,8|0,0:0|0:0,0:0:0:0:
17,156,96337,6,0,P|24:197|30:238,1,83.9999974365235,2|0,3:2|3:0,0:0:0:0:
151,266,96690,1,10,0:0:0:0:
63,384,96867,2,0,P|69:342|76:301,1,83.9999974365235,2|0,3:2|0:0,0:0:0:0:
132,174,97220,2,0,P|171:187|217:198,1,83.9999974365235,2|8,3:2|0:0,0:0:0:0:
359,118,97573,6,0,P|346:181|333:257,1,125.999996154785,6|0,3:2|0:0,0:0:0:0:
320,256,97925,2,0,P|279:265|239:279,1,83.9999974365235,10|8,0:3|0:0,0:0:0:0:
410,384,98278,2,0,P|402:338|392:293,1,83.9999974365235,10|0,0:3|0:0,0:0:0:0:
435,190,98631,1,10,0:3:0:0:
302,172,98808,1,8,0:0:0:0:
454,105,98984,1,8,0:3:0:0:
454,105,99073,1,8,0:3:0:0:
454,105,99161,6,0,P|407:47|291:58,1,167.999994873047,6|8,3:2|0:0,0:0:0:0:
365,120,99690,1,0,0:0:0:0:
415,12,99867,1,0,3:0:0:0:
279,121,100043,1,2,3:2:0:0:
228,42,100220,1,10,0:0:0:0:
324,199,100396,6,0,P|245:216|142:234,1,167.999994873047,6|0,3:2|3:0,0:0:0:0:
187,125,100925,1,8,0:0:0:0:
259,253,101102,2,0,P|251:294|242:335,1,83.9999974365235,6|0,3:2|0:0,0:0:0:0:
74,384,101455,1,8,0:3:0:0:
167,311,101631,1,8,0:0:0:0:
94,161,101808,1,8,0:0:0:0:
94,161,101896,1,8,0:0:0:0:
94,161,101984,6,0,L|84:219,1,41.9999987182618,6|0,3:2|0:0,0:0:0:0:
220,0,102337,6,0,L|230:58,1,41.9999987182618,14|0,3:2|0:0,0:0:0:0:
345,176,102690,5,10,3:0:0:0:
372,172,102778,1,8,0:3:0:0:
400,169,102867,1,8,0:3:0:0:
428,166,102955,1,8,0:3:0:0:
456,163,103043,1,8,3:0:0:0:
484,160,103131,1,8,0:3:0:0:
511,158,103220,6,0,P|497:220|486:303,1,136.499993751526,6|0,3:2|0:0,0:0:0:0:
502,311,103573,1,10,0:0:0:0:
383,252,103749,1,10,0:3:0:0:
451,82,103925,2,0,P|386:78|302:65,1,136.499993751526,6|0,3:2|0:0,0:0:0:0:
294,50,104278,1,0,3:0:0:0:
345,176,104455,1,8,0:0:0:0:
233,265,104631,6,0,P|247:193|258:121,1,136.499993751526,6|0,3:2|0:0,0:0:0:0:
238,114,104984,1,10,0:3:0:0:
324,264,105161,1,10,0:0:0:0:
136,332,105337,2,0,P|201:346|275:351,1,136.499993751526,6|0,3:2|0:0,0:0:0:0:
282,335,105690,1,10,0:3:0:0:
362,189,105867,1,10,0:0:0:0:
481,306,106043,6,0,P|426:289|338:272,1,136.499993751526,6|0,3:2|0:0,0:0:0:0:
355,294,106396,1,8,0:3:0:0:
334,116,106573,1,8,0:3:0:0:
497,42,106749,1,8,0:3:0:0:
458,200,106925,5,8,0:0:0:0:
458,200,107014,1,8,0:0:0:0:
458,200,107102,6,0,L|445:142,1,45.4999979171754,6|0,3:2|0:0,0:0:0:0:
219,19,107455,6,0,L|209:63,1,45.4999979171754,6|0,3:2|0:0,0:0:0:0:
29,166,107984,5,6,3:2:0:0:
256,192,108073,12,0,114337,0:0:0:0:
