osu file format v14

[General]
AudioFilename: audio.mp3
AudioLeadIn: 0
PreviewTime: 128072
Countdown: 1
SampleSet: Normal
StackLeniency: 0.7
Mode: 1
LetterboxInBreaks: 0
WidescreenStoryboard: 0

[Editor]
Bookmarks: 73,21406,42739,64072,85406,106739,128072,138739,149406,170739,192072,213406,224072,234739,266739,277406,288072,309406,330739
DistanceSpacing: 2.5
BeatDivisor: 4
GridSize: 32
TimelineZoom: 2.299999

[Metadata]
Title:Natsuiro Egao de 1, 2, Jump! Funkot Remix
TitleUnicode:夏色えがおで1, 2, Jump!をFunkotリミックス
Artist:u's
ArtistUnicode:μ's
Creator:Kuron-kun
Version:Pool Party
Source:ラブライブ!School idol project
Tags:スクールアイドルプロジェクト summer wing 2013 ghm12 funkot marathon love live anime bikini sunny fun water pocotan
BeatmapID:1531625
BeatmapSetID:725398

[Difficulty]
HPDrainRate:4
CircleSize:2
OverallDifficulty:7
ApproachRate:0
SliderMultiplier:1.4
SliderTickRate:1

[Events]
//Background and Video events
0,0,"necrohisdead.jpg",0,100
//Break Periods
//Storyboard Layer 0 (Background)
//Storyboard Layer 1 (Fail)
//Storyboard Layer 2 (Pass)
//Storyboard Layer 3 (Foreground)
//Storyboard Sound Samples

[TimingPoints]
73,333.333333333333,4,1,1,80,1,0
21072,-100,4,1,1,60,0,0
21406,-100,4,1,1,80,0,0
85906,-100,4,1,1,50,0,0
86739,-100,4,1,1,80,0,0
87239,-100,4,1,1,50,0,0
88072,-100,4,1,1,80,0,0
88572,-100,4,1,1,50,0,0
89239,-100,4,1,1,80,0,0
89906,-100,4,1,1,50,0,0
90072,-100,4,1,1,80,0,0
90239,-100,4,1,1,50,0,0
90406,-100,4,1,1,80,0,0
90739,-100,4,1,1,80,0,0
91239,-100,4,1,1,50,0,0
91906,-100,4,1,1,80,0,0
92572,-100,4,1,1,50,0,0
93239,-100,4,1,1,80,0,0
93906,-100,4,1,1,50,0,0
94406,-100,4,1,1,80,0,0
128072,-100,4,1,1,80,0,1
149406,-100,4,1,1,80,0,0
213406,-100,4,1,1,80,0,1
234739,-100,4,1,1,80,0,0
256239,-100,4,1,1,50,0,0
257239,-100,4,1,1,80,0,0
257572,-100,4,1,1,50,0,0
258572,-100,4,1,1,80,0,0
258906,-100,4,1,1,50,0,0
259906,-100,4,1,1,80,0,0
260239,-100,4,1,1,50,0,0
261239,-100,4,1,1,80,0,0
261572,-100,4,1,1,50,0,0
262572,-100,4,1,1,80,0,0
262906,-100,4,1,1,50,0,0
263906,-100,4,1,1,80,0,0
266739,-100,4,1,1,80,0,1
288072,-100,4,1,1,80,0,0

[HitObjects]
256,192,73,5,4,0:0:0:0:
256,192,406,1,8,0:0:0:0:
256,192,572,1,0,0:0:0:0:
256,192,906,1,0,0:0:0:0:
256,192,1072,1,8,0:0:0:0:
256,192,1406,1,0,0:0:0:0:
256,192,1572,1,0,0:0:0:0:
256,192,1739,1,8,0:0:0:0:
256,192,1906,1,0,0:0:0:0:
256,192,2239,1,0,0:0:0:0:
256,192,2406,1,8,0:0:0:0:
256,192,2739,1,0,0:0:0:0:
256,192,3072,1,8,0:0:0:0:
256,192,3239,1,0,0:0:0:0:
256,192,3572,1,0,0:0:0:0:
256,192,3739,1,8,0:0:0:0:
256,192,4072,1,0,0:0:0:0:
256,192,4239,1,0,0:0:0:0:
256,192,4406,1,8,0:0:0:0:
256,192,4572,1,0,0:0:0:0:
256,192,4906,1,0,0:0:0:0:
256,192,5072,1,8,0:0:0:0:
256,192,5239,1,0,0:0:0:0:
256,192,5322,1,8,0:0:0:0:
256,192,5406,1,0,0:0:0:0:
256,192,5739,1,8,0:0:0:0:
256,192,5906,1,0,0:0:0:0:
256,192,6239,1,0,0:0:0:0:
256,192,6406,1,8,0:0:0:0:
256,192,6739,1,0,0:0:0:0:
256,192,6906,1,0,0:0:0:0:
256,192,7072,1,8,0:0:0:0:
256,192,7239,1,0,0:0:0:0:
256,192,7572,1,0,0:0:0:0:
256,192,7739,1,8,0:0:0:0:
256,192,8072,1,8,0:0:0:0:
256,192,8239,1,8,0:0:0:0:
256,192,8406,1,8,0:0:0:0:
256,192,8572,1,0,0:0:0:0:
256,192,8739,1,8,0:0:0:0:
256,192,8906,1,0,0:0:0:0:
256,192,9072,1,8,0:0:0:0:
256,192,9239,1,8,0:0:0:0:
256,192,9406,1,0,0:0:0:0:
256,192,9489,1,0,0:0:0:0:
256,192,9572,1,8,0:0:0:0:
256,192,9656,1,0,0:0:0:0:
256,192,9739,1,8,0:0:0:0:
256,192,9822,1,8,0:0:0:0:
256,192,9906,1,0,0:0:0:0:
256,192,10072,1,8,0:0:0:0:
256,192,10239,1,0,0:0:0:0:
256,192,10322,1,8,0:0:0:0:
256,192,10406,1,0,0:0:0:0:
256,192,10489,1,8,0:0:0:0:
256,192,10572,1,8,0:0:0:0:
256,192,10739,1,4,0:0:0:0:
256,192,10906,1,0,0:0:0:0:
256,192,10989,1,0,0:0:0:0:
256,192,11072,1,8,0:0:0:0:
256,192,11239,1,0,0:0:0:0:
256,192,11572,1,0,0:0:0:0:
256,192,11739,1,8,0:0:0:0:
256,192,11906,1,8,0:0:0:0:
256,192,12072,1,0,0:0:0:0:
256,192,12239,1,0,0:0:0:0:
256,192,12322,1,0,0:0:0:0:
256,192,12406,1,8,0:0:0:0:
256,192,12572,1,0,0:0:0:0:
256,192,12906,1,0,0:0:0:0:
256,192,13072,1,8,0:0:0:0:
256,192,13156,1,0,0:0:0:0:
256,192,13239,1,8,0:0:0:0:
256,192,13406,1,0,0:0:0:0:
256,192,13572,1,0,0:0:0:0:
256,192,13655,1,0,0:0:0:0:
256,192,13738,1,8,0:0:0:0:
256,192,13905,1,0,0:0:0:0:
256,192,14238,1,0,0:0:0:0:
256,192,14405,1,8,0:0:0:0:
256,192,14572,1,8,0:0:0:0:
256,192,14738,1,0,0:0:0:0:
256,192,14905,1,0,0:0:0:0:
256,192,14988,1,0,0:0:0:0:
256,192,15072,1,8,0:0:0:0:
256,192,15238,1,0,0:0:0:0:
256,192,15572,1,0,0:0:0:0:
256,192,15738,1,8,0:0:0:0:
256,192,15822,1,0,0:0:0:0:
256,192,15905,1,8,0:0:0:0:
256,192,16072,1,0,0:0:0:0:
256,192,16239,1,0,0:0:0:0:
256,192,16322,1,0,0:0:0:0:
256,192,16406,1,8,0:0:0:0:
256,192,16489,1,8,0:0:0:0:
256,192,16572,1,0,0:0:0:0:
256,192,16739,1,8,0:0:0:0:
256,192,16906,1,0,0:0:0:0:
256,192,17072,1,8,0:0:0:0:
256,192,17156,1,0,0:0:0:0:
256,192,17239,1,8,0:0:0:0:
256,192,17406,1,0,0:0:0:0:
256,192,17572,1,0,0:0:0:0:
256,192,17656,1,0,0:0:0:0:
256,192,17739,1,8,0:0:0:0:
256,192,17822,1,8,0:0:0:0:
256,192,17906,1,0,0:0:0:0:
256,192,17989,1,0,0:0:0:0:
256,192,18072,1,8,0:0:0:0:
256,192,18239,1,0,0:0:0:0:
256,192,18322,1,0,0:0:0:0:
256,192,18406,1,8,0:0:0:0:
256,192,18489,1,0,0:0:0:0:
256,192,18572,1,8,0:0:0:0:
256,192,18739,1,0,0:0:0:0:
256,192,18822,1,0,0:0:0:0:
256,192,18906,1,0,0:0:0:0:
256,192,18989,1,0,0:0:0:0:
256,192,19072,1,8,0:0:0:0:
256,192,19156,1,0,0:0:0:0:
256,192,19239,1,8,0:0:0:0:
256,192,19295,1,8,0:0:0:0:
256,192,19350,1,8,0:0:0:0:
256,192,19406,1,0,0:0:0:0:
256,192,19489,1,0,0:0:0:0:
256,192,19572,1,8,0:0:0:0:
256,192,19628,1,0,0:0:0:0:
256,192,19684,1,0,0:0:0:0:
256,192,19739,1,8,0:0:0:0:
256,192,19822,1,0,0:0:0:0:
256,192,19906,1,8,0:0:0:0:
256,192,19989,1,8,0:0:0:0:
256,192,20072,1,0,0:0:0:0:
256,192,20239,1,8,0:0:0:0:
256,192,20322,1,8,0:0:0:0:
256,192,20406,1,0,0:0:0:0:
256,192,20572,1,0,0:0:0:0:
256,192,20656,1,0,0:0:0:0:
256,192,20739,1,8,0:0:0:0:
256,192,20906,1,0,0:0:0:0:
256,192,21072,1,8,0:0:0:0:
256,192,21128,1,8,0:0:0:0:
256,192,21184,1,8,0:0:0:0:
256,192,21239,1,8,0:0:0:0:
256,192,21295,1,8,0:0:0:0:
256,192,21350,1,8,0:0:0:0:
256,192,21406,1,0,0:0:0:0:
256,192,21572,1,8,0:0:0:0:
256,192,21656,1,8,0:0:0:0:
256,192,21739,1,0,0:0:0:0:
256,192,21906,1,8,0:0:0:0:
256,192,22239,1,0,0:0:0:0:
256,192,22406,1,8,0:0:0:0:
256,192,22572,1,8,0:0:0:0:
256,192,22739,1,0,0:0:0:0:
256,192,22906,1,0,0:0:0:0:
256,192,22989,1,0,0:0:0:0:
256,192,23072,1,8,0:0:0:0:
256,192,23239,1,8,0:0:0:0:
256,192,23572,1,8,0:0:0:0:
256,192,23739,1,0,0:0:0:0:
256,192,23906,1,8,0:0:0:0:
256,192,24072,1,0,0:0:0:0:
256,192,24239,1,8,0:0:0:0:
256,192,24322,1,8,0:0:0:0:
256,192,24406,1,0,0:0:0:0:
256,192,24572,1,8,0:0:0:0:
256,192,24906,1,0,0:0:0:0:
256,192,25072,1,8,0:0:0:0:
256,192,25239,1,8,0:0:0:0:
256,192,25406,1,0,0:0:0:0:
256,192,25572,1,0,0:0:0:0:
256,192,25656,1,0,0:0:0:0:
256,192,25739,1,8,0:0:0:0:
256,192,25906,1,8,0:0:0:0:
256,192,26239,1,8,0:0:0:0:
256,192,26406,1,0,0:0:0:0:
256,192,26572,1,8,0:0:0:0:
256,192,26739,1,0,0:0:0:0:
256,192,26906,1,8,0:0:0:0:
256,192,26989,1,8,0:0:0:0:
256,192,27072,1,0,0:0:0:0:
256,192,27239,1,8,0:0:0:0:
256,192,27572,1,0,0:0:0:0:
256,192,27739,1,8,0:0:0:0:
256,192,27906,1,8,0:0:0:0:
256,192,28072,1,0,0:0:0:0:
256,192,28239,1,0,0:0:0:0:
256,192,28322,1,0,0:0:0:0:
256,192,28406,1,8,0:0:0:0:
256,192,28572,1,8,0:0:0:0:
256,192,28906,1,8,0:0:0:0:
256,192,29072,1,0,0:0:0:0:
256,192,29239,1,8,0:0:0:0:
256,192,29406,1,0,0:0:0:0:
256,192,29572,1,8,0:0:0:0:
256,192,29739,1,8,0:0:0:0:
256,192,29906,1,0,0:0:0:0:
256,192,30072,1,8,0:0:0:0:
256,192,30239,1,0,0:0:0:0:
256,192,30406,1,8,0:0:0:0:
256,192,30572,1,8,0:0:0:0:
256,192,30739,1,8,0:0:0:0:
256,192,30822,1,8,0:0:0:0:
256,192,30906,1,8,0:0:0:0:
256,192,30989,1,0,0:0:0:0:
256,192,31072,1,8,0:0:0:0:
256,192,31156,1,8,0:0:0:0:
256,192,31239,1,0,0:0:0:0:
256,192,31322,1,0,0:0:0:0:
256,192,31406,1,8,0:0:0:0:
256,192,31572,1,0,0:0:0:0:
256,192,31656,1,8,0:0:0:0:
256,192,31739,1,0,0:0:0:0:
256,192,31822,1,0,0:0:0:0:
256,192,31906,1,8,0:0:0:0:
256,192,32072,1,4,0:0:0:0:
256,192,32239,1,8,0:0:0:0:
256,192,32322,1,8,0:0:0:0:
256,192,32406,1,0,0:0:0:0:
256,192,32489,1,0,0:0:0:0:
256,192,32572,1,8,0:0:0:0:
256,192,32906,1,0,0:0:0:0:
256,192,33072,1,8,0:0:0:0:
256,192,33239,1,8,0:0:0:0:
256,192,33322,1,8,0:0:0:0:
256,192,33406,1,0,0:0:0:0:
256,192,33572,1,0,0:0:0:0:
256,192,33656,1,0,0:0:0:0:
256,192,33739,1,8,0:0:0:0:
256,192,33906,1,8,0:0:0:0:
256,192,34239,1,0,0:0:0:0:
256,192,34406,1,8,0:0:0:0:
256,192,34572,1,8,0:0:0:0:
256,192,34739,1,0,0:0:0:0:
256,192,34906,1,8,0:0:0:0:
256,192,34989,1,8,0:0:0:0:
256,192,35072,1,0,0:0:0:0:
256,192,35156,1,0,0:0:0:0:
256,192,35239,1,8,0:0:0:0:
256,192,35572,1,0,0:0:0:0:
256,192,35739,1,8,0:0:0:0:
256,192,35906,1,8,0:0:0:0:
256,192,35989,1,8,0:0:0:0:
256,192,36072,1,0,0:0:0:0:
256,192,36239,1,0,0:0:0:0:
256,192,36322,1,0,0:0:0:0:
256,192,36406,1,8,0:0:0:0:
256,192,36489,1,0,0:0:0:0:
256,192,36572,1,8,0:0:0:0:
256,192,36906,1,0,0:0:0:0:
256,192,37072,1,8,0:0:0:0:
256,192,37156,1,0,0:0:0:0:
256,192,37239,1,8,0:0:0:0:
256,192,37322,1,8,0:0:0:0:
256,192,37406,1,0,0:0:0:0:
256,192,37572,1,0,0:0:0:0:
256,192,37656,1,0,0:0:0:0:
256,192,37739,1,8,0:0:0:0:
256,192,37906,1,8,0:0:0:0:
256,192,38239,1,8,0:0:0:0:
256,192,38322,1,8,0:0:0:0:
256,192,38406,1,0,0:0:0:0:
256,192,38489,1,0,0:0:0:0:
256,192,38572,1,8,0:0:0:0:
256,192,38739,1,0,0:0:0:0:
256,192,38906,1,0,0:0:0:0:
256,192,38989,1,0,0:0:0:0:
256,192,39072,1,8,0:0:0:0:
256,192,39239,1,0,0:0:0:0:
256,192,39322,1,0,0:0:0:0:
256,192,39406,1,8,0:0:0:0:
256,192,39489,1,8,0:0:0:0:
256,192,39572,1,8,0:0:0:0:
256,192,39656,1,0,0:0:0:0:
256,192,39739,1,8,0:0:0:0:
256,192,39822,1,0,0:0:0:0:
256,192,39906,1,8,0:0:0:0:
256,192,39989,1,8,0:0:0:0:
256,192,40072,1,0,0:0:0:0:
256,192,40156,1,0,0:0:0:0:
256,192,40239,1,8,0:0:0:0:
256,192,40322,1,0,0:0:0:0:
256,192,40406,1,8,0:0:0:0:
256,192,40489,1,8,0:0:0:0:
256,192,40572,1,8,0:0:0:0:
256,192,40656,1,0,0:0:0:0:
256,192,40739,1,8,0:0:0:0:
256,192,40822,1,8,0:0:0:0:
256,192,40906,1,0,0:0:0:0:
256,192,40989,1,0,0:0:0:0:
256,192,41072,1,8,0:0:0:0:
256,192,41156,1,0,0:0:0:0:
256,192,41239,1,8,0:0:0:0:
256,192,41322,1,8,0:0:0:0:
256,192,41406,1,0,0:0:0:0:
256,192,41572,1,8,0:0:0:0:
256,192,41656,1,0,0:0:0:0:
256,192,41739,1,8,0:0:0:0:
256,192,41906,1,0,0:0:0:0:
256,192,42072,1,8,0:0:0:0:
256,192,42239,1,0,0:0:0:0:
256,192,42322,1,8,0:0:0:0:
256,192,42406,1,0,0:0:0:0:
256,192,42489,1,0,0:0:0:0:
256,192,42572,1,8,0:0:0:0:
256,192,42739,5,4,0:0:0:0:
256,192,42989,1,8,0:0:0:0:
256,192,43072,1,8,0:0:0:0:
256,192,43239,1,0,0:0:0:0:
256,192,43406,1,8,0:0:0:0:
256,192,43489,1,8,0:0:0:0:
256,192,43572,1,0,0:0:0:0:
256,192,43656,1,0,0:0:0:0:
256,192,43739,1,8,0:0:0:0:
256,192,43906,1,8,0:0:0:0:
256,192,44072,1,0,0:0:0:0:
256,192,44322,1,8,0:0:0:0:
256,192,44406,1,0,0:0:0:0:
256,192,44572,1,0,0:0:0:0:
256,192,44739,1,8,0:0:0:0:
256,192,44822,1,8,0:0:0:0:
256,192,44906,1,8,0:0:0:0:
256,192,44989,1,0,0:0:0:0:
256,192,45072,1,8,0:0:0:0:
256,192,45239,1,8,0:0:0:0:
256,192,45406,1,8,0:0:0:0:
256,192,45656,1,8,0:0:0:0:
256,192,45739,1,8,0:0:0:0:
256,192,45906,1,8,0:0:0:0:
256,192,46072,1,0,0:0:0:0:
256,192,46239,1,8,0:0:0:0:
256,192,46406,1,8,0:0:0:0:
256,192,46489,1,0,0:0:0:0:
256,192,46572,1,8,0:0:0:0:
256,192,46656,1,8,0:0:0:0:
256,192,46739,1,8,0:0:0:0:
256,192,46989,1,8,0:0:0:0:
256,192,47072,1,0,0:0:0:0:
256,192,47239,1,0,0:0:0:0:
256,192,47406,1,8,0:0:0:0:
256,192,47489,1,8,0:0:0:0:
256,192,47572,1,0,0:0:0:0:
256,192,47739,1,8,0:0:0:0:
256,192,47906,1,0,0:0:0:0:
256,192,48072,5,4,0:0:0:0:
256,192,48322,1,8,0:0:0:0:
256,192,48405,1,8,0:0:0:0:
256,192,48572,1,0,0:0:0:0:
256,192,48739,1,8,0:0:0:0:
256,192,48822,1,8,0:0:0:0:
256,192,48905,1,0,0:0:0:0:
256,192,48989,1,0,0:0:0:0:
256,192,49072,1,8,0:0:0:0:
256,192,49239,1,8,0:0:0:0:
256,192,49405,1,0,0:0:0:0:
256,192,49655,1,8,0:0:0:0:
256,192,49739,1,0,0:0:0:0:
256,192,49905,1,0,0:0:0:0:
256,192,50072,1,8,0:0:0:0:
256,192,50155,1,8,0:0:0:0:
256,192,50239,1,8,0:0:0:0:
256,192,50322,1,0,0:0:0:0:
256,192,50405,1,8,0:0:0:0:
256,192,50572,1,8,0:0:0:0:
256,192,50739,1,8,0:0:0:0:
256,192,50989,1,8,0:0:0:0:
256,192,51072,1,8,0:0:0:0:
256,192,51239,1,8,0:0:0:0:
256,192,51405,1,0,0:0:0:0:
256,192,51572,1,8,0:0:0:0:
256,192,51739,1,8,0:0:0:0:
256,192,51822,1,0,0:0:0:0:
256,192,51905,1,8,0:0:0:0:
256,192,51989,1,8,0:0:0:0:
256,192,52072,1,8,0:0:0:0:
256,192,52239,1,0,0:0:0:0:
256,192,52322,1,8,0:0:0:0:
256,192,52406,1,8,0:0:0:0:
256,192,52489,1,0,0:0:0:0:
256,192,52572,1,8,0:0:0:0:
256,192,52656,1,0,0:0:0:0:
256,192,52739,1,8,0:0:0:0:
256,192,52822,1,8,0:0:0:0:
256,192,52906,1,0,0:0:0:0:
256,192,52989,1,8,0:0:0:0:
256,192,53072,1,0,0:0:0:0:
256,192,53156,1,0,0:0:0:0:
256,192,53239,1,8,0:0:0:0:
256,192,53406,1,4,0:0:0:0:
256,192,53572,1,0,0:0:0:0:
256,192,53656,1,8,0:0:0:0:
256,192,53739,1,0,0:0:0:0:
256,192,53906,1,0,0:0:0:0:
256,192,54072,1,8,0:0:0:0:
256,192,54156,1,8,0:0:0:0:
256,192,54239,1,8,0:0:0:0:
256,192,54406,1,0,0:0:0:0:
256,192,54572,1,8,0:0:0:0:
256,192,54739,1,0,0:0:0:0:
256,192,54906,1,0,0:0:0:0:
256,192,54989,1,8,0:0:0:0:
256,192,55072,1,8,0:0:0:0:
256,192,55239,1,0,0:0:0:0:
256,192,55406,1,8,0:0:0:0:
256,192,55489,1,0,0:0:0:0:
256,192,55572,1,8,0:0:0:0:
256,192,55739,1,8,0:0:0:0:
256,192,55906,1,0,0:0:0:0:
256,192,56072,1,8,0:0:0:0:
256,192,56239,1,0,0:0:0:0:
256,192,56322,1,8,0:0:0:0:
256,192,56406,1,0,0:0:0:0:
256,192,56572,1,8,0:0:0:0:
256,192,56656,1,8,0:0:0:0:
256,192,56739,1,0,0:0:0:0:
256,192,56822,1,0,0:0:0:0:
256,192,56906,1,8,0:0:0:0:
256,192,57072,1,8,0:0:0:0:
256,192,57239,1,0,0:0:0:0:
256,192,57406,1,8,0:0:0:0:
256,192,57572,1,0,0:0:0:0:
256,192,57656,1,8,0:0:0:0:
256,192,57739,1,8,0:0:0:0:
256,192,57906,1,0,0:0:0:0:
256,192,58072,1,8,0:0:0:0:
256,192,58156,1,8,0:0:0:0:
256,192,58239,1,0,0:0:0:0:
256,192,58406,1,8,0:0:0:0:
256,192,58572,1,0,0:0:0:0:
256,192,58739,1,4,0:0:0:0:
256,192,58906,1,0,0:0:0:0:
256,192,58989,1,8,0:0:0:0:
256,192,59072,1,0,0:0:0:0:
256,192,59239,1,0,0:0:0:0:
256,192,59406,1,8,0:0:0:0:
256,192,59489,1,8,0:0:0:0:
256,192,59572,1,8,0:0:0:0:
256,192,59739,1,8,0:0:0:0:
256,192,59906,1,0,0:0:0:0:
256,192,60072,1,4,0:0:0:0:
256,192,60239,1,0,0:0:0:0:
256,192,60322,1,8,0:0:0:0:
256,192,60406,1,8,0:0:0:0:
256,192,60572,1,0,0:0:0:0:
256,192,60739,1,8,0:0:0:0:
256,192,60822,1,0,0:0:0:0:
256,192,60906,1,8,0:0:0:0:
256,192,61072,1,8,0:0:0:0:
256,192,61239,1,0,0:0:0:0:
256,192,61406,1,4,0:0:0:0:
256,192,61572,1,8,0:0:0:0:
256,192,61739,1,0,0:0:0:0:
256,192,61906,1,8,0:0:0:0:
256,192,62072,1,4,0:0:0:0:
256,192,62406,1,0,0:0:0:0:
256,192,62739,1,4,0:0:0:0:
256,192,62906,1,0,0:0:0:0:
256,192,62961,1,0,0:0:0:0:
256,192,63017,1,0,0:0:0:0:
256,192,63072,1,8,0:0:0:0:
256,192,63156,1,0,0:0:0:0:
256,192,63239,1,8,0:0:0:0:
256,192,63322,1,8,0:0:0:0:
256,192,63406,1,0,0:0:0:0:
256,192,63489,1,0,0:0:0:0:
256,192,63572,1,8,0:0:0:0:
256,192,63656,1,0,0:0:0:0:
256,192,63739,1,8,0:0:0:0:
256,192,63822,1,8,0:0:0:0:
256,192,63906,1,0,0:0:0:0:
256,192,64072,1,4,0:0:0:0:
256,192,64322,1,0,0:0:0:0:
256,192,64406,1,8,0:0:0:0:
256,192,64572,1,8,0:0:0:0:
256,192,64656,1,8,0:0:0:0:
256,192,64739,1,0,0:0:0:0:
256,192,64906,1,8,0:0:0:0:
256,192,65072,1,0,0:0:0:0:
256,192,65239,1,8,0:0:0:0:
256,192,65406,1,0,0:0:0:0:
256,192,65572,1,8,0:0:0:0:
256,192,65656,1,8,0:0:0:0:
256,192,65739,1,0,0:0:0:0:
256,192,65906,1,8,0:0:0:0:
256,192,66072,1,0,0:0:0:0:
256,192,66156,1,0,0:0:0:0:
256,192,66239,1,8,0:0:0:0:
256,192,66406,1,8,0:0:0:0:
256,192,66739,1,0,0:0:0:0:
256,192,66989,1,0,0:0:0:0:
256,192,67072,1,8,0:0:0:0:
256,192,67239,1,8,0:0:0:0:
256,192,67406,1,0,0:0:0:0:
256,192,67572,1,8,0:0:0:0:
256,192,67656,1,8,0:0:0:0:
256,192,67739,1,0,0:0:0:0:
256,192,67906,1,8,0:0:0:0:
256,192,68072,1,0,0:0:0:0:
256,192,68239,1,8,0:0:0:0:
256,192,68322,1,8,0:0:0:0:
256,192,68406,1,0,0:0:0:0:
256,192,68489,1,0,0:0:0:0:
256,192,68572,1,8,0:0:0:0:
256,192,68739,1,0,0:0:0:0:
256,192,68906,1,0,0:0:0:0:
256,192,68989,1,0,0:0:0:0:
256,192,69072,1,8,0:0:0:0:
256,192,69239,1,8,0:0:0:0:
256,192,69406,1,0,0:0:0:0:
256,192,69656,1,0,0:0:0:0:
256,192,69739,1,8,0:0:0:0:
256,192,69906,1,8,0:0:0:0:
256,192,70072,1,0,0:0:0:0:
256,192,70239,1,8,0:0:0:0:
256,192,70322,1,8,0:0:0:0:
256,192,70406,1,0,0:0:0:0:
256,192,70572,1,8,0:0:0:0:
256,192,70739,1,0,0:0:0:0:
256,192,70906,1,8,0:0:0:0:
256,192,70989,1,8,0:0:0:0:
256,192,71072,1,0,0:0:0:0:
256,192,71239,1,8,0:0:0:0:
256,192,71406,1,0,0:0:0:0:
256,192,71489,1,0,0:0:0:0:
256,192,71572,1,8,0:0:0:0:
256,192,71739,1,8,0:0:0:0:
256,192,71906,1,0,0:0:0:0:
256,192,72072,1,8,0:0:0:0:
256,192,72239,1,8,0:0:0:0:
256,192,72406,1,0,0:0:0:0:
256,192,72572,1,8,0:0:0:0:
256,192,72739,1,8,0:0:0:0:
256,192,72906,1,0,0:0:0:0:
256,192,73072,1,8,0:0:0:0:
256,192,73239,1,0,0:0:0:0:
256,192,73406,1,8,0:0:0:0:
256,192,73489,1,8,0:0:0:0:
256,192,73572,1,0,0:0:0:0:
256,192,73656,1,0,0:0:0:0:
256,192,73739,1,8,0:0:0:0:
256,192,73906,1,0,0:0:0:0:
256,192,73989,1,0,0:0:0:0:
256,192,74072,1,8,0:0:0:0:
256,192,74239,1,0,0:0:0:0:
256,192,74322,1,8,0:0:0:0:
256,192,74406,1,0,0:0:0:0:
256,192,74489,1,0,0:0:0:0:
256,192,74572,1,8,0:0:0:0:
256,192,74656,1,8,0:0:0:0:
256,192,74739,1,0,0:0:0:0:
256,192,74989,1,0,0:0:0:0:
256,192,75072,1,8,0:0:0:0:
256,192,75239,1,8,0:0:0:0:
256,192,75406,1,0,0:0:0:0:
256,192,75572,1,8,0:0:0:0:
256,192,75656,1,8,0:0:0:0:
256,192,75739,1,0,0:0:0:0:
256,192,75906,1,8,0:0:0:0:
256,192,76072,1,0,0:0:0:0:
256,192,76239,1,8,0:0:0:0:
256,192,76322,1,8,0:0:0:0:
256,192,76406,1,0,0:0:0:0:
256,192,76489,1,0,0:0:0:0:
256,192,76572,1,8,0:0:0:0:
256,192,76739,1,0,0:0:0:0:
256,192,76906,1,8,0:0:0:0:
256,192,77072,1,0,0:0:0:0:
256,192,77239,1,8,0:0:0:0:
256,192,77322,1,8,0:0:0:0:
256,192,77406,1,0,0:0:0:0:
256,192,77656,1,0,0:0:0:0:
256,192,77739,1,8,0:0:0:0:
256,192,77906,1,8,0:0:0:0:
256,192,78072,1,0,0:0:0:0:
256,192,78239,1,8,0:0:0:0:
256,192,78322,1,8,0:0:0:0:
256,192,78406,1,0,0:0:0:0:
256,192,78572,1,8,0:0:0:0:
256,192,78739,1,0,0:0:0:0:
256,192,78906,1,0,0:0:0:0:
256,192,78989,1,8,0:0:0:0:
256,192,79072,1,8,0:0:0:0:
256,192,79156,1,0,0:0:0:0:
256,192,79239,1,8,0:0:0:0:
256,192,79406,1,0,0:0:0:0:
256,192,79572,1,0,0:0:0:0:
256,192,79739,1,8,0:0:0:0:
256,192,79906,1,8,0:0:0:0:
256,192,79989,1,8,0:0:0:0:
256,192,80072,1,0,0:0:0:0:
256,192,80239,1,0,0:0:0:0:
256,192,80322,1,0,0:0:0:0:
256,192,80406,1,8,0:0:0:0:
256,192,80572,1,8,0:0:0:0:
256,192,80739,1,0,0:0:0:0:
256,192,80906,1,8,0:0:0:0:
256,192,80989,1,8,0:0:0:0:
256,192,81072,1,0,0:0:0:0:
256,192,81156,1,0,0:0:0:0:
256,192,81239,1,8,0:0:0:0:
256,192,81406,1,0,0:0:0:0:
256,192,81572,1,0,0:0:0:0:
256,192,81656,1,8,0:0:0:0:
256,192,81739,1,8,0:0:0:0:
256,192,81822,1,0,0:0:0:0:
256,192,81906,1,8,0:0:0:0:
256,192,82072,1,8,0:0:0:0:
256,192,82239,1,0,0:0:0:0:
256,192,82406,1,8,0:0:0:0:
256,192,82489,1,8,0:0:0:0:
256,192,82572,1,0,0:0:0:0:
256,192,82656,1,0,0:0:0:0:
256,192,82739,1,8,0:0:0:0:
256,192,82822,1,8,0:0:0:0:
256,192,82906,1,8,0:0:0:0:
256,192,82989,1,0,0:0:0:0:
256,192,83072,1,8,0:0:0:0:
256,192,83156,1,8,0:0:0:0:
256,192,83239,1,0,0:0:0:0:
256,192,83322,1,0,0:0:0:0:
256,192,83406,1,8,0:0:0:0:
256,192,83572,1,0,0:0:0:0:
256,192,83656,1,8,0:0:0:0:
256,192,83739,1,0,0:0:0:0:
256,192,83822,1,0,0:0:0:0:
256,192,83906,1,8,0:0:0:0:
256,192,84072,1,0,0:0:0:0:
256,192,84406,1,0,0:0:0:0:
256,192,84739,1,0,0:0:0:0:
256,192,84906,1,0,0:0:0:0:
256,192,84989,1,0,0:0:0:0:
256,192,85072,1,8,0:0:0:0:
256,192,85406,5,12,0:0:0:0:
256,192,85572,1,0,0:0:0:0:
256,192,85906,5,4,0:0:0:0:
256,192,86239,1,4,0:0:0:0:
256,192,86739,1,8,0:0:0:0:
256,192,86906,1,0,0:0:0:0:
256,192,87239,1,4,0:0:0:0:
256,192,87572,1,4,0:0:0:0:
256,192,88072,1,8,0:0:0:0:
256,192,88239,1,0,0:0:0:0:
256,192,88572,1,4,0:0:0:0:
256,192,88906,1,4,0:0:0:0:
256,192,89239,1,0,0:0:0:0:
256,192,89322,1,0,0:0:0:0:
256,192,89406,1,8,0:0:0:0:
256,192,89572,1,0,0:0:0:0:
256,192,89906,1,4,0:0:0:0:
256,192,90072,1,8,0:0:0:0:
256,192,90239,1,4,0:0:0:0:
256,192,90406,1,8,0:0:0:0:
256,192,90572,1,8,0:0:0:0:
256,192,90656,1,8,0:0:0:0:
256,192,90739,1,0,0:0:0:0:
256,192,90906,1,0,0:0:0:0:
256,192,91239,1,4,0:0:0:0:
256,192,91572,1,4,0:0:0:0:
256,192,91906,1,8,0:0:0:0:
256,192,91989,1,8,0:0:0:0:
256,192,92072,1,0,0:0:0:0:
256,192,92239,1,0,0:0:0:0:
256,192,92572,1,4,0:0:0:0:
256,192,92906,1,4,0:0:0:0:
256,192,93239,1,0,0:0:0:0:
256,192,93406,1,8,0:0:0:0:
256,192,93572,1,0,0:0:0:0:
256,192,93906,1,4,0:0:0:0:
256,192,94239,1,4,0:0:0:0:
256,192,94406,1,8,0:0:0:0:
256,192,94572,1,0,0:0:0:0:
256,192,94739,1,12,0:0:0:0:
256,192,94906,1,8,0:0:0:0:
256,192,94989,1,8,0:0:0:0:
256,192,95072,1,0,0:0:0:0:
256,192,95239,1,8,0:0:0:0:
256,192,95406,1,8,0:0:0:0:
256,192,95489,1,0,0:0:0:0:
256,192,95572,1,0,0:0:0:0:
256,192,95739,1,8,0:0:0:0:
256,192,95822,1,0,0:0:0:0:
256,192,95906,1,8,0:0:0:0:
256,192,96072,1,12,0:0:0:0:
256,192,96239,1,0,0:0:0:0:
256,192,96322,1,0,0:0:0:0:
256,192,96406,1,8,0:0:0:0:
256,192,96572,1,0,0:0:0:0:
256,192,96739,1,8,0:0:0:0:
256,192,96822,1,8,0:0:0:0:
256,192,96906,1,0,0:0:0:0:
256,192,96989,1,0,0:0:0:0:
256,192,97072,1,8,0:0:0:0:
256,192,97239,1,8,0:0:0:0:
256,192,97322,1,8,0:0:0:0:
256,192,97406,1,0,0:0:0:0:
256,192,97572,1,0,0:0:0:0:
256,192,97739,1,8,0:0:0:0:
256,192,97906,1,0,0:0:0:0:
256,192,98072,1,0,0:0:0:0:
256,192,98156,1,0,0:0:0:0:
256,192,98239,1,8,0:0:0:0:
256,192,98322,1,0,0:0:0:0:
256,192,98406,1,8,0:0:0:0:
256,192,98572,1,8,0:0:0:0:
256,192,98739,1,8,0:0:0:0:
256,192,98822,1,0,0:0:0:0:
256,192,98906,1,0,0:0:0:0:
256,192,98989,1,0,0:0:0:0:
256,192,99072,1,8,0:0:0:0:
256,192,99239,1,8,0:0:0:0:
256,192,99322,1,0,0:0:0:0:
256,192,99406,1,0,0:0:0:0:
256,192,99572,1,0,0:0:0:0:
256,192,99739,1,8,0:0:0:0:
256,192,99906,1,0,0:0:0:0:
256,192,99989,1,8,0:0:0:0:
256,192,100072,1,0,0:0:0:0:
256,192,100156,1,0,0:0:0:0:
256,192,100239,1,8,0:0:0:0:
256,192,100322,1,0,0:0:0:0:
256,192,100406,1,8,0:0:0:0:
256,192,100572,1,8,0:0:0:0:
256,192,100656,1,0,0:0:0:0:
256,192,100739,1,8,0:0:0:0:
256,192,100822,1,8,0:0:0:0:
256,192,100906,1,0,0:0:0:0:
256,192,100989,1,0,0:0:0:0:
256,192,101072,1,8,0:0:0:0:
256,192,101239,1,8,0:0:0:0:
256,192,101406,1,0,0:0:0:0:
256,192,101489,1,0,0:0:0:0:
256,192,101572,1,0,0:0:0:0:
256,192,101656,1,0,0:0:0:0:
256,192,101739,1,8,0:0:0:0:
256,192,101906,1,8,0:0:0:0:
256,192,101989,1,8,0:0:0:0:
256,192,102072,1,0,0:0:0:0:
256,192,102156,1,0,0:0:0:0:
256,192,102239,1,8,0:0:0:0:
256,192,102406,1,8,0:0:0:0:
256,192,102572,1,0,0:0:0:0:
256,192,102739,1,0,0:0:0:0:
256,192,102822,1,0,0:0:0:0:
256,192,102906,1,0,0:0:0:0:
256,192,102989,1,0,0:0:0:0:
256,192,103072,1,8,0:0:0:0:
256,192,103239,1,8,0:0:0:0:
256,192,103322,1,0,0:0:0:0:
256,192,103406,1,0,0:0:0:0:
256,192,103489,1,0,0:0:0:0:
256,192,103572,1,8,0:0:0:0:
256,192,103739,1,8,0:0:0:0:
256,192,103906,1,0,0:0:0:0:
256,192,103989,1,0,0:0:0:0:
256,192,104072,1,8,0:0:0:0:
256,192,104128,1,0,0:0:0:0:
256,192,104184,1,0,0:0:0:0:
256,192,104239,1,8,0:0:0:0:
256,192,104322,1,8,0:0:0:0:
256,192,104406,1,0,0:0:0:0:
256,192,104489,1,0,0:0:0:0:
256,192,104572,1,8,0:0:0:0:
256,192,104656,1,8,0:0:0:0:
256,192,104739,1,0,0:0:0:0:
256,192,104822,1,8,0:0:0:0:
256,192,104906,1,0,0:0:0:0:
256,192,104989,1,0,0:0:0:0:
256,192,105072,1,8,0:0:0:0:
256,192,105239,1,0,0:0:0:0:
256,192,105322,1,0,0:0:0:0:
256,192,105406,1,8,0:0:0:0:
256,192,105461,1,8,0:0:0:0:
256,192,105517,1,8,0:0:0:0:
256,192,105572,1,0,0:0:0:0:
256,192,105656,1,0,0:0:0:0:
256,192,105739,1,8,0:0:0:0:
256,192,105795,1,0,0:0:0:0:
256,192,105850,1,0,0:0:0:0:
256,192,105906,1,8,0:0:0:0:
256,192,105989,1,0,0:0:0:0:
256,192,106072,1,8,0:0:0:0:
256,192,106239,1,0,0:0:0:0:
256,192,106322,1,8,0:0:0:0:
256,192,106489,1,8,0:0:0:0:
256,192,106572,1,8,0:0:0:0:
256,192,106739,1,4,0:0:0:0:
256,192,106989,1,8,0:0:0:0:
256,192,107072,1,0,0:0:0:0:
256,192,107239,1,0,0:0:0:0:
256,192,107406,1,8,0:0:0:0:
256,192,107572,1,8,0:0:0:0:
256,192,107656,1,8,0:0:0:0:
256,192,107739,1,0,0:0:0:0:
256,192,107906,1,0,0:0:0:0:
256,192,108072,1,8,0:0:0:0:
256,192,108239,1,0,0:0:0:0:
256,192,108322,1,0,0:0:0:0:
256,192,108406,1,8,0:0:0:0:
256,192,108572,1,0,0:0:0:0:
256,192,108739,1,0,0:0:0:0:
256,192,108822,1,8,0:0:0:0:
256,192,108906,1,0,0:0:0:0:
256,192,108989,1,0,0:0:0:0:
256,192,109072,1,8,0:0:0:0:
256,192,109239,1,8,0:0:0:0:
256,192,109406,1,0,0:0:0:0:
256,192,109572,1,0,0:0:0:0:
256,192,109656,1,0,0:0:0:0:
256,192,109739,1,8,0:0:0:0:
256,192,109906,1,0,0:0:0:0:
256,192,110072,1,8,0:0:0:0:
256,192,110239,1,0,0:0:0:0:
256,192,110322,1,8,0:0:0:0:
256,192,110406,1,8,0:0:0:0:
256,192,110489,1,0,0:0:0:0:
256,192,110572,1,8,0:0:0:0:
256,192,110739,1,0,0:0:0:0:
256,192,110906,1,0,0:0:0:0:
256,192,110989,1,0,0:0:0:0:
256,192,111072,1,8,0:0:0:0:
256,192,111239,1,0,0:0:0:0:
256,192,111406,1,8,0:0:0:0:
256,192,111572,1,8,0:0:0:0:
256,192,111656,1,8,0:0:0:0:
256,192,111739,1,8,0:0:0:0:
256,192,111822,1,0,0:0:0:0:
256,192,111906,1,8,0:0:0:0:
256,192,111989,1,8,0:0:0:0:
256,192,112072,1,0,0:0:0:0:
256,192,112239,1,0,0:0:0:0:
256,192,112322,1,0,0:0:0:0:
256,192,112406,1,8,0:0:0:0:
256,192,112572,1,0,0:0:0:0:
256,192,112739,1,8,0:0:0:0:
256,192,112906,1,8,0:0:0:0:
256,192,112989,1,8,0:0:0:0:
256,192,113072,1,0,0:0:0:0:
256,192,113239,1,0,0:0:0:0:
256,192,113406,1,8,0:0:0:0:
256,192,113572,1,0,0:0:0:0:
256,192,113656,1,0,0:0:0:0:
256,192,113739,1,8,0:0:0:0:
256,192,113906,1,0,0:0:0:0:
256,192,114072,1,8,0:0:0:0:
256,192,114156,1,8,0:0:0:0:
256,192,114239,1,0,0:0:0:0:
256,192,114322,1,0,0:0:0:0:
256,192,114406,1,8,0:0:0:0:
256,192,114572,1,8,0:0:0:0:
256,192,114739,1,0,0:0:0:0:
256,192,114906,1,8,0:0:0:0:
256,192,115072,1,8,0:0:0:0:
256,192,115239,1,0,0:0:0:0:
256,192,115406,1,8,0:0:0:0:
256,192,115573,1,0,0:0:0:0:
256,192,115740,1,8,0:0:0:0:
256,192,115906,1,8,0:0:0:0:
256,192,116073,1,8,0:0:0:0:
256,192,116156,1,8,0:0:0:0:
256,192,116239,1,0,0:0:0:0:
256,192,116322,1,0,0:0:0:0:
256,192,116406,1,8,0:0:0:0:
256,192,116572,1,0,0:0:0:0:
256,192,116656,1,0,0:0:0:0:
256,192,116739,1,8,0:0:0:0:
256,192,116906,1,0,0:0:0:0:
256,192,116989,1,8,0:0:0:0:
256,192,117072,1,8,0:0:0:0:
256,192,117156,1,0,0:0:0:0:
256,192,117239,1,8,0:0:0:0:
256,192,117322,1,8,0:0:0:0:
256,192,117406,1,0,0:0:0:0:
256,192,117656,1,0,0:0:0:0:
256,192,117739,1,8,0:0:0:0:
256,192,117906,1,0,0:0:0:0:
256,192,118072,1,8,0:0:0:0:
256,192,118239,1,0,0:0:0:0:
256,192,118406,1,8,0:0:0:0:
256,192,118572,1,8,0:0:0:0:
256,192,118656,1,8,0:0:0:0:
256,192,118739,1,0,0:0:0:0:
256,192,118989,1,0,0:0:0:0:
256,192,119072,1,8,0:0:0:0:
256,192,119239,1,0,0:0:0:0:
256,192,119406,1,8,0:0:0:0:
256,192,119489,1,8,0:0:0:0:
256,192,119572,1,0,0:0:0:0:
256,192,119739,1,8,0:0:0:0:
256,192,119906,1,8,0:0:0:0:
256,192,119989,1,8,0:0:0:0:
256,192,120072,1,0,0:0:0:0:
256,192,120322,1,0,0:0:0:0:
256,192,120406,1,8,0:0:0:0:
256,192,120572,1,0,0:0:0:0:
256,192,120739,1,8,0:0:0:0:
256,192,120822,1,8,0:0:0:0:
256,192,120906,1,0,0:0:0:0:
256,192,120989,1,0,0:0:0:0:
256,192,121072,1,8,0:0:0:0:
256,192,121239,1,8,0:0:0:0:
256,192,121322,1,8,0:0:0:0:
256,192,121406,1,0,0:0:0:0:
256,192,121656,1,0,0:0:0:0:
256,192,121739,1,8,0:0:0:0:
256,192,121906,1,0,0:0:0:0:
256,192,122072,1,8,0:0:0:0:
256,192,122322,1,8,0:0:0:0:
256,192,122406,1,8,0:0:0:0:
256,192,122572,1,8,0:0:0:0:
256,192,122739,1,4,0:0:0:0:
256,192,122906,1,8,0:0:0:0:
256,192,122989,1,8,0:0:0:0:
256,192,123072,1,0,0:0:0:0:
256,192,123239,1,8,0:0:0:0:
256,192,123406,1,0,0:0:0:0:
256,192,123572,1,8,0:0:0:0:
256,192,123656,1,8,0:0:0:0:
256,192,123739,1,0,0:0:0:0:
256,192,123822,1,0,0:0:0:0:
256,192,123906,1,8,0:0:0:0:
256,192,124072,1,4,0:0:0:0:
256,192,124239,1,0,0:0:0:0:
256,192,124322,1,0,0:0:0:0:
256,192,124406,1,8,0:0:0:0:
256,192,124489,1,0,0:0:0:0:
256,192,124572,1,8,0:0:0:0:
256,192,124656,1,8,0:0:0:0:
256,192,124739,1,0,0:0:0:0:
256,192,124906,1,8,0:0:0:0:
256,192,124989,1,8,0:0:0:0:
256,192,125072,1,0,0:0:0:0:
256,192,125156,1,0,0:0:0:0:
256,192,125239,1,8,0:0:0:0:
256,192,125322,1,8,0:0:0:0:
256,192,125406,1,0,0:0:0:0:
256,192,125461,1,0,0:0:0:0:
256,192,125517,1,0,0:0:0:0:
256,192,125572,1,8,0:0:0:0:
256,192,125656,1,0,0:0:0:0:
256,192,125739,1,8,0:0:0:0:
256,192,125822,1,8,0:0:0:0:
256,192,125906,1,8,0:0:0:0:
256,192,125989,1,0,0:0:0:0:
256,192,126072,1,8,0:0:0:0:
256,192,126128,1,8,0:0:0:0:
256,192,126184,1,8,0:0:0:0:
256,192,126239,1,0,0:0:0:0:
256,192,126322,1,0,0:0:0:0:
256,192,126406,1,8,0:0:0:0:
256,192,126489,1,0,0:0:0:0:
256,192,126572,1,8,0:0:0:0:
256,192,126656,1,8,0:0:0:0:
256,192,126739,1,0,0:0:0:0:
256,192,126795,1,0,0:0:0:0:
256,192,126850,1,0,0:0:0:0:
256,192,126906,1,8,0:0:0:0:
256,192,126989,1,0,0:0:0:0:
256,192,127072,1,8,0:0:0:0:
256,192,127156,1,8,0:0:0:0:
256,192,127239,1,0,0:0:0:0:
256,192,127322,1,0,0:0:0:0:
256,192,127406,1,8,0:0:0:0:
256,192,127572,1,0,0:0:0:0:
256,192,127656,1,8,0:0:0:0:
256,192,127739,1,8,0:0:0:0:
256,192,127822,1,0,0:0:0:0:
256,192,127906,1,8,0:0:0:0:
256,192,128072,5,4,0:0:0:0:
256,192,128239,1,8,0:0:0:0:
256,192,128322,1,8,0:0:0:0:
256,192,128406,1,0,0:0:0:0:
256,192,128572,1,0,0:0:0:0:
256,192,128739,1,8,0:0:0:0:
256,192,128906,1,0,0:0:0:0:
256,192,128989,1,0,0:0:0:0:
256,192,129072,1,8,0:0:0:0:
256,192,129156,1,0,0:0:0:0:
256,192,129239,1,8,0:0:0:0:
256,192,129322,1,8,0:0:0:0:
256,192,129406,1,0,0:0:0:0:
256,192,129572,1,8,0:0:0:0:
256,192,129656,1,0,0:0:0:0:
256,192,129739,1,8,0:0:0:0:
256,192,129906,1,8,0:0:0:0:
256,192,129989,1,0,0:0:0:0:
256,192,130072,1,0,0:0:0:0:
256,192,130156,1,0,0:0:0:0:
256,192,130239,1,8,0:0:0:0:
256,192,130322,1,0,0:0:0:0:
256,192,130406,1,8,0:0:0:0:
256,192,130572,1,0,0:0:0:0:
256,192,130656,1,0,0:0:0:0:
256,192,130739,1,8,0:0:0:0:
256,192,130906,1,8,0:0:0:0:
256,192,130989,1,0,0:0:0:0:
256,192,131072,1,8,0:0:0:0:
256,192,131156,1,8,0:0:0:0:
256,192,131239,1,0,0:0:0:0:
256,192,131322,1,0,0:0:0:0:
256,192,131406,1,8,0:0:0:0:
256,192,131572,1,8,0:0:0:0:
256,192,131656,1,0,0:0:0:0:
256,192,131739,1,8,0:0:0:0:
256,192,131906,1,8,0:0:0:0:
256,192,131989,1,8,0:0:0:0:
256,192,132072,1,0,0:0:0:0:
256,192,132156,1,0,0:0:0:0:
256,192,132239,1,8,0:0:0:0:
256,192,132406,1,8,0:0:0:0:
256,192,132572,1,8,0:0:0:0:
256,192,132656,1,0,0:0:0:0:
256,192,132739,1,0,0:0:0:0:
256,192,132822,1,0,0:0:0:0:
256,192,132906,1,8,0:0:0:0:
256,192,133072,1,8,0:0:0:0:
256,192,133239,1,0,0:0:0:0:
256,192,133322,1,8,0:0:0:0:
256,192,133406,1,0,0:0:0:0:
256,192,133572,1,8,0:0:0:0:
256,192,133656,1,0,0:0:0:0:
256,192,133739,1,8,0:0:0:0:
256,192,133822,1,8,0:0:0:0:
256,192,133906,1,0,0:0:0:0:
256,192,133989,1,0,0:0:0:0:
256,192,134072,1,8,0:0:0:0:
256,192,134239,1,0,0:0:0:0:
256,192,134406,1,8,0:0:0:0:
256,192,134572,1,8,0:0:0:0:
256,192,134656,1,8,0:0:0:0:
256,192,134739,1,0,0:0:0:0:
256,192,134822,1,0,0:0:0:0:
256,192,134906,1,8,0:0:0:0:
256,192,135072,1,8,0:0:0:0:
256,192,135239,1,8,0:0:0:0:
256,192,135322,1,0,0:0:0:0:
256,192,135406,1,0,0:0:0:0:
256,192,135489,1,0,0:0:0:0:
256,192,135572,1,8,0:0:0:0:
256,192,135739,1,8,0:0:0:0:
256,192,135906,1,0,0:0:0:0:
256,192,135989,1,0,0:0:0:0:
256,192,136072,1,8,0:0:0:0:
256,192,136239,1,8,0:0:0:0:
256,192,136406,1,0,0:0:0:0:
256,192,136489,1,0,0:0:0:0:
256,192,136572,1,8,0:0:0:0:
256,192,136656,1,8,0:0:0:0:
256,192,136739,1,0,0:0:0:0:
256,192,136822,1,0,0:0:0:0:
256,192,136906,1,8,0:0:0:0:
256,192,137072,1,8,0:0:0:0:
256,192,137239,1,0,0:0:0:0:
256,192,137406,1,8,0:0:0:0:
256,192,137489,1,0,0:0:0:0:
256,192,137572,1,8,0:0:0:0:
256,192,137656,1,8,0:0:0:0:
256,192,137739,1,0,0:0:0:0:
256,192,137822,1,0,0:0:0:0:
256,192,137906,1,8,0:0:0:0:
256,192,137989,1,0,0:0:0:0:
256,192,138072,1,8,0:0:0:0:
256,192,138239,1,0,0:0:0:0:
256,192,138322,1,8,0:0:0:0:
256,192,138406,1,0,0:0:0:0:
256,192,138489,1,8,0:0:0:0:
256,192,138572,1,8,0:0:0:0:
256,192,138739,1,4,0:0:0:0:
256,192,138906,1,8,0:0:0:0:
256,192,138989,1,8,0:0:0:0:
256,192,139072,1,0,0:0:0:0:
256,192,139239,1,8,0:0:0:0:
256,192,139406,1,0,0:0:0:0:
256,192,139489,1,8,0:0:0:0:
256,192,139572,1,8,0:0:0:0:
256,192,139656,1,0,0:0:0:0:
256,192,139739,1,8,0:0:0:0:
256,192,139906,1,8,0:0:0:0:
256,192,140072,1,0,0:0:0:0:
256,192,140239,1,8,0:0:0:0:
256,192,140322,1,8,0:0:0:0:
256,192,140406,1,0,0:0:0:0:
256,192,140572,1,8,0:0:0:0:
256,192,140739,1,0,0:0:0:0:
256,192,140906,1,8,0:0:0:0:
256,192,140989,1,0,0:0:0:0:
256,192,141072,1,8,0:0:0:0:
256,192,141156,1,8,0:0:0:0:
256,192,141239,1,0,0:0:0:0:
256,192,141322,1,0,0:0:0:0:
256,192,141406,1,8,0:0:0:0:
256,192,141572,1,0,0:0:0:0:
256,192,141656,1,0,0:0:0:0:
256,192,141739,1,8,0:0:0:0:
256,192,141906,1,0,0:0:0:0:
256,192,142072,1,8,0:0:0:0:
256,192,142156,1,0,0:0:0:0:
256,192,142239,1,8,0:0:0:0:
256,192,142322,1,8,0:0:0:0:
256,192,142406,1,0,0:0:0:0:
256,192,142572,1,8,0:0:0:0:
256,192,142739,1,0,0:0:0:0:
256,192,142906,1,0,0:0:0:0:
256,192,142989,1,0,0:0:0:0:
256,192,143072,1,8,0:0:0:0:
256,192,143239,1,8,0:0:0:0:
256,192,143406,1,0,0:0:0:0:
256,192,143572,1,8,0:0:0:0:
256,192,143656,1,8,0:0:0:0:
256,192,143739,1,0,0:0:0:0:
256,192,143822,1,0,0:0:0:0:
256,192,143906,1,8,0:0:0:0:
256,192,143989,1,8,0:0:0:0:
256,192,144072,1,0,0:0:0:0:
256,192,144239,1,0,0:0:0:0:
256,192,144322,1,8,0:0:0:0:
256,192,144406,1,8,0:0:0:0:
256,192,144489,1,0,0:0:0:0:
256,192,144572,1,8,0:0:0:0:
256,192,144739,1,8,0:0:0:0:
256,192,144906,1,8,0:0:0:0:
256,192,144989,1,8,0:0:0:0:
256,192,145072,1,0,0:0:0:0:
256,192,145239,1,8,0:0:0:0:
256,192,145406,1,0,0:0:0:0:
256,192,145572,1,8,0:0:0:0:
256,192,145656,1,8,0:0:0:0:
256,192,145739,1,0,0:0:0:0:
256,192,145822,1,0,0:0:0:0:
256,192,145906,1,8,0:0:0:0:
256,192,146072,1,0,0:0:0:0:
256,192,146156,1,8,0:0:0:0:
256,192,146239,1,0,0:0:0:0:
256,192,146322,1,0,0:0:0:0:
256,192,146406,1,8,0:0:0:0:
256,192,146572,1,8,0:0:0:0:
256,192,146739,1,4,0:0:0:0:
256,192,146906,1,8,0:0:0:0:
256,192,146989,1,0,0:0:0:0:
256,192,147072,1,8,0:0:0:0:
256,192,147156,1,8,0:0:0:0:
256,192,147239,1,0,0:0:0:0:
256,192,147322,1,0,0:0:0:0:
256,192,147406,1,8,0:0:0:0:
256,192,147489,1,8,0:0:0:0:
256,192,147572,1,0,0:0:0:0:
256,192,147656,1,8,0:0:0:0:
256,192,147739,1,0,0:0:0:0:
256,192,147822,1,0,0:0:0:0:
256,192,147906,1,8,0:0:0:0:
256,192,148072,1,4,0:0:0:0:
256,192,148406,1,0,0:0:0:0:
256,192,148739,1,0,0:0:0:0:
256,192,148906,1,8,0:0:0:0:
256,192,148989,1,8,0:0:0:0:
256,192,149072,1,0,0:0:0:0:
256,192,149239,1,8,0:0:0:0:
256,192,149406,5,4,0:0:0:0:
256,192,149572,1,0,0:0:0:0:
256,192,149739,1,8,0:0:0:0:
256,192,149906,1,0,0:0:0:0:
256,192,149989,1,0,0:0:0:0:
256,192,150072,1,0,0:0:0:0:
256,192,150239,1,0,0:0:0:0:
256,192,150406,1,8,0:0:0:0:
256,192,150572,1,8,0:0:0:0:
256,192,150656,1,8,0:0:0:0:
256,192,150739,1,0,0:0:0:0:
256,192,150906,1,0,0:0:0:0:
256,192,151072,1,8,0:0:0:0:
256,192,151239,1,0,0:0:0:0:
256,192,151322,1,8,0:0:0:0:
256,192,151406,1,0,0:0:0:0:
256,192,151489,1,0,0:0:0:0:
256,192,151572,1,8,0:0:0:0:
256,192,151739,1,8,0:0:0:0:
256,192,151906,1,8,0:0:0:0:
256,192,152072,1,0,0:0:0:0:
256,192,152239,1,0,0:0:0:0:
256,192,152406,1,8,0:0:0:0:
256,192,152572,1,8,0:0:0:0:
256,192,152656,1,8,0:0:0:0:
256,192,152739,1,8,0:0:0:0:
256,192,152906,1,0,0:0:0:0:
256,192,153072,1,8,0:0:0:0:
256,192,153239,1,0,0:0:0:0:
256,192,153406,1,0,0:0:0:0:
256,192,153572,1,8,0:0:0:0:
256,192,153739,1,8,0:0:0:0:
256,192,153906,1,8,0:0:0:0:
256,192,153989,1,0,0:0:0:0:
256,192,154072,1,0,0:0:0:0:
256,192,154156,1,0,0:0:0:0:
256,192,154239,1,8,0:0:0:0:
256,192,154406,1,8,0:0:0:0:
256,192,154489,1,8,0:0:0:0:
256,192,154572,1,0,0:0:0:0:
256,192,154656,1,0,0:0:0:0:
256,192,154739,1,8,0:0:0:0:
256,192,154906,1,0,0:0:0:0:
256,192,155072,1,8,0:0:0:0:
256,192,155239,1,8,0:0:0:0:
256,192,155322,1,8,0:0:0:0:
256,192,155406,1,0,0:0:0:0:
256,192,155572,1,0,0:0:0:0:
256,192,155739,1,8,0:0:0:0:
256,192,155906,1,0,0:0:0:0:
256,192,155989,1,0,0:0:0:0:
256,192,156072,1,8,0:0:0:0:
256,192,156239,1,0,0:0:0:0:
256,192,156406,1,8,0:0:0:0:
256,192,156572,1,0,0:0:0:0:
256,192,156656,1,0,0:0:0:0:
256,192,156739,1,8,0:0:0:0:
256,192,156822,1,0,0:0:0:0:
256,192,156906,1,8,0:0:0:0:
256,192,156989,1,8,0:0:0:0:
256,192,157072,1,0,0:0:0:0:
256,192,157239,1,8,0:0:0:0:
256,192,157406,1,0,0:0:0:0:
256,192,157489,1,0,0:0:0:0:
256,192,157572,1,8,0:0:0:0:
256,192,157656,1,0,0:0:0:0:
256,192,157739,1,8,0:0:0:0:
256,192,157822,1,8,0:0:0:0:
256,192,157906,1,0,0:0:0:0:
256,192,157989,1,0,0:0:0:0:
256,192,158072,1,8,0:0:0:0:
256,192,158156,1,0,0:0:0:0:
256,192,158239,1,8,0:0:0:0:
256,192,158322,1,0,0:0:0:0:
256,192,158406,1,8,0:0:0:0:
256,192,158489,1,8,0:0:0:0:
256,192,158572,1,8,0:0:0:0:
256,192,158656,1,0,0:0:0:0:
256,192,158739,1,8,0:0:0:0:
256,192,158906,1,0,0:0:0:0:
256,192,159072,1,8,0:0:0:0:
256,192,159128,1,8,0:0:0:0:
256,192,159184,1,8,0:0:0:0:
256,192,159239,1,0,0:0:0:0:
256,192,159406,1,8,0:0:0:0:
256,192,159572,1,0,0:0:0:0:
256,192,159656,1,8,0:0:0:0:
256,192,159822,1,8,0:0:0:0:
256,192,159906,1,8,0:0:0:0:
256,192,160072,1,4,0:0:0:0:
256,192,160239,1,0,0:0:0:0:
256,192,160406,1,8,0:0:0:0:
256,192,160572,1,0,0:0:0:0:
256,192,160906,1,8,0:0:0:0:
256,192,161072,1,8,0:0:0:0:
256,192,161239,1,0,0:0:0:0:
256,192,161572,1,8,0:0:0:0:
256,192,161739,1,8,0:0:0:0:
256,192,161906,1,0,0:0:0:0:
256,192,162239,1,8,0:0:0:0:
256,192,162406,1,8,0:0:0:0:
256,192,162572,1,8,0:0:0:0:
256,192,162739,1,0,0:0:0:0:
256,192,162906,1,0,0:0:0:0:
256,192,163072,1,8,0:0:0:0:
256,192,163239,1,0,0:0:0:0:
256,192,163572,1,0,0:0:0:0:
256,192,163739,1,8,0:0:0:0:
256,192,163906,1,8,0:0:0:0:
256,192,164239,1,0,0:0:0:0:
256,192,164322,1,0,0:0:0:0:
256,192,164406,1,8,0:0:0:0:
256,192,164572,1,8,0:0:0:0:
256,192,164739,1,8,0:0:0:0:
256,192,164906,1,0,0:0:0:0:
256,192,164989,1,0,0:0:0:0:
256,192,165072,1,8,0:0:0:0:
256,192,165239,1,0,0:0:0:0:
256,192,165406,1,8,0:0:0:0:
256,192,165572,1,0,0:0:0:0:
256,192,165656,1,0,0:0:0:0:
256,192,165739,1,8,0:0:0:0:
256,192,165906,1,8,0:0:0:0:
256,192,165989,1,8,0:0:0:0:
256,192,166072,1,0,0:0:0:0:
256,192,166156,1,0,0:0:0:0:
256,192,166239,1,8,0:0:0:0:
256,192,166406,1,8,0:0:0:0:
256,192,166572,1,8,0:0:0:0:
256,192,166656,1,0,0:0:0:0:
256,192,166739,1,8,0:0:0:0:
256,192,166822,1,8,0:0:0:0:
256,192,166906,1,0,0:0:0:0:
256,192,167072,1,8,0:0:0:0:
256,192,167239,1,8,0:0:0:0:
256,192,167322,1,8,0:0:0:0:
256,192,167406,1,8,0:0:0:0:
256,192,167572,1,0,0:0:0:0:
256,192,167656,1,0,0:0:0:0:
256,192,167739,1,8,0:0:0:0:
256,192,167822,1,0,0:0:0:0:
256,192,167906,1,8,0:0:0:0:
256,192,168072,1,8,0:0:0:0:
256,192,168239,1,0,0:0:0:0:
256,192,168322,1,0,0:0:0:0:
256,192,168406,1,8,0:0:0:0:
256,192,168461,1,0,0:0:0:0:
256,192,168517,1,0,0:0:0:0:
256,192,168572,1,8,0:0:0:0:
256,192,168656,1,8,0:0:0:0:
256,192,168740,1,0,0:0:0:0:
256,192,168795,1,0,0:0:0:0:
256,192,168851,1,0,0:0:0:0:
256,192,168906,1,8,0:0:0:0:
256,192,168989,1,0,0:0:0:0:
256,192,169073,1,8,0:0:0:0:
256,192,169156,1,0,0:0:0:0:
256,192,169239,1,8,0:0:0:0:
256,192,169295,1,8,0:0:0:0:
256,192,169350,1,8,0:0:0:0:
256,192,169406,1,0,0:0:0:0:
256,192,169572,1,0,0:0:0:0:
256,192,169739,1,8,0:0:0:0:
256,192,169822,1,8,0:0:0:0:
256,192,169906,1,8,0:0:0:0:
256,192,169989,1,8,0:0:0:0:
256,192,170072,1,0,0:0:0:0:
256,192,170156,1,0,0:0:0:0:
256,192,170239,1,8,0:0:0:0:
256,192,170322,1,0,0:0:0:0:
256,192,170406,1,8,0:0:0:0:
256,192,170489,1,8,0:0:0:0:
256,192,170572,1,0,0:0:0:0:
256,192,170739,1,4,0:0:0:0:
256,192,170906,1,0,0:0:0:0:
256,192,170989,1,0,0:0:0:0:
256,192,171072,1,8,0:0:0:0:
256,192,171239,1,0,0:0:0:0:
256,192,171406,1,8,0:0:0:0:
256,192,171489,1,8,0:0:0:0:
256,192,171572,1,8,0:0:0:0:
256,192,171739,1,8,0:0:0:0:
256,192,171906,1,8,0:0:0:0:
256,192,171989,1,8,0:0:0:0:
256,192,172072,1,0,0:0:0:0:
256,192,172239,1,0,0:0:0:0:
256,192,172406,1,8,0:0:0:0:
256,192,172572,1,0,0:0:0:0:
256,192,172739,1,8,0:0:0:0:
256,192,172822,1,8,0:0:0:0:
256,192,172906,1,0,0:0:0:0:
256,192,173072,1,8,0:0:0:0:
256,192,173239,1,8,0:0:0:0:
256,192,173322,1,8,0:0:0:0:
256,192,173406,1,0,0:0:0:0:
256,192,173572,1,0,0:0:0:0:
256,192,173739,1,8,0:0:0:0:
256,192,173906,1,0,0:0:0:0:
256,192,174072,1,8,0:0:0:0:
256,192,174156,1,8,0:0:0:0:
256,192,174239,1,8,0:0:0:0:
256,192,174406,1,8,0:0:0:0:
256,192,174572,1,8,0:0:0:0:
256,192,174656,1,8,0:0:0:0:
256,192,174739,1,0,0:0:0:0:
256,192,174906,1,0,0:0:0:0:
256,192,174989,1,0,0:0:0:0:
256,192,175072,1,8,0:0:0:0:
256,192,175239,1,0,0:0:0:0:
256,192,175406,1,8,0:0:0:0:
256,192,175572,1,8,0:0:0:0:
256,192,175656,1,8,0:0:0:0:
256,192,175739,1,0,0:0:0:0:
256,192,175906,1,8,0:0:0:0:
256,192,176072,1,0,0:0:0:0:
256,192,176322,1,0,0:0:0:0:
256,192,176406,1,8,0:0:0:0:
256,192,176572,1,0,0:0:0:0:
256,192,176739,1,8,0:0:0:0:
256,192,176822,1,8,0:0:0:0:
256,192,176906,1,8,0:0:0:0:
256,192,177072,1,8,0:0:0:0:
256,192,177239,1,8,0:0:0:0:
256,192,177322,1,8,0:0:0:0:
256,192,177406,1,0,0:0:0:0:
256,192,177656,1,0,0:0:0:0:
256,192,177739,1,8,0:0:0:0:
256,192,177906,1,0,0:0:0:0:
256,192,178072,1,8,0:0:0:0:
256,192,178156,1,8,0:0:0:0:
256,192,178239,1,0,0:0:0:0:
256,192,178322,1,0,0:0:0:0:
256,192,178406,1,8,0:0:0:0:
256,192,178572,1,8,0:0:0:0:
256,192,178739,1,4,0:0:0:0:
256,192,178989,1,0,0:0:0:0:
256,192,179072,1,8,0:0:0:0:
256,192,179239,1,0,0:0:0:0:
256,192,179406,1,8,0:0:0:0:
256,192,179489,1,8,0:0:0:0:
256,192,179572,1,0,0:0:0:0:
256,192,179739,1,8,0:0:0:0:
256,192,179906,1,8,0:0:0:0:
256,192,179989,1,8,0:0:0:0:
256,192,180072,1,0,0:0:0:0:
256,192,180239,1,8,0:0:0:0:
256,192,180322,1,8,0:0:0:0:
256,192,180406,1,0,0:0:0:0:
256,192,180489,1,0,0:0:0:0:
256,192,180572,1,8,0:0:0:0:
256,192,180739,1,8,0:0:0:0:
256,192,180822,1,8,0:0:0:0:
256,192,180906,1,0,0:0:0:0:
256,192,181072,1,8,0:0:0:0:
256,192,181156,1,0,0:0:0:0:
256,192,181239,1,8,0:0:0:0:
256,192,181322,1,8,0:0:0:0:
256,192,181406,1,0,0:0:0:0:
256,192,181572,1,0,0:0:0:0:
256,192,181656,1,0,0:0:0:0:
256,192,181739,1,8,0:0:0:0:
256,192,181906,1,0,0:0:0:0:
256,192,182072,1,8,0:0:0:0:
256,192,182156,1,8,0:0:0:0:
256,192,182239,1,0,0:0:0:0:
256,192,182406,1,0,0:0:0:0:
256,192,182572,1,8,0:0:0:0:
256,192,182656,1,8,0:0:0:0:
256,192,182739,1,0,0:0:0:0:
256,192,182906,1,0,0:0:0:0:
256,192,183072,1,8,0:0:0:0:
256,192,183239,1,0,0:0:0:0:
256,192,183406,1,8,0:0:0:0:
256,192,183489,1,8,0:0:0:0:
256,192,183572,1,0,0:0:0:0:
256,192,183656,1,0,0:0:0:0:
256,192,183739,1,8,0:0:0:0:
256,192,183906,1,0,0:0:0:0:
256,192,184072,1,8,0:0:0:0:
256,192,184239,1,0,0:0:0:0:
256,192,184322,1,0,0:0:0:0:
256,192,184406,1,8,0:0:0:0:
256,192,184572,1,0,0:0:0:0:
256,192,184739,1,8,0:0:0:0:
256,192,184822,1,0,0:0:0:0:
256,192,184906,1,8,0:0:0:0:
256,192,184989,1,8,0:0:0:0:
256,192,185072,1,0,0:0:0:0:
256,192,185239,1,8,0:0:0:0:
256,192,185322,1,8,0:0:0:0:
256,192,185406,1,0,0:0:0:0:
256,192,185572,1,0,0:0:0:0:
256,192,185739,1,8,0:0:0:0:
256,192,185906,1,0,0:0:0:0:
256,192,185989,1,0,0:0:0:0:
256,192,186072,1,8,0:0:0:0:
256,192,186239,1,0,0:0:0:0:
256,192,186406,1,8,0:0:0:0:
256,192,186572,1,8,0:0:0:0:
256,192,186656,1,8,0:0:0:0:
256,192,186739,1,0,0:0:0:0:
256,192,186989,1,0,0:0:0:0:
256,192,187072,1,8,0:0:0:0:
256,192,187239,1,0,0:0:0:0:
256,192,187406,1,8,0:0:0:0:
256,192,187489,1,8,0:0:0:0:
256,192,187572,1,0,0:0:0:0:
256,192,187656,1,0,0:0:0:0:
256,192,187739,1,8,0:0:0:0:
256,192,187906,1,8,0:0:0:0:
256,192,187989,1,8,0:0:0:0:
256,192,188072,1,0,0:0:0:0:
256,192,188322,1,0,0:0:0:0:
256,192,188406,1,8,0:0:0:0:
256,192,188572,1,8,0:0:0:0:
256,192,188656,1,8,0:0:0:0:
256,192,188739,1,0,0:0:0:0:
256,192,188822,1,8,0:0:0:0:
256,192,188906,1,0,0:0:0:0:
256,192,188989,1,0,0:0:0:0:
256,192,189072,1,8,0:0:0:0:
256,192,189239,1,8,0:0:0:0:
256,192,189322,1,8,0:0:0:0:
256,192,189406,1,0,0:0:0:0:
256,192,189572,1,0,0:0:0:0:
256,192,189656,1,0,0:0:0:0:
256,192,189739,1,8,0:0:0:0:
256,192,189822,1,0,0:0:0:0:
256,192,189906,1,8,0:0:0:0:
256,192,189989,1,8,0:0:0:0:
256,192,190072,1,0,0:0:0:0:
256,192,190156,1,0,0:0:0:0:
256,192,190239,1,8,0:0:0:0:
256,192,190406,1,8,0:0:0:0:
256,192,190572,1,8,0:0:0:0:
256,192,190656,1,0,0:0:0:0:
256,192,190739,1,8,0:0:0:0:
256,192,190822,1,8,0:0:0:0:
256,192,190906,1,0,0:0:0:0:
256,192,190989,1,0,0:0:0:0:
256,192,191072,1,8,0:0:0:0:
256,192,191239,1,0,0:0:0:0:
256,192,191406,1,8,0:0:0:0:
256,192,191572,1,0,0:0:0:0:
256,192,191656,1,8,0:0:0:0:
256,192,191739,1,8,0:0:0:0:
256,192,191822,1,0,0:0:0:0:
256,192,191906,1,8,0:0:0:0:
256,192,192072,5,8,0:0:0:0:
256,192,192156,1,8,0:0:0:0:
256,192,192239,1,0,0:0:0:0:
256,192,192322,1,0,0:0:0:0:
256,192,192406,1,8,0:0:0:0:
256,192,192572,1,0,0:0:0:0:
256,192,192739,1,8,0:0:0:0:
256,192,192822,1,8,0:0:0:0:
256,192,192906,1,0,0:0:0:0:
256,192,192989,1,0,0:0:0:0:
256,192,193072,1,8,0:0:0:0:
256,192,193239,1,8,0:0:0:0:
256,192,193322,1,8,0:0:0:0:
256,192,193406,1,0,0:0:0:0:
256,192,193572,1,0,0:0:0:0:
256,192,193739,1,8,0:0:0:0:
256,192,193822,1,0,0:0:0:0:
256,192,193906,1,0,0:0:0:0:
256,192,193989,1,0,0:0:0:0:
256,192,194072,1,8,0:0:0:0:
256,192,194156,1,8,0:0:0:0:
256,192,194239,1,0,0:0:0:0:
256,192,194322,1,0,0:0:0:0:
256,192,194406,1,8,0:0:0:0:
256,192,194572,1,0,0:0:0:0:
256,192,194739,1,8,0:0:0:0:
256,192,194906,1,0,0:0:0:0:
256,192,194989,1,0,0:0:0:0:
256,192,195072,1,8,0:0:0:0:
256,192,195239,1,8,0:0:0:0:
256,192,195406,1,8,0:0:0:0:
256,192,195489,1,8,0:0:0:0:
256,192,195572,1,0,0:0:0:0:
256,192,195739,1,8,0:0:0:0:
256,192,195906,1,8,0:0:0:0:
256,192,196072,1,0,0:0:0:0:
256,192,196156,1,0,0:0:0:0:
256,192,196239,1,0,0:0:0:0:
256,192,196322,1,0,0:0:0:0:
256,192,196406,1,8,0:0:0:0:
256,192,196572,1,8,0:0:0:0:
256,192,196739,1,0,0:0:0:0:
256,192,196906,1,0,0:0:0:0:
256,192,196989,1,0,0:0:0:0:
256,192,197072,1,8,0:0:0:0:
256,192,197156,1,0,0:0:0:0:
256,192,197239,1,8,0:0:0:0:
256,192,197406,1,8,0:0:0:0:
256,192,197489,1,0,0:0:0:0:
256,192,197572,1,0,0:0:0:0:
256,192,197656,1,0,0:0:0:0:
256,192,197739,1,8,0:0:0:0:
256,192,197906,1,0,0:0:0:0:
256,192,198072,1,8,0:0:0:0:
256,192,198156,1,0,0:0:0:0:
256,192,198239,1,8,0:0:0:0:
256,192,198322,1,8,0:0:0:0:
256,192,198406,1,0,0:0:0:0:
256,192,198572,1,8,0:0:0:0:
256,192,198656,1,8,0:0:0:0:
256,192,198739,1,0,0:0:0:0:
256,192,198906,1,8,0:0:0:0:
256,192,199072,1,0,0:0:0:0:
256,192,199156,1,0,0:0:0:0:
256,192,199239,1,0,0:0:0:0:
256,192,199322,1,0,0:0:0:0:
256,192,199406,1,8,0:0:0:0:
256,192,199572,1,8,0:0:0:0:
256,192,199656,1,0,0:0:0:0:
256,192,199739,1,8,0:0:0:0:
256,192,199906,1,0,0:0:0:0:
256,192,199989,1,0,0:0:0:0:
256,192,200072,1,8,0:0:0:0:
256,192,200239,1,8,0:0:0:0:
256,192,200406,1,8,0:0:0:0:
256,192,200572,1,0,0:0:0:0:
256,192,200656,1,0,0:0:0:0:
256,192,200739,1,8,0:0:0:0:
256,192,200906,1,8,0:0:0:0:
256,192,201072,1,8,0:0:0:0:
256,192,201239,1,8,0:0:0:0:
256,192,201406,1,8,0:0:0:0:
256,192,201489,1,0,0:0:0:0:
256,192,201572,1,8,0:0:0:0:
256,192,201656,1,8,0:0:0:0:
256,192,201739,1,8,0:0:0:0:
256,192,201906,1,8,0:0:0:0:
256,192,201989,1,0,0:0:0:0:
256,192,202072,1,8,0:0:0:0:
256,192,202156,1,0,0:0:0:0:
256,192,202239,1,0,0:0:0:0:
256,192,202406,1,8,0:0:0:0:
256,192,202489,1,8,0:0:0:0:
256,192,202572,1,8,0:0:0:0:
256,192,202656,1,8,0:0:0:0:
256,192,202739,1,0,0:0:0:0:
256,192,202906,1,8,0:0:0:0:
256,192,203072,1,0,0:0:0:0:
256,192,203322,1,0,0:0:0:0:
256,192,203406,1,8,0:0:0:0:
256,192,203572,1,8,0:0:0:0:
256,192,203739,1,0,0:0:0:0:
256,192,203906,1,8,0:0:0:0:
256,192,203989,1,8,0:0:0:0:
256,192,204072,1,0,0:0:0:0:
256,192,204239,1,8,0:0:0:0:
256,192,204406,1,8,0:0:0:0:
256,192,204656,1,0,0:0:0:0:
256,192,204739,1,8,0:0:0:0:
256,192,204906,1,8,0:0:0:0:
256,192,205072,1,8,0:0:0:0:
256,192,205156,1,0,0:0:0:0:
256,192,205239,1,8,0:0:0:0:
256,192,205322,1,8,0:0:0:0:
256,192,205406,1,0,0:0:0:0:
256,192,205572,1,0,0:0:0:0:
256,192,205656,1,0,0:0:0:0:
256,192,205739,1,8,0:0:0:0:
256,192,205989,1,0,0:0:0:0:
256,192,206072,1,8,0:0:0:0:
256,192,206239,1,8,0:0:0:0:
256,192,206406,1,0,0:0:0:0:
256,192,206572,1,8,0:0:0:0:
256,192,206656,1,0,0:0:0:0:
256,192,206739,1,8,0:0:0:0:
256,192,206822,1,8,0:0:0:0:
256,192,206906,1,0,0:0:0:0:
256,192,206989,1,0,0:0:0:0:
256,192,207072,1,8,0:0:0:0:
256,192,207322,1,0,0:0:0:0:
256,192,207406,1,8,0:0:0:0:
256,192,207572,1,0,0:0:0:0:
256,192,207656,1,8,0:0:0:0:
256,192,207739,1,0,0:0:0:0:
256,192,207906,1,8,0:0:0:0:
256,192,208072,1,8,0:0:0:0:
256,192,208239,1,0,0:0:0:0:
256,192,208322,1,0,0:0:0:0:
256,192,208406,1,8,0:0:0:0:
256,192,208572,1,8,0:0:0:0:
256,192,208739,1,0,0:0:0:0:
256,192,208906,5,0,0:0:0:0:
256,192,208989,1,0,0:0:0:0:
256,192,209072,1,8,0:0:0:0:
256,192,209239,1,8,0:0:0:0:
256,192,209406,1,0,0:0:0:0:
256,192,209489,1,0,0:0:0:0:
256,192,209572,1,0,0:0:0:0:
256,192,209656,1,0,0:0:0:0:
256,192,209739,1,8,0:0:0:0:
256,192,209906,1,0,0:0:0:0:
256,192,209989,1,0,0:0:0:0:
256,192,210072,1,8,0:0:0:0:
256,192,210156,1,0,0:0:0:0:
256,192,210239,1,8,0:0:0:0:
256,192,210406,1,8,0:0:0:0:
256,192,210572,5,8,0:0:0:0:
256,192,210656,1,8,0:0:0:0:
256,192,210739,1,0,0:0:0:0:
256,192,210795,1,0,0:0:0:0:
256,192,210850,1,0,0:0:0:0:
256,192,210906,1,8,0:0:0:0:
256,192,210989,1,0,0:0:0:0:
256,192,211072,1,8,0:0:0:0:
256,192,211156,1,8,0:0:0:0:
256,192,211239,1,0,0:0:0:0:
256,192,211322,1,0,0:0:0:0:
256,192,211406,1,8,0:0:0:0:
256,192,211461,1,0,0:0:0:0:
256,192,211517,1,0,0:0:0:0:
256,192,211572,1,8,0:0:0:0:
256,192,211656,1,8,0:0:0:0:
256,192,211739,1,0,0:0:0:0:
256,192,211822,1,0,0:0:0:0:
256,192,211906,1,8,0:0:0:0:
256,192,211989,1,0,0:0:0:0:
256,192,212072,1,8,0:0:0:0:
256,192,212128,1,8,0:0:0:0:
256,192,212184,1,8,0:0:0:0:
256,192,212239,1,0,0:0:0:0:
256,192,212322,1,0,0:0:0:0:
256,192,212406,1,8,0:0:0:0:
256,192,212461,1,8,0:0:0:0:
256,192,212517,1,8,0:0:0:0:
256,192,212572,1,0,0:0:0:0:
256,192,212656,1,0,0:0:0:0:
256,192,212739,1,8,0:0:0:0:
256,192,212906,1,0,0:0:0:0:
256,192,212989,1,8,0:0:0:0:
256,192,213072,1,0,0:0:0:0:
256,192,213156,1,8,0:0:0:0:
256,192,213239,1,8,0:0:0:0:
256,192,213406,1,4,0:0:0:0:
256,192,213572,1,0,0:0:0:0:
256,192,213656,1,0,0:0:0:0:
256,192,213739,1,8,0:0:0:0:
256,192,213906,1,0,0:0:0:0:
256,192,214072,1,8,0:0:0:0:
256,192,214156,1,0,0:0:0:0:
256,192,214239,1,8,0:0:0:0:
256,192,214322,1,8,0:0:0:0:
256,192,214406,1,0,0:0:0:0:
256,192,214489,1,0,0:0:0:0:
256,192,214572,1,8,0:0:0:0:
256,192,214739,1,0,0:0:0:0:
256,192,214906,1,8,0:0:0:0:
256,192,214989,1,8,0:0:0:0:
256,192,215072,1,0,0:0:0:0:
256,192,215239,1,8,0:0:0:0:
256,192,215406,1,0,0:0:0:0:
256,192,215572,1,8,0:0:0:0:
256,192,215656,1,0,0:0:0:0:
256,192,215739,1,8,0:0:0:0:
256,192,215906,1,0,0:0:0:0:
256,192,216072,1,8,0:0:0:0:
256,192,216239,1,0,0:0:0:0:
256,192,216322,1,0,0:0:0:0:
256,192,216406,1,8,0:0:0:0:
256,192,216572,1,0,0:0:0:0:
256,192,216739,1,8,0:0:0:0:
256,192,216822,1,0,0:0:0:0:
256,192,216906,1,8,0:0:0:0:
256,192,216989,1,8,0:0:0:0:
256,192,217072,1,0,0:0:0:0:
256,192,217239,1,8,0:0:0:0:
256,192,217406,1,0,0:0:0:0:
256,192,217572,1,0,0:0:0:0:
256,192,217656,1,0,0:0:0:0:
256,192,217739,1,8,0:0:0:0:
256,192,217906,1,8,0:0:0:0:
256,192,218072,1,0,0:0:0:0:
256,192,218239,1,8,0:0:0:0:
256,192,218322,1,8,0:0:0:0:
256,192,218406,1,8,0:0:0:0:
256,192,218489,1,0,0:0:0:0:
256,192,218572,1,8,0:0:0:0:
256,192,218656,1,8,0:0:0:0:
256,192,218739,1,0,0:0:0:0:
256,192,218906,1,0,0:0:0:0:
256,192,218989,1,0,0:0:0:0:
256,192,219072,1,8,0:0:0:0:
256,192,219239,1,0,0:0:0:0:
256,192,219406,1,0,0:0:0:0:
256,192,219489,1,8,0:0:0:0:
256,192,219572,1,0,0:0:0:0:
256,192,219656,1,0,0:0:0:0:
256,192,219739,1,8,0:0:0:0:
256,192,219906,1,8,0:0:0:0:
256,192,219989,1,8,0:0:0:0:
256,192,220072,1,0,0:0:0:0:
256,192,220156,1,8,0:0:0:0:
256,192,220239,1,0,0:0:0:0:
256,192,220322,1,0,0:0:0:0:
256,192,220406,1,8,0:0:0:0:
256,192,220572,1,8,0:0:0:0:
256,192,220739,1,0,0:0:0:0:
256,192,220906,1,8,0:0:0:0:
256,192,220989,1,8,0:0:0:0:
256,192,221072,1,0,0:0:0:0:
256,192,221239,1,8,0:0:0:0:
256,192,221406,1,0,0:0:0:0:
256,192,221572,1,0,0:0:0:0:
256,192,221656,1,0,0:0:0:0:
256,192,221739,1,8,0:0:0:0:
256,192,221906,1,0,0:0:0:0:
256,192,222072,1,8,0:0:0:0:
256,192,222239,1,0,0:0:0:0:
256,192,222322,1,8,0:0:0:0:
256,192,222406,1,8,0:0:0:0:
256,192,222489,1,0,0:0:0:0:
256,192,222572,1,8,0:0:0:0:
256,192,222739,1,8,0:0:0:0:
256,192,222822,1,8,0:0:0:0:
256,192,222906,1,0,0:0:0:0:
256,192,222989,1,0,0:0:0:0:
256,192,223072,1,8,0:0:0:0:
256,192,223239,1,0,0:0:0:0:
256,192,223322,1,0,0:0:0:0:
256,192,223406,1,8,0:0:0:0:
256,192,223572,1,0,0:0:0:0:
256,192,223656,1,8,0:0:0:0:
256,192,223739,1,0,0:0:0:0:
256,192,223822,1,0,0:0:0:0:
256,192,223906,1,8,0:0:0:0:
256,192,224072,1,4,0:0:0:0:
256,192,224239,1,0,0:0:0:0:
256,192,224322,1,0,0:0:0:0:
256,192,224406,1,8,0:0:0:0:
256,192,224572,1,0,0:0:0:0:
256,192,224739,1,8,0:0:0:0:
256,192,224822,1,8,0:0:0:0:
256,192,224906,1,8,0:0:0:0:
256,192,224989,1,0,0:0:0:0:
256,192,225072,1,8,0:0:0:0:
256,192,225239,1,8,0:0:0:0:
256,192,225322,1,8,0:0:0:0:
256,192,225406,1,0,0:0:0:0:
256,192,225489,1,0,0:0:0:0:
256,192,225572,1,8,0:0:0:0:
256,192,225739,1,8,0:0:0:0:
256,192,225906,1,8,0:0:0:0:
256,192,225989,1,0,0:0:0:0:
256,192,226072,1,0,0:0:0:0:
256,192,226156,1,0,0:0:0:0:
256,192,226239,1,8,0:0:0:0:
256,192,226322,1,0,0:0:0:0:
256,192,226406,1,8,0:0:0:0:
256,192,226572,1,0,0:0:0:0:
256,192,226656,1,8,0:0:0:0:
256,192,226739,1,0,0:0:0:0:
256,192,226906,1,8,0:0:0:0:
256,192,227072,1,0,0:0:0:0:
256,192,227239,1,8,0:0:0:0:
256,192,227406,1,8,0:0:0:0:
256,192,227489,1,8,0:0:0:0:
256,192,227572,1,0,0:0:0:0:
256,192,227656,1,0,0:0:0:0:
256,192,227739,1,8,0:0:0:0:
256,192,227822,1,0,0:0:0:0:
256,192,227906,1,8,0:0:0:0:
256,192,227989,1,8,0:0:0:0:
256,192,228072,1,0,0:0:0:0:
256,192,228239,1,8,0:0:0:0:
256,192,228322,1,0,0:0:0:0:
256,192,228406,1,8,0:0:0:0:
256,192,228572,1,8,0:0:0:0:
256,192,228656,1,8,0:0:0:0:
256,192,228739,1,0,0:0:0:0:
256,192,228822,1,0,0:0:0:0:
256,192,228906,1,8,0:0:0:0:
256,192,229072,1,8,0:0:0:0:
256,192,229239,1,0,0:0:0:0:
256,192,229322,1,0,0:0:0:0:
256,192,229406,1,8,0:0:0:0:
256,192,229572,1,0,0:0:0:0:
256,192,229656,1,0,0:0:0:0:
256,192,229739,1,0,0:0:0:0:
256,192,229822,1,0,0:0:0:0:
256,192,229906,1,8,0:0:0:0:
256,192,230072,1,8,0:0:0:0:
256,192,230239,1,0,0:0:0:0:
256,192,230322,1,8,0:0:0:0:
256,192,230406,1,0,0:0:0:0:
256,192,230489,1,0,0:0:0:0:
256,192,230572,1,8,0:0:0:0:
256,192,230656,1,8,0:0:0:0:
256,192,230739,1,0,0:0:0:0:
256,192,230906,1,0,0:0:0:0:
256,192,231072,1,8,0:0:0:0:
256,192,231156,1,0,0:0:0:0:
256,192,231239,1,8,0:0:0:0:
256,192,231322,1,8,0:0:0:0:
256,192,231406,1,0,0:0:0:0:
256,192,231489,1,0,0:0:0:0:
256,192,231572,1,8,0:0:0:0:
256,192,231739,1,8,0:0:0:0:
256,192,231906,1,8,0:0:0:0:
256,192,231989,1,8,0:0:0:0:
256,192,232072,1,0,0:0:0:0:
256,192,232406,1,8,0:0:0:0:
256,192,232572,1,0,0:0:0:0:
256,192,232739,1,8,0:0:0:0:
256,192,232906,1,0,0:0:0:0:
256,192,232989,1,8,0:0:0:0:
256,192,233156,1,0,0:0:0:0:
256,192,233239,1,8,0:0:0:0:
256,192,233406,1,4,0:0:0:0:
256,192,233739,1,0,0:0:0:0:
256,192,234072,1,8,0:0:0:0:
256,192,234239,1,8,0:0:0:0:
256,192,234322,1,8,0:0:0:0:
256,192,234406,1,0,0:0:0:0:
256,192,234489,1,0,0:0:0:0:
256,192,234572,1,8,0:0:0:0:
256,192,234739,1,4,0:0:0:0:
256,192,235072,1,8,0:0:0:0:
256,192,235406,1,8,0:0:0:0:
256,192,235572,1,8,0:0:0:0:
256,192,235656,1,8,0:0:0:0:
256,192,235739,1,0,0:0:0:0:
256,192,235906,1,8,0:0:0:0:
256,192,236072,1,0,0:0:0:0:
256,192,236239,1,8,0:0:0:0:
256,192,236406,1,0,0:0:0:0:
256,192,236572,1,8,0:0:0:0:
256,192,236739,1,0,0:0:0:0:
256,192,236906,1,8,0:0:0:0:
256,192,236989,1,8,0:0:0:0:
256,192,237072,1,8,0:0:0:0:
256,192,237239,1,8,0:0:0:0:
256,192,237406,1,0,0:0:0:0:
256,192,237656,1,0,0:0:0:0:
256,192,237739,1,8,0:0:0:0:
256,192,237906,1,0,0:0:0:0:
256,192,238072,1,8,0:0:0:0:
256,192,238239,1,8,0:0:0:0:
256,192,238322,1,8,0:0:0:0:
256,192,238406,1,0,0:0:0:0:
256,192,238572,1,8,0:0:0:0:
256,192,238739,1,0,0:0:0:0:
256,192,238906,1,0,0:0:0:0:
256,192,238989,1,0,0:0:0:0:
256,192,239072,1,8,0:0:0:0:
256,192,239239,1,8,0:0:0:0:
256,192,239406,1,0,0:0:0:0:
256,192,239572,1,8,0:0:0:0:
256,192,239656,1,8,0:0:0:0:
256,192,239739,1,0,0:0:0:0:
256,192,239906,1,8,0:0:0:0:
256,192,240072,1,0,0:0:0:0:
256,192,240406,1,8,0:0:0:0:
256,192,240739,1,8,0:0:0:0:
256,192,240906,1,8,0:0:0:0:
256,192,240989,1,8,0:0:0:0:
256,192,241072,1,0,0:0:0:0:
256,192,241239,1,8,0:0:0:0:
256,192,241406,1,0,0:0:0:0:
256,192,241572,1,8,0:0:0:0:
256,192,241739,1,0,0:0:0:0:
256,192,241906,1,8,0:0:0:0:
256,192,242072,1,0,0:0:0:0:
256,192,242239,1,8,0:0:0:0:
256,192,242322,1,8,0:0:0:0:
256,192,242406,1,8,0:0:0:0:
256,192,242572,1,8,0:0:0:0:
256,192,242739,1,0,0:0:0:0:
256,192,242906,1,8,0:0:0:0:
256,192,243072,1,8,0:0:0:0:
256,192,243239,1,0,0:0:0:0:
256,192,243406,1,8,0:0:0:0:
256,192,243572,1,0,0:0:0:0:
256,192,243656,1,0,0:0:0:0:
256,192,243739,1,8,0:0:0:0:
256,192,243906,1,0,0:0:0:0:
256,192,244072,1,8,0:0:0:0:
256,192,244156,1,8,0:0:0:0:
256,192,244239,1,8,0:0:0:0:
256,192,244322,1,0,0:0:0:0:
256,192,244406,1,8,0:0:0:0:
256,192,244489,1,8,0:0:0:0:
256,192,244572,1,0,0:0:0:0:
256,192,244656,1,0,0:0:0:0:
256,192,244739,1,8,0:0:0:0:
256,192,244906,1,0,0:0:0:0:
256,192,244989,1,8,0:0:0:0:
256,192,245072,1,0,0:0:0:0:
256,192,245156,1,0,0:0:0:0:
256,192,245239,1,8,0:0:0:0:
256,192,245406,1,4,0:0:0:0:
256,192,245656,1,0,0:0:0:0:
256,192,245739,1,8,0:0:0:0:
256,192,245906,1,0,0:0:0:0:
256,192,246072,1,8,0:0:0:0:
256,192,246239,1,8,0:0:0:0:
256,192,246322,1,8,0:0:0:0:
256,192,246406,1,0,0:0:0:0:
256,192,246572,1,8,0:0:0:0:
256,192,246739,1,0,0:0:0:0:
256,192,246906,1,8,0:0:0:0:
256,192,247072,1,8,0:0:0:0:
256,192,247239,1,0,0:0:0:0:
256,192,247406,1,0,0:0:0:0:
256,192,247572,1,8,0:0:0:0:
256,192,247656,1,8,0:0:0:0:
256,192,247739,1,8,0:0:0:0:
256,192,247906,1,8,0:0:0:0:
256,192,248072,1,0,0:0:0:0:
256,192,248322,1,0,0:0:0:0:
256,192,248406,1,8,0:0:0:0:
256,192,248572,1,0,0:0:0:0:
256,192,248739,1,8,0:0:0:0:
256,192,248906,1,8,0:0:0:0:
256,192,248989,1,8,0:0:0:0:
256,192,249072,1,0,0:0:0:0:
256,192,249239,1,8,0:0:0:0:
256,192,249406,1,0,0:0:0:0:
256,192,249572,1,0,0:0:0:0:
256,192,249656,1,0,0:0:0:0:
256,192,249739,1,8,0:0:0:0:
256,192,249906,1,8,0:0:0:0:
256,192,250072,1,0,0:0:0:0:
256,192,250239,1,8,0:0:0:0:
256,192,250322,1,8,0:0:0:0:
256,192,250406,1,0,0:0:0:0:
256,192,250572,1,8,0:0:0:0:
256,192,250739,1,0,0:0:0:0:
256,192,250989,1,0,0:0:0:0:
256,192,251072,1,8,0:0:0:0:
256,192,251239,1,0,0:0:0:0:
256,192,251406,1,8,0:0:0:0:
256,192,251489,1,0,0:0:0:0:
256,192,251572,1,8,0:0:0:0:
256,192,251656,1,8,0:0:0:0:
256,192,251739,1,0,0:0:0:0:
256,192,251906,1,8,0:0:0:0:
256,192,252072,1,0,0:0:0:0:
256,192,252239,1,0,0:0:0:0:
256,192,252322,1,8,0:0:0:0:
256,192,252406,1,8,0:0:0:0:
256,192,252489,1,0,0:0:0:0:
256,192,252572,1,8,0:0:0:0:
256,192,252739,1,0,0:0:0:0:
256,192,252906,1,8,0:0:0:0:
256,192,252989,1,8,0:0:0:0:
256,192,253072,1,0,0:0:0:0:
256,192,253239,1,8,0:0:0:0:
256,192,253406,1,0,0:0:0:0:
256,192,253461,1,0,0:0:0:0:
256,192,253517,1,0,0:0:0:0:
256,192,253572,1,8,0:0:0:0:
256,192,253656,1,0,0:0:0:0:
256,192,253739,1,8,0:0:0:0:
256,192,253822,1,8,0:0:0:0:
256,192,253906,1,0,0:0:0:0:
256,192,253989,1,0,0:0:0:0:
256,192,254072,1,8,0:0:0:0:
256,192,254128,1,8,0:0:0:0:
256,192,254184,1,8,0:0:0:0:
256,192,254239,1,0,0:0:0:0:
256,192,254322,1,8,0:0:0:0:
256,192,254406,1,0,0:0:0:0:
256,192,254489,1,0,0:0:0:0:
256,192,254572,1,8,0:0:0:0:
256,192,254739,1,0,0:0:0:0:
256,192,254906,1,8,0:0:0:0:
256,192,254989,1,8,0:0:0:0:
256,192,255072,1,0,0:0:0:0:
256,192,255239,1,8,0:0:0:0:
256,192,255406,1,0,0:0:0:0:
256,192,255572,1,0,0:0:0:0:
256,192,255656,1,0,0:0:0:0:
256,192,255739,1,8,0:0:0:0:
256,192,255906,1,0,0:0:0:0:
256,192,256072,1,12,0:0:0:0:
256,192,256239,1,0,0:0:0:0:
256,192,256572,1,4,0:0:0:0:
256,192,256906,1,4,0:0:0:0:
256,192,257239,1,0,0:0:0:0:
256,192,257406,1,8,0:0:0:0:
256,192,257572,1,0,0:0:0:0:
256,192,257906,1,4,0:0:0:0:
256,192,258239,1,4,0:0:0:0:
256,192,258572,1,0,0:0:0:0:
256,192,258739,1,8,0:0:0:0:
256,192,258906,1,0,0:0:0:0:
256,192,259239,1,4,0:0:0:0:
256,192,259572,1,4,0:0:0:0:
256,192,259906,1,0,0:0:0:0:
256,192,260072,1,8,0:0:0:0:
256,192,260239,1,0,0:0:0:0:
256,192,260572,1,4,0:0:0:0:
256,192,260906,1,4,0:0:0:0:
256,192,261239,1,0,0:0:0:0:
256,192,261406,1,8,0:0:0:0:
256,192,261572,1,0,0:0:0:0:
256,192,261906,1,4,0:0:0:0:
256,192,262239,1,4,0:0:0:0:
256,192,262572,1,0,0:0:0:0:
256,192,262739,1,8,0:0:0:0:
256,192,262906,1,0,0:0:0:0:
256,192,263239,1,4,0:0:0:0:
256,192,263572,1,4,0:0:0:0:
256,192,263906,1,0,0:0:0:0:
256,192,264072,1,12,0:0:0:0:
256,192,265406,5,4,0:0:0:0:
256,192,265572,1,8,0:0:0:0:
256,192,265656,1,8,0:0:0:0:
256,192,265739,1,8,0:0:0:0:
256,192,265906,1,0,0:0:0:0:
256,192,265989,1,0,0:0:0:0:
256,192,266072,1,8,0:0:0:0:
256,192,266156,1,8,0:0:0:0:
256,192,266239,1,0,0:0:0:0:
256,192,266406,1,8,0:0:0:0:
256,192,266489,1,8,0:0:0:0:
256,192,266572,1,8,0:0:0:0:
256,192,266739,5,4,0:0:0:0:
256,192,266906,1,8,0:0:0:0:
256,192,266989,1,8,0:0:0:0:
256,192,267073,1,0,0:0:0:0:
256,192,267239,1,0,0:0:0:0:
256,192,267406,1,8,0:0:0:0:
256,192,267573,1,0,0:0:0:0:
256,192,267656,1,0,0:0:0:0:
256,192,267739,1,8,0:0:0:0:
256,192,267823,1,0,0:0:0:0:
256,192,267906,1,8,0:0:0:0:
256,192,267989,1,8,0:0:0:0:
256,192,268073,1,0,0:0:0:0:
256,192,268239,1,8,0:0:0:0:
256,192,268323,1,0,0:0:0:0:
256,192,268406,1,8,0:0:0:0:
256,192,268573,1,8,0:0:0:0:
256,192,268656,1,0,0:0:0:0:
256,192,268739,1,0,0:0:0:0:
256,192,268823,1,0,0:0:0:0:
256,192,268906,1,8,0:0:0:0:
256,192,268989,1,0,0:0:0:0:
256,192,269073,1,8,0:0:0:0:
256,192,269239,1,0,0:0:0:0:
256,192,269323,1,0,0:0:0:0:
256,192,269406,1,8,0:0:0:0:
256,192,269573,1,8,0:0:0:0:
256,192,269656,1,0,0:0:0:0:
256,192,269739,1,8,0:0:0:0:
256,192,269823,1,8,0:0:0:0:
256,192,269906,1,0,0:0:0:0:
256,192,269989,1,0,0:0:0:0:
256,192,270073,1,8,0:0:0:0:
256,192,270239,1,8,0:0:0:0:
256,192,270323,1,0,0:0:0:0:
256,192,270406,1,8,0:0:0:0:
256,192,270573,1,8,0:0:0:0:
256,192,270656,1,8,0:0:0:0:
256,192,270739,1,0,0:0:0:0:
256,192,270823,1,0,0:0:0:0:
256,192,270906,1,8,0:0:0:0:
256,192,271073,1,8,0:0:0:0:
256,192,271239,1,8,0:0:0:0:
256,192,271323,1,0,0:0:0:0:
256,192,271406,1,0,0:0:0:0:
256,192,271489,1,0,0:0:0:0:
256,192,271573,1,8,0:0:0:0:
256,192,271739,1,8,0:0:0:0:
256,192,271906,1,0,0:0:0:0:
256,192,271989,1,8,0:0:0:0:
256,192,272073,1,0,0:0:0:0:
256,192,272239,1,8,0:0:0:0:
256,192,272323,1,0,0:0:0:0:
256,192,272406,1,8,0:0:0:0:
256,192,272489,1,8,0:0:0:0:
256,192,272573,1,0,0:0:0:0:
256,192,272656,1,0,0:0:0:0:
256,192,272739,1,8,0:0:0:0:
256,192,272906,1,0,0:0:0:0:
256,192,273073,1,8,0:0:0:0:
256,192,273239,1,8,0:0:0:0:
256,192,273323,1,8,0:0:0:0:
256,192,273406,1,0,0:0:0:0:
256,192,273489,1,0,0:0:0:0:
256,192,273573,1,8,0:0:0:0:
256,192,273739,1,8,0:0:0:0:
256,192,273906,1,8,0:0:0:0:
256,192,273989,1,0,0:0:0:0:
256,192,274073,1,0,0:0:0:0:
256,192,274156,1,0,0:0:0:0:
256,192,274239,1,8,0:0:0:0:
256,192,274406,1,8,0:0:0:0:
256,192,274573,1,0,0:0:0:0:
256,192,274656,1,0,0:0:0:0:
256,192,274739,1,8,0:0:0:0:
256,192,274906,1,8,0:0:0:0:
256,192,275073,1,0,0:0:0:0:
256,192,275156,1,0,0:0:0:0:
256,192,275239,1,8,0:0:0:0:
256,192,275323,1,8,0:0:0:0:
256,192,275406,1,0,0:0:0:0:
256,192,275489,1,0,0:0:0:0:
256,192,275573,1,8,0:0:0:0:
256,192,275739,1,8,0:0:0:0:
256,192,275906,1,0,0:0:0:0:
256,192,276073,1,8,0:0:0:0:
256,192,276156,1,0,0:0:0:0:
256,192,276239,1,8,0:0:0:0:
256,192,276323,1,8,0:0:0:0:
256,192,276406,1,0,0:0:0:0:
256,192,276489,1,0,0:0:0:0:
256,192,276573,1,8,0:0:0:0:
256,192,276656,1,0,0:0:0:0:
256,192,276739,1,8,0:0:0:0:
256,192,276906,1,0,0:0:0:0:
256,192,276989,1,8,0:0:0:0:
256,192,277073,1,0,0:0:0:0:
256,192,277156,1,8,0:0:0:0:
256,192,277239,1,8,0:0:0:0:
256,192,277406,1,4,0:0:0:0:
256,192,277572,1,0,0:0:0:0:
256,192,277656,1,0,0:0:0:0:
256,192,277739,1,8,0:0:0:0:
256,192,277906,1,0,0:0:0:0:
256,192,278072,1,8,0:0:0:0:
256,192,278156,1,0,0:0:0:0:
256,192,278239,1,8,0:0:0:0:
256,192,278322,1,8,0:0:0:0:
256,192,278406,1,0,0:0:0:0:
256,192,278489,1,0,0:0:0:0:
256,192,278572,1,8,0:0:0:0:
256,192,278739,1,0,0:0:0:0:
256,192,278906,1,8,0:0:0:0:
256,192,278989,1,8,0:0:0:0:
256,192,279072,1,0,0:0:0:0:
256,192,279156,1,0,0:0:0:0:
256,192,279239,1,8,0:0:0:0:
256,192,279406,1,0,0:0:0:0:
256,192,279572,1,0,0:0:0:0:
256,192,279656,1,0,0:0:0:0:
256,192,279739,1,8,0:0:0:0:
256,192,279822,1,0,0:0:0:0:
256,192,279906,1,8,0:0:0:0:
256,192,279989,1,8,0:0:0:0:
256,192,280072,1,0,0:0:0:0:
256,192,280239,1,0,0:0:0:0:
256,192,280322,1,0,0:0:0:0:
256,192,280406,1,8,0:0:0:0:
256,192,280572,1,0,0:0:0:0:
256,192,280739,1,8,0:0:0:0:
256,192,280822,1,0,0:0:0:0:
256,192,280906,1,8,0:0:0:0:
256,192,280989,1,8,0:0:0:0:
256,192,281072,1,0,0:0:0:0:
256,192,281239,1,8,0:0:0:0:
256,192,281406,1,0,0:0:0:0:
256,192,281572,1,0,0:0:0:0:
256,192,281656,1,8,0:0:0:0:
256,192,281739,1,8,0:0:0:0:
256,192,281822,1,0,0:0:0:0:
256,192,281906,1,8,0:0:0:0:
256,192,282072,1,0,0:0:0:0:
256,192,282239,1,8,0:0:0:0:
256,192,282322,1,8,0:0:0:0:
256,192,282406,1,8,0:0:0:0:
256,192,282489,1,0,0:0:0:0:
256,192,282572,1,8,0:0:0:0:
256,192,282656,1,8,0:0:0:0:
256,192,282739,1,0,0:0:0:0:
256,192,282906,1,8,0:0:0:0:
256,192,282989,1,0,0:0:0:0:
256,192,283072,1,8,0:0:0:0:
256,192,283156,1,8,0:0:0:0:
256,192,283239,1,0,0:0:0:0:
256,192,283322,1,0,0:0:0:0:
256,192,283406,1,8,0:0:0:0:
256,192,283572,1,0,0:0:0:0:
256,192,283739,1,8,0:0:0:0:
256,192,283822,1,0,0:0:0:0:
256,192,283906,1,8,0:0:0:0:
256,192,283989,1,8,0:0:0:0:
256,192,284072,1,0,0:0:0:0:
256,192,284239,1,0,0:0:0:0:
256,192,284406,1,8,0:0:0:0:
256,192,284489,1,8,0:0:0:0:
256,192,284572,1,0,0:0:0:0:
256,192,284656,1,0,0:0:0:0:
256,192,284739,1,8,0:0:0:0:
256,192,284906,1,0,0:0:0:0:
256,192,285072,1,8,0:0:0:0:
256,192,285239,1,8,0:0:0:0:
256,192,285322,1,8,0:0:0:0:
256,192,285406,1,0,0:0:0:0:
256,192,285489,1,0,0:0:0:0:
256,192,285572,1,8,0:0:0:0:
256,192,285656,1,0,0:0:0:0:
256,192,285739,1,8,0:0:0:0:
256,192,285822,1,8,0:0:0:0:
256,192,285906,1,0,0:0:0:0:
256,192,285989,1,0,0:0:0:0:
256,192,286072,1,8,0:0:0:0:
256,192,286156,1,8,0:0:0:0:
256,192,286239,1,0,0:0:0:0:
256,192,286322,1,8,0:0:0:0:
256,192,286406,1,0,0:0:0:0:
256,192,286489,1,0,0:0:0:0:
256,192,286572,1,8,0:0:0:0:
256,192,286739,1,4,0:0:0:0:
256,192,287072,1,0,0:0:0:0:
256,192,287406,1,0,0:0:0:0:
256,192,287572,1,0,0:0:0:0:
256,192,287656,1,0,0:0:0:0:
256,192,287739,1,8,0:0:0:0:
256,192,287906,1,8,0:0:0:0:
256,192,288072,5,4,0:0:0:0:
256,192,288238,1,0,0:0:0:0:
256,192,288405,1,8,0:0:0:0:
256,192,288572,1,0,0:0:0:0:
256,192,288655,1,0,0:0:0:0:
256,192,288738,1,0,0:0:0:0:
256,192,288905,1,0,0:0:0:0:
256,192,289072,1,8,0:0:0:0:
256,192,289238,1,8,0:0:0:0:
256,192,289322,1,8,0:0:0:0:
256,192,289405,1,0,0:0:0:0:
256,192,289572,1,0,0:0:0:0:
256,192,289738,1,8,0:0:0:0:
256,192,289905,1,0,0:0:0:0:
256,192,289988,1,8,0:0:0:0:
256,192,290072,1,0,0:0:0:0:
256,192,290155,1,0,0:0:0:0:
256,192,290238,1,8,0:0:0:0:
256,192,290405,1,8,0:0:0:0:
256,192,290572,1,8,0:0:0:0:
256,192,290738,1,0,0:0:0:0:
256,192,290905,1,0,0:0:0:0:
256,192,291072,1,8,0:0:0:0:
256,192,291238,1,8,0:0:0:0:
256,192,291322,1,8,0:0:0:0:
256,192,291405,1,8,0:0:0:0:
256,192,291572,1,0,0:0:0:0:
256,192,291738,1,8,0:0:0:0:
256,192,291905,1,0,0:0:0:0:
256,192,292072,1,0,0:0:0:0:
256,192,292238,1,8,0:0:0:0:
256,192,292405,1,8,0:0:0:0:
256,192,292572,1,8,0:0:0:0:
256,192,292655,1,0,0:0:0:0:
256,192,292738,1,0,0:0:0:0:
256,192,292822,1,0,0:0:0:0:
256,192,292905,1,8,0:0:0:0:
256,192,293072,1,8,0:0:0:0:
256,192,293156,1,0,0:0:0:0:
256,192,293238,1,8,0:0:0:0:
256,192,293322,1,8,0:0:0:0:
256,192,293405,1,0,0:0:0:0:
256,192,293572,1,0,0:0:0:0:
256,192,293738,1,8,0:0:0:0:
256,192,293906,1,0,0:0:0:0:
256,192,293989,1,0,0:0:0:0:
256,192,294072,1,0,0:0:0:0:
256,192,294238,1,0,0:0:0:0:
256,192,294405,1,8,0:0:0:0:
256,192,294572,1,0,0:0:0:0:
256,192,294655,1,0,0:0:0:0:
256,192,294739,1,8,0:0:0:0:
256,192,294905,1,0,0:0:0:0:
256,192,295072,1,8,0:0:0:0:
256,192,295238,1,0,0:0:0:0:
256,192,295322,1,0,0:0:0:0:
256,192,295405,1,8,0:0:0:0:
256,192,295488,1,0,0:0:0:0:
256,192,295572,1,8,0:0:0:0:
256,192,295655,1,8,0:0:0:0:
256,192,295738,1,0,0:0:0:0:
256,192,295905,1,8,0:0:0:0:
256,192,296072,1,0,0:0:0:0:
256,192,296155,1,0,0:0:0:0:
256,192,296238,1,8,0:0:0:0:
256,192,296322,1,0,0:0:0:0:
256,192,296405,1,8,0:0:0:0:
256,192,296488,1,8,0:0:0:0:
256,192,296572,1,0,0:0:0:0:
256,192,296655,1,0,0:0:0:0:
256,192,296738,1,8,0:0:0:0:
256,192,296822,1,0,0:0:0:0:
256,192,296905,1,8,0:0:0:0:
256,192,296988,1,0,0:0:0:0:
256,192,297072,1,8,0:0:0:0:
256,192,297155,1,8,0:0:0:0:
256,192,297238,1,8,0:0:0:0:
256,192,297322,1,0,0:0:0:0:
256,192,297405,1,8,0:0:0:0:
256,192,297572,1,0,0:0:0:0:
256,192,297738,1,8,0:0:0:0:
256,192,297795,1,8,0:0:0:0:
256,192,297850,1,8,0:0:0:0:
256,192,297905,1,0,0:0:0:0:
256,192,297989,1,0,0:0:0:0:
256,192,298072,1,8,0:0:0:0:
256,192,298238,1,0,0:0:0:0:
256,192,298322,1,8,0:0:0:0:
256,192,298406,1,0,0:0:0:0:
256,192,298488,1,8,0:0:0:0:
256,192,298572,1,8,0:0:0:0:
256,192,298738,1,4,0:0:0:0:
256,192,298905,1,0,0:0:0:0:
256,192,299072,1,8,0:0:0:0:
256,192,299238,1,0,0:0:0:0:
256,192,299572,1,8,0:0:0:0:
256,192,299738,1,8,0:0:0:0:
256,192,299905,1,0,0:0:0:0:
256,192,300238,1,8,0:0:0:0:
256,192,300405,1,8,0:0:0:0:
256,192,300572,1,0,0:0:0:0:
256,192,300905,1,8,0:0:0:0:
256,192,301072,1,8,0:0:0:0:
256,192,301238,1,8,0:0:0:0:
256,192,301405,1,0,0:0:0:0:
256,192,301572,1,0,0:0:0:0:
256,192,301738,1,8,0:0:0:0:
256,192,301905,1,0,0:0:0:0:
256,192,302238,1,0,0:0:0:0:
256,192,302405,1,8,0:0:0:0:
256,192,302572,1,8,0:0:0:0:
256,192,302905,1,0,0:0:0:0:
256,192,302988,1,0,0:0:0:0:
256,192,303072,1,8,0:0:0:0:
256,192,303238,1,8,0:0:0:0:
256,192,303405,1,8,0:0:0:0:
256,192,303572,1,0,0:0:0:0:
256,192,303655,1,0,0:0:0:0:
256,192,303738,1,8,0:0:0:0:
256,192,303905,1,0,0:0:0:0:
256,192,304072,1,8,0:0:0:0:
256,192,304238,1,0,0:0:0:0:
256,192,304322,1,0,0:0:0:0:
256,192,304405,1,8,0:0:0:0:
256,192,304572,1,8,0:0:0:0:
256,192,304655,1,8,0:0:0:0:
256,192,304738,1,0,0:0:0:0:
256,192,304822,1,0,0:0:0:0:
256,192,304905,1,8,0:0:0:0:
256,192,305072,1,8,0:0:0:0:
256,192,305238,1,8,0:0:0:0:
256,192,305322,1,0,0:0:0:0:
256,192,305405,1,8,0:0:0:0:
256,192,305488,1,8,0:0:0:0:
256,192,305572,1,0,0:0:0:0:
256,192,305738,1,8,0:0:0:0:
256,192,305905,1,8,0:0:0:0:
256,192,305988,1,8,0:0:0:0:
256,192,306072,1,8,0:0:0:0:
256,192,306238,1,0,0:0:0:0:
256,192,306322,1,0,0:0:0:0:
256,192,306405,1,8,0:0:0:0:
256,192,306488,1,0,0:0:0:0:
256,192,306572,1,8,0:0:0:0:
256,192,306739,1,8,0:0:0:0:
256,192,306906,1,0,0:0:0:0:
256,192,306989,1,0,0:0:0:0:
256,192,307073,1,8,0:0:0:0:
256,192,307128,1,0,0:0:0:0:
256,192,307184,1,0,0:0:0:0:
256,192,307239,1,8,0:0:0:0:
256,192,307323,1,8,0:0:0:0:
256,192,307407,1,0,0:0:0:0:
256,192,307462,1,0,0:0:0:0:
256,192,307518,1,0,0:0:0:0:
256,192,307573,1,8,0:0:0:0:
256,192,307656,1,8,0:0:0:0:
256,192,307740,1,0,0:0:0:0:
256,192,307823,1,0,0:0:0:0:
256,192,307906,1,8,0:0:0:0:
256,192,307962,1,8,0:0:0:0:
256,192,308017,1,8,0:0:0:0:
256,192,308073,1,0,0:0:0:0:
256,192,308238,1,0,0:0:0:0:
256,192,308322,1,0,0:0:0:0:
256,192,308406,1,8,0:0:0:0:
256,192,308461,1,0,0:0:0:0:
256,192,308517,1,0,0:0:0:0:
256,192,308572,1,8,0:0:0:0:
256,192,308656,1,0,0:0:0:0:
256,192,308739,1,8,0:0:0:0:
256,192,308795,1,8,0:0:0:0:
256,192,308850,1,8,0:0:0:0:
256,192,308906,1,0,0:0:0:0:
256,192,308989,1,8,0:0:0:0:
256,192,309072,1,0,0:0:0:0:
256,192,309156,1,8,0:0:0:0:
256,192,309239,1,8,0:0:0:0:
256,192,309406,1,4,0:0:0:0:
256,192,309572,1,8,0:0:0:0:
256,192,309656,1,8,0:0:0:0:
256,192,309739,1,0,0:0:0:0:
256,192,309906,1,0,0:0:0:0:
256,192,310072,1,8,0:0:0:0:
256,192,310156,1,8,0:0:0:0:
256,192,310239,1,8,0:0:0:0:
256,192,310406,1,8,0:0:0:0:
256,192,310572,1,0,0:0:0:0:
256,192,310739,1,8,0:0:0:0:
256,192,310906,1,8,0:0:0:0:
256,192,310989,1,8,0:0:0:0:
256,192,311072,1,0,0:0:0:0:
256,192,311239,1,8,0:0:0:0:
256,192,311406,1,0,0:0:0:0:
256,192,311489,1,8,0:0:0:0:
256,192,311572,1,0,0:0:0:0:
256,192,311739,1,8,0:0:0:0:
256,192,311906,1,0,0:0:0:0:
256,192,312072,1,8,0:0:0:0:
256,192,312322,1,0,0:0:0:0:
256,192,312406,1,8,0:0:0:0:
256,192,312572,1,0,0:0:0:0:
256,192,312906,1,8,0:0:0:0:
256,192,313072,1,8,0:0:0:0:
256,192,313239,1,0,0:0:0:0:
256,192,313406,1,8,0:0:0:0:
256,192,313656,1,0,0:0:0:0:
256,192,313739,1,8,0:0:0:0:
256,192,313906,1,0,0:0:0:0:
256,192,314072,1,8,0:0:0:0:
256,192,314156,1,8,0:0:0:0:
256,192,314239,1,0,0:0:0:0:
256,192,314406,1,8,0:0:0:0:
256,192,314572,1,0,0:0:0:0:
256,192,314739,1,8,0:0:0:0:
256,192,314906,1,8,0:0:0:0:
256,192,314989,1,8,0:0:0:0:
256,192,315072,1,0,0:0:0:0:
256,192,315239,1,0,0:0:0:0:
256,192,315406,1,8,0:0:0:0:
256,192,315489,1,8,0:0:0:0:
256,192,315572,1,8,0:0:0:0:
256,192,315739,1,8,0:0:0:0:
256,192,315906,1,0,0:0:0:0:
256,192,316072,1,8,0:0:0:0:
256,192,316239,1,8,0:0:0:0:
256,192,316322,1,8,0:0:0:0:
256,192,316406,1,0,0:0:0:0:
256,192,316572,1,8,0:0:0:0:
256,192,316739,1,0,0:0:0:0:
256,192,316822,1,8,0:0:0:0:
256,192,316906,1,0,0:0:0:0:
256,192,317072,1,8,0:0:0:0:
256,192,317239,1,0,0:0:0:0:
256,192,317406,1,8,0:0:0:0:
256,192,317572,1,0,0:0:0:0:
256,192,317656,1,0,0:0:0:0:
256,192,317739,1,8,0:0:0:0:
256,192,317906,1,8,0:0:0:0:
256,192,318072,1,0,0:0:0:0:
256,192,318239,1,8,0:0:0:0:
256,192,318322,1,8,0:0:0:0:
256,192,318406,1,0,0:0:0:0:
256,192,318572,1,8,0:0:0:0:
256,192,318739,1,8,0:0:0:0:
256,192,318822,1,8,0:0:0:0:
256,192,318906,1,8,0:0:0:0:
256,192,318989,1,0,0:0:0:0:
256,192,319072,1,8,0:0:0:0:
256,192,319156,1,8,0:0:0:0:
256,192,319239,1,0,0:0:0:0:
256,192,319322,1,0,0:0:0:0:
256,192,319406,1,8,0:0:0:0:
256,192,319572,1,0,0:0:0:0:
256,192,319656,1,8,0:0:0:0:
256,192,319739,1,0,0:0:0:0:
256,192,319822,1,0,0:0:0:0:
256,192,319906,1,8,0:0:0:0:
256,192,320072,1,4,0:0:0:0:
256,192,320239,1,8,0:0:0:0:
256,192,320322,1,8,0:0:0:0:
256,192,320406,1,0,0:0:0:0:
256,192,320572,1,8,0:0:0:0:
256,192,320739,1,8,0:0:0:0:
256,192,320822,1,8,0:0:0:0:
256,192,320906,1,8,0:0:0:0:
256,192,321072,1,8,0:0:0:0:
256,192,321239,1,0,0:0:0:0:
256,192,321406,1,8,0:0:0:0:
256,192,321572,1,8,0:0:0:0:
256,192,321656,1,8,0:0:0:0:
256,192,321739,1,0,0:0:0:0:
256,192,321906,1,8,0:0:0:0:
256,192,322072,1,0,0:0:0:0:
256,192,322156,1,8,0:0:0:0:
256,192,322239,1,0,0:0:0:0:
256,192,322406,1,8,0:0:0:0:
256,192,322572,1,0,0:0:0:0:
256,192,322739,1,8,0:0:0:0:
256,192,322989,1,0,0:0:0:0:
256,192,323072,1,8,0:0:0:0:
256,192,323239,1,0,0:0:0:0:
256,192,323572,1,8,0:0:0:0:
256,192,323739,1,8,0:0:0:0:
256,192,323906,1,0,0:0:0:0:
256,192,324072,1,8,0:0:0:0:
256,192,324322,1,0,0:0:0:0:
256,192,324406,1,8,0:0:0:0:
256,192,324572,1,0,0:0:0:0:
256,192,324739,1,8,0:0:0:0:
256,192,324822,1,8,0:0:0:0:
256,192,324906,1,0,0:0:0:0:
256,192,325072,1,8,0:0:0:0:
256,192,325239,1,8,0:0:0:0:
256,192,325406,1,4,0:0:0:0:
256,192,325572,1,8,0:0:0:0:
256,192,325656,1,8,0:0:0:0:
256,192,325739,1,0,0:0:0:0:
256,192,325906,1,8,0:0:0:0:
256,192,326072,1,8,0:0:0:0:
256,192,326156,1,8,0:0:0:0:
256,192,326239,1,0,0:0:0:0:
256,192,326322,1,0,0:0:0:0:
256,192,326406,1,8,0:0:0:0:
256,192,326572,1,8,0:0:0:0:
256,192,326739,1,4,0:0:0:0:
256,192,326906,1,8,0:0:0:0:
256,192,326989,1,8,0:0:0:0:
256,192,327072,1,0,0:0:0:0:
256,192,327239,1,8,0:0:0:0:
256,192,327406,1,8,0:0:0:0:
256,192,327489,1,8,0:0:0:0:
256,192,327572,1,0,0:0:0:0:
256,192,327656,1,0,0:0:0:0:
256,192,327739,1,8,0:0:0:0:
256,192,327822,1,0,0:0:0:0:
256,192,327906,1,8,0:0:0:0:
256,192,327989,1,8,0:0:0:0:
256,192,328072,1,0,0:0:0:0:
256,192,328128,1,0,0:0:0:0:
256,192,328184,1,0,0:0:0:0:
256,192,328239,1,8,0:0:0:0:
256,192,328322,1,0,0:0:0:0:
256,192,328406,1,8,0:0:0:0:
256,192,328489,1,8,0:0:0:0:
256,192,328572,1,8,0:0:0:0:
256,192,328656,1,0,0:0:0:0:
256,192,328739,1,8,0:0:0:0:
256,192,328795,1,8,0:0:0:0:
256,192,328850,1,8,0:0:0:0:
256,192,328906,1,0,0:0:0:0:
256,192,328989,1,0,0:0:0:0:
256,192,329072,1,8,0:0:0:0:
256,192,329239,1,8,0:0:0:0:
256,192,329406,1,0,0:0:0:0:
256,192,329572,1,8,0:0:0:0:
256,192,329656,1,8,0:0:0:0:
256,192,329739,1,8,0:0:0:0:
256,192,329906,1,8,0:0:0:0:
256,192,330072,1,0,0:0:0:0:
256,192,330156,1,0,0:0:0:0:
256,192,330239,1,0,0:0:0:0:
256,192,330406,1,8,0:0:0:0:
256,192,330489,1,8,0:0:0:0:
256,192,330572,1,8,0:0:0:0:
256,192,330739,5,4,0:0:0:0:
256,192,330906,1,0,0:0:0:0:
256,192,330989,1,0,0:0:0:0:
256,192,331072,1,8,0:0:0:0:
256,192,331239,1,0,0:0:0:0:
256,192,331572,1,0,0:0:0:0:
256,192,331739,1,8,0:0:0:0:
256,192,331906,1,8,0:0:0:0:
256,192,332072,1,0,0:0:0:0:
256,192,332239,1,0,0:0:0:0:
256,192,332322,1,0,0:0:0:0:
256,192,332406,1,8,0:0:0:0:
256,192,332572,1,0,0:0:0:0:
256,192,332906,1,0,0:0:0:0:
256,192,333072,1,8,0:0:0:0:
256,192,333239,1,0,0:0:0:0:
256,192,333406,1,0,0:0:0:0:
256,192,333572,1,0,0:0:0:0:
256,192,333656,1,0,0:0:0:0:
256,192,333739,1,8,0:0:0:0:
256,192,333906,1,0,0:0:0:0:
256,192,334239,1,0,0:0:0:0:
256,192,334406,1,8,0:0:0:0:
256,192,334572,1,8,0:0:0:0:
256,192,334739,1,0,0:0:0:0:
256,192,334906,1,0,0:0:0:0:
256,192,334989,1,0,0:0:0:0:
256,192,335072,1,8,0:0:0:0:
256,192,335239,1,0,0:0:0:0:
256,192,335572,1,0,0:0:0:0:
256,192,335739,1,8,0:0:0:0:
256,192,335906,1,0,0:0:0:0:
256,192,336072,1,0,0:0:0:0:
256,192,336156,1,0,0:0:0:0:
256,192,336239,1,0,0:0:0:0:
256,192,336406,1,8,0:0:0:0:
256,192,336572,1,0,0:0:0:0:
256,192,336906,1,0,0:0:0:0:
256,192,337072,1,8,0:0:0:0:
256,192,337156,1,0,0:0:0:0:
256,192,337239,1,8,0:0:0:0:
256,192,337406,1,0,0:0:0:0:
256,192,337489,1,0,0:0:0:0:
256,192,337572,1,0,0:0:0:0:
256,192,337739,1,8,0:0:0:0:
256,192,337906,1,0,0:0:0:0:
256,192,338239,1,0,0:0:0:0:
256,192,338322,1,0,0:0:0:0:
256,192,338406,1,8,0:0:0:0:
256,192,338572,1,0,0:0:0:0:
256,192,338739,1,8,0:0:0:0:
256,192,338906,1,8,0:0:0:0:
256,192,339072,1,8,0:0:0:0:
256,192,339239,1,0,0:0:0:0:
256,192,339406,1,8,0:0:0:0:
256,192,339572,1,8,0:0:0:0:
256,192,339739,1,8,0:0:0:0:
256,192,339906,1,0,0:0:0:0:
256,192,340072,1,8,0:0:0:0:
256,192,340156,1,0,0:0:0:0:
256,192,340239,1,8,0:0:0:0:
256,192,340322,1,0,0:0:0:0:
256,192,340406,1,8,0:0:0:0:
256,192,340489,1,8,0:0:0:0:
256,192,340572,1,0,0:0:0:0:
256,192,340656,1,0,0:0:0:0:
256,192,340739,1,8,0:0:0:0:
256,192,340822,1,0,0:0:0:0:
256,192,340906,1,8,0:0:0:0:
256,192,340989,1,8,0:0:0:0:
256,192,341072,1,0,0:0:0:0:
256,192,341156,1,8,0:0:0:0:
256,192,341239,1,8,0:0:0:0:
256,192,341406,1,4,0:0:0:0:
256,192,341572,1,0,0:0:0:0:
256,192,341739,1,8,0:0:0:0:
256,192,341906,1,0,0:0:0:0:
256,192,342239,1,0,0:0:0:0:
256,192,342406,1,8,0:0:0:0:
256,192,342572,1,8,0:0:0:0:
256,192,342739,1,0,0:0:0:0:
256,192,342906,1,0,0:0:0:0:
256,192,343072,1,8,0:0:0:0:
256,192,343239,1,0,0:0:0:0:
256,192,343572,1,0,0:0:0:0:
256,192,343739,1,8,0:0:0:0:
256,192,343906,1,0,0:0:0:0:
256,192,344072,1,0,0:0:0:0:
256,192,344239,1,0,0:0:0:0:
256,192,344406,1,8,0:0:0:0:
256,192,344572,1,0,0:0:0:0:
256,192,344906,1,0,0:0:0:0:
256,192,344989,1,0,0:0:0:0:
256,192,345072,1,8,0:0:0:0:
256,192,345239,1,8,0:0:0:0:
256,192,345406,1,0,0:0:0:0:
256,192,345572,1,0,0:0:0:0:
256,192,345656,1,0,0:0:0:0:
256,192,345739,1,8,0:0:0:0:
256,192,345906,1,0,0:0:0:0:
256,192,346239,1,0,0:0:0:0:
256,192,346322,1,0,0:0:0:0:
256,192,346406,1,8,0:0:0:0:
256,192,346572,1,0,0:0:0:0:
256,192,346739,1,0,0:0:0:0:
256,192,346906,1,0,0:0:0:0:
256,192,346989,1,0,0:0:0:0:
256,192,347072,1,8,0:0:0:0:
256,192,347239,1,8,0:0:0:0:
256,192,347322,1,0,0:0:0:0:
256,192,347406,1,0,0:0:0:0:
256,192,347489,1,0,0:0:0:0:
256,192,347572,1,8,0:0:0:0:
256,192,347739,1,8,0:0:0:0:
256,192,347906,1,0,0:0:0:0:
256,192,347989,1,0,0:0:0:0:
256,192,348072,1,8,0:0:0:0:
256,192,348239,1,0,0:0:0:0:
256,192,348322,1,0,0:0:0:0:
256,192,348406,1,8,0:0:0:0:
256,192,348489,1,0,0:0:0:0:
256,192,348572,1,8,0:0:0:0:
256,192,348656,1,8,0:0:0:0:
256,192,348739,1,0,0:0:0:0:
256,192,348906,1,0,0:0:0:0:
256,192,348989,1,0,0:0:0:0:
256,192,349072,1,8,0:0:0:0:
256,192,349239,1,0,0:0:0:0:
256,192,349406,1,8,0:0:0:0:
256,192,349489,1,0,0:0:0:0:
256,192,349572,1,0,0:0:0:0:
256,192,349656,1,0,0:0:0:0:
256,192,349739,1,8,0:0:0:0:
256,192,349822,1,0,0:0:0:0:
256,192,349906,1,8,0:0:0:0:
256,192,349989,1,8,0:0:0:0:
256,192,350072,1,0,0:0:0:0:
256,192,350156,1,0,0:0:0:0:
256,192,350239,1,8,0:0:0:0:
256,192,350322,1,0,0:0:0:0:
256,192,350406,1,8,0:0:0:0:
256,192,350489,1,8,0:0:0:0:
256,192,350572,1,8,0:0:0:0:
256,192,350656,1,0,0:0:0:0:
256,192,350739,1,8,0:0:0:0:
256,192,350906,1,8,0:0:0:0:
256,192,350989,1,0,0:0:0:0:
256,192,351072,1,8,0:0:0:0:
256,192,351239,1,0,0:0:0:0:
256,192,351322,1,0,0:0:0:0:
256,192,351406,1,8,0:0:0:0:
256,192,351489,1,8,0:0:0:0:
256,192,351572,1,0,0:0:0:0:
256,192,351656,1,8,0:0:0:0:
256,192,351739,1,0,0:0:0:0:
256,192,351822,1,8,0:0:0:0:
256,192,351906,1,8,0:0:0:0:
256,192,351989,1,8,0:0:0:0:
256,192,352072,1,0,0:0:0:0:
256,192,352239,1,0,0:0:0:0:
256,192,352406,1,8,0:0:0:0:
256,192,352572,1,0,0:0:0:0:
256,192,352906,1,0,0:0:0:0:
256,192,353072,1,8,0:0:0:0:
256,192,353406,1,0,0:0:0:0:
256,192,353572,1,0,0:0:0:0:
256,192,353739,1,8,0:0:0:0:
256,192,353906,1,0,0:0:0:0:
256,192,354239,1,0,0:0:0:0:
256,192,354406,1,8,0:0:0:0:
256,192,354572,1,8,0:0:0:0:
256,192,354739,1,0,0:0:0:0:
256,192,354906,1,0,0:0:0:0:
256,192,355072,1,8,0:0:0:0:
256,192,355239,1,0,0:0:0:0:
256,192,355572,1,0,0:0:0:0:
256,192,355739,1,8,0:0:0:0:
256,192,356072,1,0,0:0:0:0:
256,192,356239,1,0,0:0:0:0:
256,192,356406,1,8,0:0:0:0:
256,192,356572,1,0,0:0:0:0:
256,192,356906,1,0,0:0:0:0:
256,192,357072,1,8,0:0:0:0:
256,192,357239,1,8,0:0:0:0:
256,192,357406,1,0,0:0:0:0:
256,192,357572,1,0,0:0:0:0:
256,192,357739,1,8,0:0:0:0:
256,192,357906,1,0,0:0:0:0:
256,192,358239,1,0,0:0:0:0:
256,192,358406,1,8,0:0:0:0:
256,192,358739,1,0,0:0:0:0:
256,192,358906,1,0,0:0:0:0:
256,192,359072,1,8,0:0:0:0:
256,192,359239,1,0,0:0:0:0:
256,192,359572,1,0,0:0:0:0:
256,192,359739,1,8,0:0:0:0:
256,192,359906,1,0,0:0:0:0:
256,192,360072,1,0,0:0:0:0:
256,192,360239,1,8,0:0:0:0:
256,192,360406,1,8,0:0:0:0:
256,192,360572,1,0,0:0:0:0:
256,192,360739,1,8,0:0:0:0:
256,192,360906,1,0,0:0:0:0:
256,192,361072,1,8,0:0:0:0:
256,192,361239,1,8,0:0:0:0:
256,192,361406,1,8,0:0:0:0:
256,192,361489,1,8,0:0:0:0:
256,192,361572,1,0,0:0:0:0:
256,192,361656,1,0,0:0:0:0:
256,192,361739,1,8,0:0:0:0:
256,192,361906,1,0,0:0:0:0:
256,192,361989,1,0,0:0:0:0:
256,192,362072,1,8,0:0:0:0:
256,192,362239,1,0,0:0:0:0:
256,192,362322,1,8,0:0:0:0:
256,192,362406,1,0,0:0:0:0:
256,192,362489,1,0,0:0:0:0:
256,192,362572,1,8,0:0:0:0:
256,192,362739,1,4,0:0:0:0:
256,192,362906,1,0,0:0:0:0:
256,192,363072,1,8,0:0:0:0:
256,192,363239,1,0,0:0:0:0:
256,192,363572,1,0,0:0:0:0:
256,192,363739,1,8,0:0:0:0:
256,192,363906,1,8,0:0:0:0:
256,192,363989,1,8,0:0:0:0:
256,192,364072,1,0,0:0:0:0:
256,192,364239,1,0,0:0:0:0:
256,192,364406,1,8,0:0:0:0:
256,192,364572,1,0,0:0:0:0:
256,192,364906,1,0,0:0:0:0:
256,192,365072,1,8,0:0:0:0:
256,192,365239,1,8,0:0:0:0:
256,192,365322,1,8,0:0:0:0:
256,192,365406,1,0,0:0:0:0:
256,192,365572,1,0,0:0:0:0:
256,192,365656,1,0,0:0:0:0:
256,192,365739,1,8,0:0:0:0:
256,192,365906,1,0,0:0:0:0:
256,192,366239,1,0,0:0:0:0:
256,192,366406,1,8,0:0:0:0:
256,192,366489,1,0,0:0:0:0:
256,192,366572,1,8,0:0:0:0:
256,192,366656,1,8,0:0:0:0:
256,192,366739,1,0,0:0:0:0:
256,192,366906,1,0,0:0:0:0:
256,192,367072,1,8,0:0:0:0:
256,192,367156,1,8,0:0:0:0:
256,192,367239,1,0,0:0:0:0:
256,192,367322,1,0,0:0:0:0:
256,192,367406,1,8,0:0:0:0:
256,192,367572,1,0,0:0:0:0:
256,192,367656,1,8,0:0:0:0:
256,192,367739,1,0,0:0:0:0:
256,192,367822,1,0,0:0:0:0:
256,192,367906,1,8,0:0:0:0:
256,192,368072,1,0,0:0:0:0:
256,192,368156,1,8,0:0:0:0:
256,192,368239,1,0,0:0:0:0:
256,192,368322,1,0,0:0:0:0:
256,192,368406,1,8,0:0:0:0:
256,192,368489,1,0,0:0:0:0:
256,192,368572,1,8,0:0:0:0:
256,192,368656,1,8,0:0:0:0:
256,192,368739,1,0,0:0:0:0:
256,192,368822,1,0,0:0:0:0:
256,192,368906,1,8,0:0:0:0:
256,192,368989,1,0,0:0:0:0:
256,192,369072,1,8,0:0:0:0:
256,192,369156,1,0,0:0:0:0:
256,192,369239,1,8,0:0:0:0:
256,192,369322,1,8,0:0:0:0:
256,192,369406,1,0,0:0:0:0:
256,192,369489,1,0,0:0:0:0:
256,192,369572,1,8,0:0:0:0:
256,192,369656,1,0,0:0:0:0:
256,192,369739,1,8,0:0:0:0:
256,192,369822,1,8,0:0:0:0:
256,192,369906,1,8,0:0:0:0:
256,192,369989,1,0,0:0:0:0:
256,192,370072,1,8,0:0:0:0:
256,192,370156,1,0,0:0:0:0:
256,192,370239,1,8,0:0:0:0:
256,192,370322,1,8,0:0:0:0:
256,192,370406,1,8,0:0:0:0:
256,192,370489,1,0,0:0:0:0:
256,192,370572,1,8,0:0:0:0:
256,192,370656,1,8,0:0:0:0:
256,192,370739,1,0,0:0:0:0:
256,192,370795,1,0,0:0:0:0:
256,192,370850,1,0,0:0:0:0:
256,192,370906,1,8,0:0:0:0:
256,192,370989,1,0,0:0:0:0:
256,192,371072,1,8,0:0:0:0:
256,192,371156,1,8,0:0:0:0:
256,192,371239,1,8,0:0:0:0:
256,192,371322,1,0,0:0:0:0:
256,192,371406,1,8,0:0:0:0:
256,192,371461,1,8,0:0:0:0:
256,192,371517,1,8,0:0:0:0:
256,192,371572,1,0,0:0:0:0:
256,192,371656,1,0,0:0:0:0:
256,192,371739,1,8,0:0:0:0:
256,192,371822,1,0,0:0:0:0:
256,192,371906,1,8,0:0:0:0:
256,192,371989,1,8,0:0:0:0:
256,192,372072,1,0,0:0:0:0:
256,192,372239,1,8,0:0:0:0:
256,192,372322,1,8,0:0:0:0:
256,192,372406,1,8,0:0:0:0:
256,192,372572,1,0,0:0:0:0:
256,192,372739,1,8,0:0:0:0:
256,192,372906,1,0,0:0:0:0:
256,192,372989,1,0,0:0:0:0:
256,192,373072,1,8,0:0:0:0:
256,192,373128,1,8,0:0:0:0:
256,192,373184,1,8,0:0:0:0:
256,192,373239,1,8,0:0:0:0:
256,192,373295,1,8,0:0:0:0:
256,192,373350,1,8,0:0:0:0:
256,192,373406,1,0,0:0:0:0:
