osu file format v14

[General]
AudioFilename: audio.mp3
AudioLeadIn: 0
PreviewTime: 77529
Countdown: 0
SampleSet: Soft
StackLeniency: 0.7
Mode: 0
LetterboxInBreaks: 0
EpilepsyWarning: 1
WidescreenStoryboard: 1

[Editor]
Bookmarks: 253932,263728,275973,286993
DistanceSpacing: 1.4
BeatDivisor: 4
GridSize: 4
TimelineZoom: 1.9

[Metadata]
Title:MOMENT RING
TitleUnicode:MOMENT RING
Artist:u's
ArtistUnicode:μ's
Creator:Chaoslitz
Version:wkyik's Insane
Source:ラブライブ! School idol project
Tags:Nardoxyribonucleic Kawaiwkyik Rizia love live muse final single Sayounara Sayonara! 高坂穂乃果 Kousaka Honoka 園田海未 Sonoda Umi 南ことり Minami Kotori 小泉花陽 Koizumi Hanayo 星空凛 Hoshizora Rin 西木野真姫 Nishikino Maki 矢澤にこ Yazawa Nico 絢瀬絵里 Ayase Eli 東條希 Toujou Nozomi
BeatmapID:1030059
BeatmapSetID:437113

[Difficulty]
HPDrainRate:6
CircleSize:4
OverallDifficulty:8
ApproachRate:9
SliderMultiplier:1.7
SliderTickRate:1

[Events]
//Background and Video events
0,0,"sb/bg.jpg",0,0
//Break Periods
2,126785,145577
2,254132,263128
2,276173,283944
//Storyboard Layer 0 (Background)
Sprite,Background,Centre,"sb\bg.jpg",320,240 S,0,0,,0.625 F,0,0,13932,0,1 F,0,13932,33218,1 F,0,33218,33524,1,0.5 F,0,33524,77605,0 F,0,77605,106687,1 F,0,106687,106993,1,0.7 F,0,106993,111891,0.7 F,0,111891,112044,0.7,1 F,0,112044,120156,1 F,0,120156,120463,1,0.7 F,0,120463,121687,0.7 F,0,121687,126279,1 F,0,126279,126585,1,0.5 F,0,126585,195156,0 F,0,195156,224238,1 F,0,224238,224544,1,0.5 F,0,224544,229442,0.5 M,0,229442,,320,240 F,0,229442,229595,0.5,1 F,0,229595,237707,1 F,0,237707,238014,1,0.5 F,0,238014,239238,0.5 F,0,239238,244136,1 F,0,244136,253932,0 F,0,253932,273524,1 F,0,273524,275973,1,0 F,0,275973,286993,0 F,0,286993,316381,1 F,0,316381,316687,1,0.5 F,0,316687,321126,0.5 F,0,321126,321279,0.5,1 F,0,321279,329544,1 F,0,329544,329850,1,0.5 F,0,329850,331075,0.5 F,0,331075,335667,1 F,0,335667,335973,1,0
//Storyboard Layer 1 (Fail)
//Storyboard Layer 2 (Pass)
//Storyboard Layer 3 (Foreground)
Sprite,Foreground,Centre,"sb\wkyik.png",320,240 S,0,23728,,0.5 M,0,23728,23804,465,270,365,270 M,0,23804,31075,365,270,355,270 F,0,30769,31075,1,0
Sprite,Foreground,Centre,"sb\sb.png",320,240 S,0,28626,,0.5 F,0,28626,28932,0,1 M,0,28626,31075,266,321,271,320 F,0,28932,30769,1 F,0,30769,31075,1,0
//Storyboard Sound Samples

[TimingPoints]
463,306.122448979592,4,2,2,30,1,0
1381,-142.857142857143,4,2,2,30,0,0
6585,-125,4,2,2,30,0,0
11483,-100,4,2,2,40,0,0
12401,-100,4,2,1,40,0,0
12707,-100,4,2,1,50,0,0
13473,-100,4,2,2,50,0,0
13931,-100,4,2,1,60,0,0
31075,-111.111111111111,4,2,2,60,0,0
31381,-100,4,2,1,60,0,0
33524,-111.111111111111,4,2,1,60,0,0
40871,-100,4,2,2,60,0,0
41177,-100,4,2,1,60,0,0
41942,-100,4,2,1,60,0,0
53116,-133.333333333333,4,2,1,50,0,0
58014,-100,4,2,1,60,0,0
61687,-100,4,2,1,60,0,0
62911,-133.333333333333,4,2,1,50,0,0
67809,-100,4,2,1,60,0,0
76381,-100,4,2,1,65,0,0
77299,-100,4,2,2,65,0,0
77605,-100,4,2,1,70,0,1
96891,-83.3333333333333,4,2,2,70,0,0
97121,-100,4,2,2,70,0,0
97197,-100,4,2,1,70,0,1
106993,-133.333333333333,4,2,1,50,0,0
111891,-100,4,2,1,60,0,1
120463,-100,4,2,2,60,0,1
120616,-100,4,2,1,60,0,1
121381,-100,4,2,2,60,0,1
121687,-100,4,2,1,60,0,1
124901,-100,4,2,2,60,0,1
125207,-100,4,2,1,60,0,1
126585,-100,4,2,1,60,0,0
143728,-100,4,2,2,60,0,0
144034,-100,4,2,1,60,0,0
146177,-133.333333333333,4,2,1,50,0,0
146483,-100,4,2,2,50,0,0
154442,-100,4,2,1,60,0,0
154595,-100,4,2,1,60,0,0
155973,-100,4,2,1,60,0,0
165769,-133.333333333333,4,2,1,50,0,0
170360,-100,4,2,1,50,0,0
170667,-100,4,2,1,60,0,0
174340,-100,4,2,1,60,0,0
175564,-100,4,2,1,60,0,0
175565,-133.333333333333,4,2,1,50,0,0
180463,-100,4,2,1,60,0,0
185360,-100,4,2,1,40,0,0
187809,-100,4,2,1,50,0,0
190258,-100,4,2,1,60,0,0
192707,-100,4,2,1,70,0,0
194544,-100,4,2,2,50,0,0
194850,-83.3333333333333,4,2,2,60,0,0
195156,-100,4,2,1,70,0,1
214442,-83.3333333333333,4,2,2,70,0,0
214672,-100,4,2,2,70,0,0
214748,-100,4,2,1,70,0,1
224544,-133.333333333333,4,2,1,50,0,0
229442,-100,4,2,1,60,0,1
238014,-100,4,2,2,60,0,1
238167,-100,4,2,1,60,0,1
238932,-100,4,2,2,60,0,1
239238,-100,4,2,1,60,0,1
242452,-100,4,2,2,60,0,1
242758,-100,4,2,1,60,0,1
243218,-100,4,2,2,60,0,1
244136,-133.333333333333,4,2,1,50,0,0
244289,-133.333333333333,4,2,2,50,0,0
251483,-100,4,2,1,60,0,0
253932,-100,4,2,1,60,0,0
273524,-100,4,2,1,60,0,0
273677,-100,4,2,1,50,0,0
274136,-100,4,2,1,40,0,0
274748,-100,4,2,1,30,0,0
275360,-100,4,2,1,20,0,0
275973,-100,4,2,1,40,0,0
281796,-100,4,2,1,40,0,0
283320,-100,4,2,1,50,0,0
284544,-100,4,2,2,50,0,0
285769,-100,4,2,1,60,0,0
286534,-83.3333333333333,4,2,1,60,0,0
286993,-100,4,2,1,70,0,1
306279,-83.3333333333333,4,2,2,70,0,0
306508,-100,4,2,2,70,0,0
306585,-100,4,2,1,70,0,1
316381,-133.333333333333,4,2,1,50,0,0
321279,-100,4,2,1,60,0,1
329851,-100,4,2,2,60,0,1
330004,-100,4,2,1,60,0,1
330769,-100,4,2,2,60,0,1
331075,-100,4,2,1,60,0,1
334289,-100,4,2,2,60,0,1
334595,-100,4,2,1,60,0,1
335973,-100,4,2,1,60,0,0
353116,-100,4,2,2,50,0,0
353422,-100,4,2,1,50,0,0
358626,-100,4,2,1,60,0,0
359238,-100,4,2,1,65,0,0
359544,-100,4,2,1,65,0,0
359850,-100,4,2,1,70,0,0
361075,-100,4,2,1,70,0,0
362299,-100,4,2,1,60,0,0
362911,-100,4,2,1,50,0,0
363524,-100,4,2,1,40,0,0
364136,-100,4,2,1,30,0,0
364748,-100,4,2,1,20,0,0

[Colours]
Combo1 : 117,81,210
Combo2 : 255,131,19
Combo3 : 46,53,190
Combo4 : 177,153,107
Combo5 : 255,199,28
Combo6 : 255,34,63
Combo7 : 137,137,137
Combo8 : 255,255,0
SliderBorder : 233,33,139
SliderTrackOverride : 235,139,150

[HitObjects]
92,112,1381,6,0,L|96:148,3,29.7499990921021,0|0|0|0,0:0|0:0|0:0|0:0,0:0:0:0:
96,160,1687,2,0,P|172:152|236:148,1,118.999996368408,2|0,0:0|0:0,0:0:0:0:
292,256,2146,2,0,P|232:251|173:245,1,118.999996368408,2|0,0:0|0:0,0:0:0:0:
108,336,2605,1,2,0:0:0:0:
456,292,3677,2,0,P|464:248|468:208,2,59.4999981842042,0|0|0,0:0|0:0|0:0,0:0:0:0:
292,256,4136,6,0,L|408:244,1,79.3333309122722,0|2,0:0|0:0,0:0:0:0:
264,364,4595,6,0,L|148:352,1,79.3333309122722,0|2,0:0|0:0,0:0:0:0:
248,156,5054,6,0,L|372:143,1,118.999996368408,2|2,0:0|0:0,0:0:0:0:
100,184,5820,2,0,P|96:140|128:68,1,118.999996368408,0|8,0:0|0:0,0:0:0:0:
124,72,6279,1,8,0:0:0:0:
432,208,6585,6,0,P|424:280|408:352,1,136,2|0,0:0|0:0,0:0:0:0:
248,360,7044,2,0,P|256:288|272:216,1,136,2|0,0:0|0:0,0:0:0:0:
344,172,7503,2,0,P|280:224|164:200,1,204,2|8,0:0|0:0,0:0:0:0:
108,136,8116,2,0,L|120:68,1,68,8|10,0:0|0:0,0:0:0:0:
372,20,8575,2,0,L|360:86,2,68,0|0|2,0:0|0:0|0:0,0:0:0:0:
432,128,9034,5,0,3:0:0:0:
432,128,9187,2,0,P|372:132|288:140,1,136,0|8,0:0|0:0,0:0:0:0:
236,220,9646,2,0,P|272:224|312:236,1,68,0|0,0:0|0:0,0:0:0:0:
348,312,9952,2,0,P|314:315|281:324,1,68,0|0,3:0|0:0,0:0:0:0:
88,360,10258,5,8,0:0:0:0:
48,280,10411,1,8,0:0:0:0:
192,244,10565,1,2,0:0:0:0:
196,332,10718,1,8,0:0:0:0:
104,204,10871,2,0,L|112:136,1,68,0|0,0:0|0:0,0:0:0:0:
220,128,11177,2,0,P|264:100|300:100,1,68,0|2,0:0|0:0,0:0:0:0:
408,87,11483,6,0,L|398:178,1,85,8|8,0:0|0:0,0:0:0:0:
464,248,11789,1,8,0:0:0:0:
372,272,11942,1,8,0:0:0:0:
436,336,12095,1,8,0:0:0:0:
308,196,12248,1,8,0:0:0:0:
224,376,12401,1,8,0:0:0:0:
126,269,12554,2,0,L|38:277,1,85,10|0,0:0|0:0,0:0:0:0:
76,176,12860,5,2,0:0:0:0:
220,276,13014,1,2,0:0:0:0:
256,100,13167,2,0,L|340:93,1,85,2|0,0:0|0:0,0:0:0:0:
464,248,13473,2,0,P|412:264|292:212,1,170,4|0,0:0|0:0,0:0:0:0:
284,204,13855,1,0,0:0:0:0:
284,204,13932,6,0,L|296:376,1,170,4|8,0:0|0:0,0:0:0:0:
176,176,14391,2,0,L|183:74,1,85,0|0,0:0|0:0,0:0:0:0:
208,280,14697,1,0,0:0:0:0:
76,176,14850,1,8,0:0:0:0:
244,0,15003,6,0,P|288:70|273:151,1,170,2|0,0:0|0:0,0:0:0:0:
372,220,15463,2,0,P|384:156|392:124,1,85,10|0,0:0|0:0,0:0:0:0:
264,264,15769,2,0,P|273:305|280:347,1,85,0|0,0:0|0:0,0:0:0:0:
136,248,16075,1,10,0:0:0:0:
273,151,16228,1,0,0:0:0:0:
280,347,16381,6,0,P|208:339|84:335,1,170,0|8,0:0|0:0,0:0:0:0:
60,204,16840,2,0,P|92:172|140:160,1,85,0|0,0:0|0:0,0:0:0:0:
264,264,17146,1,0,0:0:0:0:
192,92,17299,1,8,0:0:0:0:
136,248,17452,6,0,P|196:256|336:268,1,170,2|0,0:0|0:0,0:0:0:0:
273,151,17911,2,0,P|315:145|357:141,1,85,8|2,0:0|0:0,0:0:0:0:
195,337,18218,2,0,P|237:343|280:346,1,85,0|0,0:0|0:0,0:0:0:0:
104,204,18524,2,0,P|146:198|188:194,1,85,10|0,0:0|0:0,0:0:0:0:
12,264,18830,6,0,P|-8:208|48:108,1,170,0|8,0:0|0:0,0:0:0:0:
178,8,19289,2,0,P|186:49|192:92,1,85,0|0,0:0|0:0,0:0:0:0:
104,204,19595,1,0,0:0:0:0:
38,113,19748,1,8,0:0:0:0:
196,144,19901,6,0,P|216:200|160:300,1,170,2|0,0:0|0:0,0:0:0:0:
136,76,20360,2,0,P|184:56|232:60,1,85,10|0,0:0|0:0,0:0:0:0:
320,124,20667,2,0,P|358:142|400:143,1,85,0|0,0:0|0:0,0:0:0:0:
388,32,20973,1,10,0:0:0:0:
388,32,21126,1,0,0:0:0:0:
464,224,21279,6,0,P|416:244|296:228,2,170,4|10|2,0:0|0:0|0:0,0:0:0:0:
400,143,22044,1,0,0:0:0:0:
320,328,22197,1,8,0:0:0:0:
184,256,22350,6,0,L|80:248,2,85,2|0|0,0:0|0:0|0:0,0:0:0:0:
301,230,22809,2,0,L|216:236,1,85,8|0,0:0|0:0,0:0:0:0:
56,156,23116,2,0,L|140:162,1,85,10|4,0:0|0:3,0:0:0:0:
260,104,23422,1,8,0:0:0:0:
216,236,23575,1,0,0:0:0:0:
40,184,23728,6,0,P|20:264|104:344,1,170,6|8,0:0|0:0,0:0:0:0:
216,236,24187,2,0,L|301:230,1,85,0|0,0:0|0:0,0:0:0:0:
252,124,24493,1,0,0:0:0:0:
428,152,24646,1,10,0:0:0:0:
428,152,24799,6,0,P|456:200|432:324,1,170,2|0,0:0|0:0,0:0:0:0:
236,364,25258,1,8,0:0:0:0:
292,244,25411,1,0,0:0:0:0:
356,356,25565,2,0,L|271:362,1,85,0|0,0:0|0:0,0:0:0:0:
128,272,25871,2,0,L|212:278,1,85,8|0,0:0|0:0,0:0:0:0:
64,356,26177,5,2,0:0:0:0:
44,192,26330,1,2,0:0:0:0:
128,272,26483,1,10,0:0:0:0:
148,108,26636,1,0,0:0:0:0:
296,160,26789,2,0,P|252:176|192:172,2,85,2|0|8,0:0|0:0|0:0,0:0:0:0:
465,170,27248,6,0,L|296:160,1,170,2|0,0:0|0:0,0:0:0:0:
384,128,27707,1,8,0:0:0:0:
432,272,27860,1,2,0:0:0:0:
264,300,28014,1,0,0:0:0:0:
316,196,28167,1,0,0:0:0:0:
392,360,28320,1,10,0:0:0:0:
264,300,28473,2,0,L|208:324,1,42.5,0|0,0:0|0:0,0:0:0:0:
140,352,28626,6,0,P|116:312|-4:312,1,170,2|8,0:0|0:0,0:0:0:0:
179,242,29085,2,0,P|259:255|315:195,1,170,2|0,0:0|0:0,0:0:0:0:
140,124,29544,2,0,P|84:140|40:132,1,85,10|0,0:0|0:0,0:0:0:0:
232,172,29850,6,0,P|240:100|244:-16,2,170,2|10|0,0:0|0:0|0:0,0:0:0:0:
140,124,30616,1,0,0:0:0:0:
188,264,30769,1,10,0:0:0:0:
336,168,30922,1,0,3:0:0:0:
288,360,31075,5,8,0:0:0:0:
288,360,31687,5,0,0:0:0:0:
308,272,31840,1,0,0:0:0:0:
396,296,31993,1,10,0:0:0:0:
376,384,32146,1,0,0:0:0:0:
224,300,32299,5,6,0:0:0:0:
452,232,32452,1,2,0:0:0:0:
144,176,32911,5,6,0:0:0:0:
396,296,33065,1,2,0:0:0:0:
142,384,33218,2,0,L|134:250,1,127.5,8|0,0:0|0:0,0:0:0:0:
144,176,33524,6,0,P|184:192|292:124,2,152.999995330811,4|8|0,0:0|0:0|0:0,0:0:0:0:
188,32,34289,2,0,P|199:68|201:106,1,76.4999976654053,0|8,0:0|0:0,0:0:0:0:
143,175,34595,6,0,P|206:134|279:150,1,152.999995330811,0|0,0:0|0:0,0:0:0:0:
344,264,35054,2,0,L|336:352,1,76.4999976654053,8|0,0:0|0:0,0:0:0:0:
228,292,35360,2,0,L|221:215,1,76.4999976654053,0|0,0:0|0:0,0:0:0:0:
368,168,35667,1,8,0:0:0:0:
424,296,35820,1,0,0:0:0:0:
216,196,35973,6,0,P|208:260|200:360,1,152.999995330811,2|8,0:0|0:0,0:0:0:0:
436,212,36585,2,0,P|444:148|452:48,1,152.999995330811,0|10,0:0|0:0,0:0:0:0:
360,16,37044,1,0,0:0:0:0:
260,104,37197,6,0,P|300:100|356:96,2,76.4999976654053,2|0|8,0:0|0:0|0:0,0:0:0:0:
164,56,37656,1,0,0:0:0:0:
72,172,37809,5,2,0:0:0:0:
160,140,37963,1,0,0:0:0:0:
140,228,38116,1,8,0:0:0:0:
0,116,38269,6,0,P|-16:192|-20:272,1,152.999995330811,0|0,0:0|0:0,0:0:0:0:
140,228,38728,2,0,P|143:266|151:303,1,76.4999976654053,8|0,0:0|0:0,0:0:0:0:
268,164,39034,6,0,P|298:235|341:303,1,152.999995330811,2|8,0:0|0:0,0:0:0:0:
512,224,39493,2,0,P|476:192|364:204,1,152.999995330811,0|0,0:0|0:0,0:0:0:0:
261,305,39952,2,0,L|338:299,1,76.4999976654053,8|0,0:0|0:0,0:0:0:0:
160,264,40258,2,0,L|153:340,1,76.4999976654053,0|0,0:0|0:0,0:0:0:0:
248,196,40565,1,8,0:0:0:0:
248,196,40718,1,0,0:0:0:0:
140,152,40871,6,0,P|65:151|12:224,1,170,8|8,0:0|0:0,0:0:0:0:
104,356,41330,1,0,0:0:0:0:
160,264,41483,1,8,0:0:0:0:
328,352,41636,1,0,0:0:0:0:
248,196,41789,1,8,0:0:0:0:
244,376,41942,6,0,P|316:368|432:364,1,170,4|8,0:0|0:0,0:0:0:0:
368,184,42401,1,8,0:0:0:0:
456,276,42554,1,0,0:0:0:0:
248,280,42707,6,0,P|290:275|360:272,1,85,6|0,0:0|0:0,0:0:0:0:
496,104,43014,2,0,P|453:101|411:97,1,85,6|0,0:0|0:0,0:0:0:0:
248,196,43320,6,0,P|240:144|248:16,2,170,4|8|0,0:0|0:0|0:0,0:0:0:0:
348,144,44085,1,0,0:0:0:0:
332,272,44238,1,8,0:0:0:0:
196,256,44391,6,0,L|112:248,2,85,0|0|0,0:0|0:0|0:0,0:0:0:0:
296,360,44850,2,0,L|380:352,1,85,8|0,0:0|0:0,0:0:0:0:
456,192,45156,1,0,0:0:0:0:
332,272,45309,1,0,0:0:0:0:
472,344,45463,1,8,0:0:0:0:
372,196,45616,1,0,0:0:0:0:
236,284,45769,6,0,P|188:280|132:272,1,85,2|0,0:0|0:0,0:0:0:0:
31,108,46075,2,0,P|74:111|116:116,1,85,8|0,0:0|0:0,0:0:0:0:
215,176,46381,2,0,P|220:134|224:91,1,85,0|0,0:0|0:0,0:0:0:0:
52,215,46687,2,0,P|47:257|44:300,1,85,10|0,0:0|0:0,0:0:0:0:
312,372,46993,6,0,P|323:283|330:194,1,170,2|8,0:0|0:0,0:0:0:0:
184,84,47452,1,0,0:0:0:0:
216,176,47605,1,2,0:0:0:0:
304,76,47758,1,0,0:0:0:0:
348,272,47911,1,8,0:0:0:0:
328,160,48065,1,0,0:0:0:0:
236,288,48218,6,0,P|280:268|408:280,1,170,4|10,0:0|0:0,0:0:0:0:
392,96,48677,1,0,0:0:0:0:
216,176,48830,2,0,P|173:177|134:163,1,85,2|0,0:0|0:0,0:0:0:0:
24,96,49136,2,0,L|36:180,1,85,8|0,0:0|0:0,0:0:0:0:
110,331,49442,6,0,L|134:163,1,170,2|8,0:0|0:0,0:0:0:0:
248,76,49901,1,0,0:0:0:0:
372,200,50054,2,0,P|320:208|260:224,1,85,2|0,0:0|0:0,0:0:0:0:
212,300,50360,2,0,P|264:308|324:324,1,85,8|0,0:0|0:0,0:0:0:0:
448,364,50667,6,0,P|438:322|432:280,1,85,2|2,0:0|0:0,0:0:0:0:
372,200,50973,2,0,P|384:159|400:119,1,85,10|0,0:0|0:0,0:0:0:0:
468,44,51279,1,10,0:0:0:0:
292,132,51432,1,8,0:0:0:0:
472,188,51585,1,8,0:0:0:0:
328,40,51738,6,0,P|268:52|140:64,1,170,6|0,0:0|0:0,0:0:0:0:
44,84,52197,1,10,0:0:0:0:
44,192,52350,2,0,P|92:208|200:156,1,170,0|0,0:0|0:0,0:0:0:0:
236,20,52809,1,8,0:0:0:0:
276,364,53116,6,0,P|284:320|300:292,1,63.7500024318696,2|0,0:0|0:0,0:0:0:0:
284,228,53422,2,0,P|328:236|356:252,1,63.7500024318696,0|0,0:0|0:0,0:0:0:0:
424,312,53728,1,10,0:0:0:0:
424,312,54034,1,0,0:0:0:0:
472,212,54187,1,0,0:0:0:0:
416,332,54340,5,0,0:0:0:0:
344,264,54493,2,0,L|192:252,1,127.500004863739,0|0,0:0|0:0,0:0:0:0:
132,248,54952,2,0,L|144:328,1,63.7500024318696,10|0,0:0|0:0,0:0:0:0:
72,364,55258,2,0,L|62:300,1,63.7500024318696,0|0,0:0|0:0,0:0:0:0:
12,216,55565,6,0,P|20:176|32:144,1,63.7500024318696,2|0,0:0|0:0,0:0:0:0:
60,72,55871,2,0,P|90:98|112:125,1,63.7500024318696,0|0,0:0|0:0,0:0:0:0:
144,196,56177,1,10,0:0:0:0:
228,224,56330,2,0,P|272:228|356:192,1,127.500004863739,0|0,0:0|0:0,0:0:0:0:
400,96,56789,5,2,0:0:0:0:
312,68,56942,1,0,0:0:0:0:
424,104,57095,1,0,0:0:0:0:
288,60,57248,1,2,0:0:0:0:
448,112,57401,2,0,P|424:200|412:264,1,127.500004863739,8|2,0:0|0:0,0:0:0:0:
164,292,58014,6,0,P|192:260|316:272,2,170,4|8|0,0:0|0:0|0:0,0:0:0:0:
60,360,58779,1,0,0:0:0:0:
60,359,58932,2,0,P|52:320|48:272,1,85,8|0,0:0|0:0,0:0:0:0:
76,192,59238,6,0,P|120:188|159:203,1,85,2|0,0:0|0:0,0:0:0:0:
248,272,59544,2,0,P|289:276|329:261,1,85,8|0,0:0|0:0,0:0:0:0:
440,168,59850,2,0,P|416:128|284:136,1,170,0|10,0:0|0:0,0:0:0:0:
248,272,60309,1,0,0:0:0:0:
356,184,60463,6,0,P|352:256|344:356,1,170,2|8,0:0|0:0,0:0:0:0:
248,272,60922,1,0,0:0:0:0:
132,368,61075,2,0,P|128:325|126:283,1,85,2|0,0:0|0:0,0:0:0:0:
253,187,61381,2,0,P|251:229|247:272,1,85,10|0,0:0|0:0,0:0:0:0:
32,272,61687,6,0,P|12:228|64:124,1,170,4|8,0:0|0:0,0:0:0:0:
264,200,62146,2,0,B|144:228|144:228|96:204,1,170,2|0,0:0|0:0,0:0:0:0:
160,128,62605,1,8,0:0:0:0:
236,292,62758,1,0,0:0:0:0:
360,224,62911,5,2,0:0:0:0:
360,224,63065,1,0,0:0:0:0:
360,224,63218,2,0,L|448:236,1,63.7500024318696,8|0,0:0|0:0,0:0:0:0:
380,336,63524,5,2,0:0:0:0:
380,336,63678,1,0,0:0:0:0:
380,336,63831,2,0,L|292:348,1,63.7500024318696,8|0,0:0|0:0,0:0:0:0:
155,329,64136,5,0,0:0:0:0:
95,262,64289,1,0,0:0:0:0:
139,185,64442,1,10,0:0:0:0:
227,203,64595,1,2,0:0:0:0:
236,292,64748,1,0,0:0:0:0:
227,203,64901,2,0,L|236:136,2,63.7500024318696,0|8|0,0:0|0:0|0:0,0:0:0:0:
316,164,65360,5,2,0:0:0:0:
316,164,65514,1,0,0:0:0:0:
316,164,65667,2,0,P|324:216|328:240,1,63.7500024318696,8|0,0:0|0:0,0:0:0:0:
404,184,65973,2,0,P|396:132|392:108,1,63.7500024318696,2|0,0:0|0:0,0:0:0:0:
217,140,66279,2,0,P|225:192|229:216,1,63.7500024318696,8|0,0:0|0:0,0:0:0:0:
256,312,66585,5,2,0:0:0:0:
176,352,66738,2,0,P|144:346|113:342,2,63.7500024318696,0|8|0,0:0|0:0|0:0,0:0:0:0:
336,296,67197,2,0,P|332:340|314:373,1,63.7500024318696,0|0,0:0|0:0,0:0:0:0:
184,264,67503,2,0,P|187:219|205:186,1,63.7500024318696,8|0,0:0|0:0,0:0:0:0:
276,104,67809,6,0,P|320:116|416:48,2,170,6|8|0,0:0|0:0|0:0,0:0:0:0:
176,40,68575,1,0,0:0:0:0:
80,112,68728,2,0,P|84:176|88:216,1,85,8|0,0:0|0:0,0:0:0:0:
136,344,69034,6,0,P|180:356|272:284,1,170,2|8,0:0|0:0,0:0:0:0:
228,164,69493,1,0,0:0:0:0:
184,264,69646,1,0,0:0:0:0:
184,264,69799,2,0,P|128:260|68:256,1,85,0|8,0:0|0:0,0:0:0:0:
228,164,70105,1,0,0:0:0:0:
292,320,70258,6,0,P|304:276|300:228,1,85,2|0,0:0|0:0,0:0:0:0:
217,80,70565,2,0,P|216:123|228:164,1,85,8|0,0:0|0:0,0:0:0:0:
400,232,70871,1,0,0:0:0:0:
400,232,71024,2,0,P|452:228|492:220,2,85,0|8|0,0:0|0:0|0:0,0:0:0:0:
292,320,71483,6,0,P|232:316|116:300,1,170,2|8,0:0|0:0,0:0:0:0:
40,220,71942,1,0,0:0:0:0:
136,148,72095,1,2,0:0:0:0:
136,148,72248,1,0,0:0:0:0:
204,248,72401,2,0,P|204:304|192:348,1,85,8|0,0:0|0:0,0:0:0:0:
204,248,72707,6,0,P|260:208|372:240,2,170,2|8|0,0:0|0:0|0:0,0:0:0:0:
104,360,73473,1,0,0:0:0:0:
104,360,73626,2,0,P|52:356|4:348,1,85,8|0,0:0|0:0,0:0:0:0:
286,232,73932,6,0,P|262:310|184:332,1,170,2|8,0:0|0:0,0:0:0:0:
40,264,74391,2,0,P|48:196|68:88,1,170,2|0,0:0|0:0,0:0:0:0:
248,132,74850,1,8,0:0:0:0:
180,212,75003,1,0,0:0:0:0:
280,272,75156,6,0,P|324:268|376:260,1,85,0|0,0:0|0:0,0:0:0:0:
364,262,75386,1,0,0:0:0:0:
364,262,75463,1,8,0:0:0:0:
184,364,75616,5,0,0:0:0:0:
184,364,75693,1,0,0:0:0:0:
184,363,75770,2,0,P|141:356|99:353,1,85,8|0,0:0|0:0,0:0:0:0:
60,120,76075,2,0,P|102:116|144:110,1,85,8|0,0:0|0:0,0:0:0:0:
448,256,76381,6,0,P|440:308|320:340,1,170,6|8,0:0|0:0,0:0:0:0:
232,152,76840,2,0,L|416:168,1,170,6|0,0:0|0:0,0:0:0:0:
104,264,77299,1,4,0:0:0:0:
104,264,77605,6,0,P|88:212|120:96,1,170,4|8,0:0|0:0,0:0:0:0:
296,24,78065,1,0,0:0:0:0:
232,152,78218,1,0,0:0:0:0:
184,48,78371,1,0,0:0:0:0:
320,152,78524,1,8,0:0:0:0:
172,212,78677,6,0,P|236:204|368:196,1,170,2|0,0:0|0:0,0:0:0:0:
432,212,79136,2,0,P|440:168|448:128,1,85,10|0,0:0|0:0,0:0:0:0:
368,287,79442,2,0,P|375:329|383:371,1,85,0|0,0:0|0:0,0:0:0:0:
184,352,79748,1,10,0:0:0:0:
280,260,79901,1,0,0:0:0:0:
80,296,80054,6,0,B|52:256|52:256|72:124,1,170,0|8,0:0|0:0,0:0:0:0:
204,40,80514,2,0,B|185:159|185:159,1,85,0|0,0:0|0:0,0:0:0:0:
280,260,80820,2,0,B|298:140|298:140,1,85,0|8,0:0|0:0,0:0:0:0:
424,104,81126,1,2,0:0:0:0:
424,104,81432,5,0,0:0:0:0:
444,187,81585,2,0,P|401:189|364:169,1,85,10|0,0:0|0:0,0:0:0:0:
483,39,81891,2,0,P|504:74|508:116,1,85,0|0,0:0|0:0,0:0:0:0:
339,79,82197,2,0,P|360:42|396:19,1,85,10|0,0:0|0:0,0:0:0:0:
445,282,82503,6,0,P|381:286|269:254,1,170,0|8,0:0|0:0,0:0:0:0:
168,152,82963,2,0,P|188:116|240:92,1,85
248,176,83269,1,0,0:0:0:0:
204,344,83422,1,8,0:0:0:0:
248,176,83575,6,0,B|327:142|327:142|424:160,1,170,2|0,0:0|0:0,0:0:0:0:
445,282,84034,2,0,B|337:262|337:262,1,85,10|0,0:0|0:0,0:0:0:0:
204,344,84340,2,0,P|232:312|264:264,1,85,0|0,0:0|0:0,0:0:0:0:
112,148,84646,2,0,P|118:190|134:245,1,85,10|0,0:0|0:0,0:0:0:0:
84,315,84952,6,0,P|96:255|112:143,1,170,0|8,0:0|0:0,0:0:0:0:
111,147,85411,1,0,0:0:0:0:
204,344,85565,1,2,0:0:0:0:
268,232,85718,1,0,0:0:0:0:
372,332,85871,1,8,0:0:0:0:
308,152,86024,6,0,P|296:212|280:324,1,170,2|0,0:0|0:0,0:0:0:0:
424,120,86483,2,0,P|416:156|407:223,1,85,8|0,0:0|0:0,0:0:0:0:
372,332,86789,1,0,0:0:0:0:
488,248,86942,1,2,0:0:0:0:
232,116,87095,1,10,0:0:0:0:
232,116,87401,6,0,P|272:128|332:120,2,85,4|0|8,0:0|0:0|0:0,0:0:0:0:
156,60,87860,1,0,0:0:0:0:
240,20,88014,1,0,0:0:0:0:
148,152,88167,1,0,0:0:0:0:
24,48,88320,1,8,0:0:0:0:
64,256,88473,1,0,0:0:0:0:
148,151,88626,6,0,P|157:193|163:235,1,85,0|0,0:0|0:0,0:0:0:0:
48,339,88932,2,0,P|54:297|64:256,1,85,8|0,0:0|0:0,0:0:0:0:
240,280,89238,2,0,P|273:254|309:231,1,85,0|0,0:0|0:0,0:0:0:0:
424,356,89544,2,0,P|466:361|507:371,1,85,8|0,0:0|0:0,0:0:0:0:
288,356,89850,6,0,L|268:180,1,170,2|8,0:0|0:0,0:0:0:0:
340,64,90309,1,0,0:0:0:0:
432,160,90463,2,0,L|336:148,1,85,2|0,0:0|0:0,0:0:0:0:
136,124,90769,1,8,0:0:0:0:
136,124,90922,6,0,P|104:176|136:284,1,170,2|2,0:0|0:0,0:0:0:0:
232,280,91381,2,0,P|272:264|336:276,1,85,10|0,0:0|0:0,0:0:0:0:
288,356,91687,1,0,0:0:0:0:
128,276,91840,1,0,0:0:0:0:
289,93,91993,1,10,0:0:0:0:
289,93,92299,6,0,P|249:125|125:117,1,170,2|8,0:0|0:0,0:0:0:0:
40,36,92758,2,0,P|82:39|124:44,1,85,2|0,0:0|0:0,0:0:0:0:
240,208,93065,2,0,P|197:212|155:216,1,85,0|8,0:0|0:0,0:0:0:0:
40,360,93371,6,0,P|124:367|209:376,1,170,2|0,0:0|0:0,0:0:0:0:
392,300,93830,2,0,P|400:248|412:204,1,85,10|0,0:0|0:0,0:0:0:0:
288,140,94136,1,2,0:0:0:0:
304,296,94289,1,0,0:0:0:0:
240,208,94442,1,8,0:0:0:0:
209,376,94595,1,2,0:0:0:0:
76,276,94748,6,0,L|180:268,1,85,0|0,0:0|0:0,0:0:0:0:
312,260,95054,1,8,0:0:0:0:
240,208,95207,1,0,0:0:0:0:
236,292,95360,1,0,0:0:0:0:
400,160,95514,1,0,0:0:0:0:
468,352,95667,1,10,0:0:0:0:
320,180,95820,5,6,0:0:0:0:
76,276,96126,1,6,0:0:0:0:
408,40,96432,1,6,0:0:0:0:
307,217,96585,6,0,P|310:154|337:97,1,127.5,2|0,0:0|0:0,0:0:0:0:
368,72,96891,6,0,P|324:112|216:96,1,152.999995330811,4|0,0:0|0:0,0:0:0:0:
140,80,97197,6,0,L|145:122|150:164,1,85,4|0,0:0|0:0,0:0:0:0:
48,48,97503,1,8,0:0:0:0:
96,236,97656,2,0,P|136:252|188:248,1,85,0|0,0:0|0:0,0:0:0:0:
336,132,97963,2,0,P|293:131|254:147,1,85,0|8,0:0|0:0,0:0:0:0:
448,224,98269,6,0,P|480:168|464:60,1,170,2|0,0:0|0:0,0:0:0:0:
328,256,98728,2,0,L|340:352,1,85,10|0,0:0|0:0,0:0:0:0:
204,264,99034,1,0,0:0:0:0:
254,147,99187,1,0,0:0:0:0:
140,192,99340,2,0,P|96:208|40:216,1,85,10|0,0:0|0:0,0:0:0:0:
4,328,99646,6,0,P|87:341|167:370,1,170,0|8,0:0|0:0,0:0:0:0:
328,256,100105,1,0,0:0:0:0:
272,368,100258,1,0,0:0:0:0:
220,224,100411,1,0,0:0:0:0:
384,344,100565,1,8,0:0:0:0:
384,344,100718,6,0,P|420:308|396:184,1,170,2|0,0:0|0:0,0:0:0:0:
312,76,101177,2,0,P|316:140|324:196,1,85,10|0,0:0|0:0,0:0:0:0:
272,368,101483,1,0,0:0:0:0:
200,272,101636,1,0,0:0:0:0:
200,272,101713,1,0,0:0:0:0:
200,272,101789,2,0,P|157:267|115:265,1,85,10|0,0:0|0:0,0:0:0:0:
4,192,102095,6,0,P|20:152|148:136,1,170,0|8,0:0|0:0,0:0:0:0:
248,208,102554,2,0,P|256:160|260:112,1,85,0|0,0:0|0:0,0:0:0:0:
120,40,102860,2,0,P|124:83|132:125,1,85,0|8,0:0|0:0,0:0:0:0:
200,272,103167,6,0,P|256:264|372:256,1,170,2|0,0:0|0:0,0:0:0:0:
464,148,103626,1,8,0:0:0:0:
464,148,103932,1,0,0:0:0:0:
392,260,104085,1,0,0:0:0:0:
304,112,104238,2,0,P|244:104|188:100,1,85,8|2,0:0|0:0,0:0:0:0:
28,200,104544,6,0,P|88:256|170:248,2,170,2|8|2,0:0|0:0|0:0,0:0:0:0:
120,164,105309,1,0,0:0:0:0:
164,348,105463,1,8,0:0:0:0:
276,264,105616,6,0,L|464:252,1,170,2|0,0:0|0:0,0:0:0:0:
368,136,106075,2,0,P|360:204|356:260,1,85,8|0,0:0|0:0,0:0:0:0:
272,360,106381,1,0,0:0:0:0:
192,248,106534,1,0,0:0:0:0:
56,360,106687,1,10,0:0:0:0:
56,360,106993,6,0,P|100:368|40:284,1,255.000009727478,6|10,0:0|0:0,0:0:0:0:
224,360,107911,1,0,0:0:0:0:
224,360,108065,2,0,P|232:320|196:220,1,127.500004863739,2|0,0:0|0:0,0:0:0:0:
80,160,108524,2,0,P|112:176|148:184,1,63.7500024318696,0|0,0:0|0:0,0:0:0:0:
284,184,108830,1,8,0:0:0:0:
208,332,109136,1,0,0:0:0:0:
208,332,109442,6,0,B|164:300|132:356|64:316,1,127.500004863739,2|0,0:0|0:0,0:0:0:0:
304,52,110054,2,0,B|348:84|380:28|448:68,1,127.500004863739,10|0,0:0|0:0,0:0:0:0:
228,104,110514,6,0,P|220:60|220:20,1,63.7500024318696,0|2,0:0|0:0,0:0:0:0:
396,136,110820,2,0,P|403:179|403:219,1,63.7500024318696,0|0,0:0|0:0,0:0:0:0:
244,284,111126,1,0,0:0:0:0:
264,196,111279,1,10,0:0:0:0:
316,336,111432,1,0,0:0:0:0:
316,336,111508,1,0,0:0:0:0:
316,336,111585,1,0,0:0:0:0:
160,304,111738,1,0,0:0:0:0:
160,304,111815,1,0,0:0:0:0:
160,304,111891,6,0,P|92:292|28:368,2,170,4|8|0,0:0|0:0|0:0,0:0:0:0:
160,304,112656,1,0,0:0:0:0:
316,336,112809,2,0,P|324:288|328:240,1,85,8|0,0:0|0:0,0:0:0:0:
192,124,113116,5,0,0:0:0:0:
244,284,113269,1,0,0:0:0:0:
396,188,113422,2,0,P|391:139|382:92,1,85,10|0,0:0|0:0,0:0:0:0:
192,124,113728,1,2,0:0:0:0:
312,168,113881,1,0,0:0:0:0:
128,224,114034,1,8,0:0:0:0:
128,224,114187,1,2,0:0:0:0:
198,39,114340,6,0,P|194:81|192:124,1,85,2|0,0:0|0:0,0:0:0:0:
244,284,114646,2,0,P|241:241|237:199,1,85,8|0,0:0|0:0,0:0:0:0:
348,340,114952,2,0,P|345:297|341:255,1,85,0|0,0:0|0:0,0:0:0:0:
444,124,115258,2,0,P|440:166|437:208,1,85,8|0,0:0|0:0,0:0:0:0:
348,340,115565,6,0,P|296:344|240:324,1,85,2|0,0:0|0:0,0:0:0:0:
160,368,115871,2,0,P|130:324|119:266,1,85,10|0,0:0|0:0,0:0:0:0:
40,216,116177,2,0,P|62:168|107:130,1,85,0|0,0:0|0:0,0:0:0:0:
109,39,116483,2,0,P|160:34|216:54,1,85,10|0,0:0|0:0,0:0:0:0:
280,108,116789,6,0,P|336:120|460:64,1,170,2|8,0:0|0:0,0:0:0:0:
308,216,117248,1,0,0:0:0:0:
308,216,117401,2,0,L|212:208,1,85,0|0,0:0|0:0,0:0:0:0:
328,320,117707,1,8,0:0:0:0:
456,240,117860,1,0,0:0:0:0:
223,208,118014,6,0,P|211:268|207:320,1,85,0|0,0:0|0:0,0:0:0:0:
128,188,118320,1,8,0:0:0:0:
208,291,118473,1,0,0:0:0:0:
308,216,118626,2,0,P|302:173|293:132,1,85,0|0,0:0|0:0,0:0:0:0:
72,36,118932,2,0,P|77:78|86:119,1,85,8|0,0:0|0:0,0:0:0:0:
292,296,119238,6,0,P|336:296|388:192,1,170,10|8,0:0|0:0,0:0:0:0:
389,196,119697,1,2,0:0:0:0:
208,144,119850,1,8,0:0:0:0:
308,216,120003,1,0,0:0:0:0:
344,96,120156,2,0,P|348:44|348:0,1,85,8|0,0:0|0:0,0:0:0:0:
120,112,120463,6,0,P|120:154|124:196,1,85,8|0,0:0|0:0,0:0:0:0:
120,328,120769,2,0,P|156:306|191:281,1,85,8|0,0:0|0:0,0:0:0:0:
308,216,121075,2,0,P|270:195|232:177,1,85,8|8,0:0|0:0,0:0:0:0:
352,348,121381,1,8,0:0:0:0:
352,348,121534,1,8,0:0:0:0:
476,236,121687,6,0,P|492:180|444:72,1,170,6|8,0:0|0:0,0:0:0:0:
144,116,122146,1,2,0:0:0:0:
392,168,122452,1,0,0:0:0:0:
32,147,122758,6,0,P|17:229|55:304,1,170,2|0,0:0|0:0,0:0:0:0:
184,364,123218,2,0,L|196:280,1,85,8|0,0:0|0:0,0:0:0:0:
316,280,123524,1,0,0:0:0:0:
316,280,123677,1,0,0:0:0:0:
316,280,123830,2,0,L|328:364,1,85,8|0,0:0|3:0,0:0:0:0:
392,168,124136,5,6,0:0:0:0:
424,352,124289,1,0,0:0:0:0:
316,280,124442,1,10,0:0:0:0:
500,244,124595,1,2,0:0:0:0:
184,364,124901,1,8,0:0:0:0:
256,52,125207,6,0,B|268:108|268:108|248:156|248:156|256:220,1,170,2|0,0:0|0:0,0:0:0:0:
184,96,125667,1,8,0:0:0:0:
332,168,125820,1,0,0:0:0:0:
200,288,125973,2,0,L|108:276,1,85,2|0,0:0|0:0,0:0:0:0:
360,352,126279,2,0,P|392:316|384:224,1,127.5,8|0,0:0|0:0,0:0:0:0:
368,200,126585,5,4,0:0:0:0:
256,192,146177,5,4,0:0:0:0:
184,192,148320,5,8,0:0:0:0:
328,192,148626,1,2,0:0:0:0:
328,192,150769,5,8,0:0:0:0:
184,192,151075,1,0,0:0:0:0:
168,144,152911,5,0,0:0:0:0:
256,264,153218,1,8,0:0:0:0:
344,144,153524,1,0,3:0:0:0:
344,144,153830,6,0,P|336:192|320:228,1,63.7500024318696,8|0,0:0|0:0,0:0:0:0:
256,264,154136,5,8,0:0:0:0:
336,300,154289,1,0,0:0:0:0:
448,276,154442,1,8,0:0:0:0:
480,152,154595,1,6,0:0:0:0:
480,152,154901,5,8,0:0:0:0:
336,300,155054,2,0,L|328:228,1,63.7500024318696,8|0,0:0|0:0,0:0:0:0:
176,84,155360,2,0,L|183:147,1,63.7500024318696,4|0,0:0|0:0,0:0:0:0:
32,232,155666,1,4,0:0:0:0:
156,284,155820,1,0,0:0:0:0:
72,352,155973,6,0,P|112:320|236:328,1,170,4|8,0:0|0:0,0:0:0:0:
436,180,156585,1,0,0:0:0:0:
436,180,156738,2,0,L|340:168,2,85,0|8|0,0:0|0:0|0:0,0:0:0:0:
296,96,157197,6,0,P|316:176|308:264,1,170,0|8,0:0|0:0,0:0:0:0:
52,268,157809,1,0,0:0:0:0:
52,268,157963,2,0,P|84:252|164:252,1,85,0|8,0:0|0:0,0:0:0:0:
216,288,158269,1,0,0:0:0:0:
372,348,158422,6,0,P|380:280|384:172,2,170,2|8|0,0:0|0:0|0:0,0:0:0:0:
216,288,159187,1,0,0:0:0:0:
276,360,159340,1,10,0:0:0:0:
244,196,159493,1,0,0:0:0:0:
128,296,159646,6,0,L|316:280,1,170,2|8,0:0|0:0,0:0:0:0:
352,204,160105,1,0,0:0:0:0:
144,188,160258,1,2,0:0:0:0:
196,88,160411,1,0,0:0:0:0:
320,136,160565,2,0,P|328:80|332:40,1,85,8|0,0:0|0:0,0:0:0:0:
236,208,160871,5,4,0:0:0:0:
236,208,161177,2,0,P|292:172|400:184,1,170,10|2,0:0|0:0,0:0:0:0:
432,332,161636,1,0,0:0:0:0:
324,272,161789,2,0,P|316:313|314:356,1,85,8|0,0:0|0:0,0:0:0:0:
236,208,162095,5,2,0:0:0:0:
224,320,162248,2,0,P|181:318|139:310,2,85,0|8|0,0:0|0:0|0:0,0:0:0:0:
72,216,162707,1,2,0:0:0:0:
139,310,162860,1,0,0:0:0:0:
0,340,163014,1,8,0:0:0:0:
0,340,163320,6,0,P|32:308|72:320,1,85,2|2,0:0|0:0,0:0:0:0:
208,360,163626,2,0,P|220:320|216:272,1,85,10|0,0:0|0:0,0:0:0:0:
100,132,163932,1,10,0:0:0:0:
139,310,164085,1,8,0:0:0:0:
288,204,164238,1,8,0:0:0:0:
168,224,164391,6,0,P|224:220|340:216,1,170,6|0,0:0|0:0,0:0:0:0:
464,240,164850,1,10,0:0:0:0:
408,352,165003,2,0,P|356:368|260:296,1,170,0|0,0:0|0:0,0:0:0:0:
336,136,165463,1,8,0:0:0:0:
336,136,165769,5,2,0:0:0:0:
288,204,165922,1,0,0:0:0:0:
256,128,166075,2,0,P|252:96|251:64,1,63.7500024318696,0|0,0:0|0:0,0:0:0:0:
368,212,166381,2,0,P|366:259|361:307,1,95.6250036478044,10|0,0:0|0:0,0:0:0:0:
356,328,166687,2,0,P|324:324|292:323,1,63.7500024318696,0|0,0:0|0:0,0:0:0:0:
156,248,166993,5,0,0:0:0:0:
156,248,167146,2,0,P|208:244|292:236,1,127.500004863739,0|0,0:0|0:0,0:0:0:0:
364,128,167605,2,0,P|324:140|300:156,1,63.7500024318696,10|0,0:0|0:0,0:0:0:0:
216,208,167911,1,0,0:0:0:0:
284,60,168065,1,0,0:0:0:0:
368,212,168218,6,0,P|367:243|359:274,1,63.7500024318696,2|0,0:0|0:0,0:0:0:0:
292,320,168524,1,0,0:0:0:0:
452,248,168677,1,0,0:0:0:0:
272,332,168830,1,10,0:0:0:0:
272,332,168983,2,0,P|200:328|124:312,1,127.500004863739,0|0,0:0|0:0,0:0:0:0:
207,144,169442,6,0,P|211:176|216:208,1,63.7500024318696,2|0,0:0|0:0,0:0:0:0:
136,240,169748,1,0,0:0:0:0:
160,64,169901,2,0,P|202:51|249:63,1,63.7500024318696,2|8,0:0|0:0,0:0:0:0:
332,168,170207,1,0,0:0:0:0:
332,168,170360,2,0,P|384:180|464:128,1,127.500004863739,2|0,0:0|0:0,0:0:0:0:
448,149,170667,6,0,L|428:336,2,170,4|8|0,0:0|0:0|0:0,0:0:0:0:
312,128,171432,1,0,0:0:0:0:
408,240,171585,2,0,P|364:244|312:256,1,85,8|0,0:0|0:0,0:0:0:0:
160,320,171891,6,0,P|132:292|140:164,2,170,2|8|0,0:0|0:0|0:0,0:0:0:0:
220,232,172656,1,0,0:0:0:0:
312,288,172809,2,0,P|308:348|304:380,1,85,10|0,0:0|0:0,0:0:0:0:
220,232,173116,5,2,0:0:0:0:
305,372,173269,1,0,0:0:0:0:
408,240,173422,2,0,P|404:180|400:148,1,85,8|0,0:0|0:0,0:0:0:0:
240,104,173728,2,0,P|282:101|324:97,1,85,2|0,0:0|0:0,0:0:0:0:
220,232,174034,2,0,P|177:229|135:225,1,85,10|0,0:0|0:0,0:0:0:0:
32,156,174340,6,0,P|20:112|96:20,1,170,4|8,0:0|0:0,0:0:0:0:
176,152,174799,2,0,P|172:248|160:340,1,170,2|0,0:0|0:0,0:0:0:0:
60,272,175258,1,8,0:0:0:0:
60,272,175411,1,0,0:0:0:0:
256,368,175565,6,0,L|332:360,1,63.7500024318696,2|0,0:0|0:0,0:0:0:0:
444,296,175871,1,8,0:0:0:0:
356,260,176024,1,0,0:0:0:0:
380,328,176177,1,2,0:0:0:0:
444,216,176330,1,0,0:0:0:0:
288,192,176483,1,8,0:0:0:0:
356,260,176636,1,0,0:0:0:0:
376,156,176789,5,0,0:0:0:0:
376,156,176942,1,0,0:0:0:0:
208,216,177095,5,10,0:0:0:0:
356,260,177248,1,2,0:0:0:0:
188,320,177401,1,0,0:0:0:0:
288,192,177554,5,0,0:0:0:0:
276,280,177707,1,8,0:0:0:0:
264,368,177860,1,0,0:0:0:0:
188,320,178014,6,0,P|148:312|96:316,1,63.7500024318696,2|0,0:0|0:0,0:0:0:0:
40,332,178320,2,0,P|41:300|48:269,1,63.7500024318696,8|0,0:0|0:0,0:0:0:0:
109,154,178626,2,0,P|170:166|208:216,1,127.500004863739,2|8,0:0|0:0,0:0:0:0:
20,156,179085,6,0,L|12:84,1,63.7500024318696,0|2,0:0|0:0,0:0:0:0:
212,96,179391,2,0,L|220:24,1,63.7500024318696,0|8,0:0|0:0,0:0:0:0:
360,264,179697,1,0,0:0:0:0:
476,188,179850,2,0,L|412:195,1,63.7500024318696,0|0,0:0|0:0,0:0:0:0:
284,308,180156,2,0,L|220:300,1,63.7500024318696,8|0,0:0|0:0,0:0:0:0:
68,260,180463,6,0,P|92:216|204:208,1,170,6|8,0:0|0:0,0:0:0:0:
320,232,180922,1,0,0:0:0:0:
319,232,181075,2,0,P|327:190|329:147,1,85,0|0,0:0|0:0,0:0:0:0:
424,120,181381,2,0,P|409:79|389:42,1,85,8|0,0:0|0:0,0:0:0:0:
164,52,181687,5,2,0:0:0:0:
256,112,181840,1,0,0:0:0:0:
156,164,181993,2,0,P|108:160|60:152,1,85,8|0,0:0|0:0,0:0:0:0:
196,256,182299,2,0,P|238:249|280:246,1,85,0|0,0:0|0:0,0:0:0:0:
112,380,182605,2,0,P|105:337|102:295,1,85,8|0,0:0|0:0,0:0:0:0:
289,161,182911,6,0,P|286:203|280:246,1,85,2|0,0:0|0:0,0:0:0:0:
132,368,183218,2,0,P|125:325|122:283,1,85,8|0,0:0|0:0,0:0:0:0:
156,164,183524,2,0,P|198:167|240:173,1,85,0|0,0:0|0:0,0:0:0:0:
332,316,183830,2,0,P|289:322|247:325,1,85,8|0,0:0|0:0,0:0:0:0:
388,216,184136,6,0,P|432:228|508:132,1,170,2|8,0:0|0:0,0:0:0:0:
316,120,184595,1,0,0:0:0:0:
316,120,184748,2,0,L|228:112,1,85,2|0,0:0|0:0,0:0:0:0:
88,76,185054,1,8,0:0:0:0:
92,100,185131,1,0,0:0:0:0:
96,124,185207,1,0,0:0:0:0:
100,148,185284,1,0,0:0:0:0:
104,172,185360,6,0,L|92:348,1,170,6|8,0:0|0:0,0:0:0:0:
393,131,185973,2,0,L|388:216,1,85,2|0,0:0|0:0,0:0:0:0:
380,300,186279,1,8,0:0:0:0:
380,300,186432,1,0,0:0:0:0:
288,192,186585,6,0,P|260:160|136:176,1,170,2|8,0:0|0:0,0:0:0:0:
32,304,187044,2,0,P|104:300|204:288,1,170,2|0,0:0|0:0,0:0:0:0:
288,192,187503,1,8,0:0:0:0:
152,144,187656,1,0,0:0:0:0:
112,268,187809,6,0,P|116:328|120:368,1,85,0|0,0:0|0:0,0:0:0:0:
260,224,188116,2,0,P|256:284|252:324,1,85,8|0,0:0|0:0,0:0:0:0:
152,144,188422,1,2,0:0:0:0:
296,80,188575,1,0,0:0:0:0:
288,192,188728,1,8,0:0:0:0:
432,128,188881,1,0,0:0:0:0:
275,22,189034,6,0,P|280:107|288:192,1,170,2|8,0:0|0:0,0:0:0:0:
419,297,189493,2,0,P|427:212|432:128,1,170,0|0,0:0|0:0,0:0:0:0:
312,292,189952,2,0,L|264:304,1,42.5,10|0,0:0|0:0,0:0:0:0:
208,352,190105,2,0,L|166:341,1,42.5,0|0,0:0|0:0,0:0:0:0:
96,300,190258,6,0,P|100:256|112:212,2,85,6|2|8,0:0|0:0|0:0,0:0:0:0:
208,212,190718,1,0,0:0:0:0:
120,120,190871,2,0,P|68:128|28:156,1,85,0|0,0:0|0:0,0:0:0:0:
240,224,191177,2,0,P|292:216|332:188,1,85,8|0,0:0|0:0,0:0:0:0:
440,52,191483,6,0,L|416:148,1,85,8|0,0:0|0:0,0:0:0:0:
419,134,191713,1,0,0:0:0:0:
419,134,191789,1,8,0:0:0:0:
312,292,191942,1,0,0:0:0:0:
312,292,192018,1,0,0:0:0:0:
311,291,192095,2,0,L|305:206,1,85,8|0,0:0|0:0,0:0:0:0:
144,136,192401,2,0,L|138:220,1,85,8|0,0:0|0:0,0:0:0:0:
32,324,192707,6,0,L|212:304,1,170,6|8,0:0|0:0,0:0:0:0:
480,224,193167,2,0,L|300:204,1,170,6|0,0:0|0:0,0:0:0:0:
48,112,193626,2,0,L|228:92,1,170,12|4,0:0|0:0,0:0:0:0:
364,32,194085,5,4,0:0:0:0:
344,200,194238,1,4,0:0:0:0:
324,368,194391,1,4,0:0:0:0:
344,200,194697,5,8,0:0:0:0:
324,368,194850,2,0,P|268:380|200:280,1,152.999995330811,4|0,0:0|0:0,0:0:0:0:
200,300,195156,6,0,L|384:284,1,170,4|8,0:0|0:0,0:0:0:0:
476,128,195616,2,0,L|366:118,1,85,0|0,0:0|0:0,0:0:0:0:
168,220,195922,2,0,L|277:210,1,85,0|8,0:0|0:0,0:0:0:0:
252,32,196228,6,0,P|216:92|240:196,1,170,2|0,0:0|0:0,0:0:0:0:
384,288,196687,2,0,P|396:228|400:184,1,85,10|0,0:0|0:0,0:0:0:0:
233,186,196993,1,0,0:0:0:0:
256,348,197146,1,0,0:0:0:0:
256,348,197299,2,0,P|196:336|152:332,1,85,10|0,0:0|0:0,0:0:0:0:
0,246,197605,6,0,P|84:237|168:220,1,170,0|8,0:0|0:0,0:0:0:0:
112,48,198065,2,0,P|69:53|28:62,1,85,0|0,0:0|0:0,0:0:0:0:
112,144,198371,1,0,0:0:0:0:
280,56,198524,1,8,0:0:0:0:
233,186,198677,1,2,0:0:0:0:
233,186,198983,5,0,0:0:0:0:
336,160,199136,2,0,L|320:264,1,85,10|0,0:0|0:0,0:0:0:0:
160,112,199442,2,0,L|258:73,1,85,0|0,0:0|0:0,0:0:0:0:
204,284,199748,2,0,L|121:218,1,85,10|0,0:0|0:0,0:0:0:0:
288,352,200054,6,0,P|340:328|448:344,1,170,0|8,0:0|0:0,0:0:0:0:
448,164,200514,2,0,L|436:264,1,85,0|0,0:0|0:0,0:0:0:0:
336,160,200820,2,0,L|325:75,1,85,0|8,0:0|0:0,0:0:0:0:
236,200,201126,6,0,L|67:179,1,170,2|0,0:0|0:0,0:0:0:0:
184,304,201585,2,0,P|224:307|268:314,1,85,10|0,0:0|0:0,0:0:0:0:
296,96,201891,1,0,0:0:0:0:
236,200,202044,1,0,0:0:0:0:
168,104,202197,2,0,P|127:100|83:93,1,85,10|0,0:0|0:0,0:0:0:0:
260,176,202503,6,0,P|288:112|248:8,1,170,0|8,0:0|0:0,0:0:0:0:
259,19,202963,1,0,0:0:0:0:
60,56,203116,1,2,0:0:0:0:
168,104,203269,1,0,0:0:0:0:
0,180,203422,1,8,0:0:0:0:
184,236,203575,6,0,B|256:220|256:220|284:228|284:228|364:212,1,170,2|0,0:0|0:0,0:0:0:0:
304,56,204034,2,0,L|288:156,1,85,8|0,0:0|0:0,0:0:0:0:
264,384,204340,2,0,L|248:284,1,85,0|2,0:0|0:0,0:0:0:0:
108,184,204646,1,10,0:0:0:0:
108,184,204952,6,0,P|156:192|228:108,1,170,4|8,0:0|0:0,0:0:0:0:
144,24,205411,2,0,P|140:84|164:136,1,85,0|0,0:0|0:0,0:0:0:0:
288,188,205718,2,0,L|388:176,1,85,0|8,0:0|0:0,0:0:0:0:
476,160,206024,1,0,0:0:0:0:
476,160,206177,6,0,P|468:224|460:268,1,85,0|0,0:0|0:0,0:0:0:0:
336,364,206483,2,0,P|329:322|324:279,1,85,8|0,0:0|0:0,0:0:0:0:
288,188,206789,1,0,0:0:0:0:
200,276,206942,1,0,0:0:0:0:
304,168,207095,1,8,0:0:0:0:
120,192,207248,1,0,0:0:0:0:
320,152,207401,6,0,L|336:248,1,85,2|0,0:0|0:0,0:0:0:0:
200,72,207707,2,0,L|216:168,1,85,8|0,0:0|0:0,0:0:0:0:
144,268,208014,2,0,P|100:280|0:204,1,170,2|8,0:0|0:0,0:0:0:0:
3,215,208473,1,2,0:0:0:0:
40,376,208626,6,0,P|96:364|148:356,1,85,0|2,0:0|0:0,0:0:0:0:
244,264,208932,2,0,P|256:320|264:372,1,85,10|0,0:0|0:0,0:0:0:0:
144,268,209238,1,0,0:0:0:0:
344,256,209391,1,0,0:0:0:0:
192,180,209544,2,0,P|199:138|208:96,1,85,10|0,0:0|0:0,0:0:0:0:
444,116,209850,6,0,P|400:164|292:144,1,170,2|8,0:0|0:0,0:0:0:0:
216,16,210309,2,0,B|232:56|232:56|224:112,1,85,2|0,0:0|0:0,0:0:0:0:
40,296,210616,2,0,B|24:256|24:256|32:200,1,85,0|8,0:0|0:0,0:0:0:0:
140,72,210922,6,0,B|113:258|113:258,1,170,2|0,0:0|0:0,0:0:0:0:
224,364,211381,2,0,B|239:253|239:253,1,85,10|0,0:0|0:0,0:0:0:0:
304,192,211687,1,2,0:0:0:0:
404,256,211840,1,0,0:0:0:0:
236,279,211993,1,8,0:0:0:0:
208,112,212146,1,2,0:0:0:0:
376,89,212299,6,0,L|280:104,1,85,0|0,0:0|0:0,0:0:0:0:
208,112,212605,1,8,0:0:0:0:
304,192,212758,1,0,0:0:0:0:
136,296,212911,1,0,0:0:0:0:
216,196,213065,1,0,0:0:0:0:
320,328,213218,1,10,0:0:0:0:
104,384,213371,5,6,0:0:0:0:
448,216,213677,1,6,0:0:0:0:
76,124,213983,1,6,0:0:0:0:
304,192,214136,6,0,L|164:212,1,127.5,2|0,0:0|0:0,0:0:0:0:
136,224,214442,6,0,L|332:252,1,152.999995330811,4|0,0:0|0:0,0:0:0:0:
368,260,214748,6,0,L|171:288,1,170,4|8,0:0|0:0,0:0:0:0:
52,352,215207,2,0,P|88:320|140:308,1,85,0|0,0:0|0:0,0:0:0:0:
236,116,215514,2,0,P|228:168|212:224,1,85,0|8,0:0|0:0,0:0:0:0:
52,352,215820,6,0,P|29:269|17:185,1,170,2|0,0:0|0:0,0:0:0:0:
176,28,216279,2,0,L|80:64,1,85,10|0,0:0|0:0,0:0:0:0:
344,72,216585,1,0,0:0:0:0:
236,116,216738,1,0,0:0:0:0:
124,168,216891,2,0,L|220:204,1,85,10|0,0:0|0:0,0:0:0:0:
412,264,217197,6,0,P|376:296|244:280,1,170,0|8,0:0|0:0,0:0:0:0:
324,208,217656,1,0,0:0:0:0:
336,360,217809,1,0,0:0:0:0:
236,280,217963,1,0,0:0:0:0:
132,348,218116,1,8,0:0:0:0:
40,296,218269,6,0,B|20:248|20:248|44:112,1,170,2|0,0:0|0:0,0:0:0:0:
207,153,218728,2,0,B|98:172,1,85,10|0,0:0|0:0,0:0:0:0:
305,231,219034,2,0,B|413:211,1,85,0|0,0:0|0:0,0:0:0:0:
492,196,219340,1,10,0:0:0:0:
332,132,219493,1,0,0:0:0:0:
368,316,219646,6,0,B|320:336|320:336|184:312,1,170,0|8,0:0|0:0,0:0:0:0:
128,120,220105,2,0,P|156:84|224:72,1,85,0|0,0:0|0:0,0:0:0:0:
207,153,220411,1,0,0:0:0:0:
40,80,220565,1,8,0:0:0:0:
80,248,220718,6,0,L|260:232,1,170,2|0,0:0|0:0,0:0:0:0:
376,220,221177,1,8,0:0:0:0:
376,220,221483,1,0,0:0:0:0:
328,328,221636,1,0,0:0:0:0:
392,192,221789,1,8,0:0:0:0:
232,252,221942,1,2,0:0:0:0:
408,164,222095,6,0,P|360:180|268:104,2,170,2|8|2,0:0|0:0|0:0,0:0:0:0:
360,88,222860,1,0,0:0:0:0:
256,232,223014,1,8,0:0:0:0:
120,120,223167,6,0,P|124:208|132:300,1,170,2|0,0:0|0:0,0:0:0:0:
296,364,223626,1,8,0:0:0:0:
256,232,223779,1,0,0:0:0:0:
356,276,223932,1,0,0:0:0:0:
204,320,224085,1,0,0:0:0:0:
452,248,224238,1,10,0:0:0:0:
452,248,224544,6,0,B|392:252|392:252|412:128|412:128|476:156,1,255.000009727478,6|10,0:0|0:0,0:0:0:0:
312,236,225463,1,0,0:0:0:0:
312,236,225616,2,0,B|333:99|333:99,1,127.500004863739,2|0,0:0|0:0,0:0:0:0:
256,60,226075,2,0,B|242:141|242:141,1,63.7500024318696,0|0,0:0|0:0,0:0:0:0:
220,256,226381,1,8,0:0:0:0:
80,92,226687,1,0,0:0:0:0:
80,92,226993,6,0,P|60:144|72:240,1,127.500004863739,2|0,0:0|0:0,0:0:0:0:
432,292,227605,2,0,P|452:240|440:144,1,127.500004863739,10|0,0:0|0:0,0:0:0:0:
392,100,228065,1,0,0:0:0:0:
320,156,228218,6,0,L|180:136,2,127.500004863739,2|0|10,0:0|0:0|0:0,0:0:0:0:
344,328,228983,1,0,0:0:0:0:
344,328,229059,1,0,0:0:0:0:
344,328,229136,1,0,0:0:0:0:
240,228,229289,1,0,0:0:0:0:
240,228,229366,1,0,0:0:0:0:
240,228,229442,6,0,P|196:268|232:396,1,170,4|8,0:0|0:0,0:0:0:0:
400,256,229901,1,0,0:0:0:0:
344,328,230054,2,0,P|292:320|232:300,1,85,0|0,0:0|0:0,0:0:0:0:
408,164,230360,2,0,P|460:172|520:192,1,85,8|0,0:0|0:0,0:0:0:0:
300,116,230667,5,0,0:0:0:0:
400,256,230820,1,0,0:0:0:0:
212,320,230973,2,0,L|196:140,1,170,10|2,0:0|0:0,0:0:0:0:
300,116,231432,2,0,L|292:200,1,85,0|8,0:0|0:0,0:0:0:0:
80,172,231738,1,2,0:0:0:0:
144,264,231891,6,0,P|104:276|52:284,1,85,2|0,0:0|0:0,0:0:0:0:
232,340,232197,2,0,P|272:328|324:320,1,85,8|0,0:0|0:0,0:0:0:0:
440,336,232503,2,0,P|454:296|464:254,1,85,0|0,0:0|0:0,0:0:0:0:
328,104,232809,2,0,P|330:146|338:188,1,85,8|0,0:0|0:0,0:0:0:0:
508,144,233116,6,0,B|468:128|468:128|420:140,1,85,2|0,0:0|0:0,0:0:0:0:
292,284,233422,2,0,B|251:294|251:294|211:278,1,85,10|0,0:0|0:0,0:0:0:0:
222,120,233728,2,0,B|262:109|262:109|302:125,1,85,0|0,0:0|0:0,0:0:0:0:
416,296,234034,2,0,B|456:312|456:312|496:301,1,85,10|0,0:0|0:0,0:0:0:0:
428,188,234340,6,0,L|232:204,1,170,2|8,0:0|0:0,0:0:0:0:
100,272,234799,2,0,P|76:220|124:112,1,170,0|0,0:0|0:0,0:0:0:0:
256,288,235258,2,0,P|248:352|240:392,1,85,8|0,0:0|0:0,0:0:0:0:
24,352,235565,5,0,0:0:0:0:
168,328,235718,1,0,0:0:0:0:
72,192,235871,2,0,P|76:234|83:276,1,85,8|0,0:0|0:0,0:0:0:0:
256,288,236177,2,0,P|251:330|244:372,1,85,0|0,0:0|0:0,0:0:0:0:
160,112,236483,2,0,P|164:154|171:196,1,85,8|0,0:0|0:0,0:0:0:0:
376,292,236789,6,0,P|424:292|472:188,1,170,10|8,0:0|0:0,0:0:0:0:
352,120,237248,1,2,0:0:0:0:
352,120,237325,1,0,0:0:0:0:
352,120,237401,2,0,L|256:136,1,85,8|0,0:0|0:0,0:0:0:0:
172,301,237707,2,0,L|256:288,1,85,8|0,0:0|0:0,0:0:0:0:
52,256,238014,6,0,L|38:339,1,85,8|0,0:0|0:0,0:0:0:0:
144,168,238320,1,8,0:0:0:0:
172,301,238473,1,0,0:0:0:0:
280,128,238626,2,0,L|266:211,1,85,8|8,0:0|0:0,0:0:0:0:
332,336,238932,1,8,0:0:0:0:
332,336,239085,1,8,0:0:0:0:
512,212,239238,6,0,P|468:184|320:204,1,170,6|8,0:0|0:0,0:0:0:0:
412,320,239697,1,2,0:0:0:0:
100,64,240003,1,0,0:0:0:0:
0,172,240309,6,0,P|44:200|192:180,1,170,2|0,0:0|0:0,0:0:0:0:
340,56,240769,2,0,L|324:144,1,85,8|0,0:0|0:0,0:0:0:0:
172,328,241075,2,0,L|188:240,1,85,0|0,0:0|0:0,0:0:0:0:
172,56,241381,2,0,L|188:144,1,85,8|0,0:0|3:0,0:0:0:0:
340,328,241687,6,0,L|324:240,1,85,6|0,0:0|0:0,0:0:0:0:
187,244,241993,1,10,0:0:0:0:
440,164,242146,1,2,0:0:0:0:
76,116,242452,1,8,0:0:0:0:
344,80,242758,6,0,B|308:88|284:112|284:112|260:112|260:112|244:144|180:164,1,170,2|4,0:0|0:3,0:0:0:0:
104,212,243218,2,0,B|140:220|164:244|164:244|188:244|188:244|204:276|268:296,1,170,8|2,0:0|0:0,0:0:0:0:
392,352,243830,5,0,3:0:0:0:
268,200,243983,1,8,0:0:0:0:
104,304,244136,1,4,0:0:0:0:
184,352,244289,6,0,P|196:316|188:268,2,63.7500024318696,0|0|0,0:0|0:0|0:0,0:0:0:0:
104,304,244748,1,2,0:0:0:0:
276,344,244901,1,0,0:0:0:0:
104,304,245054,1,8,0:0:0:0:
276,344,245207,6,0,L|424:332,1,127.500004863739,2|0,0:0|0:0,0:0:0:0:
288,160,245667,2,0,L|282:234,1,63.7500024318696,8|0,0:0|0:0,0:0:0:0:
392,204,245973,1,2,0:0:0:0:
392,204,246126,1,0,0:0:0:0:
232,72,246279,2,0,P|204:96|188:128,1,63.7500024318696,10|0,0:0|0:0,0:0:0:0:
80,176,246585,1,0,0:0:0:0:
128,252,246738,6,0,L|208:240,2,63.7500024318696,0|0|0,0:0|0:0|0:0,0:0:0:0:
80,336,247197,2,0,L|143:345,1,63.7500024318696,2|0,0:0|0:0,0:0:0:0:
232,356,247503,1,8,0:0:0:0:
191,242,247656,1,2,0:0:0:0:
191,242,247963,5,0,0:0:0:0:
232,356,248116,1,10,0:0:0:0:
288,296,248269,1,0,0:0:0:0:
396,368,248422,2,0,L|332:377,1,63.7500024318696,2|0,0:0|0:0,0:0:0:0:
224,286,248728,2,0,L|288:296,1,63.7500024318696,8|0,0:0|0:0,0:0:0:0:
408,256,249034,6,0,P|412:200|416:108,1,127.500004863739,2|0,0:0|0:0,0:0:0:0:
415,128,249493,1,0,0:0:0:0:
320,64,249646,2,0,P|318:95|316:127,1,63.7500024318696,2|0,0:0|0:0,0:0:0:0:
232,216,249952,2,0,P|229:184|228:152,1,63.7500024318696,8|0,0:0|0:0,0:0:0:0:
228,152,250258,1,0,0:0:0:0:
112,232,250411,6,0,P|110:263|108:295,2,63.7500024318696,0|0|0,0:0|0:0|0:0,0:0:0:0:
24,256,250871,1,2,0:0:0:0:
196,316,251024,1,0,0:0:0:0:
24,256,251177,1,10,0:0:0:0:
196,316,251330,1,2,0:0:0:0:
40,164,251483,6,0,P|28:112|112:40,1,170,6|0,0:0|0:0,0:0:0:0:
252,132,251942,2,0,B|312:144|304:144|444:104,1,170,2|0,0:0|0:0,0:0:0:0:
196,316,252401,2,0,P|152:248|160:144,1,170,2|0,0:0|0:0,0:0:0:0:
344,288,252860,2,0,P|340:356|332:392,1,85,2|0,0:0|0:0,0:0:0:0:
196,316,253167,1,0,0:0:0:0:
408,184,253320,6,0,P|434:217|456:253,1,85,2|0,0:0|0:0,0:0:0:0:
284,180,253626,2,0,P|299:140|320:103,1,85,2|0,0:0|0:0,0:0:0:0:
292,376,253932,1,4,0:0:0:0:
204,176,263728,6,0,L|28:192,2,170,2|8|0,0:0|0:0|0:0,0:0:0:0:
288,116,264493,1,0,0:0:0:0:
388,132,264646,1,8,0:0:0:0:
452,212,264799,6,0,P|464:260|356:348,1,170,2|0,0:0|0:0,0:0:0:0:
264,260,265258,1,10,0:0:0:0:
304,360,265411,2,0,P|236:352|124:344,1,170,0|0,0:0|0:0,0:0:0:0:
92,224,265871,2,0,P|134:220|176:215,1,85,8|0,0:0|0:0,0:0:0:0:
288,116,266177,5,0,0:0:0:0:
288,116,266330,1,0,0:0:0:0:
144,48,266483,1,8,0:0:0:0:
144,48,266636,2,0,P|147:90|152:132,1,85,0|0,0:0|0:0,0:0:0:0:
279,200,266942,2,0,P|284:157|287:115,1,85,0|8,0:0|0:0,0:0:0:0:
188,244,267248,6,0,P|220:280|352:272,1,170,2|0,0:0|0:0,0:0:0:0:
464,188,267707,2,0,L|344:200,1,85,8|0,0:0|3:0,0:0:0:0:
325,368,268014,2,0,L|334:284,1,85,0|0,0:0|0:0,0:0:0:0:
270,115,268320,2,0,L|279:200,1,85,8|0,0:0|0:0,0:0:0:0:
236,336,268626,6,0,P|180:348|84:260,1,170,0|8,3:0|0:0,0:0:0:0:
112,96,269085,1,0,0:0:0:0:
176,196,269238,1,0,0:0:0:0:
156,200,269315,1,0,0:0:0:0:
136,204,269391,2,0,L|48:196,1,85,0|8,0:0|0:0,0:0:0:0:
270,115,269697,1,0,0:0:0:0:
296,264,269850,5,0,3:0:0:0:
296,264,269927,1,0,0:0:0:0:
296,264,270003,1,0,3:0:0:0:
432,180,270156,1,8,0:0:0:0:
432,180,270233,1,0,0:0:0:0:
432,180,270309,1,0,0:0:0:0:
468,332,270463,2,0,L|412:340,2,56.6666666666667,0|2|0,0:0|0:0|0:0,0:0:0:0:
240,272,270769,2,0,L|295:263,2,56.6666666666667,10|0|2,0:0|0:0|0:0,0:0:0:0:
352,176,271075,6,0,L|328:368,1,170,2|8,0:0|0:0,0:0:0:0:
152,192,271534,1,0,0:0:0:0:
240,272,271687,1,0,0:0:0:0:
136,180,271840,1,0,0:0:0:0:
328,256,271993,1,10,0:0:0:0:
120,360,272146,6,0,P|68:368|8:268,1,170,0|2,0:0|0:0,0:0:0:0:
128,64,272605,2,0,P|169:63|205:85,1,85,0|2,0:0|0:0,0:0:0:0:
340,264,272911,1,2,0:0:0:0:
252,184,273065,1,0,0:0:0:0:
424,152,273218,1,8,0:0:0:0:
328,364,273371,1,2,0:0:0:0:
144,236,273524,1,4,0:0:0:0:
256,192,273677,12,2,275973,0:0:0:0:
204,88,284544,5,8,0:0:0:0:
204,95,284697,1,8,0:0:0:0:
205,103,284850,1,8,0:0:0:0:
205,111,285003,1,8,0:0:0:0:
207,119,285156,1,8,0:0:0:0:
207,128,285309,1,8,0:0:0:0:
208,136,285462,1,0,0:0:0:0:
148,232,285616,6,0,L|64:224,1,85
108,128,285922,1,4,0:0:0:0:
304,204,286075,1,4,0:0:0:0:
152,344,286228,1,4,0:0:0:0:
212,168,286381,1,0,0:0:0:0:
384,328,286534,6,0,P|436:304|400:176,1,203.999993774414,4|0,0:0|3:0,0:0:0:0:
304,204,286993,6,0,L|500:192,1,170,4|8,0:0|0:0,0:0:0:0:
292,324,287452,2,0,L|194:318,1,85,0|0,0:0|0:0,0:0:0:0:
56,164,287758,1,0,0:0:0:0:
160,240,287911,1,8,0:0:0:0:
64,360,288065,6,0,L|70:262,1,85,2|0,0:0|0:0,0:0:0:0:
72,176,288371,1,0,0:0:0:0:
264,280,288524,2,0,L|258:182,1,85,10|0,0:0|0:0,0:0:0:0:
156,56,288830,2,0,P|162:95|175:138,1,85,0|0,0:0|0:0,0:0:0:0:
356,228,289136,2,0,P|368:187|375:145,1,85,10|0,0:0|0:0,0:0:0:0:
72,176,289442,6,0,P|116:232|232:232,1,170,0|8,0:0|0:0,0:0:0:0:
436,312,289901,2,0,P|384:324|336:336,1,85,0|0,0:0|0:0,0:0:0:0:
176,360,290207,1,0,0:0:0:0:
280,192,290360,1,8,0:0:0:0:
98,319,290514,6,0,P|181:300|264:280,1,170,2|0,0:0|0:0,0:0:0:0:
432,112,290973,2,0,P|380:124|332:136,1,85,10|0,0:0|0:0,0:0:0:0:
168,268,291279,2,0,P|183:216|197:169,1,85,0|0,0:0|0:0,0:0:0:0:
216,20,291585,2,0,P|227:60|240:101,1,85,10|0,0:0|0:0,0:0:0:0:
248,350,291891,6,0,P|179:303|98:319,1,170,0|8,0:0|0:0,0:0:0:0:
324,280,292350,2,0,L|444:268,1,85,0|0,0:0|0:0,0:0:0:0:
228,168,292656,1,0,0:0:0:0:
408,271,292809,1,8,0:0:0:0:
248,350,292963,6,0,P|240:298|236:246,1,85,2|0,0:0|0:0,0:0:0:0:
332,104,293269,1,0,0:0:0:0:
332,104,293422,2,0,P|327:146|321:188,1,85,10|0,0:0|0:0,0:0:0:0:
156,228,293728,2,0,P|114:221|71:217,1,85,0|0,0:0|0:0,0:0:0:0:
248,350,294034,2,0,P|290:345|332:339,1,85,10|0,0:0|0:0,0:0:0:0:
500,216,294340,6,0,P|460:180|332:200,2,170,0|8|2,0:0|0:0|0:0,0:0:0:0:
332,328,295105,1,0,0:0:0:0:
272,164,295258,1,8,0:0:0:0:
436,88,295411,6,0,P|424:184|412:284,1,170,2|0,0:0|0:0,0:0:0:0:
208,232,295871,1,10,0:0:0:0:
332,328,296024,1,0,0:0:0:0:
188,352,296177,1,0,0:0:0:0:
296,248,296330,1,2,0:0:0:0:
104,172,296483,1,10,0:0:0:0:
104,172,296789,6,0,P|116:232|120:284,1,85,4|0,0:0|0:0,0:0:0:0:
188,136,297095,2,0,P|210:193|223:243,1,85,8|0,0:0|0:0,0:0:0:0:
268,80,297401,2,0,P|299:132|321:179,1,85,0|0,0:0|0:0,0:0:0:0:
334,17,297707,2,0,P|374:62|403:105,1,85,8|0,0:0|0:0,0:0:0:0:
400,244,298014,6,0,P|425:210|454:178,1,85,0|0,0:0|0:0,0:0:0:0:
424,352,298320,2,0,P|381:346|340:337,1,85,8|0,0:0|0:0,0:0:0:0:
272,156,298626,2,0,P|266:198|257:239,1,85,0|0,0:0|0:0,0:0:0:0:
160,356,298932,2,0,P|150:314|145:272,1,85,8|0,0:0|0:0,0:0:0:0:
68,144,299238,5,2,0:0:0:0:
164,172,299391,1,0,0:0:0:0:
116,252,299544,1,8,0:0:0:0:
140,88,299697,1,0,0:0:0:0:
24,224,299850,5,2,0:0:0:0:
264,240,300003,2,0,P|262:282|257:324,1,85,0|8,0:0|0:0,0:0:0:0:
248,136,300309,6,0,P|296:124|424:176,1,170,2|2,0:0|0:0,0:0:0:0:
336,352,300769,1,10,0:0:0:0:
336,352,300922,1,0,0:0:0:0:
312,224,301075,1,0,0:0:0:0:
312,224,301228,1,0,0:0:0:0:
436,272,301381,1,10,0:0:0:0:
436,272,301534,1,0,0:0:0:0:
248,348,301687,6,0,B|208:364|208:364|68:340,1,170,2|8,0:0|0:0,0:0:0:0:
176,136,302146,2,0,L|188:256,1,85,2|0,0:0|0:0,0:0:0:0:
8,328,302452,1,0,0:0:0:0:
92,180,302605,1,8,0:0:0:0:
224,308,302758,6,0,P|264:320|360:240,1,170,2|0,0:0|0:0,0:0:0:0:
416,140,303218,2,0,L|304:132,1,85,10|0,0:0|0:0,0:0:0:0:
176,136,303524,1,2,0:0:0:0:
272,236,303677,1,0,0:0:0:0:
248,68,303830,1,8,0:0:0:0:
80,88,303983,1,2,0:0:0:0:
104,256,304136,6,0,L|92:368,1,85,0|0,0:0|0:0,0:0:0:0:
196,212,304442,1,8,0:0:0:0:
224,308,304595,1,0,0:0:0:0:
280,144,304748,1,0,0:0:0:0:
328,320,304901,1,0,0:0:0:0:
372,80,305054,1,10,0:0:0:0:
440,328,305207,5,6,0:0:0:0:
72,56,305514,1,6,0:0:0:0:
400,184,305820,1,6,0:0:0:0:
319,223,305973,6,0,P|256:230|196:212,1,127.5,2|0,0:0|0:0,0:0:0:0:
164,184,306279,6,0,P|197:252|202:327,1,152.999995330811,4|0,0:0|0:0,0:0:0:0:
64,348,306585,6,0,P|40:304|128:316,1,170,4|8,0:0|0:0,0:0:0:0:
292,356,307044,2,0,L|400:344,1,85,0|0,0:0|0:0,0:0:0:0:
240,220,307350,1,0,0:0:0:0:
376,346,307503,1,8,0:0:0:0:
224,204,307656,6,0,P|260:160|388:184,1,170,2|0,0:0|0:0,0:0:0:0:
472,264,308116,2,0,L|460:176,1,85,10|0,0:0|0:0,0:0:0:0:
312,248,308422,1,0,0:0:0:0:
292,356,308575,1,0,0:0:0:0:
144,208,308728,2,0,L|155:292,1,85,10|0,0:0|0:0,0:0:0:0:
16,236,309034,6,0,P|0:184|60:88,1,170,0|8,0:0|0:0,0:0:0:0:
212,36,309493,2,0,P|208:92|200:136,1,85,0|0,0:0|0:0,0:0:0:0:
144,208,309799,1,0,0:0:0:0:
312,248,309952,2,0,P|354:241|396:239,1,85,8|2,0:0|0:0,0:0:0:0:
208,296,310258,5,0,0:0:0:0:
252,152,310411,1,0,0:0:0:0:
208,296,310565,2,0,L|216:388,1,85,10|0,0:0|0:0,0:0:0:0:
48,292,310871,1,0,0:0:0:0:
84,128,311024,1,0,0:0:0:0:
84,128,311100,1,0,0:0:0:0:
84,128,311177,2,0,P|120:132|185:135,1,85,10|0,0:0|0:0,0:0:0:0:
368,80,311483,6,0,P|408:128|380:248,1,170,0|8,0:0|0:0,0:0:0:0:
208,296,311942,1,0,0:0:0:0:
296,216,312095,1,0,0:0:0:0:
320,336,312248,1,0,0:0:0:0:
188,288,312401,1,8,0:0:0:0:
56,356,312554,6,0,P|51:313|48:271,1,85,2|0,0:0|0:0,0:0:0:0:
152,108,312860,1,0,0:0:0:0:
244,164,313014,2,0,P|188:208|76:184,1,170,8|0,0:0|0:0,0:0:0:0:
268,52,313473,1,0,0:0:0:0:
344,220,313626,2,0,L|349:135,1,85,8|2,0:0|0:0,0:0:0:0:
468,8,313932,6,0,L|479:177,1,170,2|8,0:0|0:0,0:0:0:0:
332,320,314391,1,0,0:0:0:0:
376,196,314544,1,2,0:0:0:0:
412,352,314697,1,0,0:0:0:0:
372,168,314850,1,8,0:0:0:0:
232,280,315003,6,0,B|184:300|184:300|124:320|48:280,1,170,2|0,0:0|0:0,0:0:0:0:
116,84,315463,1,8,0:0:0:0:
192,164,315616,1,0,0:0:0:0:
16,240,315769,1,0,0:0:0:0:
100,172,315922,1,0,0:0:0:0:
232,280,316075,1,10,0:0:0:0:
232,280,316381,6,0,B|248:240|244:192|244:192|276:260|344:252|344:164,1,255.000009727478,6|10,0:0|0:0,0:0:0:0:
232,48,317299,1,0,0:0:0:0:
232,48,317452,2,0,B|276:56|276:56|368:32,1,127.500004863739,2|0,0:0|0:0,0:0:0:0:
408,108,317911,2,0,B|327:128|327:128,1,63.7500024318696
260,148,318218,1,8,0:0:0:0:
164,296,318524,1,0,0:0:0:0:
164,296,318830,6,0,P|216:320|312:316,1,127.500004863739,2|0,0:0|0:0,0:0:0:0:
348,88,319442,2,0,P|296:64|200:68,1,127.500004863739,10|0,0:0|0:0,0:0:0:0:
156,116,319901,1,0,0:0:0:0:
84,168,320054,6,0,L|64:24,2,127.500004863739,2|0|10,0:0|0:0|0:0,0:0:0:0:
44,288,320820,1,0,0:0:0:0:
44,288,320896,1,0,0:0:0:0:
44,288,320973,1,0,0:0:0:0:
192,232,321126,1,0,0:0:0:0:
192,232,321202,1,0,0:0:0:0:
192,232,321279,6,0,P|232:260|220:380,1,170,4|8,0:0|0:0,0:0:0:0:
168,316,321738,1,0,0:0:0:0:
324,364,321891,2,0,P|332:308|324:268,1,85,0|0,0:0|0:0,0:0:0:0:
220,144,322197,2,0,L|316:164,1,85,8|0,0:0|0:0,0:0:0:0:
456,192,322503,5,0,0:0:0:0:
327,280,322656,1,0,0:0:0:0:
476,176,322809,2,0,P|484:232|488:288,1,85,10|0,0:0|0:0,0:0:0:0:
336,128,323116,2,0,P|340:85|346:43,1,85,2|0,0:0|0:0,0:0:0:0:
327,280,323422,1,8,0:0:0:0:
160,260,323575,1,2,0:0:0:0:
220,144,323728,6,0,L|108:152,1,85,2|0,0:0|0:0,0:0:0:0:
160,260,324034,2,0,L|75:253,1,85,8|0,0:0|0:0,0:0:0:0:
292,356,324340,2,0,L|207:362,1,85,0|0,0:0|0:0,0:0:0:0:
336,128,324646,2,0,L|251:121,1,85,8|0,0:0|0:0,0:0:0:0:
452,184,324952,6,0,P|464:144|460:96,1,85,2|0,0:0|0:0,0:0:0:0:
348,252,325258,2,0,P|352:316|360:372,1,85,10|0,0:0|0:0,0:0:0:0:
236,200,325565,2,0,P|231:242|229:284,1,85,0|0,0:0|0:0,0:0:0:0:
128,372,325871,2,0,P|123:329|121:287,1,85,10|0,0:0|0:0,0:0:0:0:
52,184,326177,6,0,P|80:136|204:128,1,170,2|8,0:0|0:0,0:0:0:0:
316,232,326636,2,0,P|244:228|144:212,1,170,0|0,0:0|0:0,0:0:0:0:
296,336,327095,2,0,P|352:326|410:322,1,85,8|0,0:0|0:0,0:0:0:0:
488,224,327401,6,0,P|492:184|388:208,1,170,0|8,0:0|0:0,0:0:0:0:
380,324,327860,1,0,0:0:0:0:
504,212,328014,2,0,P|516:168|508:120,1,85,0|0,0:0|0:0,0:0:0:0:
372,56,328320,2,0,L|388:168,1,85,8|0,0:0|0:0,0:0:0:0:
316,232,328626,6,0,L|116:220,1,170,10|8,0:0|0:0,0:0:0:0:
56,168,329085,1,2,0:0:0:0:
168,140,329238,1,8,0:0:0:0:
128,304,329391,1,0,0:0:0:0:
128,304,329468,1,0,0:0:0:0:
128,304,329544,2,0,P|176:296|228:292,1,85,8|0,0:0|0:0,0:0:0:0:
320,340,329850,5,8,0:0:0:0:
368,232,330003,1,0,0:0:0:0:
260,184,330156,1,8,0:0:0:0:
212,292,330309,1,0,0:0:0:0:
336,348,330463,2,0,L|432:340,1,85,8|8,0:0|0:0,0:0:0:0:
292,264,330769,1,8,0:0:0:0:
180,372,330922,1,8,0:0:0:0:
40,288,331075,6,0,P|32:228|104:108,1,170,6|8,0:0|0:0,0:0:0:0:
360,152,331534,5,2,0:0:0:0:
152,232,331840,1,0,0:0:0:0:
472,96,332146,6,0,P|480:156|408:276,1,170,2|0,0:0|0:0,0:0:0:0:
324,264,332605,2,0,L|336:368,1,85,8|0,0:0|0:0,0:0:0:0:
178,348,332911,1,0,0:0:0:0:
178,348,333065,1,0,0:0:0:0:
178,348,333218,2,0,L|188:264,1,85,8|0,0:0|3:0,0:0:0:0:
176,112,333524,5,6,0:0:0:0:
336,112,333677,1,0,0:0:0:0:
256,192,333830,1,10,0:0:0:0:
256,36,333983,1,2,0:0:0:0:
256,348,334289,1,8,0:0:0:0:
183,144,334595,6,0,P|255:104|326:144,1,170,2|0,0:0|0:0,0:0:0:0:
184,272,335054,2,0,L|76:256,1,85,8|0,0:0|0:0,0:0:0:0:
336,232,335360,2,0,L|352:340,1,85,2|0,0:0|0:0,0:0:0:0:
112,328,335667,2,0,P|96:280|152:188,1,127.5,8|0,0:0|0:0,0:0:0:0:
188,172,335973,6,0,P|232:184|336:120,1,170,4|8,0:0|0:0,0:0:0:0:
236,76,336432,2,0,L|140:68,1,85,0|0,0:0|0:0,0:0:0:0:
4,188,336738,2,0,L|100:180,1,85,0|8,0:0|0:0,0:0:0:0:
244,304,337044,6,0,P|188:292|60:284,1,170,2|0,0:0|0:0,0:0:0:0:
336,240,337503,2,0,P|352:300|360:356,1,85,10|0,0:0|0:0,0:0:0:0:
232,196,337809,2,0,P|240:154|251:113,1,85,0|0,0:0|0:0,0:0:0:0:
456,104,338116,2,0,P|447:145|436:186,1,85,10|0,0:0|0:0,0:0:0:0:
244,304,338422,6,0,P|184:296|128:184,1,170,0|8,0:0|0:0,0:0:0:0:
232,196,338881,1,0,0:0:0:0:
336,240,339034,1,0,0:0:0:0:
140,312,339187,1,0,0:0:0:0:
352,356,339340,1,8,0:0:0:0:
244,304,339493,6,0,B|220:252|220:252|248:124,1,170,2|0,0:0|0:0,0:0:0:0:
380,44,339952,2,0,B|355:154|355:154,1,85,8|2,0:0|0:0,0:0:0:0:
336,240,340258,1,0,0:0:0:0:
244,141,340411,1,0,0:0:0:0:
140,312,340565,2,0,P|100:308|36:300,1,85,10|0,0:0|0:0,0:0:0:0:
0,192,340871,6,0,P|24:156|148:156,1,170,0|8,0:0|0:0,0:0:0:0:
316,216,341330,2,0,P|276:240|220:240,1,85,0|0,0:0|0:0,0:0:0:0:
88,220,341636,1,0,0:0:0:0:
140,312,341789,1,8,0:0:0:0:
236,168,341942,6,0,P|228:236|220:360,1,170,2|0,0:0|0:0,0:0:0:0:
400,264,342401,2,0,P|409:179|415:94,1,170,10|0,0:0|0:0,0:0:0:0:
268,48,342860,1,0,0:0:0:0:
320,160,343014,2,0,P|278:165|236:168,1,85,10|0,0:0|0:0,0:0:0:0:
92,148,343320,6,0,P|76:100|140:-4,2,170,4|10|2,0:0|0:0|0:0,0:0:0:0:
176,92,344085,1,0,0:0:0:0:
116,268,344238,1,8,0:0:0:0:
236,208,344391,6,0,P|245:292|251:377,1,170,2|0,0:0|0:0,0:0:0:0:
116,268,344850,2,0,P|121:318|125:369,1,85,8|0,0:0|0:0,0:0:0:0:
24,316,345156,1,10,0:0:0:0:
140,148,345309,1,4,0:3:0:0:
284,296,345463,1,8,0:0:0:0:
284,296,345769,6,0,P|324:252|312:144,1,170,6|8,0:0|0:0,0:0:0:0:
72,197,346228,2,0,B|180:225|180:225|236:208,1,170,0|0,0:0|0:0,0:0:0:0:
260,56,346687,1,10,0:0:0:0:
172,120,346840,6,0,P|126:109|76:95,1,85,2|0,0:0|0:0,0:0:0:0:
260,56,347146,1,0,0:0:0:0:
340,188,347299,2,0,P|298:199|257:208,1,85,8|0,0:0|0:0,0:0:0:0:
376,80,347605,1,0,0:0:0:0:
436,248,347758,1,0,0:0:0:0:
257,208,347911,2,0,P|251:250|248:292,1,85,8|0,0:0|0:0,0:0:0:0:
300,368,348218,5,2,0:0:0:0:
160,296,348371,1,0,0:0:0:0:
300,368,348524,1,10,0:0:0:0:
84,344,348677,1,0,0:0:0:0:
336,272,348830,2,0,P|356:208|304:112,1,170,2|8,0:0|0:0,0:0:0:0:
72,184,349289,1,2,0:0:0:0:
72,184,349595,5,0,0:0:0:0:
184,120,349748,2,0,L|172:216,1,85,8|2,0:0|0:0,0:0:0:0:
288,48,350054,1,0,0:0:0:0:
312,156,350207,1,0,0:0:0:0:
392,84,350360,2,0,P|440:76|484:72,1,85,10|0,0:0|0:0,0:0:0:0:
372,240,350667,6,0,P|300:256|216:196,1,170,2|8,0:0|0:0,0:0:0:0:
424,168,351126,2,0,L|404:340,1,170,2|0,0:0|0:0,0:0:0:0:
256,356,351585,1,10,0:0:0:0:
256,356,351738,1,0,0:0:0:0:
107,336,351891,6,0,L|88:168,2,170,2|10|0,0:0|0:0|0:0,0:0:0:0:
107,336,352656,1,0,0:0:0:0:
204,220,352809,1,10,0:0:0:0:
256,356,352963,1,0,3:0:0:0:
360,292,353116,6,0,L|456:300,2,85,8|0|8,0:0|0:0|0:0,0:0:0:0:
204,220,353575,1,0,0:0:0:0:
312,128,353728,2,0,P|304:192|292:240,1,85,0|0,0:0|0:0,0:0:0:0:
120,304,354034,2,0,P|111:262|107:220,1,85,8|0,0:0|0:0,0:0:0:0:
288,56,354340,6,0,P|340:56|368:176,1,170,2|8,0:0|0:0,0:0:0:0:
371,241,354799,2,0,P|286:238|204:219,1,170,2|0,0:0|0:0,0:0:0:0:
56,140,355258,1,10,0:0:0:0:
204,219,355411,1,0,0:0:0:0:
33,339,355565,6,0,P|41:257|112:216,1,170,2|8,0:0|0:0,0:0:0:0:
256,292,356024,2,0,L|248:380,1,85,2|0,0:0|0:0,0:0:0:0:
364,156,356330,1,0,0:0:0:0:
363,156,356483,2,0,L|371:241,1,85,10|0,0:0|0:0,0:0:0:0:
148,156,356789,6,0,L|141:241,1,85,0|0,0:0|0:0,0:0:0:0:
344,52,357095,2,0,P|384:64|440:84,1,85,10|0,0:0|0:0,0:0:0:0:
168,52,357401,1,2,0:0:0:0:
364,156,357554,1,0,0:0:0:0:
148,156,357707,1,10,0:0:0:0:
344,52,357860,1,2,0:0:0:0:
198,243,358014,6,0,P|256:366|316:244,1,340,4|0,0:0|0:0,0:0:0:0:
256,112,358779,1,0,0:0:0:0:
100,208,358932,1,10,0:0:0:0:
256,292,359085,1,2,0:0:0:0:
256,112,359238,5,4,0:0:0:0:
128,288,359391,1,4,0:0:0:0:
338,311,359544,2,0,L|256:292,1,85,8|0,0:0|3:0,0:0:0:0:
144,152,359850,5,4,0:0:0:0:
216,384,360003,1,4,0:0:0:0:
428,336,360156,2,0,L|416:236,1,85,8|0,0:0|3:0,0:0:0:0:
417,251,360463,1,0,0:0:0:0:
256,112,360616,5,4,2:0:0:0:
488,160,360769,1,4,2:0:0:0:
338,311,360922,1,4,2:0:0:0:
256,112,361075,1,12,0:0:0:0:
428,336,361381,5,8,0:0:0:0:
428,336,361534,1,4,0:0:0:0:
256,192,361687,12,0,365207,0:0:0:0:
