osu file format v14

[General]
AudioFilename: audio.mp3
AudioLeadIn: 0
PreviewTime: 77529
Countdown: 0
SampleSet: Normal
StackLeniency: 0.7
Mode: 1
LetterboxInBreaks: 0
EpilepsyWarning: 1
WidescreenStoryboard: 1

[Editor]
DistanceSpacing: 0.7
BeatDivisor: 4
GridSize: 32
TimelineZoom: 1

[Metadata]
Title:MOMENT RING
TitleUnicode:MOMENT RING
Artist:u's
ArtistUnicode:μ's
Creator:Chaoslitz
Version:Nardo's Inner Oni
Source:ラブライブ! School idol project
Tags:Nardoxyribonucleic Kawaiwkyik Rizia love live muse final single Sayounara Sayonara! 高坂穂乃果 Kousaka Honoka 園田海未 Sonoda Umi 南ことり Minami Kotori 小泉花陽 Koizumi Hanayo 星空凛 Hoshizora Rin 西木野真姫 Nishikino Maki 矢澤にこ Yazawa Nico 絢瀬絵里 Ayase Eli 東條希 Toujou Nozomi
BeatmapID:991176
BeatmapSetID:437113

[Difficulty]
HPDrainRate:5
CircleSize:2
OverallDifficulty:6
ApproachRate:7
SliderMultiplier:1.4
SliderTickRate:1

[Events]
//Background and Video events
0,0,"sb/bg.jpg",0,0
//Break Periods
//Storyboard Layer 0 (Background)
Sprite,Background,Centre,"sb\bg.jpg",320,240 S,0,0,,0.625 F,0,0,13932,0,1 F,0,13932,33218,1 F,0,33218,33524,1,0.5 F,0,33524,77605,0 F,0,77605,106687,1 F,0,106687,106993,1,0.7 F,0,106993,111891,0.7 F,0,111891,112044,0.7,1 F,0,112044,120156,1 F,0,120156,120463,1,0.7 F,0,120463,121687,0.7 F,0,121687,126279,1 F,0,126279,126585,1,0.5 F,0,126585,195156,0 F,0,195156,224238,1 F,0,224238,224544,1,0.5 F,0,224544,229442,0.5 M,0,229442,,320,240 F,0,229442,229595,0.5,1 F,0,229595,237707,1 F,0,237707,238014,1,0.5 F,0,238014,239238,0.5 F,0,239238,244136,1 F,0,244136,253932,0 F,0,253932,273524,1 F,0,273524,275973,1,0 F,0,275973,286993,0 F,0,286993,316381,1 F,0,316381,316687,1,0.5 F,0,316687,321126,0.5 F,0,321126,321279,0.5,1 F,0,321279,329544,1 F,0,329544,329850,1,0.5 F,0,329850,331075,0.5 F,0,331075,335667,1 F,0,335667,335973,1,0
//Storyboard Layer 1 (Fail)
//Storyboard Layer 2 (Pass)
//Storyboard Layer 3 (Foreground)
Sprite,Foreground,Centre,"sb\nardo.png",320,240 S,0,23728,,0.5 M,0,23728,23804,465,270,355,270 M,0,23804,31075,355,270,345,270 F,0,30769,31075,1,0
Sprite,Foreground,Centre,"sb\sb.png",320,240 S,0,28626,,0.5 F,0,28626,28932,0,1 M,0,28626,31075,266,321,271,320 F,0,28932,30769,1 F,0,30769,31075,1,0
//Storyboard Sound Samples

[TimingPoints]
463,306.122448979592,4,1,0,50,1,0
6585,-100,4,1,0,60,0,0
11483,-100,4,1,0,75,0,0
13931,-100,4,1,0,90,0,0
33524,-100,4,1,0,75,0,0
53116,-100,4,1,0,65,0,0
67809,-100,4,1,0,75,0,0
77605,-100,4,1,0,90,0,1
106993,-100,4,1,0,70,0,0
111891,-100,4,1,0,85,0,0
126585,-100,4,1,0,90,0,0
146177,-100,4,1,0,60,0,0
155973,-100,4,1,0,70,0,0
165769,-100,4,1,0,65,0,0
180463,-100,4,1,0,80,0,0
195156,-100,4,1,0,90,0,1
224544,-100,4,1,0,70,0,0
229442,-100,4,1,0,85,0,0
244136,-100,4,1,0,70,0,0
253932,-100,4,1,0,85,0,1
273524,-100,4,1,0,65,0,0
275973,-125,4,1,0,50,0,0
283320,-111.111111111111,4,1,0,70,0,0
286993,-100,4,1,0,90,0,1
316381,-100,4,1,0,70,0,0
321279,-100,4,1,0,85,0,0
335973,-100,4,1,0,90,0,0
361687,-100,4,1,0,70,0,0
362299,-100,4,1,0,60,0,0
362911,-100,4,1,0,50,0,0
363524,-100,4,1,0,40,0,0
364136,-100,4,1,0,30,0,0
364748,-100,4,1,0,20,0,0
365207,-100,4,1,0,10,0,0

[HitObjects]
256,192,1687,5,0,0:0:0:0:
256,192,2146,1,8,0:0:0:0:
256,192,2605,1,8,0:0:0:0:
256,192,3677,1,0,0:0:0:0:
256,192,3830,1,8,0:0:0:0:
256,192,3983,1,0,0:0:0:0:
256,192,4136,1,0,0:0:0:0:
256,192,4340,1,8,0:0:0:0:
256,192,4544,1,0,0:0:0:0:
256,192,4748,1,8,0:0:0:0:
256,192,5054,1,0,0:0:0:0:
256,192,5360,1,8,0:0:0:0:
256,192,5820,1,0,0:0:0:0:
256,192,6126,1,0,0:0:0:0:
256,192,6279,1,0,0:0:0:0:
256,192,6585,1,12,0:0:0:0:
256,192,7044,1,12,0:0:0:0:
256,192,7503,1,4,0:0:0:0:
256,192,7963,1,0,0:0:0:0:
256,192,8116,1,0,0:0:0:0:
256,192,8269,1,0,0:0:0:0:
256,192,9034,1,4,0:0:0:0:
256,192,9493,1,0,0:0:0:0:
256,192,9952,1,8,0:0:0:0:
256,192,10258,1,0,0:0:0:0:
256,192,10411,1,0,0:0:0:0:
256,192,10565,1,8,0:0:0:0:
256,192,10718,1,0,0:0:0:0:
256,192,11024,1,0,0:0:0:0:
256,192,11177,1,8,0:0:0:0:
256,192,11483,1,0,0:0:0:0:
256,192,11636,1,0,0:0:0:0:
256,192,11713,1,0,0:0:0:0:
256,192,11789,1,0,0:0:0:0:
256,192,11942,1,0,0:0:0:0:
256,192,12095,1,8,0:0:0:0:
256,192,12248,1,8,0:0:0:0:
256,192,12401,1,0,0:0:0:0:
256,192,12554,1,8,0:0:0:0:
256,192,12631,1,8,0:0:0:0:
256,192,12707,1,0,0:0:0:0:
256,192,12860,1,8,0:0:0:0:
256,192,13014,1,8,0:0:0:0:
256,192,13167,1,8,0:0:0:0:
256,192,13473,1,12,0:0:0:0:
256,192,13932,1,4,0:0:0:0:
256,192,14238,1,8,0:0:0:0:
256,192,14391,1,0,0:0:0:0:
256,192,14468,1,0,0:0:0:0:
256,192,14544,1,0,0:0:0:0:
256,192,14697,1,8,0:0:0:0:
256,192,14850,1,0,0:0:0:0:
256,192,15003,1,8,0:0:0:0:
256,192,15309,1,0,0:0:0:0:
256,192,15463,1,8,0:0:0:0:
256,192,15616,1,8,0:0:0:0:
256,192,15692,1,8,0:0:0:0:
256,192,15769,1,0,0:0:0:0:
256,192,15922,1,0,0:0:0:0:
256,192,16075,1,8,0:0:0:0:
256,192,16228,1,8,0:0:0:0:
256,192,16381,1,0,0:0:0:0:
256,192,16687,1,8,0:0:0:0:
256,192,16840,1,0,0:0:0:0:
256,192,16917,1,0,0:0:0:0:
256,192,16993,1,0,0:0:0:0:
256,192,17146,1,8,0:0:0:0:
256,192,17299,1,0,0:0:0:0:
256,192,17452,1,8,0:0:0:0:
256,192,17758,1,0,0:0:0:0:
256,192,17911,1,8,0:0:0:0:
256,192,18065,1,0,0:0:0:0:
256,192,18141,1,0,0:0:0:0:
256,192,18218,1,8,0:0:0:0:
256,192,18371,1,0,0:0:0:0:
256,192,18524,1,8,0:0:0:0:
256,192,18677,1,0,0:0:0:0:
256,192,18830,1,0,0:0:0:0:
256,192,19136,1,8,0:0:0:0:
256,192,19289,1,0,0:0:0:0:
256,192,19366,1,0,0:0:0:0:
256,192,19442,1,0,0:0:0:0:
256,192,19595,1,8,0:0:0:0:
256,192,19748,1,0,0:0:0:0:
256,192,19901,1,8,0:0:0:0:
256,192,20207,1,0,0:0:0:0:
256,192,20360,1,8,0:0:0:0:
256,192,20514,1,8,0:0:0:0:
256,192,20590,1,8,0:0:0:0:
256,192,20667,1,0,0:0:0:0:
256,192,20820,1,0,0:0:0:0:
256,192,20973,1,8,0:0:0:0:
256,192,21126,1,8,0:0:0:0:
256,192,21279,1,4,0:0:0:0:
256,192,21585,1,8,0:0:0:0:
256,192,21738,1,0,0:0:0:0:
256,192,21891,1,8,0:0:0:0:
256,192,21968,1,8,0:0:0:0:
256,192,22044,1,0,0:0:0:0:
256,192,22197,1,8,0:0:0:0:
256,192,22350,1,0,0:0:0:0:
256,192,22427,1,0,0:0:0:0:
256,192,22503,1,0,0:0:0:0:
256,192,22656,1,0,0:0:0:0:
256,192,22809,1,8,0:0:0:0:
256,192,22963,1,0,0:0:0:0:
256,192,23039,1,0,0:0:0:0:
256,192,23116,1,8,0:0:0:0:
256,192,23269,1,0,0:0:0:0:
256,192,23422,1,0,0:0:0:0:
256,192,23728,1,12,0:0:0:0:
256,192,24034,1,0,0:0:0:0:
256,192,24187,1,8,0:0:0:0:
256,192,24264,1,8,0:0:0:0:
256,192,24340,1,8,0:0:0:0:
256,192,24493,1,0,0:0:0:0:
256,192,24646,1,8,0:0:0:0:
256,192,24799,1,0,0:0:0:0:
256,192,25105,1,0,0:0:0:0:
256,192,25258,1,8,0:0:0:0:
256,192,25411,1,8,0:0:0:0:
256,192,25488,1,8,0:0:0:0:
256,192,25565,1,0,0:0:0:0:
256,192,25718,1,0,0:0:0:0:
256,192,25871,1,8,0:0:0:0:
256,192,26024,1,0,0:0:0:0:
256,192,26100,1,0,0:0:0:0:
256,192,26177,1,0,0:0:0:0:
256,192,26330,1,0,0:0:0:0:
256,192,26483,1,8,0:0:0:0:
256,192,26636,1,0,0:0:0:0:
256,192,26789,1,8,0:0:0:0:
256,192,26866,1,8,0:0:0:0:
256,192,26942,1,0,0:0:0:0:
256,192,27019,1,0,0:0:0:0:
256,192,27095,1,8,0:0:0:0:
256,192,27248,1,0,0:0:0:0:
256,192,27554,1,0,0:0:0:0:
256,192,27707,1,8,0:0:0:0:
256,192,27860,1,0,0:0:0:0:
256,192,27937,1,0,0:0:0:0:
256,192,28014,1,0,0:0:0:0:
256,192,28167,1,8,0:0:0:0:
256,192,28320,1,8,0:0:0:0:
256,192,28473,1,0,0:0:0:0:
256,192,28549,1,0,0:0:0:0:
256,192,28626,1,8,0:0:0:0:
256,192,28779,1,8,0:0:0:0:
256,192,28932,1,0,0:0:0:0:
256,192,29085,1,8,0:0:0:0:
256,192,29391,1,0,0:0:0:0:
256,192,29544,1,8,0:0:0:0:
256,192,29697,1,8,0:0:0:0:
256,192,29774,1,8,0:0:0:0:
256,192,29850,1,0,0:0:0:0:
256,192,30003,1,0,0:0:0:0:
256,192,30156,1,8,0:0:0:0:
256,192,30309,1,0,0:0:0:0:
256,192,30386,1,0,0:0:0:0:
256,192,30463,1,8,0:0:0:0:
256,192,30616,1,0,0:0:0:0:
256,192,30769,1,8,0:0:0:0:
256,192,30922,1,8,0:0:0:0:
256,192,31075,1,4,0:0:0:0:
256,192,31687,1,0,0:0:0:0:
256,192,31840,1,0,0:0:0:0:
256,192,31993,1,8,0:0:0:0:
256,192,32146,1,8,0:0:0:0:
256,192,32299,1,4,0:0:0:0:
256,192,32452,1,4,0:0:0:0:
256,192,32911,1,12,0:0:0:0:
256,192,33065,1,12,0:0:0:0:
256,192,33524,1,4,0:0:0:0:
256,192,33830,1,8,0:0:0:0:
256,192,34289,1,0,0:0:0:0:
256,192,34442,1,8,0:0:0:0:
256,192,34595,1,8,0:0:0:0:
256,192,34748,1,0,0:0:0:0:
256,192,35054,1,8,0:0:0:0:
256,192,35207,1,0,0:0:0:0:
256,192,35514,1,0,0:0:0:0:
256,192,35667,1,8,0:0:0:0:
256,192,35820,1,0,0:0:0:0:
256,192,35973,1,8,0:0:0:0:
256,192,36279,1,8,0:0:0:0:
256,192,36585,1,0,0:0:0:0:
256,192,36738,1,0,0:0:0:0:
256,192,36891,1,8,0:0:0:0:
256,192,37197,1,0,0:0:0:0:
256,192,37503,1,8,0:0:0:0:
256,192,37656,1,0,0:0:0:0:
256,192,37809,1,8,0:0:0:0:
256,192,38116,1,0,0:0:0:0:
256,192,38269,1,8,0:0:0:0:
256,192,38728,1,8,0:0:0:0:
256,192,38881,1,0,0:0:0:0:
256,192,39034,1,8,0:0:0:0:
256,192,39340,1,0,0:0:0:0:
256,192,39493,1,8,0:0:0:0:
256,192,39799,1,0,0:0:0:0:
256,192,39952,1,8,0:0:0:0:
256,192,40105,1,8,0:0:0:0:
256,192,40258,1,0,0:0:0:0:
256,192,40565,1,8,0:0:0:0:
256,192,40871,1,0,0:0:0:0:
256,192,41177,1,8,0:0:0:0:
256,192,41330,1,0,0:0:0:0:
256,192,41406,1,0,0:0:0:0:
256,192,41483,1,8,0:0:0:0:
256,192,41636,1,0,0:0:0:0:
256,192,41789,1,8,0:0:0:0:
256,192,41942,1,12,0:0:0:0:
256,192,42248,1,8,0:0:0:0:
256,192,42401,1,8,0:0:0:0:
256,192,42554,1,0,0:0:0:0:
256,192,42631,1,0,0:0:0:0:
256,192,42707,1,8,0:0:0:0:
256,192,42860,1,0,0:0:0:0:
256,192,43014,1,8,0:0:0:0:
256,192,43320,1,4,0:0:0:0:
256,192,43626,1,8,0:0:0:0:
256,192,43932,1,0,0:0:0:0:
256,192,44085,1,0,0:0:0:0:
256,192,44238,1,8,0:0:0:0:
256,192,44391,1,8,0:0:0:0:
256,192,44544,1,0,0:0:0:0:
256,192,44850,1,8,0:0:0:0:
256,192,45156,1,0,0:0:0:0:
256,192,45309,1,0,0:0:0:0:
256,192,45463,1,8,0:0:0:0:
256,192,45616,1,0,0:0:0:0:
256,192,45769,1,8,0:0:0:0:
256,192,46075,1,8,0:0:0:0:
256,192,46381,1,0,0:0:0:0:
256,192,46534,1,0,0:0:0:0:
256,192,46687,1,8,0:0:0:0:
256,192,46993,1,0,0:0:0:0:
256,192,47299,1,8,0:0:0:0:
256,192,47452,1,8,0:0:0:0:
256,192,47605,1,0,0:0:0:0:
256,192,47758,1,0,0:0:0:0:
256,192,47911,1,8,0:0:0:0:
256,192,48218,1,4,0:0:0:0:
256,192,48524,1,8,0:0:0:0:
256,192,48830,1,8,0:0:0:0:
256,192,48983,1,0,0:0:0:0:
256,192,49136,1,8,0:0:0:0:
256,192,49289,1,8,0:0:0:0:
256,192,49442,1,0,0:0:0:0:
256,192,49748,1,8,0:0:0:0:
256,192,49901,1,0,0:0:0:0:
256,192,49978,1,0,0:0:0:0:
256,192,50054,1,0,0:0:0:0:
256,192,50207,1,0,0:0:0:0:
256,192,50360,1,8,0:0:0:0:
256,192,50514,1,0,0:0:0:0:
256,192,50590,1,0,0:0:0:0:
256,192,50667,1,8,0:0:0:0:
256,192,50820,1,0,0:0:0:0:
256,192,50896,1,0,0:0:0:0:
256,192,50973,1,8,0:0:0:0:
256,192,51126,1,0,0:0:0:0:
256,192,51279,1,8,0:0:0:0:
256,192,51432,1,8,0:0:0:0:
256,192,51585,1,0,0:0:0:0:
256,192,51738,1,12,0:0:0:0:
256,192,52044,1,0,0:0:0:0:
256,192,52197,1,8,0:0:0:0:
256,192,52350,1,4,0:0:0:0:
256,192,52656,1,0,0:0:0:0:
256,192,52809,1,8,0:0:0:0:
256,192,53116,1,4,0:0:0:0:
256,192,53269,1,0,0:0:0:0:
256,192,53422,1,8,0:0:0:0:
256,192,53575,1,0,0:0:0:0:
256,192,53728,1,8,0:0:0:0:
256,192,53881,1,0,0:0:0:0:
256,192,53957,1,0,0:0:0:0:
256,192,54034,1,8,0:0:0:0:
256,192,54187,1,0,0:0:0:0:
256,192,54340,1,8,0:0:0:0:
256,192,54493,1,0,0:0:0:0:
256,192,54799,1,0,0:0:0:0:
256,192,54952,1,8,0:0:0:0:
256,192,55105,1,0,0:0:0:0:
256,192,55258,1,8,0:0:0:0:
256,192,55411,1,0,0:0:0:0:
256,192,55488,1,0,0:0:0:0:
256,192,55565,1,8,0:0:0:0:
256,192,55718,1,8,0:0:0:0:
256,192,55871,1,0,0:0:0:0:
256,192,56024,1,0,0:0:0:0:
256,192,56177,1,8,0:0:0:0:
256,192,56330,1,0,0:0:0:0:
256,192,56636,1,0,0:0:0:0:
256,192,56789,1,8,0:0:0:0:
256,192,56942,1,0,0:0:0:0:
256,192,57095,1,8,0:0:0:0:
256,192,57248,1,8,0:0:0:0:
256,192,57325,1,8,0:0:0:0:
256,192,57401,1,0,0:0:0:0:
256,192,57554,1,0,0:0:0:0:
256,192,57707,1,12,0:0:0:0:
256,192,58014,1,4,0:0:0:0:
256,192,58320,1,8,0:0:0:0:
256,192,58473,1,0,0:0:0:0:
256,192,58549,1,0,0:0:0:0:
256,192,58626,1,0,0:0:0:0:
256,192,58779,1,0,0:0:0:0:
256,192,58932,1,8,0:0:0:0:
256,192,59085,1,0,0:0:0:0:
256,192,59238,1,8,0:0:0:0:
256,192,59544,1,8,0:0:0:0:
256,192,59850,1,0,0:0:0:0:
256,192,60003,1,0,0:0:0:0:
256,192,60156,1,8,0:0:0:0:
256,192,60309,1,8,0:0:0:0:
256,192,60463,1,0,0:0:0:0:
256,192,60769,1,8,0:0:0:0:
256,192,60922,1,0,0:0:0:0:
256,192,60998,1,0,0:0:0:0:
256,192,61075,1,8,0:0:0:0:
256,192,61228,1,0,0:0:0:0:
256,192,61381,1,8,0:0:0:0:
256,192,61534,1,8,0:0:0:0:
256,192,61687,1,4,0:0:0:0:
256,192,61993,1,0,0:0:0:0:
256,192,62146,1,12,0:0:0:0:
256,192,62452,1,0,0:0:0:0:
256,192,62605,1,8,0:0:0:0:
256,192,62758,1,8,0:0:0:0:
256,192,62911,1,4,0:0:0:0:
256,192,63218,1,0,0:0:0:0:
256,192,63371,1,0,0:0:0:0:
256,192,63524,1,8,0:0:0:0:
256,192,63677,1,0,0:0:0:0:
256,192,63753,1,0,0:0:0:0:
256,192,63830,1,8,0:0:0:0:
256,192,63983,1,0,0:0:0:0:
256,192,64059,1,0,0:0:0:0:
256,192,64136,1,0,0:0:0:0:
256,192,64289,1,0,0:0:0:0:
256,192,64442,1,8,0:0:0:0:
256,192,64595,1,8,0:0:0:0:
256,192,64672,1,0,0:0:0:0:
256,192,64748,1,8,0:0:0:0:
256,192,64901,1,0,0:0:0:0:
256,192,65054,1,8,0:0:0:0:
256,192,65207,1,0,0:0:0:0:
256,192,65284,1,0,0:0:0:0:
256,192,65360,1,0,0:0:0:0:
256,192,65514,1,0,0:0:0:0:
256,192,65667,1,8,0:0:0:0:
256,192,65820,1,0,0:0:0:0:
256,192,65973,1,8,0:0:0:0:
256,192,66279,1,0,0:0:0:0:
256,192,66432,1,8,0:0:0:0:
256,192,66585,1,0,0:0:0:0:
256,192,66661,1,0,0:0:0:0:
256,192,66738,1,0,0:0:0:0:
256,192,66891,1,8,0:0:0:0:
256,192,67044,1,0,0:0:0:0:
256,192,67197,1,8,0:0:0:0:
256,192,67350,1,8,0:0:0:0:
256,192,67427,1,8,0:0:0:0:
256,192,67503,1,0,0:0:0:0:
256,192,67656,1,0,0:0:0:0:
256,192,67809,1,12,0:0:0:0:
256,192,68116,1,8,0:0:0:0:
256,192,68269,1,0,0:0:0:0:
256,192,68345,1,0,0:0:0:0:
256,192,68422,1,0,0:0:0:0:
256,192,68575,1,0,0:0:0:0:
256,192,68728,1,8,0:0:0:0:
256,192,68881,1,0,0:0:0:0:
256,192,69034,1,8,0:0:0:0:
256,192,69340,1,8,0:0:0:0:
256,192,69646,1,0,0:0:0:0:
256,192,69799,1,0,0:0:0:0:
256,192,69952,1,8,0:0:0:0:
256,192,70105,1,0,0:0:0:0:
256,192,70258,1,8,0:0:0:0:
256,192,70565,1,0,0:0:0:0:
256,192,70871,1,8,0:0:0:0:
256,192,71024,1,0,0:0:0:0:
256,192,71177,1,8,0:0:0:0:
256,192,71330,1,8,0:0:0:0:
256,192,71406,1,8,0:0:0:0:
256,192,71483,1,0,0:0:0:0:
256,192,71636,1,0,0:0:0:0:
256,192,71789,1,8,0:0:0:0:
256,192,72095,1,8,0:0:0:0:
256,192,72248,1,0,0:0:0:0:
256,192,72401,1,8,0:0:0:0:
256,192,72707,1,12,0:0:0:0:
256,192,73014,1,8,0:0:0:0:
256,192,73167,1,0,0:0:0:0:
256,192,73243,1,0,0:0:0:0:
256,192,73320,1,0,0:0:0:0:
256,192,73473,1,0,0:0:0:0:
256,192,73626,1,8,0:0:0:0:
256,192,73779,1,8,0:0:0:0:
256,192,73932,1,0,0:0:0:0:
256,192,74238,1,8,0:0:0:0:
256,192,74391,1,8,0:0:0:0:
256,192,74468,1,8,0:0:0:0:
256,192,74544,1,0,0:0:0:0:
256,192,74697,1,0,0:0:0:0:
256,192,74850,1,8,0:0:0:0:
256,192,75156,1,0,0:0:0:0:
256,192,75309,1,0,0:0:0:0:
256,192,75463,1,8,0:0:0:0:
256,192,75616,1,0,0:0:0:0:
256,192,75692,1,0,0:0:0:0:
256,192,75769,1,8,0:0:0:0:
256,192,75922,1,0,0:0:0:0:
256,192,75998,1,0,0:0:0:0:
256,192,76075,1,8,0:0:0:0:
256,192,76151,1,8,0:0:0:0:
256,192,76228,1,0,0:0:0:0:
256,192,76381,1,12,0:0:0:0:
256,192,76687,1,0,0:0:0:0:
256,192,76840,1,12,0:0:0:0:
256,192,77299,1,12,0:0:0:0:
256,192,77605,1,4,0:0:0:0:
256,192,77911,1,8,0:0:0:0:
256,192,78065,1,0,0:0:0:0:
256,192,78141,1,0,0:0:0:0:
256,192,78218,1,0,0:0:0:0:
256,192,78371,1,8,0:0:0:0:
256,192,78524,1,0,0:0:0:0:
256,192,78677,1,8,0:0:0:0:
256,192,78983,1,0,0:0:0:0:
256,192,79136,1,8,0:0:0:0:
256,192,79289,1,8,0:0:0:0:
256,192,79366,1,8,0:0:0:0:
256,192,79442,1,0,0:0:0:0:
256,192,79595,1,0,0:0:0:0:
256,192,79672,1,0,0:0:0:0:
256,192,79748,1,8,0:0:0:0:
256,192,79901,1,8,0:0:0:0:
256,192,80054,1,0,0:0:0:0:
256,192,80360,1,8,0:0:0:0:
256,192,80514,1,0,0:0:0:0:
256,192,80590,1,0,0:0:0:0:
256,192,80667,1,0,0:0:0:0:
256,192,80820,1,8,0:0:0:0:
256,192,80973,1,0,0:0:0:0:
256,192,81126,1,8,0:0:0:0:
256,192,81432,1,0,0:0:0:0:
256,192,81585,1,8,0:0:0:0:
256,192,81738,1,0,0:0:0:0:
256,192,81815,1,0,0:0:0:0:
256,192,81891,1,8,0:0:0:0:
256,192,81968,1,8,0:0:0:0:
256,192,82044,1,0,0:0:0:0:
256,192,82197,1,8,0:0:0:0:
256,192,82350,1,8,0:0:0:0:
256,192,82503,1,0,0:0:0:0:
256,192,82809,1,8,0:0:0:0:
256,192,82963,1,0,0:0:0:0:
256,192,83039,1,0,0:0:0:0:
256,192,83116,1,0,0:0:0:0:
256,192,83269,1,8,0:0:0:0:
256,192,83422,1,0,0:0:0:0:
256,192,83575,1,8,0:0:0:0:
256,192,83881,1,0,0:0:0:0:
256,192,84034,1,8,0:0:0:0:
256,192,84187,1,8,0:0:0:0:
256,192,84264,1,8,0:0:0:0:
256,192,84340,1,0,0:0:0:0:
256,192,84417,1,0,0:0:0:0:
256,192,84493,1,0,0:0:0:0:
256,192,84646,1,8,0:0:0:0:
256,192,84799,1,8,0:0:0:0:
256,192,84952,1,4,0:0:0:0:
256,192,85258,1,8,0:0:0:0:
256,192,85411,1,0,0:0:0:0:
256,192,85565,1,8,0:0:0:0:
256,192,85641,1,8,0:0:0:0:
256,192,85718,1,0,0:0:0:0:
256,192,85871,1,8,0:0:0:0:
256,192,86024,1,0,0:0:0:0:
256,192,86100,1,0,0:0:0:0:
256,192,86177,1,8,0:0:0:0:
256,192,86253,1,8,0:0:0:0:
256,192,86330,1,0,0:0:0:0:
256,192,86483,1,8,0:0:0:0:
256,192,86636,1,0,0:0:0:0:
256,192,86713,1,0,0:0:0:0:
256,192,86789,1,8,0:0:0:0:
256,192,86942,1,8,0:0:0:0:
256,192,87019,1,0,0:0:0:0:
256,192,87095,1,8,0:0:0:0:
256,192,87172,1,8,0:0:0:0:
256,192,87248,1,0,0:0:0:0:
256,192,87401,1,12,0:0:0:0:
256,192,87707,1,0,0:0:0:0:
256,192,87860,1,8,0:0:0:0:
256,192,88014,1,0,0:0:0:0:
256,192,88090,1,0,0:0:0:0:
256,192,88167,1,0,0:0:0:0:
256,192,88320,1,8,0:0:0:0:
256,192,88473,1,0,0:0:0:0:
256,192,88549,1,0,0:0:0:0:
256,192,88626,1,8,0:0:0:0:
256,192,88779,1,0,0:0:0:0:
256,192,88932,1,8,0:0:0:0:
256,192,89085,1,8,0:0:0:0:
256,192,89238,1,0,0:0:0:0:
256,192,89315,1,0,0:0:0:0:
256,192,89391,1,0,0:0:0:0:
256,192,89468,1,0,0:0:0:0:
256,192,89544,1,8,0:0:0:0:
256,192,89697,1,0,0:0:0:0:
256,192,89850,1,8,0:0:0:0:
256,192,90156,1,8,0:0:0:0:
256,192,90309,1,0,0:0:0:0:
256,192,90463,1,8,0:0:0:0:
256,192,90539,1,8,0:0:0:0:
256,192,90616,1,0,0:0:0:0:
256,192,90769,1,8,0:0:0:0:
256,192,90922,1,0,0:0:0:0:
256,192,90998,1,0,0:0:0:0:
256,192,91075,1,0,0:0:0:0:
256,192,91228,1,0,0:0:0:0:
256,192,91381,1,8,0:0:0:0:
256,192,91534,1,0,0:0:0:0:
256,192,91687,1,8,0:0:0:0:
256,192,91764,1,8,0:0:0:0:
256,192,91840,1,0,0:0:0:0:
256,192,91917,1,0,0:0:0:0:
256,192,91993,1,8,0:0:0:0:
256,192,92146,1,0,0:0:0:0:
256,192,92299,1,12,0:0:0:0:
256,192,92605,1,0,0:0:0:0:
256,192,92758,1,8,0:0:0:0:
256,192,92835,1,8,0:0:0:0:
256,192,92911,1,0,0:0:0:0:
256,192,93065,1,0,0:0:0:0:
256,192,93218,1,8,0:0:0:0:
256,192,93371,1,0,0:0:0:0:
256,192,93447,1,0,0:0:0:0:
256,192,93524,1,0,0:0:0:0:
256,192,93677,1,0,0:0:0:0:
256,192,93830,1,8,0:0:0:0:
256,192,93983,1,0,0:0:0:0:
256,192,94136,1,8,0:0:0:0:
256,192,94289,1,0,0:0:0:0:
256,192,94366,1,0,0:0:0:0:
256,192,94442,1,8,0:0:0:0:
256,192,94595,1,8,0:0:0:0:
256,192,94748,1,4,0:0:0:0:
256,192,95054,1,8,0:0:0:0:
256,192,95207,1,0,0:0:0:0:
256,192,95284,1,0,0:0:0:0:
256,192,95360,1,0,0:0:0:0:
256,192,95514,1,8,0:0:0:0:
256,192,95590,1,8,0:0:0:0:
256,192,95667,1,8,0:0:0:0:
256,192,95820,1,4,0:0:0:0:
256,192,96126,1,12,0:0:0:0:
256,192,96432,1,4,0:0:0:0:
256,192,96585,1,12,0:0:0:0:
256,192,96891,1,12,0:0:0:0:
256,192,97197,1,4,0:0:0:0:
256,192,97503,1,8,0:0:0:0:
256,192,97656,1,0,0:0:0:0:
256,192,97733,1,0,0:0:0:0:
256,192,97809,1,0,0:0:0:0:
256,192,97963,1,8,0:0:0:0:
256,192,98116,1,0,0:0:0:0:
256,192,98269,1,8,0:0:0:0:
256,192,98575,1,0,0:0:0:0:
256,192,98728,1,8,0:0:0:0:
256,192,98881,1,8,0:0:0:0:
256,192,98957,1,8,0:0:0:0:
256,192,99034,1,0,0:0:0:0:
256,192,99187,1,0,0:0:0:0:
256,192,99264,1,0,0:0:0:0:
256,192,99340,1,8,0:0:0:0:
256,192,99493,1,8,0:0:0:0:
256,192,99646,1,0,0:0:0:0:
256,192,99952,1,8,0:0:0:0:
256,192,100105,1,0,0:0:0:0:
256,192,100182,1,0,0:0:0:0:
256,192,100258,1,0,0:0:0:0:
256,192,100411,1,8,0:0:0:0:
256,192,100565,1,0,0:0:0:0:
256,192,100718,1,8,0:0:0:0:
256,192,101024,1,0,0:0:0:0:
256,192,101177,1,8,0:0:0:0:
256,192,101330,1,0,0:0:0:0:
256,192,101406,1,0,0:0:0:0:
256,192,101483,1,8,0:0:0:0:
256,192,101559,1,8,0:0:0:0:
256,192,101636,1,0,0:0:0:0:
256,192,101789,1,8,0:0:0:0:
256,192,101942,1,8,0:0:0:0:
256,192,102095,1,0,0:0:0:0:
256,192,102401,1,8,0:0:0:0:
256,192,102554,1,0,0:0:0:0:
256,192,102631,1,0,0:0:0:0:
256,192,102707,1,0,0:0:0:0:
256,192,102860,1,8,0:0:0:0:
256,192,103014,1,0,0:0:0:0:
256,192,103167,1,8,0:0:0:0:
256,192,103243,1,8,0:0:0:0:
256,192,103320,1,8,0:0:0:0:
256,192,103473,1,0,0:0:0:0:
256,192,103626,1,8,0:0:0:0:
256,192,103932,1,8,0:0:0:0:
256,192,104085,1,0,0:0:0:0:
256,192,104161,1,0,0:0:0:0:
256,192,104238,1,0,0:0:0:0:
256,192,104315,1,0,0:0:0:0:
256,192,104391,1,8,0:0:0:0:
256,192,104544,1,8,0:0:0:0:
256,192,104697,1,0,0:0:0:0:
256,192,104774,1,0,0:0:0:0:
256,192,104850,1,8,0:0:0:0:
256,192,105003,1,0,0:0:0:0:
256,192,105080,1,0,0:0:0:0:
256,192,105156,1,8,0:0:0:0:
256,192,105233,1,0,0:0:0:0:
256,192,105309,1,8,0:0:0:0:
256,192,105463,1,8,0:0:0:0:
256,192,105616,1,0,0:0:0:0:
256,192,105922,1,0,0:0:0:0:
256,192,106075,1,8,0:0:0:0:
256,192,106228,1,0,0:0:0:0:
256,192,106304,1,0,0:0:0:0:
256,192,106381,1,0,0:0:0:0:
256,192,106534,1,0,0:0:0:0:
256,192,106687,1,8,0:0:0:0:
256,192,106840,1,0,0:0:0:0:
256,192,106993,1,12,0:0:0:0:
256,192,107605,1,8,0:0:0:0:
256,192,107911,1,0,0:0:0:0:
256,192,108065,1,8,0:0:0:0:
256,192,108218,1,0,0:0:0:0:
256,192,108371,1,8,0:0:0:0:
256,192,108524,1,0,0:0:0:0:
256,192,108677,1,0,0:0:0:0:
256,192,108830,1,8,0:0:0:0:
256,192,109136,1,0,0:0:0:0:
256,192,109442,1,8,0:0:0:0:
256,192,109748,1,0,0:0:0:0:
256,192,109901,1,8,0:0:0:0:
256,192,110054,1,0,0:0:0:0:
256,192,110360,1,0,0:0:0:0:
256,192,110514,1,0,0:0:0:0:
256,192,110667,1,8,0:0:0:0:
256,192,110820,1,8,0:0:0:0:
256,192,110973,1,0,0:0:0:0:
256,192,111126,1,0,0:0:0:0:
256,192,111202,1,0,0:0:0:0:
256,192,111279,1,8,0:0:0:0:
256,192,111432,1,8,0:0:0:0:
256,192,111508,1,8,0:0:0:0:
256,192,111585,1,0,0:0:0:0:
256,192,111661,1,0,0:0:0:0:
256,192,111738,1,0,0:0:0:0:
256,192,111891,1,12,0:0:0:0:
256,192,112197,1,8,0:0:0:0:
256,192,112503,1,0,0:0:0:0:
256,192,112656,1,0,0:0:0:0:
256,192,112809,1,8,0:0:0:0:
256,192,113116,1,0,0:0:0:0:
256,192,113269,1,8,0:0:0:0:
256,192,113345,1,0,0:0:0:0:
256,192,113422,1,8,0:0:0:0:
256,192,113575,1,0,0:0:0:0:
256,192,113728,1,8,0:0:0:0:
256,192,113881,1,0,0:0:0:0:
256,192,113957,1,0,0:0:0:0:
256,192,114034,1,8,0:0:0:0:
256,192,114187,1,0,0:0:0:0:
256,192,114340,1,8,0:0:0:0:
256,192,114646,1,8,0:0:0:0:
256,192,114952,1,0,0:0:0:0:
256,192,115105,1,0,0:0:0:0:
256,192,115258,1,8,0:0:0:0:
256,192,115411,1,0,0:0:0:0:
256,192,115565,1,8,0:0:0:0:
256,192,115871,1,8,0:0:0:0:
256,192,116024,1,8,0:0:0:0:
256,192,116100,1,8,0:0:0:0:
256,192,116177,1,0,0:0:0:0:
256,192,116330,1,0,0:0:0:0:
256,192,116483,1,8,0:0:0:0:
256,192,116636,1,0,0:0:0:0:
256,192,116713,1,0,0:0:0:0:
256,192,116789,1,8,0:0:0:0:
256,192,116942,1,0,0:0:0:0:
256,192,117095,1,8,0:0:0:0:
256,192,117248,1,0,0:0:0:0:
256,192,117325,1,0,0:0:0:0:
256,192,117401,1,0,0:0:0:0:
256,192,117554,1,0,0:0:0:0:
256,192,117707,1,8,0:0:0:0:
256,192,118014,1,8,0:0:0:0:
256,192,118167,1,0,0:0:0:0:
256,192,118320,1,8,0:0:0:0:
256,192,118473,1,8,0:0:0:0:
256,192,118549,1,8,0:0:0:0:
256,192,118626,1,0,0:0:0:0:
256,192,118779,1,0,0:0:0:0:
256,192,118932,1,8,0:0:0:0:
256,192,119238,1,12,0:0:0:0:
256,192,119391,1,0,0:0:0:0:
256,192,119468,1,8,0:0:0:0:
256,192,119544,1,0,0:0:0:0:
256,192,119697,1,8,0:0:0:0:
256,192,119774,1,8,0:0:0:0:
256,192,119850,1,0,0:0:0:0:
256,192,120003,1,0,0:0:0:0:
256,192,120156,1,8,0:0:0:0:
256,192,120309,1,0,0:0:0:0:
256,192,120386,1,0,0:0:0:0:
256,192,120463,1,8,0:0:0:0:
256,192,120616,1,8,0:0:0:0:
256,192,120769,1,0,0:0:0:0:
256,192,120922,1,8,0:0:0:0:
256,192,120998,1,8,0:0:0:0:
256,192,121075,1,0,0:0:0:0:
256,192,121151,1,0,0:0:0:0:
256,192,121228,1,8,0:0:0:0:
256,192,121304,1,0,0:0:0:0:
256,192,121381,1,8,0:0:0:0:
256,192,121534,1,0,0:0:0:0:
256,192,121687,1,12,0:0:0:0:
256,192,121993,1,4,0:0:0:0:
256,192,122146,1,4,0:0:0:0:
256,192,122452,1,4,0:0:0:0:
256,192,122758,1,12,0:0:0:0:
256,192,123065,1,0,0:0:0:0:
256,192,123218,1,8,0:0:0:0:
256,192,123524,1,8,0:0:0:0:
256,192,123677,1,0,0:0:0:0:
256,192,123830,1,8,0:0:0:0:
256,192,123983,1,8,0:0:0:0:
256,192,124136,1,4,0:0:0:0:
256,192,124442,1,12,0:0:0:0:
256,192,124595,1,12,0:0:0:0:
256,192,124901,1,4,0:0:0:0:
256,192,125207,1,12,0:0:0:0:
256,192,125514,1,0,0:0:0:0:
256,192,125667,1,8,0:0:0:0:
256,192,125820,1,0,0:0:0:0:
256,192,125896,1,0,0:0:0:0:
256,192,125973,1,8,0:0:0:0:
256,192,126126,1,0,0:0:0:0:
256,192,126279,1,12,0:0:0:0:
256,192,126585,1,4,0:0:0:0:
256,192,126891,1,8,0:0:0:0:
256,192,127044,1,0,0:0:0:0:
256,192,127121,1,0,0:0:0:0:
256,192,127197,1,0,0:0:0:0:
256,192,127350,1,8,0:0:0:0:
256,192,127503,1,0,0:0:0:0:
256,192,127656,1,8,0:0:0:0:
256,192,127963,1,0,0:0:0:0:
256,192,128116,1,8,0:0:0:0:
256,192,128269,1,8,0:0:0:0:
256,192,128345,1,8,0:0:0:0:
256,192,128422,1,0,0:0:0:0:
256,192,128575,1,0,0:0:0:0:
256,192,128728,1,8,0:0:0:0:
256,192,128881,1,8,0:0:0:0:
256,192,129034,1,0,0:0:0:0:
256,192,129340,1,8,0:0:0:0:
256,192,129493,1,0,0:0:0:0:
256,192,129570,1,0,0:0:0:0:
256,192,129646,1,0,0:0:0:0:
256,192,129799,1,8,0:0:0:0:
256,192,129952,1,0,0:0:0:0:
256,192,130105,1,8,0:0:0:0:
256,192,130411,1,0,0:0:0:0:
256,192,130565,1,8,0:0:0:0:
256,192,130718,1,0,0:0:0:0:
256,192,130794,1,0,0:0:0:0:
256,192,130871,1,8,0:0:0:0:
256,192,131024,1,0,0:0:0:0:
256,192,131177,1,8,0:0:0:0:
256,192,131330,1,0,0:0:0:0:
256,192,131483,1,0,0:0:0:0:
256,192,131789,1,8,0:0:0:0:
256,192,131942,1,0,0:0:0:0:
256,192,132019,1,0,0:0:0:0:
256,192,132095,1,0,0:0:0:0:
256,192,132248,1,8,0:0:0:0:
256,192,132401,1,0,0:0:0:0:
256,192,132554,1,8,0:0:0:0:
256,192,132860,1,0,0:0:0:0:
256,192,133014,1,8,0:0:0:0:
256,192,133167,1,8,0:0:0:0:
256,192,133243,1,8,0:0:0:0:
256,192,133320,1,0,0:0:0:0:
256,192,133473,1,0,0:0:0:0:
256,192,133626,1,8,0:0:0:0:
256,192,133779,1,8,0:0:0:0:
256,192,133932,1,4,0:0:0:0:
256,192,134238,1,8,0:0:0:0:
256,192,134391,1,0,0:0:0:0:
256,192,134544,1,8,0:0:0:0:
256,192,134621,1,8,0:0:0:0:
256,192,134697,1,0,0:0:0:0:
256,192,134850,1,8,0:0:0:0:
256,192,135003,1,0,0:0:0:0:
256,192,135080,1,0,0:0:0:0:
256,192,135156,1,0,0:0:0:0:
256,192,135309,1,0,0:0:0:0:
256,192,135463,1,8,0:0:0:0:
256,192,135616,1,0,0:0:0:0:
256,192,135692,1,0,0:0:0:0:
256,192,135769,1,8,0:0:0:0:
256,192,135922,1,0,0:0:0:0:
256,192,136075,1,0,0:0:0:0:
256,192,136381,1,12,0:0:0:0:
256,192,136687,1,0,0:0:0:0:
256,192,136840,1,8,0:0:0:0:
256,192,136917,1,8,0:0:0:0:
256,192,136993,1,8,0:0:0:0:
256,192,137146,1,0,0:0:0:0:
256,192,137299,1,8,0:0:0:0:
256,192,137452,1,0,0:0:0:0:
256,192,137529,1,0,0:0:0:0:
256,192,137605,1,0,0:0:0:0:
256,192,137758,1,0,0:0:0:0:
256,192,137911,1,8,0:0:0:0:
256,192,138065,1,8,0:0:0:0:
256,192,138141,1,8,0:0:0:0:
256,192,138218,1,0,0:0:0:0:
256,192,138371,1,0,0:0:0:0:
256,192,138524,1,8,0:0:0:0:
256,192,138677,1,0,0:0:0:0:
256,192,138753,1,0,0:0:0:0:
256,192,138830,1,8,0:0:0:0:
256,192,138983,1,0,0:0:0:0:
256,192,139136,1,8,0:0:0:0:
256,192,139289,1,0,0:0:0:0:
256,192,139442,1,8,0:0:0:0:
256,192,139519,1,8,0:0:0:0:
256,192,139595,1,0,0:0:0:0:
256,192,139672,1,0,0:0:0:0:
256,192,139748,1,8,0:0:0:0:
256,192,139901,1,0,0:0:0:0:
256,192,140207,1,0,0:0:0:0:
256,192,140360,1,8,0:0:0:0:
256,192,140514,1,0,0:0:0:0:
256,192,140590,1,0,0:0:0:0:
256,192,140667,1,0,0:0:0:0:
256,192,140820,1,8,0:0:0:0:
256,192,140973,1,8,0:0:0:0:
256,192,141126,1,0,0:0:0:0:
256,192,141202,1,0,0:0:0:0:
256,192,141279,1,8,0:0:0:0:
256,192,141432,1,8,0:0:0:0:
256,192,141585,1,0,0:0:0:0:
256,192,141738,1,8,0:0:0:0:
256,192,142044,1,0,0:0:0:0:
256,192,142197,1,8,0:0:0:0:
256,192,142350,1,8,0:0:0:0:
256,192,142427,1,8,0:0:0:0:
256,192,142503,1,0,0:0:0:0:
256,192,142656,1,0,0:0:0:0:
256,192,142809,1,8,0:0:0:0:
256,192,142963,1,0,0:0:0:0:
256,192,143039,1,0,0:0:0:0:
256,192,143116,1,8,0:0:0:0:
256,192,143269,1,0,0:0:0:0:
256,192,143422,1,8,0:0:0:0:
256,192,143575,1,8,0:0:0:0:
256,192,143728,1,4,0:0:0:0:
256,192,144340,1,0,0:0:0:0:
256,192,144493,1,0,0:0:0:0:
256,192,144646,1,8,0:0:0:0:
256,192,144799,1,8,0:0:0:0:
256,192,144952,1,4,0:0:0:0:
256,192,145105,1,4,0:0:0:0:
256,192,145565,1,12,0:0:0:0:
256,192,145718,1,12,0:0:0:0:
256,192,146177,1,4,0:0:0:0:
256,192,147095,1,8,0:0:0:0:
256,192,147248,1,8,0:0:0:0:
256,192,148320,1,0,0:0:0:0:
256,192,148473,1,0,0:0:0:0:
256,192,148626,1,8,0:0:0:0:
256,192,148932,1,8,0:0:0:0:
256,192,149238,1,0,0:0:0:0:
256,192,149544,1,8,0:0:0:0:
256,192,149850,1,0,0:0:0:0:
256,192,150463,1,8,0:0:0:0:
256,192,150769,1,0,0:0:0:0:
256,192,150922,1,8,0:0:0:0:
256,192,151075,1,0,0:0:0:0:
256,192,151687,1,8,0:0:0:0:
256,192,151993,1,0,0:0:0:0:
256,192,152146,1,8,0:0:0:0:
256,192,153524,1,4,0:0:0:0:
256,192,153830,1,8,0:0:0:0:
256,192,153983,1,0,0:0:0:0:
256,192,154136,1,0,0:0:0:0:
256,192,154289,1,8,0:0:0:0:
256,192,154442,1,8,0:0:0:0:
256,192,154595,1,4,0:0:0:0:
256,192,154901,1,8,0:0:0:0:
256,192,155054,1,8,0:0:0:0:
256,192,155207,1,0,0:0:0:0:
256,192,155284,1,0,0:0:0:0:
256,192,155360,1,8,0:0:0:0:
256,192,155514,1,0,0:0:0:0:
256,192,155667,1,8,0:0:0:0:
256,192,155973,1,4,0:0:0:0:
256,192,156279,1,8,0:0:0:0:
256,192,156432,1,0,0:0:0:0:
256,192,156508,1,0,0:0:0:0:
256,192,156585,1,0,0:0:0:0:
256,192,156738,1,0,0:0:0:0:
256,192,156891,1,8,0:0:0:0:
256,192,157044,1,8,0:0:0:0:
256,192,157197,1,0,0:0:0:0:
256,192,157503,1,8,0:0:0:0:
256,192,157809,1,0,0:0:0:0:
256,192,157963,1,0,0:0:0:0:
256,192,158116,1,8,0:0:0:0:
256,192,158269,1,0,0:0:0:0:
256,192,158345,1,0,0:0:0:0:
256,192,158422,1,8,0:0:0:0:
256,192,158575,1,0,0:0:0:0:
256,192,158728,1,8,0:0:0:0:
256,192,159034,1,0,0:0:0:0:
256,192,159187,1,0,0:0:0:0:
256,192,159340,1,8,0:0:0:0:
256,192,159493,1,0,0:0:0:0:
256,192,159570,1,8,0:0:0:0:
256,192,159646,1,0,0:0:0:0:
256,192,159799,1,0,0:0:0:0:
256,192,159952,1,8,0:0:0:0:
256,192,160105,1,0,0:0:0:0:
256,192,160182,1,0,0:0:0:0:
256,192,160258,1,8,0:0:0:0:
256,192,160335,1,8,0:0:0:0:
256,192,160411,1,0,0:0:0:0:
256,192,160565,1,8,0:0:0:0:
256,192,160871,1,4,0:0:0:0:
256,192,161177,1,8,0:0:0:0:
256,192,161330,1,0,0:0:0:0:
256,192,161406,1,0,0:0:0:0:
256,192,161483,1,8,0:0:0:0:
256,192,161636,1,0,0:0:0:0:
256,192,161789,1,8,0:0:0:0:
256,192,161942,1,8,0:0:0:0:
256,192,162095,1,0,0:0:0:0:
256,192,162401,1,8,0:0:0:0:
256,192,162554,1,0,0:0:0:0:
256,192,162631,1,0,0:0:0:0:
256,192,162707,1,0,0:0:0:0:
256,192,162860,1,0,0:0:0:0:
256,192,163014,1,8,0:0:0:0:
256,192,163167,1,0,0:0:0:0:
256,192,163243,1,0,0:0:0:0:
256,192,163320,1,8,0:0:0:0:
256,192,163473,1,8,0:0:0:0:
256,192,163549,1,0,0:0:0:0:
256,192,163626,1,8,0:0:0:0:
256,192,163702,1,8,0:0:0:0:
256,192,163779,1,0,0:0:0:0:
256,192,163932,1,8,0:0:0:0:
256,192,164085,1,8,0:0:0:0:
256,192,164238,1,0,0:0:0:0:
256,192,164391,1,12,0:0:0:0:
256,192,164697,1,0,0:0:0:0:
256,192,164850,1,8,0:0:0:0:
256,192,165003,1,4,0:0:0:0:
256,192,165309,1,0,0:0:0:0:
256,192,165463,1,8,0:0:0:0:
256,192,165769,1,4,0:0:0:0:
256,192,165922,1,0,0:0:0:0:
256,192,166075,1,8,0:0:0:0:
256,192,166228,1,0,0:0:0:0:
256,192,166304,1,0,0:0:0:0:
256,192,166381,1,8,0:0:0:0:
256,192,166534,1,0,0:0:0:0:
256,192,166687,1,8,0:0:0:0:
256,192,166840,1,0,0:0:0:0:
256,192,166917,1,0,0:0:0:0:
256,192,166993,1,8,0:0:0:0:
256,192,167146,1,0,0:0:0:0:
256,192,167452,1,0,0:0:0:0:
256,192,167605,1,8,0:0:0:0:
256,192,167758,1,0,0:0:0:0:
256,192,167911,1,8,0:0:0:0:
256,192,168065,1,0,0:0:0:0:
256,192,168141,1,0,0:0:0:0:
256,192,168218,1,8,0:0:0:0:
256,192,168371,1,8,0:0:0:0:
256,192,168524,1,0,0:0:0:0:
256,192,168677,1,0,0:0:0:0:
256,192,168830,1,8,0:0:0:0:
256,192,168983,1,0,0:0:0:0:
256,192,169289,1,0,0:0:0:0:
256,192,169442,1,8,0:0:0:0:
256,192,169595,1,0,0:0:0:0:
256,192,169748,1,8,0:0:0:0:
256,192,169901,1,8,0:0:0:0:
256,192,169978,1,8,0:0:0:0:
256,192,170054,1,0,0:0:0:0:
256,192,170207,1,0,0:0:0:0:
256,192,170360,1,12,0:0:0:0:
256,192,170667,1,4,0:0:0:0:
256,192,170973,1,8,0:0:0:0:
256,192,171126,1,0,0:0:0:0:
256,192,171202,1,0,0:0:0:0:
256,192,171279,1,0,0:0:0:0:
256,192,171432,1,0,0:0:0:0:
256,192,171585,1,8,0:0:0:0:
256,192,171738,1,0,0:0:0:0:
256,192,171891,1,8,0:0:0:0:
256,192,172197,1,8,0:0:0:0:
256,192,172503,1,0,0:0:0:0:
256,192,172656,1,0,0:0:0:0:
256,192,172809,1,8,0:0:0:0:
256,192,172963,1,8,0:0:0:0:
256,192,173116,1,0,0:0:0:0:
256,192,173422,1,8,0:0:0:0:
256,192,173575,1,0,0:0:0:0:
256,192,173651,1,0,0:0:0:0:
256,192,173728,1,8,0:0:0:0:
256,192,173881,1,0,0:0:0:0:
256,192,174034,1,8,0:0:0:0:
256,192,174187,1,8,0:0:0:0:
256,192,174340,1,4,0:0:0:0:
256,192,174646,1,0,0:0:0:0:
256,192,174799,1,12,0:0:0:0:
256,192,175105,1,0,0:0:0:0:
256,192,175258,1,8,0:0:0:0:
256,192,175411,1,8,0:0:0:0:
256,192,175565,1,4,0:0:0:0:
256,192,175871,1,0,0:0:0:0:
256,192,176024,1,0,0:0:0:0:
256,192,176177,1,8,0:0:0:0:
256,192,176330,1,0,0:0:0:0:
256,192,176406,1,0,0:0:0:0:
256,192,176483,1,8,0:0:0:0:
256,192,176636,1,0,0:0:0:0:
256,192,176713,1,0,0:0:0:0:
256,192,176789,1,8,0:0:0:0:
256,192,176866,1,8,0:0:0:0:
256,192,176942,1,0,0:0:0:0:
256,192,177095,1,8,0:0:0:0:
256,192,177248,1,8,0:0:0:0:
256,192,177325,1,8,0:0:0:0:
256,192,177401,1,0,0:0:0:0:
256,192,177554,1,0,0:0:0:0:
256,192,177707,1,8,0:0:0:0:
256,192,177860,1,0,0:0:0:0:
256,192,177937,1,0,0:0:0:0:
256,192,178014,1,0,0:0:0:0:
256,192,178167,1,0,0:0:0:0:
256,192,178320,1,8,0:0:0:0:
256,192,178473,1,0,0:0:0:0:
256,192,178626,1,8,0:0:0:0:
256,192,178932,1,0,0:0:0:0:
256,192,179085,1,8,0:0:0:0:
256,192,179238,1,8,0:0:0:0:
256,192,179315,1,8,0:0:0:0:
256,192,179391,1,0,0:0:0:0:
256,192,179468,1,0,0:0:0:0:
256,192,179544,1,8,0:0:0:0:
256,192,179697,1,0,0:0:0:0:
256,192,179850,1,8,0:0:0:0:
256,192,180003,1,8,0:0:0:0:
256,192,180080,1,8,0:0:0:0:
256,192,180156,1,0,0:0:0:0:
256,192,180309,1,0,0:0:0:0:
256,192,180463,1,12,0:0:0:0:
256,192,180769,1,8,0:0:0:0:
256,192,180922,1,0,0:0:0:0:
256,192,180998,1,0,0:0:0:0:
256,192,181075,1,0,0:0:0:0:
256,192,181228,1,0,0:0:0:0:
256,192,181381,1,8,0:0:0:0:
256,192,181534,1,0,0:0:0:0:
256,192,181687,1,8,0:0:0:0:
256,192,181993,1,8,0:0:0:0:
256,192,182299,1,0,0:0:0:0:
256,192,182452,1,0,0:0:0:0:
256,192,182605,1,8,0:0:0:0:
256,192,182758,1,0,0:0:0:0:
256,192,182911,1,8,0:0:0:0:
256,192,183218,1,0,0:0:0:0:
256,192,183524,1,8,0:0:0:0:
256,192,183677,1,0,0:0:0:0:
256,192,183830,1,8,0:0:0:0:
256,192,183983,1,8,0:0:0:0:
256,192,184059,1,8,0:0:0:0:
256,192,184136,1,0,0:0:0:0:
256,192,184289,1,0,0:0:0:0:
256,192,184442,1,8,0:0:0:0:
256,192,184595,1,8,0:0:0:0:
256,192,184748,1,0,0:0:0:0:
256,192,184901,1,0,0:0:0:0:
256,192,184978,1,0,0:0:0:0:
256,192,185054,1,8,0:0:0:0:
256,192,185360,1,12,0:0:0:0:
256,192,185667,1,8,0:0:0:0:
256,192,185820,1,0,0:0:0:0:
256,192,185896,1,0,0:0:0:0:
256,192,185973,1,0,0:0:0:0:
256,192,186126,1,0,0:0:0:0:
256,192,186279,1,8,0:0:0:0:
256,192,186432,1,8,0:0:0:0:
256,192,186585,1,0,0:0:0:0:
256,192,186891,1,8,0:0:0:0:
256,192,187044,1,0,0:0:0:0:
256,192,187121,1,0,0:0:0:0:
256,192,187197,1,8,0:0:0:0:
256,192,187350,1,0,0:0:0:0:
256,192,187503,1,8,0:0:0:0:
256,192,187656,1,0,0:0:0:0:
256,192,187809,1,8,0:0:0:0:
256,192,188116,1,8,0:0:0:0:
256,192,188269,1,0,0:0:0:0:
256,192,188345,1,0,0:0:0:0:
256,192,188422,1,8,0:0:0:0:
256,192,188575,1,0,0:0:0:0:
256,192,188728,1,8,0:0:0:0:
256,192,188881,1,8,0:0:0:0:
256,192,188957,1,0,0:0:0:0:
256,192,189034,1,8,0:0:0:0:
256,192,189110,1,8,0:0:0:0:
256,192,189187,1,0,0:0:0:0:
256,192,189340,1,8,0:0:0:0:
256,192,189493,1,8,0:0:0:0:
256,192,189570,1,8,0:0:0:0:
256,192,189646,1,0,0:0:0:0:
256,192,189799,1,0,0:0:0:0:
256,192,189952,1,8,0:0:0:0:
256,192,190258,1,8,0:0:0:0:
256,192,190411,1,0,0:0:0:0:
256,192,190488,1,0,0:0:0:0:
256,192,190565,1,8,0:0:0:0:
256,192,190718,1,0,0:0:0:0:
256,192,190794,1,0,0:0:0:0:
256,192,190871,1,8,0:0:0:0:
256,192,190947,1,0,0:0:0:0:
256,192,191024,1,8,0:0:0:0:
256,192,191100,1,8,0:0:0:0:
256,192,191177,1,0,0:0:0:0:
256,192,191330,1,8,0:0:0:0:
256,192,191483,1,0,0:0:0:0:
256,192,191559,1,0,0:0:0:0:
256,192,191636,1,8,0:0:0:0:
256,192,191789,1,0,0:0:0:0:
256,192,191942,1,8,0:0:0:0:
256,192,192019,1,8,0:0:0:0:
256,192,192095,1,0,0:0:0:0:
256,192,192172,1,0,0:0:0:0:
256,192,192248,1,0,0:0:0:0:
256,192,192401,1,8,0:0:0:0:
256,192,192554,1,0,0:0:0:0:
256,192,192707,1,12,0:0:0:0:
256,192,192860,1,0,0:0:0:0:
256,192,192937,1,0,0:0:0:0:
256,192,193014,1,0,0:0:0:0:
256,192,193090,1,0,0:0:0:0:
256,192,193167,1,8,0:0:0:0:
256,192,193320,1,0,0:0:0:0:
256,192,193396,1,0,0:0:0:0:
256,192,193473,1,0,0:0:0:0:
256,192,193549,1,0,0:0:0:0:
256,192,193626,1,8,0:0:0:0:
256,192,193702,1,8,0:0:0:0:
256,192,193779,1,0,0:0:0:0:
256,192,193932,1,12,0:0:0:0:
256,192,194085,1,12,0:0:0:0:
256,192,194238,1,12,0:0:0:0:
256,192,194391,1,12,0:0:0:0:
256,192,194850,1,12,0:0:0:0:
256,192,195156,1,4,0:0:0:0:
256,192,195463,1,8,0:0:0:0:
256,192,195616,1,0,0:0:0:0:
256,192,195692,1,0,0:0:0:0:
256,192,195769,1,0,0:0:0:0:
256,192,195922,1,8,0:0:0:0:
256,192,196075,1,0,0:0:0:0:
256,192,196228,1,8,0:0:0:0:
256,192,196534,1,0,0:0:0:0:
256,192,196687,1,8,0:0:0:0:
256,192,196840,1,8,0:0:0:0:
256,192,196917,1,8,0:0:0:0:
256,192,196993,1,0,0:0:0:0:
256,192,197070,1,8,0:0:0:0:
256,192,197146,1,0,0:0:0:0:
256,192,197223,1,0,0:0:0:0:
256,192,197299,1,8,0:0:0:0:
256,192,197452,1,8,0:0:0:0:
256,192,197605,1,0,0:0:0:0:
256,192,197911,1,8,0:0:0:0:
256,192,198065,1,0,0:0:0:0:
256,192,198141,1,0,0:0:0:0:
256,192,198218,1,0,0:0:0:0:
256,192,198371,1,8,0:0:0:0:
256,192,198524,1,0,0:0:0:0:
256,192,198677,1,8,0:0:0:0:
256,192,198983,1,0,0:0:0:0:
256,192,199136,1,8,0:0:0:0:
256,192,199289,1,0,0:0:0:0:
256,192,199366,1,0,0:0:0:0:
256,192,199442,1,8,0:0:0:0:
256,192,199519,1,8,0:0:0:0:
256,192,199595,1,0,0:0:0:0:
256,192,199672,1,0,0:0:0:0:
256,192,199748,1,8,0:0:0:0:
256,192,199901,1,8,0:0:0:0:
256,192,200054,1,0,0:0:0:0:
256,192,200360,1,8,0:0:0:0:
256,192,200514,1,0,0:0:0:0:
256,192,200590,1,0,0:0:0:0:
256,192,200667,1,0,0:0:0:0:
256,192,200820,1,8,0:0:0:0:
256,192,200973,1,0,0:0:0:0:
256,192,201126,1,8,0:0:0:0:
256,192,201432,1,0,0:0:0:0:
256,192,201585,1,8,0:0:0:0:
256,192,201738,1,8,0:0:0:0:
256,192,201815,1,8,0:0:0:0:
256,192,201891,1,0,0:0:0:0:
256,192,201968,1,0,0:0:0:0:
256,192,202044,1,0,0:0:0:0:
256,192,202197,1,8,0:0:0:0:
256,192,202350,1,8,0:0:0:0:
256,192,202503,1,4,0:0:0:0:
256,192,202809,1,8,0:0:0:0:
256,192,202963,1,0,0:0:0:0:
256,192,203116,1,8,0:0:0:0:
256,192,203192,1,8,0:0:0:0:
256,192,203269,1,0,0:0:0:0:
256,192,203422,1,8,0:0:0:0:
256,192,203575,1,0,0:0:0:0:
256,192,203651,1,0,0:0:0:0:
256,192,203728,1,8,0:0:0:0:
256,192,203804,1,8,0:0:0:0:
256,192,203881,1,0,0:0:0:0:
256,192,204034,1,8,0:0:0:0:
256,192,204187,1,0,0:0:0:0:
256,192,204264,1,0,0:0:0:0:
256,192,204340,1,8,0:0:0:0:
256,192,204493,1,8,0:0:0:0:
256,192,204570,1,0,0:0:0:0:
256,192,204646,1,8,0:0:0:0:
256,192,204723,1,8,0:0:0:0:
256,192,204799,1,0,0:0:0:0:
256,192,204952,1,12,0:0:0:0:
256,192,205258,1,0,0:0:0:0:
256,192,205411,1,8,0:0:0:0:
256,192,205565,1,0,0:0:0:0:
256,192,205641,1,0,0:0:0:0:
256,192,205718,1,0,0:0:0:0:
256,192,205871,1,8,0:0:0:0:
256,192,206024,1,0,0:0:0:0:
256,192,206100,1,0,0:0:0:0:
256,192,206177,1,8,0:0:0:0:
256,192,206330,1,0,0:0:0:0:
256,192,206483,1,8,0:0:0:0:
256,192,206636,1,8,0:0:0:0:
256,192,206789,1,0,0:0:0:0:
256,192,206866,1,0,0:0:0:0:
256,192,206942,1,0,0:0:0:0:
256,192,207019,1,0,0:0:0:0:
256,192,207095,1,8,0:0:0:0:
256,192,207248,1,0,0:0:0:0:
256,192,207401,1,8,0:0:0:0:
256,192,207707,1,8,0:0:0:0:
256,192,207860,1,0,0:0:0:0:
256,192,208014,1,8,0:0:0:0:
256,192,208090,1,8,0:0:0:0:
256,192,208167,1,0,0:0:0:0:
256,192,208320,1,8,0:0:0:0:
256,192,208473,1,0,0:0:0:0:
256,192,208549,1,0,0:0:0:0:
256,192,208626,1,0,0:0:0:0:
256,192,208779,1,0,0:0:0:0:
256,192,208932,1,8,0:0:0:0:
256,192,209085,1,0,0:0:0:0:
256,192,209238,1,8,0:0:0:0:
256,192,209315,1,8,0:0:0:0:
256,192,209391,1,0,0:0:0:0:
256,192,209468,1,0,0:0:0:0:
256,192,209544,1,8,0:0:0:0:
256,192,209697,1,0,0:0:0:0:
256,192,209850,1,12,0:0:0:0:
256,192,210156,1,0,0:0:0:0:
256,192,210309,1,8,0:0:0:0:
256,192,210386,1,8,0:0:0:0:
256,192,210463,1,0,0:0:0:0:
256,192,210616,1,0,0:0:0:0:
256,192,210769,1,8,0:0:0:0:
256,192,210922,1,0,0:0:0:0:
256,192,210998,1,0,0:0:0:0:
256,192,211075,1,0,0:0:0:0:
256,192,211228,1,0,0:0:0:0:
256,192,211381,1,8,0:0:0:0:
256,192,211534,1,0,0:0:0:0:
256,192,211610,1,0,0:0:0:0:
256,192,211687,1,8,0:0:0:0:
256,192,211764,1,8,0:0:0:0:
256,192,211840,1,0,0:0:0:0:
256,192,211993,1,8,0:0:0:0:
256,192,212146,1,8,0:0:0:0:
256,192,212299,1,4,0:0:0:0:
256,192,212605,1,8,0:0:0:0:
256,192,212758,1,0,0:0:0:0:
256,192,212835,1,0,0:0:0:0:
256,192,212911,1,0,0:0:0:0:
256,192,213065,1,8,0:0:0:0:
256,192,213141,1,8,0:0:0:0:
256,192,213218,1,8,0:0:0:0:
256,192,213371,1,4,0:0:0:0:
256,192,213677,1,12,0:0:0:0:
256,192,213983,1,4,0:0:0:0:
256,192,214136,1,12,0:0:0:0:
256,192,214442,1,12,0:0:0:0:
256,192,214748,1,4,0:0:0:0:
256,192,215054,1,8,0:0:0:0:
256,192,215207,1,0,0:0:0:0:
256,192,215284,1,0,0:0:0:0:
256,192,215360,1,0,0:0:0:0:
256,192,215514,1,8,0:0:0:0:
256,192,215667,1,0,0:0:0:0:
256,192,215820,1,8,0:0:0:0:
256,192,216126,1,0,0:0:0:0:
256,192,216279,1,8,0:0:0:0:
256,192,216432,1,8,0:0:0:0:
256,192,216508,1,8,0:0:0:0:
256,192,216585,1,0,0:0:0:0:
256,192,216661,1,8,0:0:0:0:
256,192,216738,1,0,0:0:0:0:
256,192,216815,1,0,0:0:0:0:
256,192,216891,1,8,0:0:0:0:
256,192,217044,1,8,0:0:0:0:
256,192,217197,1,0,0:0:0:0:
256,192,217503,1,8,0:0:0:0:
256,192,217656,1,0,0:0:0:0:
256,192,217733,1,0,0:0:0:0:
256,192,217809,1,0,0:0:0:0:
256,192,217963,1,8,0:0:0:0:
256,192,218116,1,0,0:0:0:0:
256,192,218269,1,8,0:0:0:0:
256,192,218575,1,0,0:0:0:0:
256,192,218728,1,8,0:0:0:0:
256,192,218881,1,0,0:0:0:0:
256,192,218957,1,0,0:0:0:0:
256,192,219034,1,8,0:0:0:0:
256,192,219110,1,8,0:0:0:0:
256,192,219187,1,0,0:0:0:0:
256,192,219264,1,0,0:0:0:0:
256,192,219340,1,8,0:0:0:0:
256,192,219493,1,8,0:0:0:0:
256,192,219646,1,0,0:0:0:0:
256,192,219952,1,8,0:0:0:0:
256,192,220105,1,0,0:0:0:0:
256,192,220182,1,0,0:0:0:0:
256,192,220258,1,0,0:0:0:0:
256,192,220411,1,8,0:0:0:0:
256,192,220565,1,0,0:0:0:0:
256,192,220718,1,8,0:0:0:0:
256,192,220794,1,8,0:0:0:0:
256,192,220871,1,8,0:0:0:0:
256,192,220947,1,8,0:0:0:0:
256,192,221024,1,0,0:0:0:0:
256,192,221177,1,8,0:0:0:0:
256,192,221483,1,8,0:0:0:0:
256,192,221636,1,0,0:0:0:0:
256,192,221713,1,0,0:0:0:0:
256,192,221789,1,0,0:0:0:0:
256,192,221866,1,0,0:0:0:0:
256,192,221942,1,8,0:0:0:0:
256,192,222095,1,8,0:0:0:0:
256,192,222248,1,0,0:0:0:0:
256,192,222325,1,0,0:0:0:0:
256,192,222401,1,8,0:0:0:0:
256,192,222554,1,0,0:0:0:0:
256,192,222631,1,0,0:0:0:0:
256,192,222707,1,8,0:0:0:0:
256,192,222784,1,0,0:0:0:0:
256,192,222860,1,8,0:0:0:0:
256,192,223014,1,8,0:0:0:0:
256,192,223167,1,0,0:0:0:0:
256,192,223473,1,0,0:0:0:0:
256,192,223626,1,8,0:0:0:0:
256,192,223779,1,0,0:0:0:0:
256,192,223932,1,8,0:0:0:0:
256,192,224008,1,8,0:0:0:0:
256,192,224085,1,0,0:0:0:0:
256,192,224161,1,0,0:0:0:0:
256,192,224238,1,8,0:0:0:0:
256,192,224391,1,0,0:0:0:0:
256,192,224544,1,12,0:0:0:0:
256,192,225156,1,8,0:0:0:0:
256,192,225463,1,0,0:0:0:0:
256,192,225616,1,8,0:0:0:0:
256,192,225769,1,0,0:0:0:0:
256,192,225922,1,8,0:0:0:0:
256,192,226075,1,0,0:0:0:0:
256,192,226228,1,0,0:0:0:0:
256,192,226381,1,8,0:0:0:0:
256,192,226687,1,0,0:0:0:0:
256,192,226993,1,8,0:0:0:0:
256,192,227299,1,0,0:0:0:0:
256,192,227452,1,8,0:0:0:0:
256,192,227605,1,0,0:0:0:0:
256,192,227911,1,0,0:0:0:0:
256,192,228065,1,0,0:0:0:0:
256,192,228218,1,8,0:0:0:0:
256,192,228371,1,8,0:0:0:0:
256,192,228524,1,0,0:0:0:0:
256,192,228677,1,0,0:0:0:0:
256,192,228753,1,0,0:0:0:0:
256,192,228830,1,8,0:0:0:0:
256,192,228983,1,8,0:0:0:0:
256,192,229059,1,8,0:0:0:0:
256,192,229136,1,0,0:0:0:0:
256,192,229213,1,0,0:0:0:0:
256,192,229289,1,0,0:0:0:0:
256,192,229442,1,12,0:0:0:0:
256,192,229748,1,8,0:0:0:0:
256,192,230054,1,0,0:0:0:0:
256,192,230207,1,0,0:0:0:0:
256,192,230360,1,8,0:0:0:0:
256,192,230667,1,0,0:0:0:0:
256,192,230820,1,8,0:0:0:0:
256,192,230896,1,0,0:0:0:0:
256,192,230973,1,8,0:0:0:0:
256,192,231126,1,0,0:0:0:0:
256,192,231279,1,8,0:0:0:0:
256,192,231432,1,0,0:0:0:0:
256,192,231508,1,0,0:0:0:0:
256,192,231585,1,8,0:0:0:0:
256,192,231738,1,0,0:0:0:0:
256,192,231891,1,8,0:0:0:0:
256,192,232197,1,8,0:0:0:0:
256,192,232503,1,0,0:0:0:0:
256,192,232656,1,0,0:0:0:0:
256,192,232809,1,8,0:0:0:0:
256,192,232963,1,0,0:0:0:0:
256,192,233116,1,8,0:0:0:0:
256,192,233422,1,8,0:0:0:0:
256,192,233575,1,8,0:0:0:0:
256,192,233651,1,8,0:0:0:0:
256,192,233728,1,0,0:0:0:0:
256,192,233881,1,0,0:0:0:0:
256,192,234034,1,8,0:0:0:0:
256,192,234187,1,0,0:0:0:0:
256,192,234264,1,0,0:0:0:0:
256,192,234340,1,8,0:0:0:0:
256,192,234493,1,0,0:0:0:0:
256,192,234646,1,8,0:0:0:0:
256,192,234799,1,0,0:0:0:0:
256,192,234876,1,0,0:0:0:0:
256,192,234952,1,0,0:0:0:0:
256,192,235105,1,0,0:0:0:0:
256,192,235258,1,8,0:0:0:0:
256,192,235565,1,8,0:0:0:0:
256,192,235718,1,0,0:0:0:0:
256,192,235871,1,8,0:0:0:0:
256,192,236024,1,8,0:0:0:0:
256,192,236100,1,8,0:0:0:0:
256,192,236177,1,0,0:0:0:0:
256,192,236330,1,0,0:0:0:0:
256,192,236483,1,8,0:0:0:0:
256,192,236789,1,12,0:0:0:0:
256,192,236942,1,0,0:0:0:0:
256,192,237019,1,8,0:0:0:0:
256,192,237095,1,0,0:0:0:0:
256,192,237248,1,8,0:0:0:0:
256,192,237325,1,8,0:0:0:0:
256,192,237401,1,0,0:0:0:0:
256,192,237554,1,0,0:0:0:0:
256,192,237707,1,8,0:0:0:0:
256,192,237860,1,0,0:0:0:0:
256,192,237937,1,0,0:0:0:0:
256,192,238014,1,8,0:0:0:0:
256,192,238167,1,8,0:0:0:0:
256,192,238320,1,0,0:0:0:0:
256,192,238473,1,8,0:0:0:0:
256,192,238549,1,8,0:0:0:0:
256,192,238626,1,0,0:0:0:0:
256,192,238702,1,0,0:0:0:0:
256,192,238779,1,8,0:0:0:0:
256,192,238855,1,0,0:0:0:0:
256,192,238932,1,8,0:0:0:0:
256,192,239085,1,0,0:0:0:0:
256,192,239238,1,12,0:0:0:0:
256,192,239544,1,4,0:0:0:0:
256,192,239697,1,4,0:0:0:0:
256,192,240003,1,4,0:0:0:0:
256,192,240309,1,12,0:0:0:0:
256,192,240616,1,0,0:0:0:0:
256,192,240769,1,8,0:0:0:0:
256,192,241075,1,8,0:0:0:0:
256,192,241228,1,0,0:0:0:0:
256,192,241381,1,8,0:0:0:0:
256,192,241534,1,8,0:0:0:0:
256,192,241687,1,4,0:0:0:0:
256,192,241993,1,12,0:0:0:0:
256,192,242146,1,12,0:0:0:0:
256,192,242452,1,4,0:0:0:0:
256,192,242758,1,12,0:0:0:0:
256,192,243065,1,0,0:0:0:0:
256,192,243218,1,8,0:0:0:0:
256,192,243371,1,0,0:0:0:0:
256,192,243447,1,0,0:0:0:0:
256,192,243524,1,0,0:0:0:0:
256,192,243677,1,0,0:0:0:0:
256,192,243830,1,8,0:0:0:0:
256,192,243983,1,8,0:0:0:0:
256,192,244136,1,4,0:0:0:0:
256,192,244289,1,8,0:0:0:0:
256,192,244442,1,0,0:0:0:0:
256,192,244595,1,0,0:0:0:0:
256,192,244748,1,8,0:0:0:0:
256,192,244901,1,0,0:0:0:0:
256,192,244978,1,0,0:0:0:0:
256,192,245054,1,0,0:0:0:0:
256,192,245207,1,8,0:0:0:0:
256,192,245514,1,0,0:0:0:0:
256,192,245667,1,8,0:0:0:0:
256,192,245820,1,0,0:0:0:0:
256,192,245896,1,0,0:0:0:0:
256,192,245973,1,8,0:0:0:0:
256,192,246126,1,0,0:0:0:0:
256,192,246279,1,8,0:0:0:0:
256,192,246585,1,0,0:0:0:0:
256,192,246738,1,0,0:0:0:0:
256,192,246891,1,8,0:0:0:0:
256,192,247044,1,0,0:0:0:0:
256,192,247197,1,8,0:0:0:0:
256,192,247274,1,8,0:0:0:0:
256,192,247350,1,0,0:0:0:0:
256,192,247503,1,0,0:0:0:0:
256,192,247656,1,8,0:0:0:0:
256,192,247963,1,0,0:0:0:0:
256,192,248116,1,8,0:0:0:0:
256,192,248269,1,0,0:0:0:0:
256,192,248422,1,8,0:0:0:0:
256,192,248498,1,8,0:0:0:0:
256,192,248575,1,0,0:0:0:0:
256,192,248651,1,0,0:0:0:0:
256,192,248728,1,8,0:0:0:0:
256,192,248881,1,8,0:0:0:0:
256,192,249034,1,0,0:0:0:0:
256,192,249187,1,8,0:0:0:0:
256,192,249340,1,0,0:0:0:0:
256,192,249493,1,0,0:0:0:0:
256,192,249646,1,8,0:0:0:0:
256,192,249799,1,0,0:0:0:0:
256,192,249876,1,0,0:0:0:0:
256,192,249952,1,0,0:0:0:0:
256,192,250105,1,8,0:0:0:0:
256,192,250411,1,8,0:0:0:0:
256,192,250565,1,0,0:0:0:0:
256,192,250718,1,8,0:0:0:0:
256,192,250871,1,8,0:0:0:0:
256,192,251024,1,0,0:0:0:0:
256,192,251100,1,0,0:0:0:0:
256,192,251177,1,0,0:0:0:0:
256,192,251330,1,8,0:0:0:0:
256,192,251483,1,0,0:0:0:0:
256,192,251789,1,0,0:0:0:0:
256,192,251942,1,8,0:0:0:0:
256,192,252248,1,0,0:0:0:0:
256,192,252401,1,8,0:0:0:0:
256,192,252707,1,0,0:0:0:0:
256,192,252860,1,8,0:0:0:0:
256,192,253167,1,0,0:0:0:0:
256,192,253320,1,8,0:0:0:0:
256,192,253626,1,8,0:0:0:0:
256,192,253932,1,4,0:0:0:0:
256,192,254238,1,8,0:0:0:0:
256,192,254544,1,0,0:0:0:0:
256,192,254697,1,0,0:0:0:0:
256,192,254850,1,8,0:0:0:0:
256,192,255003,1,0,0:0:0:0:
256,192,255080,1,0,0:0:0:0:
256,192,255156,1,8,0:0:0:0:
256,192,255233,1,8,0:0:0:0:
256,192,255309,1,0,0:0:0:0:
256,192,255386,1,0,0:0:0:0:
256,192,255463,1,8,0:0:0:0:
256,192,255616,1,0,0:0:0:0:
256,192,255692,1,0,0:0:0:0:
256,192,255769,1,8,0:0:0:0:
256,192,255922,1,0,0:0:0:0:
256,192,256075,1,8,0:0:0:0:
256,192,256151,1,0,0:0:0:0:
256,192,256228,1,8,0:0:0:0:
256,192,256304,1,8,0:0:0:0:
256,192,256381,1,0,0:0:0:0:
256,192,256534,1,0,0:0:0:0:
256,192,256610,1,0,0:0:0:0:
256,192,256687,1,8,0:0:0:0:
256,192,256764,1,0,0:0:0:0:
256,192,256840,1,8,0:0:0:0:
256,192,256917,1,8,0:0:0:0:
256,192,256993,1,0,0:0:0:0:
256,192,257146,1,0,0:0:0:0:
256,192,257223,1,0,0:0:0:0:
256,192,257299,1,8,0:0:0:0:
256,192,257452,1,0,0:0:0:0:
256,192,257758,1,0,0:0:0:0:
256,192,257911,1,8,0:0:0:0:
256,192,258065,1,0,0:0:0:0:
256,192,258141,1,0,0:0:0:0:
256,192,258218,1,0,0:0:0:0:
256,192,258371,1,0,0:0:0:0:
256,192,258524,1,8,0:0:0:0:
256,192,258677,1,0,0:0:0:0:
256,192,258753,1,0,0:0:0:0:
256,192,258830,1,8,0:0:0:0:
256,192,258983,1,0,0:0:0:0:
256,192,259136,1,8,0:0:0:0:
256,192,259289,1,8,0:0:0:0:
256,192,259366,1,8,0:0:0:0:
256,192,259442,1,0,0:0:0:0:
256,192,259595,1,0,0:0:0:0:
256,192,259748,1,8,0:0:0:0:
256,192,259901,1,0,0:0:0:0:
256,192,260054,1,8,0:0:0:0:
256,192,260131,1,8,0:0:0:0:
256,192,260207,1,0,0:0:0:0:
256,192,260284,1,0,0:0:0:0:
256,192,260360,1,8,0:0:0:0:
256,192,260514,1,0,0:0:0:0:
256,192,260590,1,0,0:0:0:0:
256,192,260667,1,8,0:0:0:0:
256,192,260820,1,0,0:0:0:0:
256,192,260973,1,8,0:0:0:0:
256,192,261126,1,0,0:0:0:0:
256,192,261202,1,8,0:0:0:0:
256,192,261279,1,0,0:0:0:0:
256,192,261355,1,0,0:0:0:0:
256,192,261432,1,8,0:0:0:0:
256,192,261508,1,0,0:0:0:0:
256,192,261585,1,8,0:0:0:0:
256,192,261738,1,0,0:0:0:0:
256,192,261815,1,0,0:0:0:0:
256,192,261891,1,8,0:0:0:0:
256,192,261968,1,8,0:0:0:0:
256,192,262044,1,0,0:0:0:0:
256,192,262197,1,8,0:0:0:0:
256,192,262350,1,4,0:0:0:0:
256,192,262656,1,0,0:0:0:0:
256,192,262809,1,8,0:0:0:0:
256,192,262963,1,8,0:0:0:0:
256,192,263039,1,8,0:0:0:0:
256,192,263116,1,0,0:0:0:0:
256,192,263269,1,0,0:0:0:0:
256,192,263422,1,8,0:0:0:0:
256,192,263575,1,8,0:0:0:0:
256,192,263728,1,4,0:0:0:0:
256,192,264034,1,8,0:0:0:0:
256,192,264340,1,0,0:0:0:0:
256,192,264493,1,0,0:0:0:0:
256,192,264646,1,8,0:0:0:0:
256,192,264799,1,0,0:0:0:0:
256,192,265105,1,0,0:0:0:0:
256,192,265258,1,8,0:0:0:0:
256,192,265411,1,0,0:0:0:0:
256,192,265488,1,0,0:0:0:0:
256,192,265565,1,0,0:0:0:0:
256,192,265718,1,0,0:0:0:0:
256,192,265871,1,8,0:0:0:0:
256,192,266024,1,8,0:0:0:0:
256,192,266177,1,0,0:0:0:0:
256,192,266483,1,8,0:0:0:0:
256,192,266636,1,0,0:0:0:0:
256,192,266942,1,0,0:0:0:0:
256,192,267095,1,8,0:0:0:0:
256,192,267248,1,0,0:0:0:0:
256,192,267325,1,0,0:0:0:0:
256,192,267401,1,0,0:0:0:0:
256,192,267554,1,0,0:0:0:0:
256,192,267707,1,8,0:0:0:0:
256,192,267860,1,8,0:0:0:0:
256,192,267937,1,8,0:0:0:0:
256,192,268014,1,0,0:0:0:0:
256,192,268167,1,0,0:0:0:0:
256,192,268320,1,8,0:0:0:0:
256,192,268473,1,8,0:0:0:0:
256,192,268626,1,0,0:0:0:0:
256,192,268702,1,0,0:0:0:0:
256,192,268779,1,0,0:0:0:0:
256,192,268855,1,0,0:0:0:0:
256,192,268932,1,8,0:0:0:0:
256,192,269085,1,0,0:0:0:0:
256,192,269161,1,0,0:0:0:0:
256,192,269238,1,8,0:0:0:0:
256,192,269391,1,0,0:0:0:0:
256,192,269468,1,0,0:0:0:0:
256,192,269544,1,8,0:0:0:0:
256,192,269697,1,0,0:0:0:0:
256,192,269774,1,0,0:0:0:0:
256,192,269850,1,8,0:0:0:0:
256,192,269927,1,8,0:0:0:0:
256,192,270003,1,0,0:0:0:0:
256,192,270080,1,0,0:0:0:0:
256,192,270156,1,8,0:0:0:0:
256,192,270233,1,0,0:0:0:0:
256,192,270309,1,8,0:0:0:0:
256,192,270463,1,0,0:0:0:0:
256,192,270539,1,8,0:0:0:0:
256,192,270616,1,0,0:0:0:0:
256,192,270692,1,0,0:0:0:0:
256,192,270769,1,8,0:0:0:0:
256,192,270845,1,0,0:0:0:0:
256,192,270922,1,8,0:0:0:0:
256,192,270998,1,8,0:0:0:0:
256,192,271075,1,0,0:0:0:0:
256,192,271381,1,8,0:0:0:0:
256,192,271534,1,0,0:0:0:0:
256,192,271610,1,0,0:0:0:0:
256,192,271687,1,0,0:0:0:0:
256,192,271840,1,0,0:0:0:0:
256,192,271993,1,8,0:0:0:0:
256,192,272146,1,8,0:0:0:0:
256,192,272223,1,8,0:0:0:0:
256,192,272299,1,0,0:0:0:0:
256,192,272452,1,8,0:0:0:0:
256,192,272758,1,0,0:0:0:0:
256,192,272911,1,8,0:0:0:0:
256,192,273065,1,0,0:0:0:0:
256,192,273218,1,8,0:0:0:0:
256,192,273371,1,8,0:0:0:0:
256,192,273524,1,4,0:0:0:0:
256,192,273677,12,0,275667,0:0:0:0:
256,192,275973,5,4,0:0:0:0:
256,192,276279,1,8,0:0:0:0:
256,192,276432,1,0,0:0:0:0:
256,192,276738,1,8,0:0:0:0:
256,192,277044,1,8,0:0:0:0:
256,192,277503,1,0,0:0:0:0:
256,192,277809,1,8,0:0:0:0:
256,192,278116,1,8,0:0:0:0:
256,192,278422,1,0,0:0:0:0:
256,192,278728,1,8,0:0:0:0:
256,192,278881,1,0,0:0:0:0:
256,192,279187,1,8,0:0:0:0:
256,192,279493,1,8,0:0:0:0:
256,192,279952,1,0,0:0:0:0:
256,192,280258,1,8,0:0:0:0:
256,192,280565,1,8,0:0:0:0:
256,192,280871,1,0,0:0:0:0:
256,192,281177,1,8,0:0:0:0:
256,192,281330,1,0,0:0:0:0:
256,192,281636,1,0,0:0:0:0:
256,192,281942,1,8,0:0:0:0:
256,192,283320,1,4,0:0:0:0:
256,192,283626,1,0,0:0:0:0:
256,192,283779,1,0,0:0:0:0:
256,192,284085,1,8,0:0:0:0:
256,192,284238,1,8,0:0:0:0:
256,192,284391,1,0,0:0:0:0:
256,192,284544,1,8,0:0:0:0:
256,192,284697,1,0,0:0:0:0:
256,192,284774,1,0,0:0:0:0:
256,192,284850,1,0,0:0:0:0:
256,192,285003,1,0,0:0:0:0:
256,192,285080,1,0,0:0:0:0:
256,192,285156,1,8,0:0:0:0:
256,192,285309,1,0,0:0:0:0:
256,192,285386,1,0,0:0:0:0:
256,192,285463,1,0,0:0:0:0:
256,192,285539,1,0,0:0:0:0:
256,192,285616,1,8,0:0:0:0:
256,192,285769,1,0,0:0:0:0:
256,192,285922,1,8,0:0:0:0:
256,192,286075,1,8,0:0:0:0:
256,192,286228,1,8,0:0:0:0:
256,192,286534,1,12,0:0:0:0:
256,192,286993,1,4,0:0:0:0:
256,192,287299,1,8,0:0:0:0:
256,192,287452,1,0,0:0:0:0:
256,192,287529,1,0,0:0:0:0:
256,192,287605,1,0,0:0:0:0:
256,192,287758,1,8,0:0:0:0:
256,192,287911,1,0,0:0:0:0:
256,192,287988,1,0,0:0:0:0:
256,192,288065,1,8,0:0:0:0:
256,192,288141,1,8,0:0:0:0:
256,192,288218,1,0,0:0:0:0:
256,192,288371,1,0,0:0:0:0:
256,192,288524,1,8,0:0:0:0:
256,192,288677,1,8,0:0:0:0:
256,192,288753,1,8,0:0:0:0:
256,192,288830,1,0,0:0:0:0:
256,192,288906,1,8,0:0:0:0:
256,192,288983,1,0,0:0:0:0:
256,192,289059,1,0,0:0:0:0:
256,192,289136,1,8,0:0:0:0:
256,192,289289,1,8,0:0:0:0:
256,192,289442,1,0,0:0:0:0:
256,192,289748,1,8,0:0:0:0:
256,192,289901,1,0,0:0:0:0:
256,192,289978,1,0,0:0:0:0:
256,192,290054,1,0,0:0:0:0:
256,192,290207,1,8,0:0:0:0:
256,192,290284,1,8,0:0:0:0:
256,192,290360,1,0,0:0:0:0:
256,192,290437,1,0,0:0:0:0:
256,192,290514,1,8,0:0:0:0:
256,192,290667,1,0,0:0:0:0:
256,192,290820,1,0,0:0:0:0:
256,192,290896,1,0,0:0:0:0:
256,192,290973,1,8,0:0:0:0:
256,192,291126,1,0,0:0:0:0:
256,192,291202,1,0,0:0:0:0:
256,192,291279,1,8,0:0:0:0:
256,192,291355,1,8,0:0:0:0:
256,192,291432,1,0,0:0:0:0:
256,192,291508,1,0,0:0:0:0:
256,192,291585,1,8,0:0:0:0:
256,192,291738,1,8,0:0:0:0:
256,192,291891,1,0,0:0:0:0:
256,192,292197,1,8,0:0:0:0:
256,192,292350,1,0,0:0:0:0:
256,192,292427,1,0,0:0:0:0:
256,192,292503,1,0,0:0:0:0:
256,192,292656,1,8,0:0:0:0:
256,192,292809,1,0,0:0:0:0:
256,192,292886,1,0,0:0:0:0:
256,192,292963,1,8,0:0:0:0:
256,192,293039,1,8,0:0:0:0:
256,192,293116,1,0,0:0:0:0:
256,192,293269,1,0,0:0:0:0:
256,192,293422,1,8,0:0:0:0:
256,192,293575,1,8,0:0:0:0:
256,192,293651,1,8,0:0:0:0:
256,192,293728,1,0,0:0:0:0:
256,192,293804,1,0,0:0:0:0:
256,192,293881,1,8,0:0:0:0:
256,192,293957,1,0,0:0:0:0:
256,192,294034,1,8,0:0:0:0:
256,192,294187,1,8,0:0:0:0:
256,192,294340,1,4,0:0:0:0:
256,192,294646,1,8,0:0:0:0:
256,192,294799,1,0,0:0:0:0:
256,192,294952,1,8,0:0:0:0:
256,192,295029,1,8,0:0:0:0:
256,192,295105,1,0,0:0:0:0:
256,192,295258,1,8,0:0:0:0:
256,192,295411,1,0,0:0:0:0:
256,192,295488,1,0,0:0:0:0:
256,192,295565,1,8,0:0:0:0:
256,192,295641,1,8,0:0:0:0:
256,192,295718,1,0,0:0:0:0:
256,192,295871,1,8,0:0:0:0:
256,192,296024,1,0,0:0:0:0:
256,192,296100,1,0,0:0:0:0:
256,192,296177,1,8,0:0:0:0:
256,192,296330,1,8,0:0:0:0:
256,192,296406,1,0,0:0:0:0:
256,192,296483,1,8,0:0:0:0:
256,192,296559,1,8,0:0:0:0:
256,192,296636,1,0,0:0:0:0:
256,192,296789,1,12,0:0:0:0:
256,192,297095,1,0,0:0:0:0:
256,192,297248,1,8,0:0:0:0:
256,192,297401,1,0,0:0:0:0:
256,192,297478,1,0,0:0:0:0:
256,192,297554,1,0,0:0:0:0:
256,192,297707,1,8,0:0:0:0:
256,192,297860,1,0,0:0:0:0:
256,192,297937,1,0,0:0:0:0:
256,192,298014,1,8,0:0:0:0:
256,192,298167,1,0,0:0:0:0:
256,192,298320,1,8,0:0:0:0:
256,192,298473,1,8,0:0:0:0:
256,192,298626,1,0,0:0:0:0:
256,192,298702,1,0,0:0:0:0:
256,192,298779,1,0,0:0:0:0:
256,192,298855,1,0,0:0:0:0:
256,192,298932,1,8,0:0:0:0:
256,192,299085,1,0,0:0:0:0:
256,192,299161,1,0,0:0:0:0:
256,192,299238,1,8,0:0:0:0:
256,192,299391,1,0,0:0:0:0:
256,192,299468,1,0,0:0:0:0:
256,192,299544,1,8,0:0:0:0:
256,192,299621,1,8,0:0:0:0:
256,192,299697,1,0,0:0:0:0:
256,192,299850,1,8,0:0:0:0:
256,192,299927,1,8,0:0:0:0:
256,192,300003,1,0,0:0:0:0:
256,192,300080,1,0,0:0:0:0:
256,192,300156,1,8,0:0:0:0:
256,192,300309,1,0,0:0:0:0:
256,192,300386,1,0,0:0:0:0:
256,192,300463,1,0,0:0:0:0:
256,192,300616,1,0,0:0:0:0:
256,192,300769,1,8,0:0:0:0:
256,192,300922,1,0,0:0:0:0:
256,192,301075,1,8,0:0:0:0:
256,192,301151,1,8,0:0:0:0:
256,192,301228,1,0,0:0:0:0:
256,192,301304,1,0,0:0:0:0:
256,192,301381,1,8,0:0:0:0:
256,192,301457,1,8,0:0:0:0:
256,192,301534,1,0,0:0:0:0:
256,192,301687,1,12,0:0:0:0:
256,192,301993,1,0,0:0:0:0:
256,192,302146,1,8,0:0:0:0:
256,192,302223,1,8,0:0:0:0:
256,192,302299,1,0,0:0:0:0:
256,192,302452,1,0,0:0:0:0:
256,192,302605,1,8,0:0:0:0:
256,192,302758,1,0,0:0:0:0:
256,192,302835,1,0,0:0:0:0:
256,192,302911,1,0,0:0:0:0:
256,192,303065,1,0,0:0:0:0:
256,192,303218,1,8,0:0:0:0:
256,192,303371,1,0,0:0:0:0:
256,192,303447,1,0,0:0:0:0:
256,192,303524,1,8,0:0:0:0:
256,192,303600,1,8,0:0:0:0:
256,192,303677,1,0,0:0:0:0:
256,192,303753,1,0,0:0:0:0:
256,192,303830,1,8,0:0:0:0:
256,192,303906,1,0,0:0:0:0:
256,192,303983,1,8,0:0:0:0:
256,192,304136,1,4,0:0:0:0:
256,192,304442,1,8,0:0:0:0:
256,192,304595,1,0,0:0:0:0:
256,192,304672,1,0,0:0:0:0:
256,192,304748,1,0,0:0:0:0:
256,192,304901,1,8,0:0:0:0:
256,192,304978,1,8,0:0:0:0:
256,192,305054,1,8,0:0:0:0:
256,192,305207,1,4,0:0:0:0:
256,192,305514,1,12,0:0:0:0:
256,192,305820,1,4,0:0:0:0:
256,192,305973,1,12,0:0:0:0:
256,192,306279,1,12,0:0:0:0:
256,192,306585,1,4,0:0:0:0:
256,192,306891,1,8,0:0:0:0:
256,192,307044,1,0,0:0:0:0:
256,192,307121,1,0,0:0:0:0:
256,192,307197,1,0,0:0:0:0:
256,192,307350,1,8,0:0:0:0:
256,192,307503,1,0,0:0:0:0:
256,192,307580,1,0,0:0:0:0:
256,192,307656,1,8,0:0:0:0:
256,192,307733,1,8,0:0:0:0:
256,192,307809,1,0,0:0:0:0:
256,192,307963,1,0,0:0:0:0:
256,192,308116,1,8,0:0:0:0:
256,192,308269,1,8,0:0:0:0:
256,192,308345,1,8,0:0:0:0:
256,192,308422,1,0,0:0:0:0:
256,192,308498,1,8,0:0:0:0:
256,192,308575,1,0,0:0:0:0:
256,192,308651,1,0,0:0:0:0:
256,192,308728,1,8,0:0:0:0:
256,192,308881,1,8,0:0:0:0:
256,192,309034,1,0,0:0:0:0:
256,192,309340,1,8,0:0:0:0:
256,192,309493,1,0,0:0:0:0:
256,192,309570,1,0,0:0:0:0:
256,192,309646,1,0,0:0:0:0:
256,192,309799,1,8,0:0:0:0:
256,192,309876,1,8,0:0:0:0:
256,192,309952,1,0,0:0:0:0:
256,192,310029,1,0,0:0:0:0:
256,192,310105,1,8,0:0:0:0:
256,192,310258,1,0,0:0:0:0:
256,192,310411,1,0,0:0:0:0:
256,192,310488,1,0,0:0:0:0:
256,192,310565,1,8,0:0:0:0:
256,192,310718,1,0,0:0:0:0:
256,192,310794,1,0,0:0:0:0:
256,192,310871,1,8,0:0:0:0:
256,192,310947,1,8,0:0:0:0:
256,192,311024,1,0,0:0:0:0:
256,192,311100,1,0,0:0:0:0:
256,192,311177,1,8,0:0:0:0:
256,192,311330,1,8,0:0:0:0:
256,192,311483,1,0,0:0:0:0:
256,192,311789,1,8,0:0:0:0:
256,192,311942,1,0,0:0:0:0:
256,192,312019,1,0,0:0:0:0:
256,192,312095,1,0,0:0:0:0:
256,192,312248,1,8,0:0:0:0:
256,192,312401,1,0,0:0:0:0:
256,192,312478,1,0,0:0:0:0:
256,192,312554,1,8,0:0:0:0:
256,192,312631,1,8,0:0:0:0:
256,192,312707,1,0,0:0:0:0:
256,192,312860,1,0,0:0:0:0:
256,192,312937,1,0,0:0:0:0:
256,192,313014,1,8,0:0:0:0:
256,192,313167,1,0,0:0:0:0:
256,192,313243,1,0,0:0:0:0:
256,192,313320,1,8,0:0:0:0:
256,192,313396,1,0,0:0:0:0:
256,192,313473,1,8,0:0:0:0:
256,192,313549,1,8,0:0:0:0:
256,192,313626,1,0,0:0:0:0:
256,192,313702,1,0,0:0:0:0:
256,192,313779,1,8,0:0:0:0:
256,192,313932,1,8,0:0:0:0:
256,192,314085,1,0,0:0:0:0:
256,192,314161,1,0,0:0:0:0:
256,192,314238,1,8,0:0:0:0:
256,192,314391,1,0,0:0:0:0:
256,192,314468,1,0,0:0:0:0:
256,192,314544,1,8,0:0:0:0:
256,192,314621,1,0,0:0:0:0:
256,192,314697,1,8,0:0:0:0:
256,192,314850,1,8,0:0:0:0:
256,192,315003,1,0,0:0:0:0:
256,192,315309,1,0,0:0:0:0:
256,192,315463,1,8,0:0:0:0:
256,192,315616,1,0,0:0:0:0:
256,192,315769,1,8,0:0:0:0:
256,192,315845,1,8,0:0:0:0:
256,192,315922,1,0,0:0:0:0:
256,192,315998,1,0,0:0:0:0:
256,192,316075,1,8,0:0:0:0:
256,192,316228,1,0,0:0:0:0:
256,192,316381,1,12,0:0:0:0:
256,192,316993,1,8,0:0:0:0:
256,192,317299,1,0,0:0:0:0:
256,192,317452,1,8,0:0:0:0:
256,192,317605,1,0,0:0:0:0:
256,192,317758,1,8,0:0:0:0:
256,192,317911,1,0,0:0:0:0:
256,192,318065,1,0,0:0:0:0:
256,192,318218,1,8,0:0:0:0:
256,192,318371,1,8,0:0:0:0:
256,192,318524,1,0,0:0:0:0:
256,192,318830,1,8,0:0:0:0:
256,192,319136,1,0,0:0:0:0:
256,192,319289,1,8,0:0:0:0:
256,192,319442,1,0,0:0:0:0:
256,192,319748,1,0,0:0:0:0:
256,192,319901,1,0,0:0:0:0:
256,192,320054,1,8,0:0:0:0:
256,192,320207,1,8,0:0:0:0:
256,192,320360,1,0,0:0:0:0:
256,192,320514,1,0,0:0:0:0:
256,192,320590,1,0,0:0:0:0:
256,192,320667,1,8,0:0:0:0:
256,192,320820,1,8,0:0:0:0:
256,192,320896,1,8,0:0:0:0:
256,192,320973,1,0,0:0:0:0:
256,192,321049,1,0,0:0:0:0:
256,192,321126,1,0,0:0:0:0:
256,192,321279,1,12,0:0:0:0:
256,192,321585,1,8,0:0:0:0:
256,192,321891,1,0,0:0:0:0:
256,192,322044,1,0,0:0:0:0:
256,192,322197,1,8,0:0:0:0:
256,192,322503,1,0,0:0:0:0:
256,192,322656,1,8,0:0:0:0:
256,192,322733,1,0,0:0:0:0:
256,192,322809,1,8,0:0:0:0:
256,192,322963,1,0,0:0:0:0:
256,192,323116,1,8,0:0:0:0:
256,192,323269,1,0,0:0:0:0:
256,192,323345,1,0,0:0:0:0:
256,192,323422,1,8,0:0:0:0:
256,192,323575,1,0,0:0:0:0:
256,192,323728,1,8,0:0:0:0:
256,192,324034,1,8,0:0:0:0:
256,192,324340,1,0,0:0:0:0:
256,192,324493,1,0,0:0:0:0:
256,192,324646,1,8,0:0:0:0:
256,192,324799,1,0,0:0:0:0:
256,192,324952,1,8,0:0:0:0:
256,192,325258,1,8,0:0:0:0:
256,192,325411,1,8,0:0:0:0:
256,192,325488,1,8,0:0:0:0:
256,192,325565,1,0,0:0:0:0:
256,192,325718,1,0,0:0:0:0:
256,192,325871,1,8,0:0:0:0:
256,192,326024,1,0,0:0:0:0:
256,192,326100,1,0,0:0:0:0:
256,192,326177,1,8,0:0:0:0:
256,192,326330,1,0,0:0:0:0:
256,192,326483,1,8,0:0:0:0:
256,192,326636,1,0,0:0:0:0:
256,192,326713,1,0,0:0:0:0:
256,192,326789,1,0,0:0:0:0:
256,192,326942,1,0,0:0:0:0:
256,192,327095,1,8,0:0:0:0:
256,192,327401,1,8,0:0:0:0:
256,192,327554,1,0,0:0:0:0:
256,192,327707,1,8,0:0:0:0:
256,192,327860,1,8,0:0:0:0:
256,192,327937,1,8,0:0:0:0:
256,192,328014,1,0,0:0:0:0:
256,192,328167,1,0,0:0:0:0:
256,192,328320,1,8,0:0:0:0:
256,192,328626,1,12,0:0:0:0:
256,192,328779,1,0,0:0:0:0:
256,192,328855,1,8,0:0:0:0:
256,192,328932,1,0,0:0:0:0:
256,192,329085,1,8,0:0:0:0:
256,192,329161,1,8,0:0:0:0:
256,192,329238,1,0,0:0:0:0:
256,192,329391,1,0,0:0:0:0:
256,192,329544,1,8,0:0:0:0:
256,192,329697,1,0,0:0:0:0:
256,192,329774,1,0,0:0:0:0:
256,192,329850,1,8,0:0:0:0:
256,192,330003,1,8,0:0:0:0:
256,192,330156,1,0,0:0:0:0:
256,192,330309,1,8,0:0:0:0:
256,192,330386,1,8,0:0:0:0:
256,192,330463,1,0,0:0:0:0:
256,192,330539,1,0,0:0:0:0:
256,192,330616,1,8,0:0:0:0:
256,192,330692,1,0,0:0:0:0:
256,192,330769,1,8,0:0:0:0:
256,192,330845,1,8,0:0:0:0:
256,192,330922,1,0,0:0:0:0:
256,192,331075,1,12,0:0:0:0:
256,192,331381,1,4,0:0:0:0:
256,192,331534,1,4,0:0:0:0:
256,192,331840,1,4,0:0:0:0:
256,192,332146,1,12,0:0:0:0:
256,192,332452,1,0,0:0:0:0:
256,192,332605,1,8,0:0:0:0:
256,192,332911,1,8,0:0:0:0:
256,192,333065,1,0,0:0:0:0:
256,192,333218,1,8,0:0:0:0:
256,192,333371,1,8,0:0:0:0:
256,192,333524,1,4,0:0:0:0:
256,192,333830,1,12,0:0:0:0:
256,192,333983,1,12,0:0:0:0:
256,192,334289,1,4,0:0:0:0:
256,192,334595,1,12,0:0:0:0:
256,192,334901,1,0,0:0:0:0:
256,192,335054,1,8,0:0:0:0:
256,192,335207,1,0,0:0:0:0:
256,192,335284,1,0,0:0:0:0:
256,192,335360,1,8,0:0:0:0:
256,192,335514,1,0,0:0:0:0:
256,192,335667,1,12,0:0:0:0:
256,192,335973,1,4,0:0:0:0:
256,192,336279,1,8,0:0:0:0:
256,192,336432,1,0,0:0:0:0:
256,192,336508,1,0,0:0:0:0:
256,192,336585,1,0,0:0:0:0:
256,192,336738,1,8,0:0:0:0:
256,192,336891,1,0,0:0:0:0:
256,192,337044,1,8,0:0:0:0:
256,192,337350,1,0,0:0:0:0:
256,192,337503,1,8,0:0:0:0:
256,192,337656,1,8,0:0:0:0:
256,192,337733,1,8,0:0:0:0:
256,192,337809,1,0,0:0:0:0:
256,192,337963,1,0,0:0:0:0:
256,192,338116,1,8,0:0:0:0:
256,192,338269,1,8,0:0:0:0:
256,192,338422,1,0,0:0:0:0:
256,192,338728,1,8,0:0:0:0:
256,192,338881,1,0,0:0:0:0:
256,192,338957,1,0,0:0:0:0:
256,192,339034,1,0,0:0:0:0:
256,192,339187,1,8,0:0:0:0:
256,192,339340,1,0,0:0:0:0:
256,192,339493,1,8,0:0:0:0:
256,192,339799,1,0,0:0:0:0:
256,192,339952,1,8,0:0:0:0:
256,192,340105,1,0,0:0:0:0:
256,192,340182,1,0,0:0:0:0:
256,192,340258,1,8,0:0:0:0:
256,192,340411,1,0,0:0:0:0:
256,192,340565,1,8,0:0:0:0:
256,192,340718,1,0,0:0:0:0:
256,192,340871,1,0,0:0:0:0:
256,192,341177,1,8,0:0:0:0:
256,192,341330,1,0,0:0:0:0:
256,192,341406,1,0,0:0:0:0:
256,192,341483,1,0,0:0:0:0:
256,192,341636,1,8,0:0:0:0:
256,192,341789,1,0,0:0:0:0:
256,192,341942,1,8,0:0:0:0:
256,192,342248,1,0,0:0:0:0:
256,192,342401,1,8,0:0:0:0:
256,192,342554,1,8,0:0:0:0:
256,192,342631,1,8,0:0:0:0:
256,192,342707,1,0,0:0:0:0:
256,192,342860,1,0,0:0:0:0:
256,192,343014,1,8,0:0:0:0:
256,192,343167,1,8,0:0:0:0:
256,192,343320,1,4,0:0:0:0:
256,192,343626,1,8,0:0:0:0:
256,192,343779,1,0,0:0:0:0:
256,192,343932,1,8,0:0:0:0:
256,192,344008,1,8,0:0:0:0:
256,192,344085,1,0,0:0:0:0:
256,192,344238,1,8,0:0:0:0:
256,192,344391,1,0,0:0:0:0:
256,192,344468,1,0,0:0:0:0:
256,192,344544,1,0,0:0:0:0:
256,192,344697,1,0,0:0:0:0:
256,192,344850,1,8,0:0:0:0:
256,192,345003,1,0,0:0:0:0:
256,192,345080,1,0,0:0:0:0:
256,192,345156,1,8,0:0:0:0:
256,192,345309,1,0,0:0:0:0:
256,192,345463,1,0,0:0:0:0:
256,192,345769,1,12,0:0:0:0:
256,192,346075,1,0,0:0:0:0:
256,192,346228,1,8,0:0:0:0:
256,192,346304,1,8,0:0:0:0:
256,192,346381,1,8,0:0:0:0:
256,192,346534,1,0,0:0:0:0:
256,192,346687,1,8,0:0:0:0:
256,192,346840,1,0,0:0:0:0:
256,192,346917,1,0,0:0:0:0:
256,192,346993,1,0,0:0:0:0:
256,192,347146,1,0,0:0:0:0:
256,192,347299,1,8,0:0:0:0:
256,192,347452,1,8,0:0:0:0:
256,192,347529,1,8,0:0:0:0:
256,192,347605,1,0,0:0:0:0:
256,192,347758,1,0,0:0:0:0:
256,192,347911,1,8,0:0:0:0:
256,192,348065,1,0,0:0:0:0:
256,192,348141,1,0,0:0:0:0:
256,192,348218,1,8,0:0:0:0:
256,192,348371,1,0,0:0:0:0:
256,192,348524,1,8,0:0:0:0:
256,192,348677,1,0,0:0:0:0:
256,192,348830,1,8,0:0:0:0:
256,192,348906,1,8,0:0:0:0:
256,192,348983,1,0,0:0:0:0:
256,192,349059,1,0,0:0:0:0:
256,192,349136,1,8,0:0:0:0:
256,192,349289,1,0,0:0:0:0:
256,192,349595,1,0,0:0:0:0:
256,192,349748,1,8,0:0:0:0:
256,192,349901,1,0,0:0:0:0:
256,192,349978,1,0,0:0:0:0:
256,192,350054,1,0,0:0:0:0:
256,192,350207,1,8,0:0:0:0:
256,192,350360,1,8,0:0:0:0:
256,192,350514,1,0,0:0:0:0:
256,192,350590,1,0,0:0:0:0:
256,192,350667,1,8,0:0:0:0:
256,192,350820,1,8,0:0:0:0:
256,192,350973,1,0,0:0:0:0:
256,192,351126,1,8,0:0:0:0:
256,192,351432,1,0,0:0:0:0:
256,192,351585,1,8,0:0:0:0:
256,192,351738,1,8,0:0:0:0:
256,192,351815,1,8,0:0:0:0:
256,192,351891,1,0,0:0:0:0:
256,192,352044,1,0,0:0:0:0:
256,192,352197,1,8,0:0:0:0:
256,192,352350,1,0,0:0:0:0:
256,192,352427,1,0,0:0:0:0:
256,192,352503,1,8,0:0:0:0:
256,192,352656,1,0,0:0:0:0:
256,192,352809,1,8,0:0:0:0:
256,192,352963,1,8,0:0:0:0:
256,192,353116,1,0,0:0:0:0:
256,192,353422,1,8,0:0:0:0:
256,192,353575,1,8,0:0:0:0:
256,192,353651,1,8,0:0:0:0:
256,192,353728,1,0,0:0:0:0:
256,192,353881,1,0,0:0:0:0:
256,192,354034,1,8,0:0:0:0:
256,192,354187,1,0,0:0:0:0:
256,192,354264,1,0,0:0:0:0:
256,192,354340,1,8,0:0:0:0:
256,192,354493,1,0,0:0:0:0:
256,192,354646,1,8,0:0:0:0:
256,192,354799,1,8,0:0:0:0:
256,192,355105,1,0,0:0:0:0:
256,192,355258,1,8,0:0:0:0:
256,192,355411,1,0,0:0:0:0:
256,192,355565,1,12,0:0:0:0:
256,192,355871,1,8,0:0:0:0:
256,192,356024,1,0,0:0:0:0:
256,192,356330,1,0,0:0:0:0:
256,192,356483,1,8,0:0:0:0:
256,192,356636,1,8,0:0:0:0:
256,192,356789,1,0,0:0:0:0:
256,192,357095,1,8,0:0:0:0:
256,192,357401,1,0,0:0:0:0:
256,192,357554,1,0,0:0:0:0:
256,192,357707,1,8,0:0:0:0:
256,192,357860,1,8,0:0:0:0:
256,192,358014,1,4,0:0:0:0:
256,192,358626,1,0,0:0:0:0:
256,192,358779,1,0,0:0:0:0:
256,192,358932,1,8,0:0:0:0:
256,192,359085,1,8,0:0:0:0:
256,192,359238,1,4,0:0:0:0:
256,192,359391,1,4,0:0:0:0:
256,192,359850,1,12,0:0:0:0:
256,192,360003,1,12,0:0:0:0:
256,192,360463,1,0,0:0:0:0:
256,192,360616,1,12,0:0:0:0:
256,192,360769,1,12,0:0:0:0:
256,192,360922,1,12,0:0:0:0:
256,192,361075,1,12,0:0:0:0:
256,192,361381,1,4,0:0:0:0:
256,192,361534,1,12,0:0:0:0:
256,192,361687,12,0,365207,0:0:0:0:
