osu file format v14

[General]
AudioFilename: audio.mp3
AudioLeadIn: 0
PreviewTime: 77529
Countdown: 0
SampleSet: Soft
StackLeniency: 0.7
Mode: 0
LetterboxInBreaks: 0
EpilepsyWarning: 1
WidescreenStoryboard: 1

[Editor]
Bookmarks: 33524,146177
DistanceSpacing: 1.6
BeatDivisor: 4
GridSize: 4
TimelineZoom: 1.9

[Metadata]
Title:MOMENT RING
TitleUnicode:MOMENT RING
Artist:u's
ArtistUnicode:μ's
Creator:Chaoslitz
Version:Final LoveLive!
Source:ラブライブ! School idol project
Tags:Nardoxyribonucleic Kawaiwkyik Rizia love live muse final single Sayounara Sayonara! 高坂穂乃果 Kousaka Honoka 園田海未 Sonoda Umi 南ことり Minami Kotori 小泉花陽 Koizumi Hanayo 星空凛 Hoshizora Rin 西木野真姫 Nishikino Maki 矢澤にこ Yazawa Nico 絢瀬絵里 Ayase Eli 東條希 Toujou Nozomi
BeatmapID:941302
BeatmapSetID:437113

[Difficulty]
HPDrainRate:6
CircleSize:4
OverallDifficulty:9
ApproachRate:9.3
SliderMultiplier:1.8
SliderTickRate:1

[Events]
//Background and Video events
0,0,"sb/bg.jpg",0,0
//Break Periods
//Storyboard Layer 0 (Background)
Sprite,Background,Centre,"sb\bg.jpg",320,240 S,0,0,,0.625 F,0,0,13932,0,1 F,0,13932,33218,1 F,0,33218,33524,1,0.5 F,0,33524,77605,0 F,0,77605,106687,1 F,0,106687,106993,1,0.7 F,0,106993,111891,0.7 F,0,111891,112044,0.7,1 F,0,112044,120156,1 F,0,120156,120463,1,0.7 F,0,120463,121687,0.7 F,0,121687,126279,1 F,0,126279,126585,1,0.5 F,0,126585,195156,0 F,0,195156,224238,1 F,0,224238,224544,1,0.5 F,0,224544,229442,0.5 M,0,229442,,320,240 F,0,229442,229595,0.5,1 F,0,229595,237707,1 F,0,237707,238014,1,0.5 F,0,238014,239238,0.5 F,0,239238,244136,1 F,0,244136,253932,0 F,0,253932,273524,1 F,0,273524,275973,1,0 F,0,275973,286993,0 F,0,286993,316381,1 F,0,316381,316687,1,0.5 F,0,316687,321126,0.5 F,0,321126,321279,0.5,1 F,0,321279,329544,1 F,0,329544,329850,1,0.5 F,0,329850,331075,0.5 F,0,331075,335667,1 F,0,335667,335973,1,0
//Storyboard Layer 1 (Fail)
//Storyboard Layer 2 (Pass)
//Storyboard Layer 3 (Foreground)
Sprite,Foreground,Centre,"sb\mapsb.png",320,240 S,0,23728,,0.5 M,0,23728,23804,465,270,365,270 M,0,23804,31075,365,270,355,270 F,0,30769,31075,1,0
//Storyboard Sound Samples

[TimingPoints]
463,306.122448979592,4,2,2,30,1,0
463,-166.666666666667,4,2,2,30,0,0
6585,-166.666666666667,4,2,1,30,0,0
7809,-166.666666666667,4,2,2,30,0,0
9034,-166.666666666667,4,2,1,30,0,0
9187,-166.666666666667,4,2,2,30,0,0
11483,-133.333333333333,4,2,2,40,0,0
12095,-133.333333333333,4,2,2,45,0,0
12401,-133.333333333333,4,2,1,50,0,0
13473,-111.111111111111,4,2,2,55,0,0
13931,-100,4,2,1,60,0,0
31075,-100,4,2,2,60,0,0
31381,-100,4,2,1,60,0,0
53116,-100,4,2,1,50,0,0
58014,-100,4,2,1,60,0,0
61687,-90.9090909090909,4,2,1,60,0,0
62911,-100,4,2,1,50,0,0
67809,-100,4,2,1,60,0,0
76381,-100,4,2,1,65,0,0
77299,-83.3333333333333,4,2,2,65,0,0
77605,-90.9090909090909,4,2,1,70,0,1
96891,-83.3333333333333,4,2,2,70,0,1
97121,-83.3333333333333,4,2,2,70,0,0
97197,-90.9090909090909,4,2,1,70,0,1
106993,-111.111111111111,4,2,1,50,0,0
111891,-90.9090909090909,4,2,1,60,0,0
120463,-90.9090909090909,4,2,2,60,0,0
120616,-90.9090909090909,4,2,1,60,0,0
121381,-90.9090909090909,4,2,2,60,0,0
121687,-90.9090909090909,4,2,1,60,0,0
124901,-90.9090909090909,4,2,2,60,0,0
125207,-90.9090909090909,4,2,1,60,0,0
126279,-90.9090909090909,4,2,2,60,0,0
126432,-90.9090909090909,4,2,1,60,0,0
126585,-100,4,2,1,60,0,0
143728,-100,4,2,2,60,0,0
144034,-100,4,2,1,60,0,0
146177,-133.333333333333,4,2,1,50,0,0
146483,-133.333333333333,4,2,2,50,0,0
154442,-133.333333333333,4,2,1,60,0,0
154595,-100,4,2,1,60,0,0
165769,-100,4,2,1,50,0,0
170667,-100,4,2,1,60,0,0
174340,-90.9090909090909,4,2,1,60,0,0
175564,-100,4,2,1,60,0,0
175565,-100,4,2,1,50,0,0
180463,-100,4,2,1,60,0,0
185360,-100,4,2,1,40,0,0
187809,-100,4,2,1,50,0,0
190258,-100,4,2,1,60,0,0
192707,-100,4,2,1,70,0,0
194544,-133.333333333333,4,2,2,50,0,0
194850,-83.3333333333333,4,2,2,60,0,0
195156,-90.9090909090909,4,2,1,70,0,1
214442,-83.3333333333333,4,2,2,70,0,1
214672,-83.3333333333333,4,2,2,70,0,0
214748,-90.9090909090909,4,2,1,70,0,1
224544,-111.111111111111,4,2,1,50,0,0
229442,-90.9090909090909,4,2,1,60,0,0
238014,-90.9090909090909,4,2,2,60,0,0
238167,-90.9090909090909,4,2,1,60,0,0
238932,-90.9090909090909,4,2,2,60,0,0
239238,-90.9090909090909,4,2,1,60,0,0
242452,-90.9090909090909,4,2,2,60,0,0
242758,-90.9090909090909,4,2,1,60,0,0
243218,-90.9090909090909,4,2,2,60,0,0
244136,-100,4,2,1,50,0,0
244289,-100,4,2,2,50,0,0
251483,-100,4,2,1,60,0,0
253932,-100,4,2,1,60,0,1
273524,-100,4,2,1,60,0,0
273677,-100,4,2,1,50,0,0
274136,-100,4,2,1,40,0,0
274748,-100,4,2,1,30,0,0
275360,-100,4,2,1,20,0,0
275973,-166.666666666667,4,2,1,40,0,0
283320,-133.333333333333,4,2,1,50,0,0
284544,-133.333333333333,4,2,2,50,0,0
285769,-133.333333333333,4,2,1,60,0,0
286534,-83.3333333333333,4,2,1,60,0,0
286993,-90.9090909090909,4,2,1,70,0,1
306279,-83.3333333333333,4,2,2,70,0,1
306508,-83.3333333333333,4,2,2,70,0,0
306585,-90.9090909090909,4,2,1,70,0,1
316381,-111.111111111111,4,2,1,50,0,0
321279,-90.9090909090909,4,2,1,60,0,0
329851,-90.9090909090909,4,2,2,60,0,0
330004,-90.9090909090909,4,2,1,60,0,0
330769,-90.9090909090909,4,2,2,60,0,0
331075,-90.9090909090909,4,2,1,60,0,0
334289,-90.9090909090909,4,2,2,60,0,0
334595,-90.9090909090909,4,2,1,60,0,0
335667,-90.9090909090909,4,2,2,60,0,0
335820,-90.9090909090909,4,2,1,60,0,0
335973,-100,4,2,1,60,0,0
353116,-100,4,2,2,50,0,0
353422,-100,4,2,1,50,0,0
358626,-100,4,2,1,60,0,0
359238,-100,4,2,1,65,0,0
359544,-133.333333333333,4,2,1,65,0,0
359850,-133.333333333333,4,2,1,70,0,0
361075,-100,4,2,1,70,0,0
362299,-100,4,2,1,60,0,0
362911,-100,4,2,1,50,0,0
363524,-100,4,2,1,40,0,0
364136,-100,4,2,1,30,0,0
364748,-100,4,2,1,20,0,0

[Colours]
Combo1 : 117,81,210
Combo2 : 255,131,19
Combo3 : 46,53,190
Combo4 : 177,153,107
Combo5 : 255,199,28
Combo6 : 255,34,63
Combo7 : 137,137,137
Combo8 : 255,255,0
SliderBorder : 233,33,139
SliderTrackOverride : 235,139,150

[HitObjects]
86,65,1687,6,0,P|139:69|187:93,1,107.999996704102,2|0,0:0|0:0,0:0:0:0:
256,137,2146,2,0,P|202:140|153:163,1,107.999996704102,2|0,0:0|0:0,0:0:0:0:
60,209,2605,2,0,P|87:215|110:226,1,53.9999983520508,2|0,0:0|0:0,0:0:0:0:
170,277,2911,5,0,0:0:0:0:
248,244,3065,1,2,0:0:0:0:
236,332,3218,1,0,0:0:0:0:
236,332,3371,1,0,0:0:0:0:
324,213,3524,1,0,0:0:0:0:
350,314,3677,2,0,P|347:340|345:367,1,53.9999983520508,0|2,0:0|0:0,0:0:0:0:
418,250,3983,1,0,0:0:0:0:
324,213,4136,6,0,P|320:164|316:127,1,71.9999978027344,0|2,0:0|0:0,0:0:0:0:
449,85,4595,5,2,0:0:0:0:
505,186,4799,6,0,P|502:221|496:276,1,89.9999972534181,2|2,0:0|0:0,0:0:0:0:
435,339,5207,1,0,0:0:0:0:
350,314,5360,6,0,L|347:340,1,26.9999991760254,2|2,0:0|0:0,0:0:0:0:
328,351,5514,2,0,L|274:358,2,53.9999983520508
270,267,5973,1,0,0:0:0:0:
188,324,6126,1,8,0:0:0:0:
117,220,6279,2,0,P|115:243|112:261,2,26.9999991760254,8|0|0,0:0|0:0|0:0,0:0:0:0:
23,191,6585,6,0,P|27:241|33:315,1,107.999996704102,6|0,0:0|0:0,0:0:0:0:
117,220,7044,2,0,P|121:166|126:113,1,107.999996704102,6|0,0:0|0:0,0:0:0:0:
16,137,7503,2,0,P|21:179|24:198,1,53.9999983520508,6|0,0:0|0:0,0:0:0:0:
117,220,7809,5,0,0:0:0:0:
31,298,7963,1,8,0:0:0:0:
166,330,8116,1,8,0:0:0:0:
77,360,8269,2,0,P|103:358|130:355,1,53.9999983520508,10|0,0:0|0:0,0:0:0:0:
219,258,8575,1,0,0:0:0:0:
304,270,8728,1,0,0:0:0:0:
252,338,8881,1,2,0:0:0:0:
270,184,9034,6,0,P|242:170|211:162,2,53.9999983520508,4|0|0,0:0|0:0|0:0,0:0:0:0:
335,140,9493,2,0,P|387:148|436:126,1,107.999996704102,8|0,0:0|0:0,0:0:0:0:
390,191,9952,2,0,P|387:223|384:247,1,53.9999983520508,0|0,3:0|0:0,0:0:0:0:
436,126,10258,5,8,0:0:0:0:
436,126,10411,1,8,0:0:0:0:
327,49,10565,2,0,P|324:75|322:102,1,53.9999983520508,2|8,0:0|0:0,0:0:0:0:
261,184,10871,2,0,P|258:210|256:237,1,53.9999983520508,0|0,0:0|0:0,0:0:0:0:
335,140,11177,1,0,0:0:0:0:
404,221,11330,1,2,0:0:0:0:
272,274,11483,6,0,P|275:323|277:352,1,67.5000025749208,8|8,0:0|0:0,0:0:0:0:
179,202,11789,2,0,P|184:161|190:125,1,67.5000025749208,8|8,0:0|0:0,0:0:0:0:
256,237,12095,1,10,0:0:0:0:
179,106,12248,1,8,0:0:0:0:
92,195,12401,2,0,P|86:228|82:261,1,67.5000025749208,8|10,0:0|0:0,0:0:0:0:
85,94,12707,5,0,0:0:0:0:
114,347,12860,1,2,0:0:0:0:
0,206,13014,1,2,0:0:0:0:
266,150,13167,1,2,0:0:0:0:
172,237,13320,1,0,0:0:0:0:
11,60,13473,6,0,P|92:66|189:74,1,161.999995056153,4|0,0:0|0:0,0:0:0:0:
321,177,13932,6,0,P|238:153|175:211,1,180,4|8,0:0|0:0,0:0:0:0:
264,317,14391,1,0,0:0:0:0:
362,261,14544,2,0,P|406:257|451:255,1,90,0|0,0:0|0:0,0:0:0:0:
241,138,14850,1,8,0:0:0:0:
264,317,15003,6,0,P|252:229|240:129,1,180,2|0,0:0|0:0,0:0:0:0:
346,256,15463,1,10,0:0:0:0:
175,211,15616,1,0,0:0:0:0:
325,143,15769,2,0,P|333:85|338:53,1,90,0|0,0:0|0:0,0:0:0:0:
421,192,16075,2,0,P|427:237|433:281,1,90,10|0,0:0|0:0,0:0:0:0:
263,214,16381,6,0,P|180:189|169:104,1,180,0|8,0:0|0:0,0:0:0:0:
295,29,16840,1,0,0:0:0:0:
336,167,16993,2,0,P|341:210|346:256,1,90,0|0,0:0|0:0,0:0:0:0:
240,139,17299,1,8,0:0:0:0:
461,80,17452,6,0,B|401:73|401:73|354:36|354:36|295:29,1,180,2|0,0:0|0:0,0:0:0:0:
184,71,17911,1,8,0:0:0:0:
253,240,18065,1,2,0:0:0:0:
323,116,18218,1,0,0:0:0:0:
323,116,18371,1,0,0:0:0:0:
150,245,18524,2,0,P|103:240|59:237,1,90,10|0,0:0|0:0,0:0:0:0:
7,109,18830,6,0,P|91:127|149:64,1,180,0|8,0:0|0:0,0:0:0:0:
218,167,19289,1,0,0:0:0:0:
145,270,19442,2,0,P|139:313|131:358,1,90,0|0,0:0|0:0,0:0:0:0:
108,154,19748,1,8,0:0:0:0:
267,276,19901,6,0,P|356:268|446:261,1,180,2|0,0:0|0:0,0:0:0:0:
307,175,20360,2,0,P|263:170|213:166,1,90,10|0,0:0|0:0,0:0:0:0:
363,304,20667,1,0,0:0:0:0:
381,129,20820,1,0,0:0:0:0:
267,275,20973,2,0,P|200:284|138:260,1,135,10|0,0:0|0:0,0:0:0:0:
110,236,21279,6,0,P|106:174|99:56,1,180,6|10,0:0|0:0,0:0:0:0:
217,166,21738,1,0,0:0:0:0:
19,250,21891,2,0,P|14:308|11:341,1,90,2|0,0:0|0:0,0:0:0:0:
0,125,22197,1,8,0:0:0:0:
195,75,22350,6,0,P|278:99|310:180,1,180,2|0,0:0|0:0,0:0:0:0:
176,286,22809,1,8,0:0:0:0:
107,153,22963,1,0,0:0:0:0:
156,320,23116,1,10,0:0:0:0:
195,75,23269,1,4,0:3:0:0:
260,269,23422,2,0,P|264:313|268:358,1,90,8|0,0:0|0:0,0:0:0:0:
463,200,23728,6,0,P|392:152|310:180,1,180,6|8,0:0|0:0,0:0:0:0:
372,281,24187,1,0,0:0:0:0:
351,76,24340,2,0,P|306:87|268:113,1,90,0|0,0:0|0:0,0:0:0:0:
380,244,24646,1,10,0:0:0:0:
188,183,24799,6,0,P|181:271|173:370,1,180,2|0,0:0|0:0,0:0:0:0:
81,207,25258,1,8,0:0:0:0:
260,269,25411,1,0,0:0:0:0:
83,233,25565,2,0,P|86:278|89:328,1,90,0|0,0:0|0:0,0:0:0:0:
162,159,25871,2,0,P|158:113|155:63,1,90,8|0,0:0|0:0,0:0:0:0:
16,120,26177,5,2,0:0:0:0:
83,233,26330,1,2,0:0:0:0:
188,183,26483,2,0,P|185:138|181:87,1,90,10|0,0:0|0:0,0:0:0:0:
260,269,26789,2,0,P|257:311|254:366,1,90,2|0,0:0|0:0,0:0:0:0:
298,180,27095,1,8,0:0:0:0:
501,234,27248,6,0,P|434:287|354:255,1,180,2|0,0:0|0:0,0:0:0:0:
338,94,27707,1,8,0:0:0:0:
421,200,27860,1,2,0:0:0:0:
421,200,27937,1,0,0:0:0:0:
421,200,28014,1,0,0:0:0:0:
218,139,28167,1,0,0:0:0:0:
438,169,28320,2,0,P|443:117|447:73,1,90,10|0,0:0|0:0,0:0:0:0:
354,255,28626,6,0,P|358:299|362:344,1,90,2|0,0:0|0:0,0:0:0:0:
298,180,28932,1,8,0:0:0:0:
346,365,29085,2,0,P|294:369|238:267,1,180,2|0,0:0|0:0,0:0:0:0:
444,287,29544,2,0,P|441:342|439:386,1,90,10|0,0:0|0:0,0:0:0:0:
421,200,29850,5,2,0:0:0:0:
237,270,30003,1,0,0:0:0:0:
306,139,30156,2,0,P|310:94|314:49,1,90,10|0,0:0|0:0,0:0:0:0:
191,199,30463,2,0,L|102:207,1,90,0|0,0:0|0:0,0:0:0:0:
237,271,30769,1,10,0:0:0:0:
115,328,30922,2,0,P|112:350|110:372,1,45,0|0,3:0|3:0,0:0:0:0:
50,271,31075,6,0,P|22:189|81:128,1,180,8|8,0:0|0:0,0:0:0:0:
191,199,31534,1,0,0:0:0:0:
93,352,31687,1,0,0:0:0:0:
111,111,31840,1,0,0:0:0:0:
201,310,31993,1,10,0:0:0:0:
176,69,32146,1,0,0:0:0:0:
361,243,32299,5,6,0:0:0:0:
102,207,32452,1,2,0:0:0:0:
392,156,32911,5,6,0:0:0:0:
102,207,33064,1,2,0:0:0:0:
320,105,33218,1,8,0:0:0:0:
176,69,33371,1,0,0:0:0:0:
206,220,33524,6,0,L|200:309,1,90,4|0,0:0|0:0,0:0:0:0:
291,188,33830,1,8,0:0:0:0:
291,188,33983,1,0,0:0:0:0:
361,243,34136,2,0,P|405:237|450:234,1,90,0|0,0:0|0:0,0:0:0:0:
301,308,34442,1,8,0:0:0:0:
320,105,34595,1,0,0:0:0:0:
468,245,34748,6,0,P|475:182|478:147,1,90,0|0,0:0|0:0,0:0:0:0:
383,330,35054,1,8,0:0:0:0:
291,188,35207,1,0,0:0:0:0:
184,232,35360,1,0,0:0:0:0:
184,232,35514,1,0,0:0:0:0:
293,336,35667,2,0,P|337:332|382:329,1,90,8|0,0:0|0:0,0:0:0:0:
205,269,35973,6,0,P|200:317|197:363,1,90,2|0,0:0|0:0,0:0:0:0:
154,193,36279,2,0,P|149:145|146:99,1,90,8|0,0:0|0:0,0:0:0:0:
119,284,36585,2,0,P|112:335|107:373,1,90,0|0,0:0|0:0,0:0:0:0:
66,207,36891,1,10,0:0:0:0:
205,269,37044,1,0,0:0:0:0:
228,124,37197,6,0,P|233:79|239:34,1,90,2|0,0:0|0:0,0:0:0:0:
291,188,37503,1,8,0:0:0:0:
407,71,37656,1,0,0:0:0:0:
409,225,37809,2,0,P|364:220|319:215,1,90,2|0,0:0|0:0,0:0:0:0:
466,149,38116,1,8,0:0:0:0:
424,252,38269,1,0,0:0:0:0:
323,41,38422,6,0,P|265:104|290:187,1,180,0|8,0:0|0:0,0:0:0:0:
353,127,38881,1,0,0:0:0:0:
232,89,39034,2,0,P|188:79|143:78,1,90,2|0,0:0|0:0,0:0:0:0:
180,200,39340,1,8,0:0:0:0:
71,178,39493,1,0,0:0:0:0:
193,237,39646,6,0,P|197:300|199:336,1,90,2|0,0:0|0:0,0:0:0:0:
290,187,39952,1,8,0:0:0:0:
290,187,40105,1,0,0:0:0:0:
193,237,40258,1,0,0:0:0:0:
222,356,40411,1,0,0:0:0:0:
319,215,40565,1,8,0:0:0:0:
468,270,40718,1,0,0:0:0:0:
343,367,40871,6,0,P|292:297|319:215,1,180,4|8,0:0|0:0,0:0:0:0:
436,148,41330,1,0,0:0:0:0:
374,284,41483,1,8,0:0:0:0:
349,102,41636,1,0,0:0:0:0:
468,270,41789,1,8,0:0:0:0:
193,237,41942,1,4,0:0:0:0:
247,31,42248,5,8,0:0:0:0:
273,301,42401,1,8,0:0:0:0:
143,77,42707,1,6,0:0:0:0:
354,236,43014,1,6,0:0:0:0:
273,301,43167,1,0,0:0:0:0:
231,210,43320,6,0,P|239:113|248:17,1,180,4|8,0:0|0:0,0:0:0:0:
157,125,43779,1,0,0:0:0:0:
278,142,43932,2,0,P|314:145|371:152,1,90,0|0,0:0|0:0,0:0:0:0:
335,42,44238,1,8,0:0:0:0:
354,236,44391,2,0,P|426:212|444:113,1,180,0|0,0:0|0:0,0:0:0:0:
459,241,44850,6,0,P|461:285|466:336,1,90,8|0,0:0|0:0,0:0:0:0:
367,151,45156,1,0,0:0:0:0:
478,103,45309,1,0,0:0:0:0:
354,236,45463,2,0,P|310:232|264:227,1,90,8|0,0:0|0:0,0:0:0:0:
158,322,45769,6,0,P|202:318|247:315,1,90,2|0,0:0|0:0,0:0:0:0:
359,353,46075,2,0,P|314:349|269:346,1,90,8|0,0:0|0:0,0:0:0:0:
88,245,46381,2,0,P|132:241|177:238,1,90,0|0,0:0|0:0,0:0:0:0:
247,315,46687,1,10,0:0:0:0:
269,127,46840,1,0,0:0:0:0:
333,258,46993,6,0,P|259:210|177:238,1,180,2|8,0:0|0:0,0:0:0:0:
247,315,47452,1,0,0:0:0:0:
348,239,47605,2,0,P|352:193|355:150,1,90,2|0,0:0|0:0,0:0:0:0:
440,296,47911,1,8,0:0:0:0:
509,143,48218,6,0,P|430:107|355:150,1,180,4|10,0:0|0:0,0:0:0:0:
311,44,48677,1,0,0:0:0:0:
182,112,48830,2,0,P|137:106|92:101,1,90,2|0,0:0|0:0,0:0:0:0:
243,192,49136,1,8,0:0:0:0:
296,23,49289,1,0,0:0:0:0:
177,131,49442,6,0,P|157:171|160:215,1,90,2|0,0:0|0:0,0:0:0:0:
329,313,49748,2,0,P|325:266|321:216,1,90,8|0,0:0|0:0,0:0:0:0:
264,111,50054,1,2,0:0:0:0:
216,274,50207,1,0,0:0:0:0:
422,207,50360,2,0,P|380:196|334:199,1,90,8|0,0:0|0:0,0:0:0:0:
160,346,50667,6,0,P|201:358|247:356,1,90,2|2,0:0|0:0,0:0:0:0:
372,285,50973,2,0,P|376:329|381:374,1,90,10|0,0:0|0:0,0:0:0:0:
243,192,51279,1,10,0:0:0:0:
288,341,51432,1,8,0:0:0:0:
440,120,51585,1,8,0:0:0:0:
243,192,51738,6,0,L|422:207,1,180,6|0,0:0|0:0,0:0:0:0:
344,79,52197,1,10,0:0:0:0:
372,285,52350,1,0,0:0:0:0:
502,68,52656,2,0,P|517:106|511:156,1,90,0|8,0:0|0:0,0:0:0:0:
422,207,52963,1,0,0:0:0:0:
334,168,53116,6,0,P|338:123|343:78,1,90,6|0,0:0|0:0,0:0:0:0:
256,36,53422,1,0,0:0:0:0:
168,78,53575,1,0,0:0:0:0:
168,78,53728,2,0,P|173:122|177:167,1,90,10|0,0:0|0:0,0:0:0:0:
128,234,54034,1,0,0:0:0:0:
120,315,54187,1,0,0:0:0:0:
54,201,54340,6,0,P|58:153|62:106,1,90,0|0,0:0|0:0,0:0:0:0:
0,261,54646,1,0,0:0:0:0:
40,331,54799,1,0,0:0:0:0:
128,234,54952,1,10,0:0:0:0:
128,234,55105,1,0,0:0:0:0:
40,331,55258,1,0,0:0:0:0:
40,331,55411,1,0,0:0:0:0:
160,272,55565,6,0,P|156:320|152:365,1,90,2|0,0:0|0:0,0:0:0:0:
249,297,55871,2,0,P|245:252|241:207,1,90,0|0,0:0|0:0,0:0:0:0:
330,355,56177,1,10,0:0:0:0:
366,233,56330,1,0,0:0:0:0:
486,315,56483,2,0,P|443:325|402:309,1,90
411,164,56789,6,0,P|456:157|500:174,1,90,2|0,0:0|0:0,0:0:0:0:
449,240,57095,1,0,0:0:0:0:
449,240,57248,1,2,0:0:0:0:
325,156,57401,2,0,P|332:107|337:66,1,90,8|0,0:0|0:0,0:0:0:0:
366,233,57707,1,2,0:0:0:0:
237,122,57860,1,0,0:0:0:0:
61,218,58014,6,0,L|256:206,1,180,4|8,0:0|0:0,0:0:0:0:
298,358,58473,1,0,0:0:0:0:
321,242,58626,2,0,P|316:286|312:331,1,90,0|0,0:0|0:0,0:0:0:0:
114,296,58932,2,0,P|160:292|203:288,1,90,8|0,0:0|0:0,0:0:0:0:
380,155,59238,6,0,P|338:138|294:141,1,90,2|0,0:0|0:0,0:0:0:0:
216,38,59544,2,0,P|211:82|206:127,1,90,8|0,0:0|0:0,0:0:0:0:
245,257,59850,1,0,0:0:0:0:
188,139,60003,1,0,0:0:0:0:
100,318,60156,2,0,P|55:321|10:325,1,90,10|0,0:0|0:0,0:0:0:0:
133,216,60463,6,0,P|175:229|220:225,1,90,2|0,0:0|0:0,0:0:0:0:
291,120,60769,1,8,0:0:0:0:
343,261,60922,1,0,0:0:0:0:
368,80,61075,1,2,0:0:0:0:
262,293,61228,1,0,0:0:0:0:
432,137,61381,1,10,0:0:0:0:
206,127,61534,1,0,0:0:0:0:
206,127,61610,1,0,0:0:0:0:
206,127,61687,6,0,B|177:24|177:24|128:108,1,198.000006042481,4|8,0:0|0:0,0:0:0:0:
60,136,62146,2,0,B|74:31|74:31|131:103,1,198.000006042481,2|0,0:0|0:0,0:0:0:0:
220,225,62605,1,8,0:0:0:0:
68,295,62758,1,0,0:0:0:0:
269,382,62911,6,0,P|265:337|262:293,1,90,6|0,0:0|0:0,0:0:0:0:
172,353,63218,1,8,0:0:0:0:
220,225,63371,1,0,0:0:0:0:
360,323,63524,2,0,P|356:278|352:233,1,90,2|0,0:0|0:0,0:0:0:0:
262,293,63831,1,8,0:0:0:0:
310,165,63984,1,0,0:0:0:0:
340,355,64136,5,0,0:0:0:0:
350,141,64289,1,0,0:0:0:0:
220,225,64442,1,10,0:0:0:0:
448,276,64595,1,2,0:0:0:0:
194,243,64748,2,0,P|150:238|99:233,1,90,0|0,0:0|0:0,0:0:0:0:
230,136,65054,2,0,P|234:84|238:42,1,90,8|0,0:0|0:0,0:0:0:0:
79,215,65360,6,0,P|62:173|65:129,1,90,2|0,0:0|0:0,0:0:0:0:
115,21,65667,1,8,0:0:0:0:
146,161,65820,1,0,0:0:0:0:
264,60,65973,2,0,P|308:56|353:54,1,90,2|0,0:0|0:0,0:0:0:0:
445,173,66279,1,8,0:0:0:0:
508,53,66432,1,0,0:0:0:0:
359,142,66585,6,0,P|354:186|372:228,1,90,2|0,0:0|0:0,0:0:0:0:
508,247,66891,1,8,0:0:0:0:
465,68,67044,1,0,0:0:0:0:
377,256,67197,2,0,P|372:300|367:345,1,90,0|0,0:0|0:0,0:0:0:0:
257,191,67503,2,0,P|261:146|266:101,1,90,8|0,0:0|0:0,0:0:0:0:
96,257,67809,6,0,P|142:252|185:250,1,90,6|0,0:0|0:0,0:0:0:0:
192,32,68116,1,8,0:0:0:0:
113,126,68269,1,0,0:0:0:0:
280,219,68422,2,0,P|326:222|369:227,1,90,0|0,0:0|0:0,0:0:0:0:
256,382,68728,2,0,P|253:331|250:281,1,90,8|0,0:0|0:0,0:0:0:0:
288,39,69034,6,0,L|280:219,1,180,2|8,0:0|0:0,0:0:0:0:
185,249,69493,1,0,0:0:0:0:
324,135,69646,2,0,P|366:120|410:116,1,90,0|0,0:0|0:0,0:0:0:0:
188,135,69952,2,0,P|145:120|101:116,1,90,8|0,0:0|0:0,0:0:0:0:
327,249,70258,6,0,P|330:293|333:338,1,90,2|0,0:0|0:0,0:0:0:0:
185,249,70565,2,0,P|181:293|178:338,1,90,8|0,0:0|0:0,0:0:0:0:
82,200,70871,1,0,0:0:0:0:
157,65,71024,1,0,0:0:0:0:
261,181,71177,2,0,P|256:136|251:91,1,90,8|0,0:0|0:0,0:0:0:0:
7,90,71483,6,0,P|89:118|157:65,1,180,2|8,0:0|0:0,0:0:0:0:
184,221,71942,1,0,0:0:0:0:
337,119,72095,2,0,P|342:69|347:20,1,90,2|0,0:0|0:0,0:0:0:0:
360,203,72401,1,8,0:0:0:0:
228,136,72554,1,0,0:0:0:0:
444,134,72707,6,0,P|468:216|419:295,1,180,6|8,0:0|0:0,0:0:0:0:
270,232,73167,1,0,0:0:0:0:
336,84,73320,2,0,P|341:156|343:183,1,90,0|0,0:0|0:0,0:0:0:0:
262,347,73626,2,0,P|265:302|268:257,1,90,8|0,0:0|0:0,0:0:0:0:
164,52,73932,6,0,P|174:172|180:237,1,180,2|8,0:0|0:0,0:0:0:0:
59,282,74391,2,0,P|-2:222|22:140,1,180,2|0,0:0|0:0,0:0:0:0:
206,136,74850,1,8,0:0:0:0:
72,55,75003,1,0,0:0:0:0:
179,231,75156,5,0,0:0:0:0:
179,231,75309,1,0,0:0:0:0:
321,24,75463,1,8,0:0:0:0:
416,256,75616,1,0,0:0:0:0:
416,256,75692,1,0,0:0:0:0:
416,256,75769,5,8,0:0:0:0:
97,200,75922,1,0,0:0:0:0:
97,200,75999,1,0,0:0:0:0:
97,200,76075,1,8,0:0:0:0:
451,120,76228,1,0,0:0:0:0:
193,51,76381,6,0,P|185:140|178:230,1,180,6|8,0:0|0:0,0:0:0:0:
333,326,76840,2,0,P|325:236|318:146,1,180,6|0,0:0|0:0,0:0:0:0:
110,73,77299,6,0,P|61:131|96:199,1,161.999995056153,4|0,0:0|0:0,0:0:0:0:
178,230,77605,6,0,P|125:227|76:361,1,198.000006042481,4|8,0:0|0:0,0:0:0:0:
247,303,78065,1,0,0:0:0:0:
201,143,78218,2,0,P|204:94|211:44,1,99.0000030212403
371,217,78524,1,8,0:0:0:0:
135,193,78677,6,0,P|233:221|284:151,1,198.000006042481,2|0,0:0|0:0,0:0:0:0:
84,81,79136,2,0,P|133:80|179:62,1,99.0000030212403,10|0,0:0|0:0,0:0:0:0:
445,119,79442,2,0,P|399:101|350:101,1,99.0000030212403,0|0,0:0|0:0,0:0:0:0:
285,300,79748,1,10,0:0:0:0:
202,143,79901,1,0,0:0:0:0:
482,310,80054,6,0,L|273:299,1,198.000006042481,0|8,0:0|0:0,0:0:0:0:
383,191,80514,1,0,0:0:0:0:
158,271,80667,2,0,P|167:330|172:371,1,99.0000030212403,0|0,0:0|0:0,0:0:0:0:
31,145,80973,1,8,0:0:0:0:
231,238,81126,6,0,L|246:28,1,198.000006042481,2|0,0:0|0:0,0:0:0:0:
335,208,81585,2,0,P|380:215|437:223,1,99.0000030212403,10|0,0:0|0:0,0:0:0:0:
147,88,81891,2,0,P|102:95|45:103,1,99.0000030212403,0|0,0:0|0:0,0:0:0:0:
158,271,82197,1,10,0:0:0:0:
333,90,82350,1,0,0:0:0:0:
107,201,82503,6,0,B|199:162|212:240|304:201,1,198.000006042481,0|8,0:0|0:0,0:0:0:0:
430,38,82963,1,0,0:0:0:0:
251,126,83116,2,0,P|246:59|245:23,1,99.0000030212403
385,241,83422,1,8,0:0:0:0:
495,115,83575,6,0,P|421:55|332:89,1,198.000006042481,2|0,0:0|0:0,0:0:0:0:
243,257,84034,1,10,0:0:0:0:
147,88,84187,1,0,0:0:0:0:
340,211,84340,2,0,P|391:214|445:218,1,99.0000030212403,0|0,0:0|0:0,0:0:0:0:
158,271,84646,2,0,P|153:323|148:378,1,99.0000030212403,10|0,0:0|0:0,0:0:0:0:
68,46,84952,6,0,P|74:139|162:174,1,198.000006042481,0|8,0:0|0:0,0:0:0:0:
245,27,85411,1,0,0:0:0:0:
415,136,85565,2,0,P|365:131|316:126,1,99.0000030212403,2|0,0:0|0:0,0:0:0:0:
317,291,85871,1,8,0:0:0:0:
442,45,86024,6,0,L|244:26,1,198.000006042481,2|0,0:0|0:0,0:0:0:0:
243,257,86483,1,8,0:0:0:0:
147,88,86636,1,0,0:0:0:0:
143,296,86789,1,0,0:0:0:0:
340,211,86942,1,2,0:0:0:0:
83,150,87095,1,10,0:0:0:0:
415,136,87401,6,0,L|430:343,1,198.000006042481,4|8,0:0|0:0,0:0:0:0:
340,211,87860,1,0,0:0:0:0:
494,178,88014,2,0,P|499:116|502:80,1,99.0000030212403,0|0,0:0|0:0,0:0:0:0:
451,260,88320,1,8,0:0:0:0:
309,23,88473,6,0,P|238:85|264:175,1,198.000006042481,0|0,0:0|0:0,0:0:0:0:
420,107,88932,2,0,P|415:57|409:8,1,99.0000030212403,8|0,0:0|0:0,0:0:0:0:
364,202,89238,2,0,P|342:156|320:113,1,99.0000030212403,0|0,0:0|0:0,0:0:0:0:
287,282,89544,1,8,0:0:0:0:
143,236,89697,1,0,0:0:0:0:
226,79,89850,6,0,P|167:35|178:125,1,198.000006042481,2|8,0:0|0:0,0:0:0:0:
320,113,90309,1,0,0:0:0:0:
185,251,90463,2,0,P|196:309|205:347,1,99.0000030212403,2|0,0:0|0:0,0:0:0:0:
256,192,90769,1,8,0:0:0:0:
427,217,90922,6,0,P|335:245|256:192,1,198.000006042481,2|2,0:0|0:0,0:0:0:0:
367,40,91381,1,10,0:0:0:0:
450,197,91534,1,0,0:0:0:0:
243,168,91687,2,0,P|240:118|237:69,1,99.0000030212403
312,273,91993,2,0,P|308:322|306:371,1,99.0000030212403,10|0,0:0|0:0,0:0:0:0:
348,140,92299,5,2,0:0:0:0:
450,197,92452,1,0,0:0:0:0:
210,267,92605,2,0,P|161:262|112:258,1,99.0000030212403,8|2,0:0|0:0,0:0:0:0:
7,121,92911,2,0,P|56:116|105:112,1,99.0000030212403,0|0,0:0|0:0,0:0:0:0:
32,250,93218,1,8,0:0:0:0:
144,29,93371,6,0,P|128:122|201:182,1,198.000006042481,2|0,0:0|0:0,0:0:0:0:
376,237,93830,2,0,P|327:229|277:229,1,99.0000030212403,10|0,0:0|0:0,0:0:0:0:
210,92,94136,1,2,0:0:0:0:
229,304,94289,1,0,0:0:0:0:
312,135,94442,1,8,0:0:0:0:
107,229,94595,1,2,0:0:0:0:
256,331,94748,6,0,P|310:328|371:324,1,99.0000030212403,4|0,0:0|0:0,0:0:0:0:
479,188,95054,1,8,0:0:0:0:
312,135,95207,1,0,0:0:0:0:
377,309,95360,1,0,0:0:0:0:
346,36,95514,1,0,0:0:0:0:
201,182,95667,1,10,0:0:0:0:
492,211,95820,5,6,0:0:0:0:
229,304,96126,1,6,0:0:0:0:
270,22,96432,1,6,0:0:0:0:
201,182,96585,2,0,L|193:65,1,99.0000030212403,2|0,0:0|0:0,0:0:0:0:
40,132,96891,6,0,P|41:64|138:60,1,161.999995056153,4|0,0:0|0:0,0:0:0:0:
194,83,97197,6,0,P|285:112|363:57,1,198.000006042481,4|8,0:0|0:0,0:0:0:0:
270,22,97656,1,0,0:0:0:0:
274,234,97809,2,0,P|270:285|266:339,1,99.0000030212403,0|0,0:0|0:0,0:0:0:0:
355,181,98116,1,8,0:0:0:0:
76,310,98269,6,0,B|139:306|139:306|190:336|190:336|266:332,1,198.000006042481,2|0,0:0|0:0,0:0:0:0:
469,279,98728,2,0,P|422:293|373:287,1,99.0000030212403,10|0,0:0|0:0,0:0:0:0:
161,211,99034,2,0,P|209:217|256:203,1,99.0000030212403,0|0,0:0|0:0,0:0:0:0:
363,56,99340,2,0,L|368:157,1,99.0000030212403,10|0,0:0|0:0,0:0:0:0:
468,37,99646,6,0,L|259:24,1,198.000006042481,0|8,0:0|0:0,0:0:0:0:
202,131,100105,1,0,0:0:0:0:
60,49,100258,1,0,0:0:0:0:
51,242,100411,2,0,P|47:293|43:342,1,99.0000030212403,0|8,0:0|0:0,0:0:0:0:
110,143,100718,6,0,P|165:219|263:199,1,198.000006042481,2|0,0:0|0:0,0:0:0:0:
194,32,101177,2,0,P|198:81|202:130,1,99.0000030212403,10|0,0:0|0:0,0:0:0:0:
412,125,101483,2,0,P|364:111|315:110,1,99.0000030212403,0|0,0:0|0:0,0:0:0:0:
340,264,101789,1,10,0:0:0:0:
202,130,101942,1,0,0:0:0:0:
189,328,102095,6,0,L|202:130,1,198.000006042481,0|8,0:0|0:0,0:0:0:0:
83,268,102554,1,0,0:0:0:0:
103,82,102707,2,0,P|108:131|114:180,1,99.0000030212403,0|0,0:0|0:0,0:0:0:0:
209,28,103014,1,8,0:0:0:0:
233,225,103167,1,2,0:0:0:0:
336,84,103320,6,0,P|387:88|437:93,1,99.0000030212403,0|0,0:0|0:0,0:0:0:0:
256,200,103626,2,0,P|206:204|157:208,1,99.0000030212403,8|0,0:0|0:0,0:0:0:0:
318,106,103932,1,0,0:0:0:0:
186,302,104085,1,0,0:0:0:0:
340,193,104238,1,8,0:0:0:0:
123,96,104391,1,2,0:0:0:0:
285,282,104544,6,0,L|482:291,1,198.000006042481,6|8,0:0|0:0,0:0:0:0:
411,130,105003,1,0,0:0:0:0:
256,200,105156,2,0,P|206:203|157:207,1,99.0000030212403,2|0,0:0|0:0,0:0:0:0:
256,49,105463,1,8,0:0:0:0:
462,198,105616,6,0,P|491:109|421:47,1,198.000006042481,2|0,0:0|0:0,0:0:0:0:
282,123,106075,1,8,0:0:0:0:
434,213,106228,1,0,0:0:0:0:
247,231,106381,2,0,P|252:288|256:332,1,99.0000030212403,0|0,0:0|0:0,0:0:0:0:
334,190,106687,1,10,0:0:0:0:
193,151,106840,1,0,0:0:0:0:
340,275,106993,6,0,P|406:233|409:155,1,161.999995056153,6|0,0:0|0:0,0:0:0:0:
306,109,107452,1,0,0:0:0:0:
434,67,107605,2,0,P|358:51|306:109,1,161.999995056153,10|0,0:0|0:0,0:0:0:0:
227,232,108065,6,0,L|215:70,1,161.999995056153,2|0,0:0|0:0,0:0:0:0:
45,92,108524,2,0,P|85:91|123:79,1,80.9999975280763
193,151,108830,1,8,0:0:0:0:
193,151,108983,1,0,0:0:0:0:
103,265,109136,2,0,P|108:215|114:169,1,80.9999975280763
231,314,109442,6,0,P|155:293|95:342,1,161.999995056153,2|0,0:0|0:0,0:0:0:0:
202,243,109901,1,0,0:0:0:0:
436,269,110054,2,0,P|378:216|303:235,1,161.999995056153,10|0,0:0|0:0,0:0:0:0:
436,178,110513,1,0,0:0:0:0:
292,356,110667,6,0,P|289:315|287:275,1,80.9999975280763,2|0,0:0|0:0,0:0:0:0:
250,169,110973,1,0,0:0:0:0:
250,169,111126,1,0,0:0:0:0:
333,46,111279,2,0,P|328:86|325:126,1,80.9999975280763,10|8,0:0|0:0,0:0:0:0:
167,197,111585,1,8,0:0:0:0:
167,197,111661,1,0,0:0:0:0:
167,197,111738,1,0,0:0:0:0:
167,197,111815,1,0,0:0:0:0:
167,197,111891,6,0,P|241:254|324:211,1,198.000006042481,4|8,0:0|0:0,0:0:0:0:
237,36,112350,1,0,0:0:0:0:
351,132,112503,2,0,P|400:130|449:123,1,99.0000030212403,0|0,0:0|0:0,0:0:0:0:
250,169,112809,1,8,0:0:0:0:
256,21,112963,1,0,0:0:0:0:
76,126,113116,6,0,L|83:27,1,99.0000030212403,0|0,0:0|0:0,0:0:0:0:
34,229,113422,2,0,P|85:222|147:216,1,99.0000030212403,10|0,0:0|0:0,0:0:0:0:
224,130,113728,1,2,0:0:0:0:
175,324,113881,1,0,0:0:0:0:
205,108,114034,1,8,0:0:0:0:
259,352,114187,1,2,0:0:0:0:
341,78,114340,6,0,P|381:160|302:213,1,198.000006042481,2|8,0:0|0:0,0:0:0:0:
159,192,114799,1,0,0:0:0:0:
259,352,114952,1,0,0:0:0:0:
259,352,115105,1,0,0:0:0:0:
185,225,115258,2,0,P|179:286|173:337,1,99.0000030212403,8|0,0:0|0:0,0:0:0:0:
69,218,115565,6,0,P|60:147|54:97,1,99.0000030212403,2|0,0:0|0:0,0:0:0:0:
154,51,115871,1,10,0:0:0:0:
268,201,116024,1,0,0:0:0:0:
341,78,116177,2,0,P|294:74|242:71,1,99.0000030212403,0|0,0:0|0:0,0:0:0:0:
349,260,116483,2,0,L|361:152,1,99.0000030212403,10|0,0:0|0:0,0:0:0:0:
129,304,116789,6,0,B|215:291|215:291|273:256|268:201,1,198.000006042481,6|8,0:0|0:0,0:0:0:0:
146,79,117248,1,0,0:0:0:0:
85,224,117401,2,0,L|182:209,1,99.0000030212403
301,357,117707,1,8,0:0:0:0:
359,161,117860,1,0,0:0:0:0:
387,341,118014,6,0,P|384:280|381:234,1,99.0000030212403
268,72,118320,2,0,P|265:133|262:179,1,99.0000030212403,8|0,0:0|0:0,0:0:0:0:
231,311,118626,1,0,0:0:0:0:
392,143,118779,1,0,0:0:0:0:
175,111,118932,2,0,P|180:160|183:209,1,99.0000030212403,8|0,0:0|0:0,0:0:0:0:
296,54,119238,5,14,0:0:0:0:
166,242,119391,1,0,0:0:0:0:
210,25,119544,1,8,0:0:0:0:
231,311,119697,1,2,0:0:0:0:
149,90,119850,1,8,0:0:0:0:
359,161,120003,1,0,0:0:0:0:
70,121,120156,1,8,0:0:0:0:
311,263,120309,1,0,0:0:0:0:
311,263,120386,1,0,0:0:0:0:
311,263,120463,6,0,P|367:257|426:252,1,99.0000030212403,8|0,0:0|0:0,0:0:0:0:
230,110,120769,1,8,0:0:0:0:
152,335,120922,1,0,0:0:0:0:
152,335,120998,1,0,0:0:0:0:
152,335,121075,5,8,0:0:0:0:
70,121,121228,1,8,0:0:0:0:
235,307,121381,1,8,0:0:0:0:
296,54,121534,1,8,0:0:0:0:
296,54,121610,1,8,0:0:0:0:
296,54,121687,6,0,P|377:36|449:122,1,198.000006042481,6|8,0:0|0:0,0:0:0:0:
337,265,122146,2,0,B|358:121|358:121|390:186,1,198.000006042481,2|0,0:0|0:0,0:0:0:0:
446,299,122605,1,8,0:0:0:0:
235,307,122758,6,0,P|154:256|158:162,1,198.000006042481,2|0,0:0|0:0,0:0:0:0:
341,82,123218,2,0,P|347:134|352:181,1,99.0000030212403,8|0,0:0|0:0,0:0:0:0:
311,350,123524,1,0,0:0:0:0:
230,110,123677,1,0,0:0:0:0:
381,168,123830,1,8,0:0:0:0:
121,249,123983,2,0,L|127:298,1,49.5000015106202,0|0,3:0|3:0,0:0:0:0:
137,126,124136,5,6,0:0:0:0:
25,325,124289,1,0,0:0:0:0:
117,90,124442,1,10,0:0:0:0:
184,377,124595,1,2,0:0:0:0:
20,79,124901,1,8,0:0:0:0:
244,307,125207,6,0,P|312:240|288:149,1,198.000006042481,2|0,0:0|0:0,0:0:0:0:
177,30,125667,1,8,0:0:0:0:
121,249,125820,1,0,0:0:0:0:
249,73,125973,1,2,0:0:0:0:
35,172,126126,1,0,0:0:0:0:
35,172,126202,1,0,0:0:0:0:
35,172,126279,2,0,P|37:196|40:221,1,49.5000015106202,12|0,0:0|0:0,0:0:0:0:
151,292,126432,2,0,P|148:316|145:341,1,49.5000015106202,0|0,3:0|0:0,0:0:0:0:
170,115,126585,6,0,P|101:97|35:192,1,180,4|8,0:0|0:0,0:0:0:0:
55,319,127044,1,0,0:0:0:0:
213,232,127197,2,0,P|174:211|129:209,1,90,0|0,0:0|0:0,0:0:0:0:
155,371,127503,1,8,0:0:0:0:
318,278,127656,6,0,L|330:98,1,180,2|0,0:0|0:0,0:0:0:0:
407,236,128116,2,0,P|450:225|495:221,1,90,10|0,0:0|0:0,0:0:0:0:
399,32,128422,1,0,0:0:0:0:
244,102,128575,1,0,0:0:0:0:
419,142,128728,2,0,L|411:42,1,90,10|0,0:0|0:0,0:0:0:0:
183,43,129034,6,0,P|162:126|228:182,1,180,0|8,0:0|0:0,0:0:0:0:
327,88,129493,1,0,0:0:0:0:
325,268,129646,2,0,P|322:220|319:178,1,90,0|0,0:0|0:0,0:0:0:0:
271,19,129952,1,8,0:0:0:0:
419,142,130105,6,0,L|407:334,1,180,2|0,0:0|0:0,0:0:0:0:
319,178,130565,1,8,0:0:0:0:
427,48,130718,1,2,0:0:0:0:
454,233,130871,1,0,0:0:0:0:
244,102,131024,1,0,0:0:0:0:
325,268,131177,2,0,P|322:220|319:178,1,90,10|0,0:0|0:0,0:0:0:0:
263,326,131483,6,0,P|190:276|105:296,1,180,0|8,0:0|0:0,0:0:0:0:
50,194,131942,1,0,0:0:0:0:
135,98,132095,2,0,P|140:152|144:196,1,90,0|0,0:0|0:0,0:0:0:0:
172,369,132401,1,8,0:0:0:0:
246,155,132554,6,0,P|332:147|387:216,1,180,2|0,0:0|0:0,0:0:0:0:
460,361,133014,2,0,P|465:316|470:271,1,90,10|0,0:0|0:0,0:0:0:0:
361,327,133320,1,0,0:0:0:0:
481,185,133473,1,0,0:0:0:0:
290,244,133626,2,0,P|227:249|160:208,1,135,10|0,0:0|0:0,0:0:0:0:
143,187,133932,6,0,L|127:366,1,180,4|10,0:0|0:0,0:0:0:0:
46,226,134391,1,0,0:0:0:0:
234,371,134544,2,0,P|230:326|225:281,1,90,2|0,0:0|0:0,0:0:0:0:
154,90,134850,1,8,0:0:0:0:
320,175,135003,6,0,P|404:198|467:139,1,180,2|0,0:0|0:0,0:0:0:0:
332,26,135463,1,8,0:0:0:0:
234,201,135616,1,0,0:0:0:0:
384,117,135769,1,10,0:0:0:0:
414,309,135922,1,4,0:3:0:0:
233,163,136075,2,0,P|239:118|245:73,1,90,8|0,0:0|0:0,0:0:0:0:
321,286,136381,6,0,B|240:294|240:294|188:292|156:248,1,180,6|8,0:0|0:0,0:0:0:0:
144,85,136840,1,0,0:0:0:0:
337,119,136993,2,0,P|341:163|348:211,1,90,0|0,0:0|0:0,0:0:0:0:
245,73,137299,1,10,0:0:0:0:
102,182,137452,6,0,P|74:264|130:329,1,180,2|0,0:0|0:0,0:0:0:0:
286,369,137911,2,0,P|330:363|375:356,1,90,8|0,0:0|0:0,0:0:0:0:
214,290,138218,2,0,P|208:335|202:380,1,90,0|0,0:0|0:0,0:0:0:0:
233,207,138524,2,0,P|227:162|221:117,1,90,8|0,0:0|0:0,0:0:0:0:
297,268,138830,5,2,0:0:0:0:
297,268,138983,1,2,0:0:0:0:
409,121,139136,2,0,P|417:64|423:24,1,90,10|0,0:0|0:0,0:0:0:0:
401,209,139442,2,0,P|445:204|490:202,1,90,2|0,0:0|0:0,0:0:0:0:
326,130,139748,1,8,0:0:0:0:
297,268,139901,6,0,L|106:259,1,180,2|0,0:0|0:0,0:0:0:0:
32,146,140360,1,8,0:0:0:0:
136,52,140514,1,2,0:0:0:0:
206,184,140667,2,0,P|210:139|215:94,1,90
132,280,140973,1,10,0:0:0:0:
115,61,141126,1,0,0:0:0:0:
292,130,141279,6,0,P|287:44|208:13,1,180,6|8,0:0|0:0,0:0:0:0:
32,146,141738,2,0,B|92:151|92:151|146:178|146:178|211:183,1,180,2|0,0:0|0:0,0:0:0:0:
310,325,142197,2,0,P|302:278|294:234,1,90,10|0,0:0|0:0,0:0:0:0:
236,367,142503,5,2,0:0:0:0:
307,151,142656,1,0,0:0:0:0:
403,270,142809,2,0,P|397:314|392:359,1,90,10|0,0:0|0:0,0:0:0:0:
294,236,143116,1,0,0:0:0:0:
357,78,143269,1,0,0:0:0:0:
477,201,143422,2,0,P|483:245|489:290,1,90,10|0,0:0|3:0,0:0:0:0:
438,122,143728,6,0,P|444:77|450:33,1,90,8|0,0:0|0:0,0:0:0:0:
294,236,144034,1,8,0:0:0:0:
294,236,144187,1,0,0:0:0:0:
343,37,144340,1,0,0:0:0:0:
385,280,144493,1,0,0:0:0:0:
265,71,144646,1,10,0:0:0:0:
379,312,144799,1,0,0:0:0:0:
343,37,144952,5,6,0:0:0:0:
204,262,145105,1,2,0:0:0:0:
343,37,145565,5,6,0:0:0:0:
268,322,145719,1,2,0:0:0:0:
194,116,145871,1,8,0:0:0:0:
204,262,146024,1,0,0:0:0:0:
354,171,146177,6,0,P|348:104|343:37,1,135.000005149842,4|8,0:0|0:0,0:0:0:0:
263,170,146636,1,0,0:0:0:0:
263,170,146789,2,0,P|252:201|249:235,1,67.5000025749208,0|0,0:0|0:0,0:0:0:0:
194,116,147095,2,0,P|191:82|185:49,1,67.5000025749208,8|0,0:0|0:0,0:0:0:0:
140,186,147401,6,0,P|106:188|72:193,1,67.5000025749208,2|0,0:0|0:0,0:0:0:0:
52,99,147707,2,0,P|49:132|44:166,1,67.5000025749208,8|0,0:0|0:0,0:0:0:0:
13,255,148014,2,0,P|19:288|23:321,1,67.5000025749208,0|0,0:0|0:0,0:0:0:0:
101,364,148320,1,8,0:0:0:0:
101,364,148473,1,0,0:0:0:0:
174,282,148626,6,0,L|318:295,1,135.000005149842,2|8,0:0|0:0,0:0:0:0:
435,305,149085,1,0,0:0:0:0:
346,361,149238,2,0,P|329:297|355:236,2,135.000005149842,2|8|2,0:0|0:0|0:0,0:0:0:0:
435,305,150003,5,0,0:0:0:0:
369,209,150156,2,0,P|367:162|367:136,1,67.5000025749208,8|0,0:0|0:0,0:0:0:0:
279,42,150463,2,0,P|277:110|275:177,1,135.000005149842,2|8,0:0|0:0,0:0:0:0:
203,244,150922,1,0,0:0:0:0:
68,200,151075,6,0,P|101:193|134:189,1,67.5000025749208
203,244,151381,1,8,0:0:0:0:
203,244,151534,1,0,0:0:0:0:
123,281,151687,2,0,P|128:314|132:347,1,67.5000025749208,2|0,0:0|0:0,0:0:0:0:
228,269,151993,2,0,P|261:275|294:279,1,67.5000025749208,8|0,0:0|0:0,0:0:0:0:
369,209,152299,5,2,0:0:0:0:
414,299,152452,2,0,P|409:338|406:372,2,67.5000025749208,0|8|0,0:0|0:0|0:0,0:0:0:0:
502,313,152911,2,0,P|499:279|496:245,1,67.5000025749208,0|0,0:0|0:0,0:0:0:0:
450,167,153218,2,0,P|453:133|456:99,1,67.5000025749208,8|0,0:0|0:0,0:0:0:0:
369,209,153524,5,0,3:0:0:0:
414,299,153677,1,0,3:0:0:0:
450,167,153830,1,8,0:0:0:0:
278,207,153983,1,0,0:0:0:0:
496,245,154136,1,8,0:0:0:0:
278,333,154289,1,0,0:0:0:0:
313,96,154442,1,8,0:0:0:0:
367,374,154595,6,0,L|187:358,1,180,6|8,0:0|0:0,0:0:0:0:
68,200,155054,1,8,0:0:0:0:
414,299,155360,1,4,0:0:0:0:
86,319,155667,2,0,L|95:229,1,90,4|0,0:0|0:0,0:0:0:0:
179,66,155973,6,0,P|184:155|188:245,1,180,4|8,0:0|0:0,0:0:0:0:
278,333,156432,1,0,0:0:0:0:
390,207,156585,2,0,P|434:207|477:221,1,90,0|0,0:0|0:0,0:0:0:0:
415,331,156891,1,8,0:0:0:0:
300,226,157044,6,0,B|310:163|310:163|348:119|348:119|355:61,1,180,0|0,0:0|0:0,0:0:0:0:
390,207,157503,1,8,0:0:0:0:
483,124,157656,1,0,0:0:0:0:
265,84,157809,1,0,0:0:0:0:
265,84,157963,1,0,0:0:0:0:
406,241,158116,2,0,L|415:331,1,90,8|0,0:0|0:0,0:0:0:0:
210,237,158422,6,0,L|310:224,1,90,2|0,0:0|0:0,0:0:0:0:
158,304,158728,2,0,L|58:291,1,90,8|0,0:0|0:0,0:0:0:0:
272,348,159034,2,0,L|172:335,1,90,0|0,0:0|0:0,0:0:0:0:
92,121,159340,2,0,P|97:165|102:210,1,90,10|0,0:0|0:0,0:0:0:0:
180,81,159646,6,0,B|224:69|261:102|261:102|308:85|348:116,1,180,2|8,0:0|0:0,0:0:0:0:
281,13,160105,1,0,0:0:0:0:
204,164,160258,2,0,P|243:185|292:181,1,90,2|0,0:0|0:0,0:0:0:0:
392,39,160565,1,8,0:0:0:0:
409,249,160871,6,0,P|338:201|348:116,1,180,4|10,0:0|0:0,0:0:0:0:
475,74,161330,1,0,0:0:0:0:
412,168,161483,2,0,P|458:176|506:184,1,90,2|0,0:0|0:0,0:0:0:0:
325,265,161789,2,0,P|329:312|332:360,1,90,8|0,0:0|0:0,0:0:0:0:
288,182,162095,5,2,0:0:0:0:
135,242,162248,1,0,0:0:0:0:
242,289,162401,2,0,P|249:244|255:200,1,90,8|0,0:0|0:0,0:0:0:0:
160,330,162707,1,2,0:0:0:0:
160,330,162860,1,0,0:0:0:0:
26,266,163014,2,0,P|70:261|115:256,1,90,8|0,0:0|0:0,0:0:0:0:
192,127,163320,5,2,0:0:0:0:
160,330,163473,1,2,0:0:0:0:
61,176,163626,2,0,P|64:122|66:85,1,90,10|0,0:0|0:0,0:0:0:0:
205,39,163932,1,10,0:0:0:0:
135,242,164085,1,8,0:0:0:0:
76,61,164238,1,8,0:0:0:0:
255,200,164391,6,0,L|434:207,1,180,6|0,0:0|0:0,0:0:0:0:
396,104,164850,1,10,0:0:0:0:
339,246,165003,2,0,P|342:290|346:335,1,90,0|0,0:0|0:0,0:0:0:0:
255,200,165309,1,0,0:0:0:0:
450,313,165463,2,0,P|454:268|458:223,1,90,8|0,0:0|0:0,0:0:0:0:
429,123,165769,5,6,0:0:0:0:
334,163,165922,1,0,0:0:0:0:
319,43,166075,2,0,P|314:87|310:132,1,90,0|0,0:0|0:0,0:0:0:0:
255,200,166381,1,10,0:0:0:0:
255,200,166534,1,0,0:0:0:0:
201,132,166687,2,0,P|197:87|193:43,1,90,0|0,0:0|0:0,0:0:0:0:
107,104,166993,6,0,P|103:148|99:193,1,90,0|0,0:0|0:0,0:0:0:0:
130,267,167299,1,0,0:0:0:0:
209,270,167452,1,0,0:0:0:0:
255,200,167605,2,0,L|350:191,2,90,10|0|0,0:0|0:0|0:0,0:0:0:0:
201,132,168065,1,0,0:0:0:0:
209,270,168218,6,0,P|247:285|297:274,1,90,2|0,0:0|0:0,0:0:0:0:
344,191,168524,1,0,0:0:0:0:
344,191,168677,1,0,0:0:0:0:
408,262,168830,2,0,P|413:311|417:357,1,90,10|0,0:0|0:0,0:0:0:0:
491,253,169136,2,0,P|496:204|500:158,1,90,0|0,0:0|0:0,0:0:0:0:
414,44,169442,5,2,0:0:0:0:
348,103,169595,2,0,P|337:154|345:195,2,90,0|0|2,0:0|0:0|0:0,0:0:0:0:
491,83,170054,1,8,0:0:0:0:
334,19,170207,1,0,0:0:0:0:
343,190,170360,2,0,P|339:234|334:279,1,90,2|0,0:0|0:0,0:0:0:0:
131,184,170667,6,0,P|190:121|274:142,1,180,4|8,0:0|0:0,0:0:0:0:
334,279,171126,1,0,0:0:0:0:
173,350,171279,2,0,P|169:305|167:260,1,90,0|0,0:0|0:0,0:0:0:0:
273,141,171585,2,0,P|270:185|267:230,1,90,8|0,0:0|0:0,0:0:0:0:
130,184,171891,6,0,P|86:188|43:176,1,90,2|0,0:0|0:0,0:0:0:0:
192,106,172197,2,0,P|199:61|206:18,1,90,8|0,0:0|0:0,0:0:0:0:
273,141,172503,1,0,0:0:0:0:
365,36,172656,1,0,0:0:0:0:
405,175,172809,2,0,P|360:171|315:168,1,90,10|0,0:0|0:0,0:0:0:0:
477,103,173116,6,0,P|430:177|440:264,1,180,2|8,0:0|0:0,0:0:0:0:
337,338,173575,1,0,0:0:0:0:
205,218,173728,2,0,P|251:215|294:212,1,90,2|0,0:0|0:0,0:0:0:0:
457,289,174034,1,10,0:0:0:0:
458,142,174187,1,0,0:0:0:0:
458,142,174263,1,0,0:0:0:0:
458,142,174340,6,0,B|444:37|444:37|387:109,1,198.000006042481,4|8,0:0|0:0,0:0:0:0:
312,133,174799,2,0,B|341:30|341:30|390:114,1,198.000006042481,2|0,0:0|0:0,0:0:0:0:
440,265,175258,1,8,0:0:0:0:
306,320,175411,1,0,0:0:0:0:
169,198,175565,6,0,P|173:249|178:296,1,90,6|0,0:0|0:0,0:0:0:0:
51,246,175871,1,8,0:0:0:0:
182,328,176024,1,0,0:0:0:0:
287,150,176177,2,0,P|291:201|295:247,1,90,2|0,0:0|0:0,0:0:0:0:
169,198,176483,1,8,0:0:0:0:
300,280,176636,1,0,0:0:0:0:
208,121,176789,6,0,P|213:71|218:25,1,90,0|0,0:0|0:0,0:0:0:0:
169,198,177095,1,10,0:0:0:0:
112,53,177248,1,2,0:0:0:0:
308,125,177401,2,0,P|354:121|407:116,1,90,0|0,0:0|0:0,0:0:0:0:
258,205,177707,2,0,P|213:201|169:198,1,90,8|0,0:0|0:0,0:0:0:0:
306,320,178014,5,2,0:0:0:0:
421,209,178167,2,0,P|427:154|432:112,1,90,0|8,0:0|0:0,0:0:0:0:
307,29,178473,1,0,0:0:0:0:
170,123,178626,2,0,P|231:185|318:174,1,180,2|8,0:0|0:0,0:0:0:0:
402,21,179085,1,0,0:0:0:0:
436,243,179238,5,2,0:0:0:0:
262,100,179391,1,0,0:0:0:0:
308,283,179544,2,0,P|304:336|301:378,1,90,8|0,0:0|0:0,0:0:0:0:
219,268,179850,2,0,P|171:281|123:277,1,90,0|0,0:0|0:0,0:0:0:0:
164,154,180156,1,8,0:0:0:0:
311,248,180309,1,0,0:0:0:0:
266,52,180463,6,0,P|261:101|256:149,1,90,6|0,0:0|0:0,0:0:0:0:
409,265,180769,2,0,P|414:216|418:168,1,90,8|0,0:0|0:0,0:0:0:0:
356,37,181075,1,0,0:0:0:0:
175,117,181228,1,0,0:0:0:0:
332,225,181381,2,0,P|337:176|341:128,1,90,8|0,0:0|0:0,0:0:0:0:
220,254,181687,6,0,B|175:223|130:243|130:243|103:288|46:289,1,180,2|8,0:0|0:0,0:0:0:0:
41,182,182146,1,0,0:0:0:0:
184,343,182299,2,0,P|236:349|277:329,1,90,0|0,0:0|0:0,0:0:0:0:
355,202,182605,2,0,P|361:251|367:298,1,90,8|0,0:0|0:0,0:0:0:0:
279,157,182911,6,0,P|285:92|288:56,1,90,2|0,0:0|0:0,0:0:0:0:
488,111,183218,2,0,P|441:95|392:100,1,90,8|0,0:0|0:0,0:0:0:0:
275,193,183524,1,0,0:0:0:0:
368,17,183677,1,0,0:0:0:0:
435,180,183830,2,0,P|441:229|446:277,1,90,8|0,0:0|0:0,0:0:0:0:
220,254,184136,6,0,P|305:270|356:201,1,180,2|8,0:0|0:0,0:0:0:0:
240,64,184595,1,0,0:0:0:0:
123,248,184748,1,2,0:0:0:0:
317,122,184901,1,0,0:0:0:0:
72,92,185054,2,0,P|67:141|63:186,1,90,8|0,0:0|0:0,0:0:0:0:
175,342,185360,6,0,L|162:146,1,180,6|8,0:0|0:0,0:0:0:0:
40,217,185820,1,0,0:0:0:0:
267,291,185973,2,0,P|270:241|273:195,1,90,2|0,0:0|0:0,0:0:0:0:
195,44,186279,2,0,P|191:88|188:133,1,90,8|0,0:0|0:0,0:0:0:0:
367,228,186585,6,0,P|368:141|297:92,1,180,2|8,0:0|0:0,0:0:0:0:
97,143,187044,1,2,0:0:0:0:
172,264,187197,1,0,0:0:0:0:
195,44,187350,1,0,0:0:0:0:
289,181,187503,1,8,0:0:0:0:
71,119,187656,1,0,0:0:0:0:
264,266,187809,6,0,B|327:262|327:262|373:229|373:229|446:225,1,180,0|8,0:0|0:0,0:0:0:0:
381,103,188269,1,0,0:0:0:0:
407,324,188422,2,0,P|460:317|505:312,1,90,2|0,0:0|0:0,0:0:0:0:
289,181,188728,2,0,P|282:128|276:83,1,90,8|0,0:0|0:0,0:0:0:0:
246,277,189034,6,0,P|162:296|99:237,1,180,2|8,0:0|0:0,0:0:0:0:
145,53,189493,1,0,0:0:0:0:
187,214,189646,1,0,0:0:0:0:
283,57,189799,2,0,P|290:34|298:7,1,45,0|0,0:0|0:0,0:0:0:0:
343,172,189952,2,0,P|359:189|376:208,1,45,10|0,0:0|0:0,0:0:0:0:
207,176,190105,2,0,P|183:181|154:187,1,45,0|0,0:0|0:0,0:0:0:0:
275,134,190258,5,6,0:0:0:0:
321,340,190411,1,2,0:0:0:0:
453,181,190565,1,8,0:0:0:0:
187,214,190718,1,0,0:0:0:0:
406,345,190871,2,0,P|409:295|412:245,1,90,0|0,0:0|0:0,0:0:0:0:
372,54,191177,2,0,P|369:103|366:151,1,90,8|0,0:0|0:0,0:0:0:0:
208,326,191483,5,8,0:0:0:0:
116,69,191636,1,0,0:0:0:0:
116,69,191713,1,0,0:0:0:0:
116,69,191789,1,8,0:0:0:0:
308,244,191942,1,0,0:0:0:0:
308,244,192019,1,0,0:0:0:0:
308,244,192095,1,8,0:0:0:0:
76,366,192248,1,0,0:0:0:0:
70,348,192324,1,0,0:0:0:0:
67,328,192401,1,8,0:0:0:0:
194,88,192554,1,0,0:0:0:0:
183,116,192630,1,0,0:0:0:0:
164,139,192707,6,0,P|70:140|33:55,1,180,6|8,0:0|0:0,0:0:0:0:
308,244,193167,2,0,P|402:245|439:160,1,180,6|0,0:0|0:0,0:0:0:0:
169,279,193626,2,0,L|177:374,1,90,12|0,0:0|0:0,0:0:0:0:
208,43,193932,5,4,0:0:0:0:
304,341,194085,1,4,0:0:0:0:
87,239,194238,1,4,0:0:0:0:
425,145,194391,1,4,0:0:0:0:
218,158,194544,6,0,P|252:154|286:152,1,67.5000025749208,8|8,0:0|0:0,0:0:0:0:
342,351,194850,6,0,L|358:157,1,161.999995056153,4|0,0:0|0:0,0:0:0:0:
353,109,195156,6,0,P|281:70|286:152,1,198.000006042481,4|8,0:0|0:0,0:0:0:0:
468,250,195616,1,0,0:0:0:0:
265,310,195769,2,0,P|216:305|166:301,1,99.0000030212403,0|0,0:0|0:0,0:0:0:0:
119,98,196075,1,8,0:0:0:0:
137,316,196228,6,0,P|49:289|47:196,1,198.000006042481,2|0,0:0|0:0,0:0:0:0:
307,107,196687,2,0,P|259:102|206:96,1,99.0000030212403,10|0,0:0|0:0,0:0:0:0:
168,232,196993,1,0,0:0:0:0:
110,38,197146,1,0,0:0:0:0:
263,185,197299,2,0,P|260:232|256:283,1,99.0000030212403,10|0,0:0|0:0,0:0:0:0:
460,331,197605,6,0,P|471:237|388:188,1,198.000006042481,0|8,0:0|0:0,0:0:0:0:
306,363,198065,1,0,0:0:0:0:
107,298,198218,2,0,P|152:315|201:312,1,99.0000030212403
270,168,198524,1,8,0:0:0:0:
306,363,198677,6,0,L|270:168,1,198.000006042481,2|0,0:0|0:0,0:0:0:0:
205,34,199136,2,0,P|199:83|192:133,1,99.0000030212403,10|0,0:0|0:0,0:0:0:0:
262,266,199442,1,0,0:0:0:0:
307,80,199595,1,0,0:0:0:0:
126,190,199748,2,0,P|78:172|29:167,1,99.0000030212403,10|0,0:0|0:0,0:0:0:0:
184,341,200054,6,0,P|277:299|376:305,1,198.000006042481,0|8,0:0|0:0,0:0:0:0:
457,181,200514,1,0,0:0:0:0:
329,53,200667,2,0,P|334:102|338:151,1,99.0000030212403,0|0,0:0|0:0,0:0:0:0:
262,266,200973,1,8,0:0:0:0:
106,112,201126,6,0,P|47:168|125:189,1,198.000006042481,2|0,0:0|0:0,0:0:0:0:
246,81,201585,2,0,P|240:131|236:180,1,99.0000030212403,10|0,0:0|0:0,0:0:0:0:
166,32,201891,1,0,0:0:0:0:
251,229,202044,1,0,0:0:0:0:
436,162,202197,2,0,P|379:155|331:150,1,99.0000030212403,10|0,0:0|0:0,0:0:0:0:
159,277,202503,6,0,L|356:265,1,198.000006042481,0|8,0:0|0:0,0:0:0:0:
473,188,202963,1,0,0:0:0:0:
338,57,203116,2,0,P|393:62|450:68,1,99.0000030212403,2|0,0:0|0:0,0:0:0:0:
246,81,203422,1,8,0:0:0:0:
356,265,203575,6,0,P|328:177|236:180,1,198.000006042481,2|0,0:0|0:0,0:0:0:0:
256,360,204034,1,8,0:0:0:0:
84,312,204187,1,0,0:0:0:0:
283,351,204340,1,0,0:0:0:0:
144,121,204493,1,2,0:0:0:0:
165,370,204646,1,10,0:0:0:0:
48,94,204952,6,0,L|253:80,1,198.000006042481,4|8,0:0|0:0,0:0:0:0:
337,150,205411,1,0,0:0:0:0:
432,22,205565,2,0,P|428:81|425:124,1,99.0000030212403,0|0,0:0|0:0,0:0:0:0:
395,292,205871,1,8,0:0:0:0:
195,201,206024,6,0,P|247:125|337:150,1,198.000006042481,0|0,0:0|0:0,0:0:0:0:
382,321,206483,1,8,0:0:0:0:
245,273,206636,1,0,0:0:0:0:
399,206,206789,2,0,P|446:201|502:196,1,99.0000030212403,0|0,0:0|0:0,0:0:0:0:
285,264,207095,2,0,P|277:329|273:378,1,99.0000030212403,8|0,0:0|0:0,0:0:0:0:
195,201,207401,6,0,B|164:156|117:157|117:157|61:187|18:163,1,198.000006042481,2|8,0:0|0:0,0:0:0:0:
59,51,207860,1,0,0:0:0:0:
210,100,208014,2,0,P|259:97|301:70,1,99.0000030212403,2|0,0:0|0:0,0:0:0:0:
157,14,208320,1,8,0:0:0:0:
109,182,208473,6,0,B|97:379,1,198.000006042481,2|2,0:0|0:0,0:0:0:0:
16,259,208932,1,10,0:0:0:0:
180,341,209085,1,0,0:0:0:0:
189,208,209238,2,0,P|195:282|198:316,1,99.0000030212403
292,169,209544,2,0,P|296:119|300:70,1,99.0000030212403,10|0,0:0|0:0,0:0:0:0:
284,258,209850,5,2,0:0:0:0:
201,100,210003,1,0,0:0:0:0:
418,111,210156,2,0,P|470:108|514:130,1,99.0000030212403,8|2,0:0|0:0,0:0:0:0:
374,242,210463,2,0,P|370:291|367:340,1,99.0000030212403,0|0,0:0|0:0,0:0:0:0:
451,197,210769,1,8,0:0:0:0:
284,258,210922,6,0,L|85:247,1,198.000006042481,2|0,0:0|0:0,0:0:0:0:
1,126,211381,2,0,P|41:144|99:137,1,99.0000030212403,10|0,0:0|0:0,0:0:0:0:
232,21,211687,1,2,0:0:0:0:
338,201,211840,1,0,0:0:0:0:
195,134,211993,1,8,0:0:0:0:
387,33,212146,1,2,0:0:0:0:
457,201,212299,6,0,P|454:153|450:102,1,99.0000030212403,0|0,0:0|0:0,0:0:0:0:
368,226,212605,1,8,0:0:0:0:
304,75,212758,1,0,0:0:0:0:
226,336,212911,1,0,0:0:0:0:
221,118,213065,1,0,0:0:0:0:
430,286,213218,1,10,0:0:0:0:
387,33,213371,5,6,0:0:0:0:
190,209,213677,1,6,0:0:0:0:
409,374,213983,1,6,0:0:0:0:
226,336,214136,2,0,P|278:340|325:343,1,99.0000030212403,2|0,0:0|0:0,0:0:0:0:
140,354,214442,6,0,P|84:303|102:224,1,161.999995056153,4|0,0:0|0:0,0:0:0:0:
190,209,214748,6,0,P|283:205|304:115,1,198.000006042481,4|8,0:0|0:0,0:0:0:0:
144,45,215207,1,0,0:0:0:0:
17,201,215360,2,0,P|28:143|36:90,1,99.0000030212403
158,279,215667,1,8,0:0:0:0:
219,90,215820,6,0,P|289:28|381:73,1,198.000006042481,2|0,0:0|0:0,0:0:0:0:
508,169,216279,2,0,P|461:164|408:178,1,99.0000030212403,10|0,0:0|0:0,0:0:0:0:
333,325,216585,2,0,L|338:216,1,99.0000030212403,0|0,0:0|0:0,0:0:0:0:
158,279,216891,2,0,P|205:274|258:288,1,99.0000030212403,10|0,0:0|0:0,0:0:0:0:
422,373,217197,6,0,L|411:176,1,198.000006042481,0|8,0:0|0:0,0:0:0:0:
333,325,217656,1,0,0:0:0:0:
251,97,217809,2,0,P|256:158|259:198,1,99.0000030212403,0|0,0:0|0:0,0:0:0:0:
200,361,218116,1,8,0:0:0:0:
26,207,218269,6,0,P|65:290|157:278,1,198.000006042481,2|0,0:0|0:0,0:0:0:0:
127,89,218728,1,10,0:0:0:0:
295,203,218881,1,0,0:0:0:0:
104,222,219034,2,0,P|107:172|112:123,1,99.0000030212403,0|0,0:0|0:0,0:0:0:0:
254,286,219340,1,10,0:0:0:0:
345,124,219493,1,0,0:0:0:0:
288,367,219646,6,0,L|492:356,1,198.000006042481,0|8,0:0|0:0,0:0:0:0:
377,240,220105,1,0,0:0:0:0:
475,114,220258,2,0,P|470:174|465:217,1,99.0000030212403,0|0,0:0|0:0,0:0:0:0:
320,343,220565,1,8,0:0:0:0:
217,116,220718,6,0,P|306:86|375:151,1,198.000006042481,2|0,0:0|0:0,0:0:0:0:
253,285,221177,2,0,P|204:289|155:293,1,99.0000030212403,8|0,0:0|0:0,0:0:0:0:
286,182,221483,1,0,0:0:0:0:
320,343,221636,1,0,0:0:0:0:
217,116,221789,1,8,0:0:0:0:
404,271,221942,1,2,0:0:0:0:
199,203,222095,6,0,L|0:190,1,198.000006042481,2|8,0:0|0:0,0:0:0:0:
112,99,222554,1,0,0:0:0:0:
55,302,222707,2,0,P|104:297|154:293,1,99.0000030212403,2|0,0:0|0:0,0:0:0:0:
320,343,223014,1,8,0:0:0:0:
217,116,223167,6,0,P|223:202|324:230,1,198.000006042481,2|0,0:0|0:0,0:0:0:0:
443,83,223626,1,8,0:0:0:0:
286,42,223779,1,0,0:0:0:0:
398,177,223932,2,0,P|449:174|496:172,1,99.0000030212403,0|0,0:0|0:0,0:0:0:0:
289,155,224238,1,10,0:0:0:0:
421,265,224391,1,0,0:0:0:0:
277,316,224544,6,0,L|289:155,1,161.999995056153,6|0,0:0|0:0,0:0:0:0:
198,23,225003,1,0,0:0:0:0:
82,154,225156,2,0,P|159:168|217:115,1,161.999995056153,10|0,0:0|0:0,0:0:0:0:
450,77,225616,6,0,B|401:74|401:74|345:44|345:44|296:41,1,161.999995056153,2|0,0:0|0:0,0:0:0:0:
321,136,226075,1,0,0:0:0:0:
321,136,226228,1,0,0:0:0:0:
270,252,226381,2,0,P|273:308|275:349,1,80.9999975280763,8|0,0:0|0:0,0:0:0:0:
393,207,226687,2,0,P|390:263|387:304,1,80.9999975280763
270,252,226993,6,0,B|191:227|196:294|90:260,1,161.999995056153,2|0,0:0|0:0,0:0:0:0:
104,147,227452,1,0,0:0:0:0:
81,347,227605,2,0,P|25:277|58:199,1,161.999995056153,10|0,0:0|0:0,0:0:0:0:
194,151,228065,1,0,0:0:0:0:
124,26,228218,6,0,P|121:67|117:107,1,80.9999975280763,2|0,0:0|0:0,0:0:0:0:
201,231,228524,2,0,P|198:190|193:150,1,80.9999975280763
402,123,228830,2,0,P|364:138|324:138,1,80.9999975280763,10|0,0:0|0:0,0:0:0:0:
477,236,229136,1,0,0:0:0:0:
477,236,229213,1,0,0:0:0:0:
477,236,229289,1,0,0:0:0:0:
477,236,229366,1,0,0:0:0:0:
477,236,229442,6,0,P|386:272|288:264,1,198.000006042481,4|8,0:0|0:0,0:0:0:0:
194,151,229901,1,0,0:0:0:0:
125,286,230054,2,0,P|119:236|115:187,1,99.0000030212403,0|0,0:0|0:0,0:0:0:0:
210,330,230360,1,8,0:0:0:0:
320,182,230514,1,0,0:0:0:0:
405,301,230667,6,0,P|348:296|290:292,1,99.0000030212403,0|0,0:0|0:0,0:0:0:0:
353,194,230973,2,0,P|399:177|447:185,1,99.0000030212403,10|0,0:0|0:0,0:0:0:0:
434,303,231279,1,2,0:0:0:0:
463,90,231432,1,0,0:0:0:0:
499,252,231585,1,8,0:0:0:0:
379,57,231738,1,2,0:0:0:0:
234,135,231891,6,0,L|25:123,1,198.000006042481,2|8,0:0|0:0,0:0:0:0:
113,22,232350,1,0,0:0:0:0:
147,171,232503,2,0,P|149:220|152:269,1,99.0000030212403,0|0,0:0|0:0,0:0:0:0:
260,357,232809,2,0,P|264:303|268:249,1,99.0000030212403,8|0,0:0|0:0,0:0:0:0:
420,202,233116,6,0,P|371:197|320:189,1,99.0000030212403,2|0,0:0|0:0,0:0:0:0:
224,87,233422,1,10,0:0:0:0:
267,258,233575,1,0,0:0:0:0:
357,110,233728,2,0,P|352:55|348:9,1,99.0000030212403,0|0,0:0|0:0,0:0:0:0:
446,170,234034,2,0,P|451:115|455:69,1,99.0000030212403,10|0,0:0|0:0,0:0:0:0:
437,294,234340,6,0,P|360:236|266:257,1,198.000006042481,2|8,0:0|0:0,0:0:0:0:
165,359,234799,1,0,0:0:0:0:
22,254,234952,2,0,P|71:255|118:240,1,99.0000030212403,0|0,0:0|0:0,0:0:0:0:
145,55,235258,2,0,P|153:103|161:152,1,99.0000030212403,8|0,0:0|0:0,0:0:0:0:
281,43,235565,6,0,P|276:92|272:141,1,99.0000030212403,0|0,0:0|0:0,0:0:0:0:
228,259,235871,1,8,0:0:0:0:
336,354,236024,1,0,0:0:0:0:
437,199,236177,2,0,P|389:212|340:210,1,99.0000030212403,0|0,0:0|0:0,0:0:0:0:
186,177,236483,1,8,0:0:0:0:
375,87,236636,1,0,0:0:0:0:
336,354,236789,5,10,0:0:0:0:
255,91,236942,1,0,0:0:0:0:
430,241,237095,1,8,0:0:0:0:
140,252,237248,1,2,0:0:0:0:
140,252,237325,1,0,0:0:0:0:
140,252,237401,1,8,0:0:0:0:
353,173,237554,1,0,0:0:0:0:
180,325,237707,1,8,0:0:0:0:
430,241,237860,2,0,P|433:265|434:290,1,49.5000015106202,0|0,0:0|0:0,0:0:0:0:
258,348,238014,6,0,P|230:307|227:259,1,99.0000030212403,8|0,0:0|0:0,0:0:0:0:
227,259,238243,1,0,0:0:0:0:
227,259,238320,1,8,0:0:0:0:
345,83,238473,1,0,0:0:0:0:
345,83,238549,1,0,0:0:0:0:
345,83,238626,1,8,0:0:0:0:
457,207,238779,1,8,0:0:0:0:
183,149,238932,1,8,0:0:0:0:
415,16,239085,1,8,0:0:0:0:
353,280,239238,6,0,L|345:83,1,198.000006042481,6|8,0:0|0:0,0:0:0:0:
183,149,239697,2,0,P|93:108|97:-2,1,198.000006042481,2|0,0:0|0:0,0:0:0:0:
256,56,240156,1,8,0:0:0:0:
132,242,240309,6,0,B|234:226|234:226|279:191|270:144,1,198.000006042481,2|0,0:0|0:0,0:0:0:0:
167,57,240769,2,0,P|159:105|182:148,1,99.0000030212403,8|0,0:0|0:0,0:0:0:0:
327,258,241075,1,0,0:0:0:0:
83,323,241228,1,0,0:0:0:0:
182,148,241381,1,8,0:0:0:0:
246,362,241534,2,0,L|252:308,1,49.5000015106202,0|0,3:0|3:0,0:0:0:0:
270,144,241687,5,6,0:0:0:0:
333,349,241840,1,0,0:0:0:0:
337,80,241993,1,10,0:0:0:0:
170,326,242146,1,2,0:0:0:0:
280,11,242452,1,8,0:0:0:0:
96,217,242758,6,0,L|293:233,1,198.000006042481,2|4,0:0|0:3,0:0:0:0:
407,300,243218,1,8,0:0:0:0:
337,80,243371,1,8,0:0:0:0:
171,133,243524,2,0,P|220:138|270:144,1,99.0000030212403,2|0,0:0|0:0,0:0:0:0:
419,41,243830,2,0,L|468:36,1,49.5000015106202,0|0,3:0|0:0,0:0:0:0:
337,80,243983,2,0,P|328:50|331:16,1,49.5000015106202
409,132,244136,5,4,0:0:0:0:
326,259,244289,2,0,P|330:319|333:354,1,90,0|8,0:0|0:0,0:0:0:0:
173,289,244595,1,0,0:0:0:0:
218,174,244748,2,0,P|222:113|225:79,1,90,2|0,0:0|0:0,0:0:0:0:
94,200,245054,1,8,0:0:0:0:
227,353,245207,6,0,L|217:157,1,180,2|0,0:0|0:0,0:0:0:0:
326,259,245667,2,0,P|373:262|418:246,1,90,8|0,0:0|0:0,0:0:0:0:
497,131,245973,1,2,0:0:0:0:
404,23,246126,1,0,0:0:0:0:
298,165,246279,2,0,P|301:118|304:70,1,90,10|0,0:0|0:0,0:0:0:0:
138,123,246585,5,0,0:0:0:0:
205,262,246738,2,0,P|255:259|301:257,1,90,0|8,0:0|0:0,0:0:0:0:
400,148,247044,1,0,0:0:0:0:
436,272,247197,2,0,P|432:321|428:368,1,90,2|0,0:0|0:0,0:0:0:0:
511,225,247503,1,8,0:0:0:0:
336,349,247656,6,0,L|122:339,1,180,2|0,0:0|0:0,0:0:0:0:
23,259,248116,2,0,P|71:264|116:249,1,90,10|0,0:0|0:0,0:0:0:0:
153,103,248422,1,2,0:0:0:0:
298,165,248575,1,0,0:0:0:0:
63,168,248728,1,8,0:0:0:0:
184,18,248881,1,2,0:0:0:0:
229,268,249034,5,2,0:0:0:0:
298,165,249187,2,0,P|304:101|308:59,1,90,0|8,0:0|0:0,0:0:0:0:
394,197,249493,1,0,0:0:0:0:
229,268,249646,2,0,P|282:265|327:263,1,90,2|0,0:0|0:0,0:0:0:0:
482,162,249952,1,8,0:0:0:0:
406,17,250105,6,0,L|392:214,1,180,2|0,0:0|0:0,0:0:0:0:
428,361,250565,1,8,0:0:0:0:
298,165,250718,1,0,0:0:0:0:
482,162,250871,2,0,P|477:207|473:252,1,90,2|0,0:0|0:0,0:0:0:0:
318,263,251177,1,10,0:0:0:0:
460,347,251330,1,2,0:0:0:0:
298,165,251483,6,0,P|228:221|244:327,1,180,6|0,0:0|0:0,0:0:0:0:
393,196,251942,2,0,P|379:107|279:68,1,180,2|0,0:0|0:0,0:0:0:0:
318,263,252401,2,0,P|401:295|485:228,1,180,2|0,0:0|0:0,0:0:0:0:
298,165,252860,2,0,L|105:149,1,180,2|0,0:0|0:0,0:0:0:0:
47,271,253320,6,0,P|32:228|36:184,1,90,2|0,0:0|0:0,0:0:0:0:
128,72,253626,2,0,L|124:116,1,45,2|0,0:0|0:0,0:0:0:0:
177,253,253779,2,0,L|181:297,1,45
242,119,253932,6,0,B|288:166|361:153|387:86|387:86|417:142|477:145|509:112|486:61|459:64|429:95,1,360,4|0,0:0|0:0,0:0:0:0:
403,278,254697,1,0,0:0:0:0:
305,64,254850,1,8,0:0:0:0:
474,166,255003,1,0,0:0:0:0:
474,166,255080,1,0,0:0:0:0:
474,166,255156,5,0,0:0:0:0:
474,166,255233,1,0,0:0:0:0:
474,166,255309,2,0,L|478:195,1,30,0|0,0:0|0:0,0:0:0:0:
403,278,255463,2,0,P|398:323|393:369,1,90,10|0,0:0|0:0,0:0:0:0:
357,175,255769,1,0,0:0:0:0:
492,295,255922,1,0,0:0:0:0:
248,213,256075,5,8,0:0:0:0:
370,379,256228,1,2,0:0:0:0:
202,334,256381,2,0,P|246:329|291:324,1,90,0|0,0:0|0:0,0:0:0:0:
125,148,256687,1,10,0:0:0:0:
148,175,256763,1,0,0:0:0:0:
156,210,256840,1,0,0:0:0:0:
147,245,256916,1,0,0:0:0:0:
124,272,256993,2,0,P|84:276|28:282,1,90,2|0,0:0|0:0,0:0:0:0:
43,83,257299,1,8,0:0:0:0:
232,131,257452,6,0,B|360:143|360:143|311:158,1,180,2|0,0:0|0:0,0:0:0:0:
148,175,257911,2,0,P|138:131|150:86,1,90,8|0,0:0|0:0,0:0:0:0:
306,50,258218,1,0,0:0:0:0:
263,236,258371,2,0,B|347:273|354:202|454:237,1,180,2|0,0:0|0:0,0:0:0:0:
473,247,258753,1,0,0:0:0:0:
473,247,258830,6,0,L|468:157,1,90,2|0,0:0|0:0,0:0:0:0:
400,317,259136,1,8,0:0:0:0:
311,158,259289,1,0,0:0:0:0:
262,349,259442,2,0,P|213:346|172:344,1,90,0|0,0:0|0:0,0:0:0:0:
48,246,259748,1,10,0:0:0:0:
148,88,259901,1,0,0:0:0:0:
148,88,259978,1,0,0:0:0:0:
148,88,260054,6,0,P|108:106|63:103,1,90,2|0,0:0|0:0,0:0:0:0:
156,210,260360,1,8,0:0:0:0:
219,42,260514,1,0,0:0:0:0:
270,203,260667,2,0,L|277:102,1,90,0|0,0:0|0:0,0:0:0:0:
371,277,260973,2,0,P|393:280|415:283,1,45,8|0,0:0|0:0,0:0:0:0:
320,356,261126,2,0,P|337:370|355:383,1,45,2|0,0:0|0:0,0:0:0:0:
243,313,261279,5,0,0:0:0:0:
405,197,261432,1,0,0:0:0:0:
228,184,261585,2,0,P|236:245|239:275,1,90,10|0,0:0|0:0,0:0:0:0:
359,127,261891,2,0,P|367:89|377:29,1,90,0|2,0:0|0:0,0:0:0:0:
276,113,262197,1,8,0:0:0:0:
490,243,262350,6,0,P|405:219|328:262,1,180,2|0,0:0|0:0,0:0:0:0:
141,164,262809,2,0,P|185:166|227:183,1,90,8|2,0:0|0:0,0:0:0:0:
235,358,263116,1,2,0:0:0:0:
418,329,263269,1,0,0:0:0:0:
161,254,263422,1,8,0:0:0:0:
418,329,263575,2,0,P|415:350|412:373,1,45
478,166,263728,6,0,B|382:175|382:175|336:167|318:121,1,180,2|8,0:0|0:0,0:0:0:0:
410,57,264187,1,0,0:0:0:0:
303,237,264340,2,0,P|306:284|310:331,1,90,0|0,0:0|0:0,0:0:0:0:
319,125,264646,1,8,0:0:0:0:
192,258,264799,6,0,B|176:217|130:209|130:209|34:218,1,180,2|0,0:0|0:0,0:0:0:0:
77,349,265258,1,10,0:0:0:0:
211,287,265411,2,0,P|206:330|200:376,1,90
141,164,265718,1,0,0:0:0:0:
303,83,265871,2,0,L|205:75,1,90,8|0,0:0|0:0,0:0:0:0:
320,177,266177,6,0,L|140:163,1,180,0|8,0:0|0:0,0:0:0:0:
3,254,266636,2,0,P|49:249|92:246,1,90,0|0,0:0|0:0,0:0:0:0:
225,327,266942,2,0,P|173:328|138:348,1,90,0|8,0:0|0:0,0:0:0:0:
286,252,267248,6,0,P|268:313|362:377,1,180,2|0,0:0|0:0,0:0:0:0:
461,234,267707,1,8,0:0:0:0:
308,132,267860,2,0,P|311:154|315:177,1,45,0|0,3:0|3:0,0:0:0:0:
345,303,268014,1,0,0:0:0:0:
393,171,268167,1,0,0:0:0:0:
451,273,268320,2,0,P|447:323|444:363,1,90,8|0,0:0|0:0,0:0:0:0:
401,134,268626,6,0,P|404:112|408:89,1,45,0|0,3:0|0:0,0:0:0:0:
283,216,268779,2,0,P|279:238|276:260,1,45,0|0,3:0|0:0,0:0:0:0:
182,128,268932,2,0,P|136:132|90:135,1,90,8|0,0:0|0:0,0:0:0:0:
266,52,269238,2,0,P|270:77|275:104,1,45
393,171,269391,2,0,P|370:167|348:163,1,45
190,216,269544,1,8,0:0:0:0:
165,241,269620,1,0,0:0:0:0:
154,275,269697,1,0,0:0:0:0:
160,311,269773,1,0,0:0:0:0:
181,340,269850,6,0,P|214:336|232:335,1,45,0|0,3:0|0:0,0:0:0:0:
302,281,270003,2,0,P|335:277|353:276,1,45,0|0,3:0|0:0,0:0:0:0:
449,328,270156,1,8,0:0:0:0:
393,171,270309,1,0,0:0:0:0:
182,95,270463,6,0,P|151:93|116:88,2,60,0|2|0,0:0|0:0|0:0,0:0:0:0:
284,40,270769,2,0,P|313:36|343:34,2,60,10|0|2,0:0|0:0|0:0,0:0:0:0:
266,158,271075,6,0,P|269:243|348:276,1,180,2|8,0:0|0:0,0:0:0:0:
485,144,271534,1,0,0:0:0:0:
335,200,271687,2,0,P|387:204|429:207,1,90,0|0,0:0|0:0,0:0:0:0:
421,338,271993,1,10,0:0:0:0:
262,291,272146,6,0,P|259:333|255:380,1,90,0|0,0:0|0:0,0:0:0:0:
36,287,272452,2,0,P|94:223|160:234,1,135,2|0,0:0|0:0,0:0:0:0:
170,240,272758,1,2,0:0:0:0:
173,373,272911,1,2,0:0:0:0:
192,130,273065,1,0,0:0:0:0:
50,191,273218,1,8,0:0:0:0:
266,258,273371,2,0,P|303:252|324:250,1,45,2|0,0:0|0:0,0:0:0:0:
188,100,273524,5,4,0:0:0:0:
256,192,273677,12,0,275667,0:0:0:0:
135,189,275973,6,0,P|139:250|141:312,1,107.999996704102,2|2,0:0|0:0,0:0:0:0:
230,358,276432,2,0,P|233:305|235:250,1,107.999996704102,0|2,0:0|0:0,0:0:0:0:
216,169,276891,1,0,0:0:0:0:
319,271,277044,6,0,P|373:266|428:262,1,107.999996704102,2|0,0:0|0:0,0:0:0:0:
420,177,277503,2,0,P|446:177|472:185,1,53.9999983520508,2|0,0:0|0:0,0:0:0:0:
351,121,277809,2,0,P|346:81|344:61,1,53.9999983520508,0|0,0:0|0:0,0:0:0:0:
296,190,278116,1,2,0:0:0:0:
296,190,278422,6,0,P|245:171|192:175,1,107.999996704102,2|2,0:0|0:0,0:0:0:0:
130,243,278881,2,0,P|104:244|77:246,1,53.9999983520508,0|0,0:0|0:0,0:0:0:0:
82,336,279187,2,0,P|108:337|135:339,1,53.9999983520508
223,357,279493,1,2,0:0:0:0:
232,249,279646,6,0,L|223:357,1,107.999996704102,0|2,0:0|0:0,0:0:0:0:
304,316,280105,1,0,0:0:0:0:
383,352,280258,2,0,P|413:348|436:344,1,53.9999983520508,0|0,0:0|0:0,0:0:0:0:
358,247,280565,2,0,P|387:253|410:257,1,53.9999983520508,2|0,0:0|0:0,0:0:0:0:
292,187,280871,6,0,P|336:159|392:164,1,107.999996704102,2|2,0:0|0:0,0:0:0:0:
476,191,281330,2,0,P|479:164|483:137,1,53.9999983520508,0|2,0:0|0:0,0:0:0:0:
447,53,281636,1,0,0:0:0:0:
389,163,281789,1,0,0:0:0:0:
321,53,281942,6,0,L|213:60,1,107.999996704102,2|0,0:0|0:0,0:0:0:0:
160,187,282401,2,0,P|165:152|167:126,1,53.9999983520508,2|0,0:0|0:0,0:0:0:0:
127,62,282707,1,0,0:0:0:0:
52,87,282860,1,2,0:0:0:0:
12,154,283014,2,0,P|10:196|14:217,1,53.9999983520508,2|0,0:0|0:0,0:0:0:0:
135,264,283320,6,0,P|81:266|22:324,1,135.000005149842,0|0,3:0|0:0,0:0:0:0:
249,351,283779,2,0,P|181:354|115:363,1,135.000005149842,0|2,0:0|0:0,0:0:0:0:
353,303,284238,2,0,P|356:337|360:370,1,67.5000025749208,2|0,0:0|0:0,0:0:0:0:
303,204,284544,5,8,0:0:0:0:
249,351,284697,1,8,0:0:0:0:
346,113,284850,1,8,0:0:0:0:
175,254,285003,1,8,0:0:0:0:
401,294,285156,1,8,0:0:0:0:
149,134,285309,1,8,0:0:0:0:
406,207,285463,2,0,P|370:204|339:198,1,67.5000025749208,0|2,0:0|0:0,0:0:0:0:
173,27,285769,5,0,0:0:0:0:
151,275,285922,1,4,0:0:0:0:
49,100,286075,1,4,0:0:0:0:
302,204,286228,1,4,0:0:0:0:
264,321,286381,1,0,0:0:0:0:
508,200,286534,6,0,P|456:189|406:207,1,107.999996704102,4|0,0:0|0:0,0:0:0:0:
264,321,286840,2,0,P|268:361|270:387,1,53.9999983520508,0|0,3:0|3:0,0:0:0:0:
151,275,286993,6,0,P|245:280|302:204,1,198.000006042481,4|8,0:0|0:0,0:0:0:0:
256,27,287452,1,0,0:0:0:0:
385,144,287605,2,0,P|437:139|487:135,1,99.0000030212403,0|0,0:0|0:0,0:0:0:0:
353,25,287911,1,8,0:0:0:0:
161,39,288065,6,0,P|208:121|303:119,1,198.000006042481,2|0,0:0|0:0,0:0:0:0:
396,277,288524,2,0,P|389:212|385:176,1,99.0000030212403,10|0,0:0|0:0,0:0:0:0:
258,271,288830,2,0,P|252:320|247:369,1,99.0000030212403,0|0,0:0|0:0,0:0:0:0:
302,202,289136,1,10,0:0:0:0:
368,374,289289,1,0,0:0:0:0:
197,210,289442,6,0,P|102:211|62:296,1,198.000006042481,0|8,0:0|0:0,0:0:0:0:
163,369,289901,1,0,0:0:0:0:
372,289,290054,2,0,P|322:294|273:299,1,99.0000030212403,0|0,0:0|0:0,0:0:0:0:
149,286,290360,1,8,0:0:0:0:
202,18,290514,6,0,B|212:80|212:80|186:141|186:141|196:209,1,198.000006042481,2|0,0:0|0:0,0:0:0:0:
127,77,290973,2,0,P|80:57|23:72,1,99.0000030212403,10|0,0:0|0:0,0:0:0:0:
65,250,291279,1,0,0:0:0:0:
275,152,291432,1,0,0:0:0:0:
209,334,291585,2,0,P|205:284|202:235,1,99.0000030212403,10|0,0:0|0:0,0:0:0:0:
472,163,291891,6,0,L|275:152,1,198.000006042481,0|8,0:0|0:0,0:0:0:0:
149,286,292350,1,0,0:0:0:0:
317,248,292503,2,0,P|320:297|323:346,1,99.0000030212403,0|0,0:0|0:0,0:0:0:0:
369,67,292809,1,8,0:0:0:0:
230,218,292963,6,0,P|198:130|272:72,1,198.000006042481,2|0,0:0|0:0,0:0:0:0:
398,198,293422,2,0,P|395:251|392:297,1,99.0000030212403,10|0,0:0|0:0,0:0:0:0:
471,127,293728,1,0,0:0:0:0:
274,151,293881,1,0,0:0:0:0:
489,256,294034,2,0,P|485:206|483:157,1,99.0000030212403,10|0,0:0|0:0,0:0:0:0:
313,336,294340,6,0,P|360:331|414:325,1,99.0000030212403,0|0,0:0|0:0,0:0:0:0:
372,180,294646,1,8,0:0:0:0:
234,347,294799,1,0,0:0:0:0:
94,192,294952,2,0,P|143:195|192:198,1,99.0000030212403,2|0,0:0|0:0,0:0:0:0:
328,256,295258,1,8,0:0:0:0:
269,31,295411,6,0,P|210:45|183:169,1,198.000006042481,2|0,0:0|0:0,0:0:0:0:
328,256,295871,2,0,P|375:251|429:245,1,99.0000030212403,10|0,0:0|0:0,0:0:0:0:
259,121,296177,1,0,0:0:0:0:
204,322,296330,1,2,0:0:0:0:
386,129,296483,2,0,P|336:127|287:123,1,99.0000030212403,10|0,0:0|0:0,0:0:0:0:
121,248,296789,6,0,P|209:281|274:213,1,198.000006042481,4|8,0:0|0:0,0:0:0:0:
386,129,297248,1,0,0:0:0:0:
368,273,297401,2,0,P|422:277|469:280,1,99.0000030212403,0|0,0:0|0:0,0:0:0:0:
365,168,297707,1,8,0:0:0:0:
185,297,297860,1,0,0:0:0:0:
259,121,298014,5,0,0:0:0:0:
356,308,298167,1,0,0:0:0:0:
274,151,298320,1,8,0:0:0:0:
283,348,298473,1,0,0:0:0:0:
448,186,298626,2,0,P|400:188|350:191,1,99.0000030212403,0|0,0:0|0:0,0:0:0:0:
151,271,298932,2,0,P|199:279|246:264,1,99.0000030212403,8|0,0:0|0:0,0:0:0:0:
330,49,299238,6,0,P|235:18|165:85,1,198.000006042481,2|8,0:0|0:0,0:0:0:0:
278,240,299697,1,0,0:0:0:0:
115,157,299850,2,0,P|118:206|121:255,1,99.0000030212403,2|0,0:0|0:0,0:0:0:0:
80,69,300156,1,8,0:0:0:0:
204,163,300309,6,0,L|191:362,1,198.000006042481,2|2,0:0|0:0,0:0:0:0:
278,240,300769,2,0,P|327:238|374:252,1,99.0000030212403,10|0,0:0|0:0,0:0:0:0:
360,353,301075,1,0,0:0:0:0:
299,142,301228,1,0,0:0:0:0:
452,296,301381,2,0,P|456:242|459:193,1,99.0000030212403,10|0,0:0|0:0,0:0:0:0:
344,64,301687,6,0,P|396:60|452:56,1,99.0000030212403,2|0,0:0|0:0,0:0:0:0:
299,142,301993,1,8,0:0:0:0:
233,21,302146,1,2,0:0:0:0:
278,240,302299,2,0,P|326:240|368:213,1,99.0000030212403,0|0,0:0|0:0,0:0:0:0:
344,64,302605,1,8,0:0:0:0:
152,95,302758,6,0,P|89:165|121:255,1,198.000006042481,2|0,0:0|0:0,0:0:0:0:
261,334,303218,2,0,P|319:332|367:330,1,99.0000030212403,10|0,0:0|0:0,0:0:0:0:
453,206,303524,1,2,0:0:0:0:
395,355,303677,1,0,0:0:0:0:
387,149,303830,1,8,0:0:0:0:
241,215,303983,1,2,0:0:0:0:
476,322,304136,6,0,L|482:215,1,99.0000030212403,0|0,0:0|0:0,0:0:0:0:
442,56,304442,1,8,0:0:0:0:
364,244,304595,1,0,0:0:0:0:
469,78,304748,1,0,0:0:0:0:
252,125,304901,1,0,0:0:0:0:
453,206,305054,1,10,0:0:0:0:
171,339,305207,5,6,0:0:0:0:
65,37,305514,1,6,0:0:0:0:
252,125,305820,1,6,0:0:0:0:
159,247,305973,2,0,P|165:197|171:148,1,99.0000030212403,2|0,0:0|0:0,0:0:0:0:
375,257,306279,6,0,P|297:265|243:208,1,161.999995056153,4|0,0:0|0:0,0:0:0:0:
251,125,306585,6,0,P|332:100|322:188,1,198.000006042481,4|8,0:0|0:0,0:0:0:0:
159,247,307044,1,0,0:0:0:0:
295,353,307197,2,0,P|350:349|400:344,1,99.0000030212403,0|0,0:0|0:0,0:0:0:0:
466,177,307503,1,8,0:0:0:0:
483,375,307656,6,0,L|466:177,1,198.000006042481,2|0,0:0|0:0,0:0:0:0:
402,27,308116,2,0,P|395:77|388:125,1,99.0000030212403,10|0,0:0|0:0,0:0:0:0:
354,269,308422,1,0,0:0:0:0:
170,148,308575,1,0,0:0:0:0:
313,82,308728,2,0,P|263:77|210:73,1,99.0000030212403,10|0,0:0|0:0,0:0:0:0:
125,244,309034,6,0,P|219:250|271:172,1,198.000006042481,0|8,0:0|0:0,0:0:0:0:
136,73,309493,1,0,0:0:0:0:
42,197,309646,2,0,P|39:147|36:98,1,99.0000030212403,0|0,0:0|0:0,0:0:0:0:
50,299,309952,1,8,0:0:0:0:
205,228,310105,6,0,P|262:255|250:383,1,198.000006042481,2|0,0:0|0:0,0:0:0:0:
80,320,310565,1,10,0:0:0:0:
170,148,310718,1,0,0:0:0:0:
205,313,310871,1,0,0:0:0:0:
14,217,311024,1,0,0:0:0:0:
188,117,311177,2,0,P|237:121|293:128,1,99.0000030212403,10|0,0:0|0:0,0:0:0:0:
488,243,311483,6,0,B|389:214|390:289|288:257,1,198.000006042481,0|8,0:0|0:0,0:0:0:0:
323,132,311942,1,0,0:0:0:0:
194,268,312095,2,0,P|187:320|182:370,1,99.0000030212403,0|0,0:0|0:0,0:0:0:0:
103,205,312401,1,8,0:0:0:0:
223,87,312554,1,2,0:0:0:0:
78,181,312707,6,0,P|71:132|64:83,1,99.0000030212403
243,167,313014,2,0,P|195:168|156:138,1,99.0000030212403,8|0,0:0|0:0,0:0:0:0:
300,50,313320,1,0,0:0:0:0:
304,247,313473,1,0,0:0:0:0:
223,87,313626,1,8,0:0:0:0:
451,197,313779,1,2,0:0:0:0:
299,49,313932,6,0,L|304:261,1,198.000006042481,2|8,0:0|0:0,0:0:0:0:
439,82,314391,1,0,0:0:0:0:
420,204,314544,2,0,P|414:256|408:302,1,99.0000030212403,2|0,0:0|0:0,0:0:0:0:
346,129,314850,1,8,0:0:0:0:
168,225,315003,6,0,P|85:180|90:86,1,198.000006042481,2|0,0:0|0:0,0:0:0:0:
219,44,315463,1,8,0:0:0:0:
346,129,315616,1,0,0:0:0:0:
156,138,315769,1,0,0:0:0:0:
219,44,315922,1,0,0:0:0:0:
267,257,316075,2,0,P|263:312|260:355,1,99.0000030212403,10|0,0:0|0:0,0:0:0:0:
349,163,316381,6,0,L|360:324,1,161.999995056153,6|0,0:0|0:0,0:0:0:0:
267,257,316840,1,0,0:0:0:0:
387,248,316993,2,0,P|440:190|426:113,1,161.999995056153,10|0,0:0|0:0,0:0:0:0:
257,68,317452,6,0,L|246:229,1,161.999995056153,2|0,0:0|0:0,0:0:0:0:
259,355,317911,1,0,0:0:0:0:
259,355,318065,1,0,0:0:0:0:
154,277,318218,2,0,P|116:280|59:286,1,80.9999975280763,8|0,0:0|0:0,0:0:0:0:
7,181,318524,2,0,P|45:184|101:189,1,80.9999975280763
177,37,318830,6,0,P|217:105|189:178,1,161.999995056153,2|0,0:0|0:0,0:0:0:0:
133,112,319289,1,0,0:0:0:0:
174,260,319442,2,0,P|254:264|335:270,1,161.999995056153,10|0,0:0|0:0,0:0:0:0:
431,211,319901,1,0,0:0:0:0:
331,88,320054,6,0,P|336:137|340:185,1,80.9999975280763,2|0,0:0|0:0,0:0:0:0:
437,291,320360,2,0,P|434:250|430:210,1,80.9999975280763
421,73,320667,1,10,0:0:0:0:
335,270,320820,1,0,0:0:0:0:
151,259,320973,1,0,0:0:0:0:
142,297,321049,1,0,0:0:0:0:
153,334,321126,1,0,0:0:0:0:
180,362,321202,1,0,0:0:0:0:
218,374,321279,6,0,P|270:371|328:368,1,99.0000030212403,4|0,0:0|0:0,0:0:0:0:
189,178,321585,1,8,0:0:0:0:
335,270,321738,1,0,0:0:0:0:
230,67,321891,2,0,P|223:135|220:171,1,99.0000030212403
318,46,322197,1,8,0:0:0:0:
341,178,322350,1,0,0:0:0:0:
142,99,322503,5,0,0:0:0:0:
346,69,322656,1,0,0:0:0:0:
151,203,322809,2,0,P|100:196|44:187,1,99.0000030212403,10|0,0:0|0:0,0:0:0:0:
222,257,323116,1,2,0:0:0:0:
20,170,323269,1,0,0:0:0:0:
146,71,323422,1,8,0:0:0:0:
112,315,323575,1,2,0:0:0:0:
292,99,323728,6,0,P|364:81|433:178,1,198.000006042481,2|8,0:0|0:0,0:0:0:0:
342,324,324187,1,0,0:0:0:0:
222,257,324340,2,0,P|225:200|228:149,1,99.0000030212403,0|0,0:0|0:0,0:0:0:0:
253,343,324646,1,8,0:0:0:0:
253,343,324799,1,0,0:0:0:0:
314,228,324952,6,0,P|362:237|411:242,1,99.0000030212403,2|0,0:0|0:0,0:0:0:0:
189,178,325258,2,0,P|141:191|92:200,1,99.0000030212403,10|0,0:0|0:0,0:0:0:0:
226,43,325565,1,0,0:0:0:0:
272,150,325718,1,0,0:0:0:0:
122,114,325871,2,0,P|125:64|128:15,1,99.0000030212403,10|0,0:0|0:0,0:0:0:0:
189,178,326177,6,0,L|197:375,1,198.000006042481,2|8,0:0|0:0,0:0:0:0:
304,250,326636,1,0,0:0:0:0:
106,332,326789,2,0,P|56:327|6:321,1,99.0000030212403,0|0,0:0|0:0,0:0:0:0:
92,200,327095,1,8,0:0:0:0:
197,375,327248,1,0,0:0:0:0:
272,150,327401,5,0,0:0:0:0:
292,341,327554,1,0,0:0:0:0:
360,123,327707,1,8,0:0:0:0:
216,287,327860,1,0,0:0:0:0:
293,59,328014,1,0,0:0:0:0:
388,228,328167,1,0,0:0:0:0:
190,193,328320,2,0,P|140:196|91:199,1,99.0000030212403,8|0,0:0|0:0,0:0:0:0:
304,250,328626,5,10,0:0:0:0:
174,38,328779,1,0,0:0:0:0:
131,312,328932,1,8,0:0:0:0:
254,67,329085,1,2,0:0:0:0:
60,181,329238,1,8,0:0:0:0:
292,341,329391,1,0,0:0:0:0:
292,341,329468,1,0,0:0:0:0:
292,341,329544,2,0,P|343:336|390:332,1,99.0000030212403,8|0,0:0|0:0,0:0:0:0:
269,151,329850,5,8,0:0:0:0:
131,312,330003,1,0,0:0:0:0:
131,312,330080,1,0,0:0:0:0:
131,312,330156,1,8,0:0:0:0:
100,91,330309,1,0,0:0:0:0:
261,267,330463,1,8,0:0:0:0:
13,210,330616,1,8,0:0:0:0:
254,67,330769,1,8,0:0:0:0:
218,351,330922,1,8,0:0:0:0:
218,351,330998,1,8,0:0:0:0:
218,351,331075,6,0,L|211:149,1,198.000006042481,6|8,0:0|0:0,0:0:0:0:
408,111,331534,2,0,P|344:41|254:67,1,198.000006042481,2|0,0:0|0:0,0:0:0:0:
261,267,331993,1,8,0:0:0:0:
57,198,332146,6,0,P|120:128|211:153,1,198.000006042481,2|0,0:0|0:0,0:0:0:0:
347,231,332605,2,0,P|344:282|340:334,1,99.0000030212403,8|0,0:0|0:0,0:0:0:0:
319,129,332911,1,0,0:0:0:0:
444,197,333065,1,0,0:0:0:0:
261,267,333218,1,8,0:0:0:0:
438,338,333371,2,0,P|470:334|507:332,1,49.5000015106202,0|0,3:0|3:0,0:0:0:0:
347,231,333524,5,6,0:0:0:0:
260,369,333677,1,0,0:0:0:0:
319,129,333830,1,10,0:0:0:0:
505,304,333983,1,2,0:0:0:0:
177,235,334289,1,8,0:0:0:0:
429,35,334595,6,0,P|484:111|444:197,1,198.000006042481,2|0,0:0|0:0,0:0:0:0:
242,174,335054,1,8,0:0:0:0:
347,45,335207,1,0,0:0:0:0:
355,290,335360,1,2,0:0:0:0:
254,82,335514,1,0,0:0:0:0:
254,82,335590,1,0,0:0:0:0:
254,82,335667,2,0,P|255:106|258:132,1,49.5000015106202,12|0,0:0|0:0,0:0:0:0:
363,204,335820,2,0,P|361:228|359:254,1,49.5000015106202,0|0,3:0|0:0,0:0:0:0:
120,300,335973,6,0,P|202:322|261:259,1,180,4|8,0:0|0:0,0:0:0:0:
165,118,336432,1,0,0:0:0:0:
28,204,336585,2,0,P|72:210|127:216,1,90
257,131,336891,1,8,0:0:0:0:
103,35,337044,6,0,P|111:125|117:215,1,180,2|0,0:0|0:0,0:0:0:0:
229,46,337503,2,0,P|273:45|315:61,1,90,10|0,0:0|0:0,0:0:0:0:
261,258,337809,1,0,0:0:0:0:
413,129,337963,1,0,0:0:0:0:
463,313,338116,2,0,P|418:315|374:319,1,90,10|0,0:0|0:0,0:0:0:0:
196,207,338422,6,0,P|277:178|339:237,1,180,0|8,0:0|0:0,0:0:0:0:
242,342,338881,1,0,0:0:0:0:
104,242,339034,2,0,P|107:197|111:152,1,90,0|0,0:0|0:0,0:0:0:0:
38,312,339340,1,8,0:0:0:0:
21,108,339493,6,0,L|201:93,1,180,2|0,0:0|0:0,0:0:0:0:
261,258,339952,1,8,0:0:0:0:
413,129,340105,1,2,0:0:0:0:
286,44,340258,2,0,P|293:89|299:134,1,90,0|0,0:0|0:0,0:0:0:0:
352,326,340565,2,0,P|346:281|340:237,1,90,10|0,0:0|0:0,0:0:0:0:
201,93,340871,6,0,B|210:148|210:148|253:205|253:205|261:258,1,180,0|8,0:0|0:0,0:0:0:0:
130,333,341330,1,0,0:0:0:0:
49,219,341483,2,0,P|101:224|145:229,1,90,0|0,0:0|0:0,0:0:0:0:
269,347,341789,1,8,0:0:0:0:
298,133,341942,6,0,P|370:183|461:149,1,180,2|0,0:0|0:0,0:0:0:0:
372,6,342401,2,0,P|377:48|380:95,1,90,10|0,0:0|0:0,0:0:0:0:
261,258,342707,2,0,P|266:302|269:347,1,90,0|0,0:0|0:0,0:0:0:0:
218,177,343014,2,0,P|165:172|80:161,1,135,10|0,0:0|0:0,0:0:0:0:
48,167,343320,6,0,P|7:242|54:314,1,180,4|10,0:0|0:0,0:0:0:0:
178,255,343779,1,0,0:0:0:0:
127,87,343932,2,0,P|171:83|216:80,1,90,2|0,0:0|0:0,0:0:0:0:
338,216,344238,1,8,0:0:0:0:
427,2,344391,6,0,P|477:73|452:157,1,180,2|0,0:0|0:0,0:0:0:0:
300,45,344850,1,8,0:0:0:0:
261,258,345003,1,0,0:0:0:0:
382,75,345156,1,8,0:0:0:0:
179,199,345309,1,0,0:0:0:0:
392,89,345463,1,8,0:0:0:0:
336,301,345616,1,0,0:0:0:0:
179,199,345769,6,0,P|169:286|233:348,1,180,6|8,0:0|0:0,0:0:0:0:
423,308,346228,1,0,0:0:0:0:
335,166,346381,2,0,P|338:210|341:255,1,90,0|0,0:0|0:0,0:0:0:0:
302,376,346687,1,10,0:0:0:0:
460,289,346840,6,0,L|469:109,1,180,2|0,0:0|0:0,0:0:0:0:
374,12,347299,1,8,0:0:0:0:
335,166,347452,1,0,0:0:0:0:
194,62,347605,2,0,P|242:60|293:58,1,90,0|0,0:0|0:0,0:0:0:0:
130,133,347911,2,0,P|127:172|122:229,1,90,8|0,0:0|0:0,0:0:0:0:
45,38,348218,6,0,P|123:8|196:67,1,180,2|10,0:0|0:0,0:0:0:0:
122,222,348677,1,0,0:0:0:0:
256,168,348830,2,0,P|258:213|260:257,1,90,2|0,0:0|0:0,0:0:0:0:
302,77,349136,1,8,0:0:0:0:
504,137,349289,6,0,P|435:189|352:163,1,180,2|0,0:0|0:0,0:0:0:0:
321,46,349748,2,0,P|366:50|417:55,1,90,8|2,0:0|0:0,0:0:0:0:
202,88,350054,1,0,0:0:0:0:
260,257,350207,1,0,0:0:0:0:
302,77,350360,1,10,0:0:0:0:
181,288,350514,1,0,0:0:0:0:
418,103,350667,6,0,P|410:183|400:289,1,180,6|8,0:0|0:0,0:0:0:0:
318,172,351126,1,2,0:0:0:0:
262,337,351279,2,0,P|301:347|355:360,1,90,0|0,0:0|0:0,0:0:0:0:
489,280,351585,2,0,P|496:343|501:379,1,90,10|0,0:0|0:0,0:0:0:0:
318,172,351891,6,0,P|314:224|311:266,1,90,2|0,0:0|0:0,0:0:0:0:
302,77,352197,1,10,0:0:0:0:
177,193,352350,1,0,0:0:0:0:
211,37,352503,1,0,0:0:0:0:
211,37,352656,1,0,0:0:0:0:
193,223,352809,1,10,0:0:0:0:
63,113,352963,1,0,3:0:0:0:
280,176,353116,6,0,P|290:261|226:319,1,180,8|8,0:0|0:0,0:0:0:0:
42,249,353575,2,0,P|110:196|193:223,1,180
126,286,354034,1,8,0:0:0:0:
201,75,354187,1,0,0:0:0:0:
320,200,354340,6,0,P|326:278|334:383,1,180,2|8,0:0|0:0,0:0:0:0:
308,111,354799,2,0,P|372:121|400:233,1,180,2|0,0:0|0:0,0:0:0:0:
226,319,355258,2,0,P|223:267|220:229,1,90,10|0,0:0|0:0,0:0:0:0:
113,77,355565,6,0,P|108:127|175:73,1,180,2|8,0:0|0:0,0:0:0:0:
44,26,356024,2,0,P|16:84|54:199,1,180,2|0,0:0|0:0,0:0:0:0:
197,275,356483,2,0,P|248:272|301:269,1,90,10|0,0:0|0:0,0:0:0:0:
106,321,356789,6,0,P|61:318|14:315,1,90,0|0,0:0|0:0,0:0:0:0:
137,198,357095,2,0,P|142:151|146:101,1,90,10|0,0:0|0:0,0:0:0:0:
186,363,357401,1,2,0:0:0:0:
236,102,357554,1,0,0:0:0:0:
321,302,357707,1,10,0:0:0:0:
115,229,357860,1,2,0:0:0:0:
358,144,358014,6,0,P|416:140|467:136,1,90,4|0,0:0|0:0,0:0:0:0:
256,246,358320,1,0,0:0:0:0:
271,78,358473,1,0,0:0:0:0:
335,316,358626,1,0,0:0:0:0:
236,102,358779,1,0,0:0:0:0:
411,262,358932,1,10,0:0:0:0:
185,360,359085,1,2,0:0:0:0:
143,146,359238,5,4,0:0:0:0:
327,360,359391,1,4,0:0:0:0:
87,256,359544,2,0,P|120:252|154:249,1,67.5000025749208,8|0,0:0|3:0,0:0:0:0:
359,98,359850,5,4,0:0:0:0:
185,360,360003,1,4,0:0:0:0:
425,256,360156,2,0,P|391:252|357:249,1,67.5000025749208,8|0,0:0|3:0,0:0:0:0:
184,148,360463,5,0,0:0:0:0:
256,284,360616,1,4,2:0:0:0:
34,156,360769,1,4,2:0:0:0:
256,27,360922,1,4,2:0:0:0:
256,284,361075,6,0,P|187:280|119:276,1,135,12|0,0:0|0:0,0:0:0:0:
43,272,361381,1,8,0:0:0:0:
397,176,361534,1,4,0:0:0:0:
256,192,361687,12,0,365207,0:0:0:0:
