osu file format v14

[General]
AudioFilename: audio.mp3
AudioLeadIn: 0
PreviewTime: 82198
Countdown: 0
SampleSet: Normal
StackLeniency: 0.7
Mode: 1
LetterboxInBreaks: 0
WidescreenStoryboard: 0

[Editor]
Bookmarks: 3567,15796,28026,39491,52484,64714,76943,83058,95287,105988,112102,118408
DistanceSpacing: 1.3
BeatDivisor: 4
GridSize: 32
TimelineZoom: 1.7

[Metadata]
Title:LOVELESS WORLD
TitleUnicode:LOVELESS WORLD
Artist:u's
ArtistUnicode:µ's
Creator:Slyme
Version:Nokduro's Futsuu
Source:ラブライブ! School idol project
Tags:スクールアイドルフェスティバル school idol festival Love Live! muse Japanese Anime Video Game Kosaka Honoka 高坂穂乃果 Nitta Emi 新田恵海 Minami Kotori 南ことり Uchida Aya 内田彩 Sonoda Umi 園田海未 Suzuko Mimori 三森すずこ Hoshizora Rin 星空凛 Iida Riho 飯田里穂 Nishikino Maki 西木野真姫 Pile Koizumi Hanayo 小泉花陽 Kubo Yurika 久保ユリカ Ayase Eli 絢瀬絵里 Nanjou Yoshino 南條愛乃 Tojo Nozomi 東條希 Kusuda Aina 楠田亜衣奈 Yazawa Nico 矢澤にこ Tokui Sora 徳井青空 Mari 0hara Mari_0hara Slyme JRock J-Rock Rock Metal 畑亜貴 Aki Hata 山田高弘 Takahiro Yamada 河田貴央 Takao Kawada Kōsaka Kousaka Nanjō Nanjou Tōjō Toujou Nokduro KyeX gaston_2199
BeatmapID:3726786
BeatmapSetID:1808925

[Difficulty]
HPDrainRate:7
CircleSize:5
OverallDifficulty:4
ApproachRate:5
SliderMultiplier:1.4
SliderTickRate:1

[Events]
//Background and Video events
Video,1015,"output.mp4"
0,0,"DONT CRY ELI PLEAAASE.jpg",0,-50
//Break Periods
//Storyboard Layer 0 (Background)
//Storyboard Layer 1 (Fail)
//Storyboard Layer 2 (Pass)
//Storyboard Layer 3 (Foreground)
//Storyboard Layer 4 (Overlay)
//Storyboard Sound Samples

[TimingPoints]
2039,382.165605095541,4,1,0,60,1,8
3567,-100,4,1,0,60,0,0
15796,-100,4,1,0,80,0,0
27166,-100,4,1,0,100,0,0
40160,-100,4,1,0,90,0,0
46274,-100,4,1,0,90,0,0
52389,-100,4,1,0,85,0,0
76752,-100,4,1,0,90,0,0
83058,-100,4,1,0,100,0,1
105988,-100,4,1,0,100,0,0
107516,-100,4,1,0,100,0,0

[HitObjects]
256,192,2039,12,0,3376,0:0:0:0:
256,192,3567,5,0,0:0:0:0:
256,192,4331,1,0,0:0:0:0:
256,192,4714,1,8,0:0:0:0:
256,192,5096,1,0,0:0:0:0:
256,192,5860,1,8,0:0:0:0:
256,192,6242,1,8,0:0:0:0:
256,192,6624,1,0,0:0:0:0:
256,192,7389,1,8,0:0:0:0:
256,192,8153,1,0,0:0:0:0:
256,192,8917,1,0,0:0:0:0:
256,192,9682,1,0,0:0:0:0:
256,192,10446,1,8,0:0:0:0:
256,192,11210,1,0,0:0:0:0:
256,192,11975,1,8,0:0:0:0:
256,192,12357,1,8,0:0:0:0:
256,192,12739,1,0,0:0:0:0:
256,192,13503,1,8,0:0:0:0:
256,192,14268,1,0,0:0:0:0:
256,192,14841,1,0,0:0:0:0:
256,192,15032,1,8,0:0:0:0:
256,192,15796,1,4,0:0:0:0:
256,192,16370,1,8,0:0:0:0:
256,192,16560,1,0,0:0:0:0:
256,192,17134,1,8,0:0:0:0:
256,192,17325,1,0,0:0:0:0:
256,192,17612,1,0,0:0:0:0:
256,192,17898,1,8,0:0:0:0:
256,192,18089,1,0,0:0:0:0:
256,192,18472,1,8,0:0:0:0:
256,192,18853,1,8,0:0:0:0:
256,192,19236,1,0,0:0:0:0:
256,192,19618,1,8,0:0:0:0:
256,192,20000,1,8,0:0:0:0:
256,192,20382,1,0,0:0:0:0:
256,192,20669,1,8,0:0:0:0:
256,192,20955,1,0,0:0:0:0:
256,192,21146,1,8,0:0:0:0:
256,192,21911,1,0,0:0:0:0:
256,192,22198,1,0,0:0:0:0:
256,192,22484,1,8,0:0:0:0:
256,192,22675,1,8,0:0:0:0:
256,192,23057,1,0,0:0:0:0:
256,192,23440,1,8,0:0:0:0:
256,192,24013,1,0,0:0:0:0:
256,192,24204,1,8,0:0:0:0:
256,192,24586,1,0,0:0:0:0:
256,192,24968,1,0,0:0:0:0:
256,192,25255,1,0,0:0:0:0:
256,192,25541,1,8,0:0:0:0:
256,192,25732,1,8,0:0:0:0:
256,192,26019,1,0,0:0:0:0:
256,192,26306,1,0,0:0:0:0:
256,192,26497,1,8,0:0:0:0:
256,192,27261,1,12,0:0:0:0:
256,192,27643,1,4,0:0:0:0:
256,192,28025,1,12,0:0:0:0:
256,192,29172,1,12,0:0:0:0:
256,192,29363,1,12,0:0:0:0:
256,192,29554,1,4,0:0:0:0:
256,192,30701,1,4,0:0:0:0:
256,192,30892,1,4,0:0:0:0:
256,192,31083,1,12,0:0:0:0:
256,192,32230,1,12,0:0:0:0:
256,192,32421,1,4,0:0:0:0:
256,192,32612,1,12,0:0:0:0:
256,192,32898,1,12,0:0:0:0:
256,192,33185,1,4,0:0:0:0:
256,192,33567,1,4,0:0:0:0:
256,192,33758,1,12,0:0:0:0:
256,192,33949,1,12,0:0:0:0:
256,192,34140,1,4,0:0:0:0:
256,192,34523,1,0,0:0:0:0:
256,192,34905,1,0,0:0:0:0:
256,192,35287,1,4,0:0:0:0:
256,192,35478,1,12,0:0:0:0:
256,192,35669,1,4,0:0:0:0:
256,192,36051,1,0,0:0:0:0:
256,192,36433,1,0,0:0:0:0:
256,192,36816,1,12,0:0:0:0:
256,192,37007,1,12,0:0:0:0:
256,192,37198,1,4,0:0:0:0:
256,192,37580,1,0,0:0:0:0:
256,192,37962,1,0,0:0:0:0:
256,192,38344,1,12,0:0:0:0:
256,192,38535,1,4,0:0:0:0:
256,192,38726,1,12,0:0:0:0:
256,192,39013,1,12,0:0:0:0:
256,192,39300,1,12,0:0:0:0:
256,192,39491,1,4,0:0:0:0:
256,192,40255,5,0,0:0:0:0:
256,192,40828,1,0,0:0:0:0:
256,192,41019,1,8,0:0:0:0:
256,192,41306,1,0,0:0:0:0:
256,192,41593,1,0,0:0:0:0:
256,192,41784,1,8,0:0:0:0:
256,192,42166,1,8,0:0:0:0:
256,192,42548,1,0,0:0:0:0:
256,192,42930,1,0,0:0:0:0:
256,192,43312,1,8,0:0:0:0:
256,192,43886,1,8,0:0:0:0:
256,192,44077,1,0,0:0:0:0:
256,192,44363,1,8,0:0:0:0:
256,192,44650,1,0,0:0:0:0:
256,192,44841,1,8,0:0:0:0:
256,192,45414,1,0,0:0:0:0:
256,192,45605,1,8,0:0:0:0:
256,192,46370,1,4,0:0:0:0:
256,192,46656,1,4,0:0:0:0:
256,192,46943,1,12,0:0:0:0:
256,192,47325,1,0,0:0:0:0:
256,192,47516,1,8,0:0:0:0:
256,192,47898,1,8,0:0:0:0:
256,192,48472,1,0,0:0:0:0:
256,192,48663,1,8,0:0:0:0:
256,192,49427,1,8,0:0:0:0:
256,192,49809,1,8,0:0:0:0:
256,192,50191,1,0,0:0:0:0:
256,192,50574,1,8,0:0:0:0:
256,192,50956,1,4,0:0:0:0:
256,192,51242,1,4,0:0:0:0:
256,192,51529,1,12,0:0:0:0:
256,192,51720,1,4,0:0:0:0:
256,192,52484,1,0,0:0:0:0:
256,192,52771,1,0,0:0:0:0:
256,192,53058,1,8,0:0:0:0:
256,192,53249,1,0,0:0:0:0:
256,192,53822,1,0,0:0:0:0:
256,192,54013,1,8,0:0:0:0:
256,192,54586,1,8,0:0:0:0:
256,192,54777,1,8,0:0:0:0:
256,192,55351,1,0,0:0:0:0:
256,192,55542,1,8,0:0:0:0:
256,192,55828,1,8,0:0:0:0:
256,192,56115,1,8,0:0:0:0:
256,192,56306,1,0,0:0:0:0:
256,192,56879,1,0,0:0:0:0:
256,192,57070,1,8,0:0:0:0:
256,192,57357,1,0,0:0:0:0:
256,192,57644,1,8,0:0:0:0:
256,192,57835,1,0,0:0:0:0:
256,192,58599,1,0,0:0:0:0:
256,192,58886,1,8,0:0:0:0:
256,192,59172,1,0,0:0:0:0:
256,192,59363,1,8,0:0:0:0:
256,192,59937,1,0,0:0:0:0:
256,192,60128,1,8,0:0:0:0:
256,192,60414,1,8,0:0:0:0:
256,192,60701,1,8,0:0:0:0:
256,192,60892,1,0,0:0:0:0:
256,192,61465,1,0,0:0:0:0:
256,192,61656,1,8,0:0:0:0:
256,192,61943,1,8,0:0:0:0:
256,192,62230,1,0,0:0:0:0:
256,192,62421,1,8,0:0:0:0:
256,192,62994,1,0,0:0:0:0:
352,192,63185,1,8,0:0:0:0:
256,192,63472,1,0,0:0:0:0:
256,192,63758,1,0,0:0:0:0:
256,192,63949,1,8,0:0:0:0:
256,192,64714,1,12,0:0:0:0:
256,192,65000,1,0,0:0:0:0:
256,192,65287,1,8,0:0:0:0:
256,192,65669,1,0,0:0:0:0:
256,192,65860,1,8,0:0:0:0:
256,192,66242,1,8,0:0:0:0:
256,192,66529,1,0,0:0:0:0:
256,192,66816,1,8,0:0:0:0:
256,192,67198,1,0,0:0:0:0:
256,192,67389,1,8,0:0:0:0:
256,192,67580,1,0,0:0:0:0:
256,192,67771,1,8,0:0:0:0:
256,192,68153,1,0,0:0:0:0:
256,192,68535,1,8,0:0:0:0:
256,192,68917,1,0,0:0:0:0:
256,192,69300,1,0,0:0:0:0:
256,192,70064,1,0,0:0:0:0:
256,192,70446,1,8,0:0:0:0:
256,192,70828,1,0,0:0:0:0:
256,192,71402,1,0,0:0:0:0:
256,192,71593,1,8,0:0:0:0:
256,192,72357,1,8,0:0:0:0:
256,192,72739,1,0,0:0:0:0:
256,192,73121,1,8,0:0:0:0:
256,192,73503,1,8,0:0:0:0:
256,192,73886,1,0,0:0:0:0:
256,192,74172,1,8,0:0:0:0:
256,192,74459,1,0,0:0:0:0:
256,192,74650,1,8,0:0:0:0:
256,192,75414,1,8,0:0:0:0:
256,192,75701,1,8,0:0:0:0:
256,192,75988,1,0,0:0:0:0:
256,192,76179,1,8,0:0:0:0:
256,192,76561,1,8,0:0:0:0:
256,192,76943,1,4,0:0:0:0:
256,192,77230,1,4,0:0:0:0:
256,192,77516,1,12,0:0:0:0:
256,192,77898,1,0,0:0:0:0:
256,192,78281,1,8,0:0:0:0:
256,192,78472,1,0,0:0:0:0:
256,192,78854,1,0,0:0:0:0:
256,192,79236,1,8,0:0:0:0:
256,192,79618,1,0,0:0:0:0:
256,192,80000,1,12,0:0:0:0:
256,192,80287,1,12,0:0:0:0:
256,192,80574,1,4,0:0:0:0:
256,192,81529,1,12,0:0:0:0:
256,192,82293,1,12,0:0:0:0:
256,192,82675,1,12,0:0:0:0:
256,192,83058,1,4,0:0:0:0:
256,192,83344,1,0,0:0:0:0:
256,192,83631,1,8,0:0:0:0:
256,192,83822,1,0,0:0:0:0:
256,192,84395,1,8,0:0:0:0:
256,192,84586,1,0,0:0:0:0:
256,192,84873,1,0,0:0:0:0:
256,192,85160,1,8,0:0:0:0:
256,192,85351,1,8,0:0:0:0:
256,192,85733,1,8,0:0:0:0:
256,192,86115,1,0,0:0:0:0:
256,192,86497,1,8,0:0:0:0:
256,192,86688,1,0,0:0:0:0:
256,192,86879,1,8,0:0:0:0:
256,192,87261,1,8,0:0:0:0:
256,192,87644,1,12,0:0:0:0:
256,192,87930,1,0,0:0:0:0:
256,192,88217,1,0,0:0:0:0:
256,192,88408,1,12,0:0:0:0:
256,192,89172,1,4,0:0:0:0:
256,192,89459,1,0,0:0:0:0:
256,192,89746,1,8,0:0:0:0:
256,192,89937,1,8,0:0:0:0:
256,192,90319,1,0,0:0:0:0:
256,192,90701,1,0,0:0:0:0:
256,192,91083,1,0,0:0:0:0:
256,192,91274,1,8,0:0:0:0:
256,192,91465,1,0,0:0:0:0:
256,192,91847,1,8,0:0:0:0:
256,192,92230,1,0,0:0:0:0:
256,192,92516,1,0,0:0:0:0:
256,192,92803,1,8,0:0:0:0:
256,192,92994,1,8,0:0:0:0:
256,192,93281,1,0,0:0:0:0:
256,192,93567,1,0,0:0:0:0:
256,192,93758,1,12,0:0:0:0:
256,192,94045,1,12,0:0:0:0:
256,192,94331,1,4,0:0:0:0:
256,192,94523,1,12,0:0:0:0:
256,192,95287,1,4,0:0:0:0:
256,192,95573,1,0,0:0:0:0:
256,192,95860,1,8,0:0:0:0:
256,192,96051,1,0,0:0:0:0:
256,192,96624,1,8,0:0:0:0:
256,192,96815,1,0,0:0:0:0:
256,192,97102,1,0,0:0:0:0:
256,192,97389,1,8,0:0:0:0:
256,192,97580,1,8,0:0:0:0:
256,192,97962,1,8,0:0:0:0:
256,192,98344,1,0,0:0:0:0:
256,192,98726,1,8,0:0:0:0:
256,192,98917,1,0,0:0:0:0:
256,192,99108,1,8,0:0:0:0:
256,192,99490,1,8,0:0:0:0:
256,192,99873,1,12,0:0:0:0:
256,192,100159,1,0,0:0:0:0:
256,192,100446,1,0,0:0:0:0:
256,192,100637,1,12,0:0:0:0:
256,192,101401,1,12,0:0:0:0:
256,192,101688,1,0,0:0:0:0:
256,192,101975,1,8,0:0:0:0:
256,192,102166,1,8,0:0:0:0:
256,192,102548,1,0,0:0:0:0:
256,192,102930,1,0,0:0:0:0:
256,192,103312,1,0,0:0:0:0:
256,192,103503,1,8,0:0:0:0:
256,192,103695,1,8,0:0:0:0:
256,192,104268,1,0,0:0:0:0:
256,192,104459,1,8,0:0:0:0:
256,192,104745,1,0,0:0:0:0:
256,192,105032,1,8,0:0:0:0:
256,192,105223,1,8,0:0:0:0:
256,192,105510,1,0,0:0:0:0:
256,192,105796,1,0,0:0:0:0:
256,192,105988,1,12,0:0:0:0:
256,192,106752,1,12,0:0:0:0:
256,192,107134,1,4,0:0:0:0:
256,192,107516,1,12,0:0:0:0:
256,192,107898,1,0,0:0:0:0:
256,192,108089,1,8,0:0:0:0:
256,192,108281,1,0,0:0:0:0:
256,192,108663,1,12,0:0:0:0:
256,192,109045,1,4,0:0:0:0:
256,192,109427,1,8,0:0:0:0:
256,192,109618,1,8,0:0:0:0:
256,192,109809,1,0,0:0:0:0:
256,192,110191,1,4,0:0:0:0:
256,192,110574,1,12,0:0:0:0:
256,192,110956,1,0,0:0:0:0:
256,192,111147,1,8,0:0:0:0:
256,192,111338,1,0,0:0:0:0:
256,192,111720,1,12,0:0:0:0:
256,192,112102,1,12,0:0:0:0:
256,192,112389,1,4,0:0:0:0:
256,192,112675,1,12,0:0:0:0:
256,192,113058,1,12,0:0:0:0:
256,192,113440,1,12,0:0:0:0:
256,192,113631,1,4,0:0:0:0:
256,192,113917,1,4,0:0:0:0:
256,192,114203,1,12,0:0:0:0:
256,192,114586,1,12,0:0:0:0:
256,192,114968,1,12,0:0:0:0:
256,192,115159,1,4,0:0:0:0:
256,192,115446,1,4,0:0:0:0:
256,192,115732,1,12,0:0:0:0:
256,192,116115,1,12,0:0:0:0:
256,192,116306,1,4,0:0:0:0:
256,192,116497,1,12,0:0:0:0:
256,192,116688,1,4,0:0:0:0:
256,192,116879,12,0,118026,0:0:0:0:
256,192,118217,5,12,0:0:0:0:
256,192,118408,1,12,0:0:0:0:
