osu file format v14

[General]
AudioFilename: audio.mp3
AudioLeadIn: 0
PreviewTime: 82198
Countdown: 0
SampleSet: Normal
StackLeniency: 0.7
Mode: 1
LetterboxInBreaks: 0
WidescreenStoryboard: 0

[Editor]
Bookmarks: 2039,3567,15796,24968,28026,34140,39491,46370,49427,52484,64714,76943,80000,83058,105988,107516,112102,116688,118408
DistanceSpacing: 1.3
BeatDivisor: 9
GridSize: 32
TimelineZoom: 2.2

[Metadata]
Title:LOVELESS WORLD
TitleUnicode:LOVELESS WORLD
Artist:u's
ArtistUnicode:µ's
Creator:Slyme
Version:KyeX's Confession
Source:ラブライブ! School idol project
Tags:スクールアイドルフェスティバル school idol festival Love Live! muse Japanese Anime Video Game Kosaka Honoka 高坂穂乃果 Nitta Emi 新田恵海 Minami Kotori 南ことり Uchida Aya 内田彩 Sonoda Umi 園田海未 Suzuko Mimori 三森すずこ Hoshizora Rin 星空凛 Iida Riho 飯田里穂 Nishikino Maki 西木野真姫 Pile Koizumi Hanayo 小泉花陽 Kubo Yurika 久保ユリカ Ayase Eli 絢瀬絵里 Nanjou Yoshino 南條愛乃 Tojo Nozomi 東條希 Kusuda Aina 楠田亜衣奈 Yazawa Nico 矢澤にこ Tokui Sora 徳井青空 Mari 0hara Mari_0hara Slyme JRock J-Rock Rock Metal 畑亜貴 Aki Hata 山田高弘 Takahiro Yamada 河田貴央 Takao Kawada Kōsaka Kousaka Nanjō Nanjou Tōjō Toujou Nokduro KyeX gaston_2199
BeatmapID:3710129
BeatmapSetID:1808925

[Difficulty]
HPDrainRate:6
CircleSize:3
OverallDifficulty:6
ApproachRate:10
SliderMultiplier:1.4
SliderTickRate:1

[Events]
//Background and Video events
Video,1015,"output.mp4"
0,0,"Eli and Nozhomi I like These Girls Man.jpg",0,-30
//Break Periods
//Storyboard Layer 0 (Background)
//Storyboard Layer 1 (Fail)
//Storyboard Layer 2 (Pass)
//Storyboard Layer 3 (Foreground)
//Storyboard Layer 4 (Overlay)
//Storyboard Sound Samples

[TimingPoints]
2039,382.165605095541,4,1,0,75,1,8
2039,-125,4,1,0,75,0,0
14268,-125,4,1,0,75,0,0
14554,-124.454994,4,1,0,75,0,0
14841,-122.84068,4,1,0,75,0,0
14937,-122.07489,4,1,0,75,0,0
15032,-121.21212,4,1,0,75,0,0
15223,-119.18063,4,1,0,75,0,0
15319,-118.02047,4,1,0,75,0,0
15414,-116.78832,4,1,0,75,0,0
15510,-115.464264,4,1,0,75,0,0
15605,-114.08199,4,1,0,75,0,0
15701,-112.618706,4,1,0,75,0,0
15796,-111.11111,4,1,0,75,0,0
15988,-117.647058823529,4,1,0,80,0,0
16943,-117.647064,4,1,0,80,0,0
17134,-114.33238,4,1,0,80,0,0
17325,-111.11111,4,1,0,80,0,0
17516,-117.647058823529,4,1,0,80,0,0
18089,-117.647064,4,1,0,80,0,0
18281,-115.97138,4,1,0,80,0,0
18472,-114.32811,4,1,0,80,0,0
18663,-112.70814,4,1,0,80,0,0
18854,-111.11111,4,1,0,80,0,0
19045,-117.647058823529,4,1,0,80,0,0
19618,-111.111111111111,4,1,0,80,0,0
19809,-117.647058823529,4,1,0,80,0,0
20382,-111.111111111111,4,1,0,80,0,0
20574,-117.647058823529,4,1,0,80,0,0
20765,-117.647064,4,1,0,80,0,0
20956,-115.97788,4,1,0,80,0,0
21147,-114.33238,4,1,0,80,0,0
21338,-112.71025,4,1,0,80,0,0
21433,-111.911995,4,1,0,80,0,0
21529,-111.11111,4,1,0,80,0,0
21911,-105.263157894737,4,1,0,80,0,0
22102,-111.11111,4,1,0,80,0,0
22675,-105.263157894737,4,1,0,80,0,0
22867,-111.11111,4,1,0,80,0,0
23440,-105.263157894737,4,1,0,80,0,0
23822,-100,4,1,0,80,0,0
24204,-95.2381,4,1,0,80,0,0
24395,-96.40688,4,1,0,80,0,0
24491,-96.99975,4,1,0,80,0,0
24586,-97.59001,4,1,0,80,0,0
24682,-98.19013,4,1,0,80,0,0
24777,-98.78765,4,1,0,80,0,0
24968,-100,4,1,0,80,0,0
25160,-98.810295,4,1,0,85,0,0
25255,-98.22689,4,1,0,85,0,0
25351,-97.64085,4,1,0,85,0,0
25446,-97.06434,4,1,0,85,0,0
25542,-96.48523,4,1,0,85,0,0
25637,-95.91555,4,1,0,85,0,0
25733,-95.343285,4,1,0,85,0,0
25828,-94.78035,4,1,0,85,0,0
25924,-94.21487,4,1,0,85,0,0
26019,-93.658585,4,1,0,85,0,0
26115,-93.09979,4,1,0,85,0,0
26210,-92.5501,4,1,0,85,0,0
26306,-91.997925,4,1,0,85,0,0
26402,-91.449036,4,1,0,85,0,0
26497,-90.90909,4,1,0,85,0,0
27261,-90.90909,4,1,0,85,0,0
27644,-86.9565217391304,4,1,0,85,0,0
28026,-83.3333325694445,4,1,0,85,0,0
29363,-81.6326530612245,4,1,0,85,0,0
29554,-80,4,1,0,85,0,0
29746,-83.3333333333333,4,1,0,85,0,0
30892,-81.6326530612245,4,1,0,85,0,0
31083,-80,4,1,0,85,0,0
31275,-83.3333333333333,4,1,0,85,0,0
32421,-81.6326530612245,4,1,0,85,0,0
32612,-80,4,1,0,85,0,0
32898,-81.64674,4,1,0,85,0,0
33185,-83.333336,4,1,0,85,0,0
33567,-80.707504,4,1,0,85,0,0
33758,-79.42578,4,1,0,85,0,0
33949,-78.16441,4,1,0,85,0,0
34140,-76.92307,4,1,0,85,0,0
34331,-90.9090909090909,4,1,0,80,0,0
35287,-83.3333333333333,4,1,0,85,0,0
35478,-81.6326530612245,4,1,0,85,0,0
35669,-80,4,1,0,85,0,0
35860,-90.9090909090909,4,1,0,80,0,0
36816,-83.3333333333333,4,1,0,85,0,0
37007,-81.6326530612245,4,1,0,85,0,0
37198,-80,4,1,0,85,0,0
37389,-100,4,1,0,80,0,0
37962,-90.90909,4,1,0,80,0,0
38153,-88.04971,4,1,0,80,0,0
38249,-86.6467,4,1,0,80,0,0
38344,-85.28028,4,1,0,85,0,0
38535,-82.59795,4,1,0,85,0,0
38726,-80.00001,4,1,0,85,0,0
39013,-82.5421,4,1,0,85,0,0
39300,-85.16496,4,1,0,85,0,0
39491,-86.95652,4,1,0,85,0,0
39682,-95.2381,4,1,0,85,0,0
39777,-94.50638,4,1,0,85,0,0
39873,-93.77265,4,1,0,85,0,0
39968,-93.05219,4,1,0,85,0,0
40064,-92.329765,4,1,0,85,0,0
40160,-91.61295,4,1,0,85,0,0
40255,-90.90909,4,1,0,90,0,0
46656,-86.9565217391304,4,1,0,90,0,0
46943,-83.3333333333333,4,1,0,90,0,0
47325,-90.90909,4,1,0,90,0,0
47516,-91.876366,4,1,0,90,0,0
47707,-92.85393,4,1,0,90,0,0
47803,-93.349205,4,1,0,90,0,0
47898,-93.84191,4,1,0,90,0,0
48089,-94.84039,4,1,0,90,0,0
48281,-95.85482,4,1,0,90,0,0
48567,-97.38603,4,1,0,90,0,0
48663,-97.90548,4,1,0,90,0,0
48854,-98.9472,4,1,0,90,0,0
49045,-100,4,1,0,90,0,0
49427,-83.333336,4,1,0,90,0,0
49554,-85.03271,4,1,0,90,0,0
49682,-86.780525,4,1,0,90,0,0
49809,-88.550186,4,1,0,90,0,0
49937,-90.3703,4,1,0,90,0,0
50064,-92.21318,4,1,0,90,0,0
50191,-94.09363,4,1,0,90,0,0
50319,-96.02769,4,1,0,90,0,0
50446,-97.98593,4,1,0,90,0,0
50574,-100,4,1,0,90,0,0
50765,-98.42405,4,1,0,90,0,0
50860,-97.64947,4,1,0,90,0,0
50956,-96.87293,4,1,0,90,0,0
51242,-94.595894,4,1,0,90,0,0
51529,-92.364716,4,1,0,90,0,0
51720,-90.90909,4,1,0,90,0,0
51911,-93.10124,4,1,0,90,0,0
52007,-94.22294,4,1,0,90,0,0
52102,-95.34625,4,1,0,90,0,0
52484,-90.9090909090909,4,1,0,90,0,0
64140,-90.90909,4,1,0,90,0,0
64236,-91.61915,4,1,0,90,0,0
64331,-92.327286,4,1,0,90,0,0
64427,-93.048416,4,1,0,90,0,0
64523,-93.77519,4,1,0,90,0,0
64618,-94.499985,4,1,0,90,0,0
64714,-95.2381,4,1,0,90,0,0
77230,-90.9090909090909,4,1,0,90,0,0
77516,-86.9565217391304,4,1,0,90,0,0
77898,-90.90909,4,1,0,90,0,0
78089,-92.65678,4,1,0,90,0,0
78281,-94.44748,4,1,0,90,0,0
78376,-95.34625,4,1,0,90,0,0
78472,-96.26318,4,1,0,90,0,0
78663,-98.1138,4,1,0,90,0,0
78854,-100,4,1,0,90,0,0
79236,-100,4,1,0,90,0,0
79331,-98.82185,4,1,0,90,0,0
79427,-97.64541,4,1,0,90,0,0
79523,-96.48296,4,1,0,90,0,0
79618,-95.34626,4,1,0,90,0,0
79714,-94.21118,4,1,0,90,0,0
79809,-93.10124,4,1,0,90,0,0
79905,-91.9929,4,1,0,90,0,0
80000,-90.90909,4,1,0,90,0,0
82102,-96.40688,4,1,0,90,0,0
82198,-95.81765,4,1,0,90,0,0
82293,-95.2381,4,1,0,90,0,0
82675,-90.9090909090909,4,1,0,90,0,0
83058,-86.9565217391304,4,1,0,90,0,1
94045,-83.3333333333333,4,1,0,90,0,1
94331,-80,4,1,0,90,0,1
94523,-78.4313725490196,4,1,0,90,0,1
94809,-75.4716981132076,4,1,0,90,0,1
95096,-72.7272727272727,4,1,0,90,0,1
95287,-83.3333333333333,4,1,0,90,0,1
105988,-83.3333333333333,4,1,0,90,0,0
106752,-90.9090909090909,4,1,0,90,0,0
107134,-95.2380952380952,4,1,0,90,0,0
107516,-86.9565217391304,4,1,0,90,0,0
112102,-86.9565217391304,4,1,0,90,0,0
112388,-88.9055917327498,4,1,0,90,0,0
112675,-90.9090940826447,4,1,0,90,0,0
113057,-87.7930629817735,4,1,0,90,0,0
113248,-86.278518640246,4,1,0,90,0,0
113439,-84.7921373918748,4,1,0,90,0,0
113630,-83.3333252083334,4,1,0,90,0,0
113917,-86.9565217391304,4,1,0,90,0,0
114204,-90.9090812396696,4,1,0,90,0,0
114586,-87.7930629817735,4,1,0,90,0,0
114777,-86.278518640246,4,1,0,90,0,0
114968,-84.7921373918748,4,1,0,90,0,0
115159,-83.3333252083334,4,1,0,90,0,0
115446,-86.9565217391304,4,1,0,90,0,0
115733,-90.9090812396696,4,1,0,90,0,0
116115,-87.7930629817735,4,1,0,90,0,0
116306,-86.278518640246,4,1,0,90,0,0
116497,-84.7921373918748,4,1,0,90,0,0
116688,-83.3333252083334,4,1,0,90,0,0
116975,-90.9090909090909,4,1,0,90,0,0
117835,-90.90909,4,1,0,90,0,0
117930,-90.354576,4,1,0,90,0,0
118026,-89.34594,4,1,0,90,0,0
118089,-88.5337,4,1,0,90,0,0
118153,-87.61603,4,1,0,90,0,0
118217,-86.622604,4,1,0,90,0,0
118408,-83.333336,4,1,0,90,0,0

[HitObjects]
256,192,2039,12,0,3376,0:0:0:0:
256,192,3567,5,0,0:0:0:0:
256,192,3854,1,0,0:0:0:0:
256,192,4140,1,8,0:0:0:0:
256,192,4331,1,0,0:0:0:0:
256,192,4905,1,8,0:0:0:0:
256,192,5096,1,0,0:0:0:0:
256,192,5382,1,0,0:0:0:0:
256,192,5669,1,8,0:0:0:0:
256,192,5860,1,8,0:0:0:0:
256,192,6242,1,8,0:0:0:0:
256,192,6624,1,0,0:0:0:0:
256,192,7007,1,0,0:0:0:0:
256,192,7389,1,8,0:0:0:0:
256,192,7771,1,8,0:0:0:0:
256,192,8153,1,8,0:0:0:0:
256,192,8440,1,0,0:0:0:0:
256,192,8726,1,0,0:0:0:0:
256,192,8822,1,8,0:0:0:0:
256,192,8917,1,0,0:0:0:0:
256,192,9682,1,0,0:0:0:0:
256,192,9968,1,0,0:0:0:0:
256,192,10255,1,8,0:0:0:0:
256,192,10446,1,8,0:0:0:0:
256,192,10828,1,0,0:0:0:0:
256,192,11210,1,0,0:0:0:0:
256,192,11784,1,8,0:0:0:0:
256,192,11879,1,0,0:0:0:0:
256,192,11975,1,8,0:0:0:0:
256,192,12357,1,0,0:0:0:0:
256,192,12739,1,8,0:0:0:0:
256,192,13026,1,8,0:0:0:0:
256,192,13312,1,0,0:0:0:0:
256,192,13503,1,8,0:0:0:0:
256,192,13790,1,8,0:0:0:0:
256,192,14077,1,8,0:0:0:0:
256,192,14268,1,0,0:0:0:0:
256,192,14554,1,0,0:0:0:0:
256,192,14841,1,0,0:0:0:0:
256,192,14937,1,0,0:0:0:0:
256,192,15032,1,8,0:0:0:0:
256,192,15223,1,8,0:0:0:0:
256,192,15319,1,8,0:0:0:0:
256,192,15414,1,0,0:0:0:0:
256,192,15510,1,8,0:0:0:0:
256,192,15605,1,0,0:0:0:0:
256,192,15701,1,0,0:0:0:0:
256,192,15796,1,12,0:0:0:0:
256,192,16179,1,0,0:0:0:0:
256,192,16561,1,0,0:0:0:0:
256,192,16943,1,0,0:0:0:0:
256,192,17134,1,8,0:0:0:0:
256,192,17325,1,4,0:0:0:0:
256,192,17707,1,0,0:0:0:0:
256,192,18089,1,0,0:0:0:0:
256,192,18281,1,8,0:0:0:0:
256,192,18472,1,0,0:0:0:0:
256,192,18663,1,8,0:0:0:0:
256,192,18854,1,4,0:0:0:0:
256,192,19236,1,0,0:0:0:0:
256,192,19618,1,12,0:0:0:0:
256,192,20000,1,8,0:0:0:0:
256,192,20382,1,4,0:0:0:0:
256,192,20765,1,0,0:0:0:0:
256,192,20956,1,0,0:0:0:0:
256,192,21147,1,8,0:0:0:0:
256,192,21338,1,0,0:0:0:0:
256,192,21433,1,0,0:0:0:0:
256,192,21529,1,0,0:0:0:0:
256,192,21911,1,4,0:0:0:0:
256,192,22293,1,0,0:0:0:0:
256,192,22675,1,12,0:0:0:0:
256,192,23058,1,0,0:0:0:0:
256,192,23440,1,12,0:0:0:0:
256,192,23822,1,12,0:0:0:0:
256,192,24204,1,4,0:0:0:0:
256,192,24395,1,8,0:0:0:0:
256,192,24491,1,8,0:0:0:0:
256,192,24586,1,0,0:0:0:0:
256,192,24682,1,0,0:0:0:0:
256,192,24777,1,8,0:0:0:0:
256,192,24968,1,4,0:0:0:0:
256,192,25160,1,0,0:0:0:0:
256,192,25255,1,0,0:0:0:0:
256,192,25351,1,8,0:0:0:0:
256,192,25446,1,0,0:0:0:0:
256,192,25542,1,8,0:0:0:0:
256,192,25637,1,8,0:0:0:0:
256,192,25733,1,0,0:0:0:0:
256,192,25828,1,0,0:0:0:0:
256,192,25924,1,8,0:0:0:0:
256,192,26019,1,8,0:0:0:0:
256,192,26115,1,0,0:0:0:0:
256,192,26210,1,8,0:0:0:0:
256,192,26306,1,0,0:0:0:0:
256,192,26402,1,0,0:0:0:0:
256,192,26497,1,12,0:0:0:0:
256,192,27261,1,4,0:0:0:0:
256,192,27644,1,4,0:0:0:0:
256,192,28026,1,12,0:0:0:0:
256,192,29172,1,12,0:0:0:0:
256,192,29363,1,12,0:0:0:0:
256,192,29554,1,4,0:0:0:0:
256,192,30701,1,12,0:0:0:0:
256,192,30892,1,4,0:0:0:0:
256,192,31083,1,12,0:0:0:0:
256,192,32230,1,12,0:0:0:0:
256,192,32421,1,12,0:0:0:0:
256,192,32612,1,4,0:0:0:0:
256,192,32898,1,4,0:0:0:0:
256,192,33185,1,12,0:0:0:0:
256,192,33567,1,12,0:0:0:0:
256,192,33758,1,4,0:0:0:0:
256,192,33949,1,12,0:0:0:0:
256,192,34140,1,4,0:0:0:0:
256,192,34523,1,0,0:0:0:0:
256,192,34905,1,0,0:0:0:0:
256,192,35287,1,12,0:0:0:0:
256,192,35478,1,12,0:0:0:0:
256,192,35669,1,4,0:0:0:0:
256,192,36051,1,0,0:0:0:0:
256,192,36433,1,0,0:0:0:0:
256,192,36816,1,12,0:0:0:0:
256,192,37007,1,4,0:0:0:0:
256,192,37198,1,12,0:0:0:0:
256,192,37580,1,0,0:0:0:0:
256,192,37962,1,0,0:0:0:0:
256,192,38153,1,0,0:0:0:0:
256,192,38249,1,0,0:0:0:0:
256,192,38344,1,12,0:0:0:0:
256,192,38535,1,12,0:0:0:0:
256,192,38726,1,4,0:0:0:0:
256,192,39013,1,4,0:0:0:0:
256,192,39300,1,4,0:0:0:0:
256,192,39491,1,12,0:0:0:0:
256,192,39682,1,0,0:0:0:0:
256,192,39777,1,0,0:0:0:0:
256,192,39873,1,8,0:0:0:0:
256,192,39968,1,0,0:0:0:0:
256,192,40064,1,8,0:0:0:0:
256,192,40160,1,8,0:0:0:0:
256,192,40255,1,4,0:0:0:0:
256,192,40446,1,8,0:0:0:0:
256,192,40542,1,8,0:0:0:0:
256,192,40637,1,0,0:0:0:0:
256,192,40733,1,8,0:0:0:0:
256,192,40828,1,0,0:0:0:0:
256,192,40924,1,0,0:0:0:0:
256,192,41019,1,8,0:0:0:0:
256,192,41115,1,8,0:0:0:0:
256,192,41210,1,0,0:0:0:0:
256,192,41306,1,0,0:0:0:0:
256,192,41402,1,8,0:0:0:0:
256,192,41497,1,0,0:0:0:0:
256,192,41593,1,8,0:0:0:0:
256,192,41688,1,8,0:0:0:0:
256,192,41784,1,0,0:0:0:0:
256,192,41879,1,0,0:0:0:0:
256,192,41975,1,0,0:0:0:0:
256,192,42070,1,0,0:0:0:0:
256,192,42166,1,8,0:0:0:0:
256,192,42261,1,8,0:0:0:0:
256,192,42357,1,0,0:0:0:0:
256,192,42453,1,0,0:0:0:0:
256,192,42548,1,8,0:0:0:0:
256,192,42644,1,0,0:0:0:0:
256,192,42739,1,0,0:0:0:0:
256,192,42835,1,0,0:0:0:0:
256,192,42930,1,8,0:0:0:0:
256,192,43026,1,8,0:0:0:0:
256,192,43121,1,0,0:0:0:0:
256,192,43217,1,0,0:0:0:0:
256,192,43312,1,8,0:0:0:0:
256,192,43408,1,8,0:0:0:0:
256,192,43503,1,8,0:0:0:0:
256,192,43599,1,8,0:0:0:0:
256,192,43695,1,0,0:0:0:0:
256,192,43790,1,0,0:0:0:0:
256,192,43886,1,8,0:0:0:0:
256,192,43981,1,0,0:0:0:0:
256,192,44077,1,8,0:0:0:0:
256,192,44172,1,8,0:0:0:0:
256,192,44268,1,0,0:0:0:0:
256,192,44363,1,0,0:0:0:0:
256,192,44459,1,8,0:0:0:0:
256,192,44554,1,0,0:0:0:0:
256,192,44650,1,8,0:0:0:0:
256,192,44746,1,0,0:0:0:0:
256,192,44841,1,8,0:0:0:0:
256,192,44937,1,8,0:0:0:0:
256,192,45032,1,8,0:0:0:0:
256,192,45128,1,8,0:0:0:0:
256,192,45223,1,0,0:0:0:0:
256,192,45319,1,0,0:0:0:0:
256,192,45414,1,8,0:0:0:0:
256,192,45510,1,0,0:0:0:0:
256,192,45605,1,8,0:0:0:0:
256,192,45701,1,8,0:0:0:0:
256,192,45796,1,0,0:0:0:0:
256,192,45892,1,0,0:0:0:0:
256,192,45988,1,8,0:0:0:0:
256,192,46083,1,0,0:0:0:0:
256,192,46179,1,0,0:0:0:0:
256,192,46274,1,0,0:0:0:0:
256,192,46370,1,12,0:0:0:0:
256,192,46656,1,4,0:0:0:0:
256,192,46943,1,12,0:0:0:0:
256,192,47325,1,0,0:0:0:0:
256,192,47516,1,8,0:0:0:0:
256,192,47707,1,8,0:0:0:0:
256,192,47803,1,8,0:0:0:0:
256,192,47898,1,0,0:0:0:0:
256,192,48089,1,8,0:0:0:0:
256,192,48281,1,0,0:0:0:0:
256,192,48567,1,0,0:0:0:0:
256,192,48663,1,8,0:0:0:0:
256,192,48854,1,8,0:0:0:0:
256,192,49045,1,0,0:0:0:0:
256,192,49427,1,8,0:0:0:0:
256,192,49554,1,8,0:0:0:0:
256,192,49682,1,0,0:0:0:0:
256,192,49809,1,8,0:0:0:0:
256,192,49937,1,0,0:0:0:0:
256,192,50064,1,0,0:0:0:0:
256,192,50191,1,8,0:0:0:0:
256,192,50319,1,8,0:0:0:0:
256,192,50446,1,0,0:0:0:0:
256,192,50574,1,8,0:0:0:0:
256,192,50765,1,0,0:0:0:0:
256,192,50860,1,0,0:0:0:0:
256,192,50956,1,12,0:0:0:0:
256,192,51242,1,4,0:0:0:0:
256,192,51529,1,12,0:0:0:0:
256,192,51720,1,4,0:0:0:0:
256,192,51911,1,8,0:0:0:0:
256,192,52007,1,8,0:0:0:0:
256,192,52102,1,0,0:0:0:0:
256,192,52484,1,12,0:0:0:0:
256,192,52675,1,0,0:0:0:0:
256,192,52771,1,8,0:0:0:0:
256,192,52867,1,0,0:0:0:0:
256,192,53058,1,8,0:0:0:0:
256,192,53249,1,0,0:0:0:0:
256,192,53344,1,8,0:0:0:0:
256,192,53440,1,0,0:0:0:0:
256,192,53535,1,0,0:0:0:0:
256,192,53631,1,8,0:0:0:0:
256,192,53822,1,0,0:0:0:0:
256,192,54013,1,8,0:0:0:0:
256,192,54109,1,0,0:0:0:0:
256,192,54204,1,8,0:0:0:0:
256,192,54300,1,8,0:0:0:0:
256,192,54395,1,0,0:0:0:0:
256,192,54586,1,8,0:0:0:0:
256,192,54777,1,0,0:0:0:0:
256,192,54873,1,0,0:0:0:0:
256,192,54968,1,8,0:0:0:0:
256,192,55064,1,0,0:0:0:0:
256,192,55160,1,8,0:0:0:0:
256,192,55351,1,0,0:0:0:0:
256,192,55542,1,8,0:0:0:0:
256,192,55637,1,8,0:0:0:0:
256,192,55733,1,0,0:0:0:0:
256,192,55828,1,8,0:0:0:0:
256,192,55924,1,0,0:0:0:0:
256,192,56019,1,0,0:0:0:0:
256,192,56115,1,8,0:0:0:0:
256,192,56210,1,8,0:0:0:0:
256,192,56306,1,0,0:0:0:0:
256,192,56497,1,8,0:0:0:0:
256,192,56593,1,8,0:0:0:0:
256,192,56688,1,0,0:0:0:0:
256,192,56879,1,8,0:0:0:0:
256,192,57070,1,0,0:0:0:0:
256,192,57166,1,0,0:0:0:0:
256,192,57261,1,8,0:0:0:0:
256,192,57357,1,8,0:0:0:0:
256,192,57453,1,0,0:0:0:0:
256,192,57644,1,8,0:0:0:0:
256,192,57739,1,0,0:0:0:0:
256,192,57835,1,8,0:0:0:0:
256,192,58026,1,0,0:0:0:0:
256,192,58217,1,8,0:0:0:0:
256,192,58312,1,8,0:0:0:0:
256,192,58408,1,8,0:0:0:0:
256,192,58503,1,8,0:0:0:0:
256,192,58599,1,4,0:0:0:0:
256,192,58790,1,8,0:0:0:0:
256,192,58886,1,8,0:0:0:0:
256,192,58981,1,0,0:0:0:0:
256,192,59172,1,8,0:0:0:0:
256,192,59363,1,0,0:0:0:0:
256,192,59459,1,8,0:0:0:0:
256,192,59554,1,0,0:0:0:0:
256,192,59650,1,0,0:0:0:0:
256,192,59746,1,8,0:0:0:0:
256,192,59937,1,8,0:0:0:0:
256,192,60128,1,0,0:0:0:0:
256,192,60223,1,0,0:0:0:0:
256,192,60319,1,8,0:0:0:0:
256,192,60414,1,8,0:0:0:0:
256,192,60510,1,0,0:0:0:0:
256,192,60701,1,8,0:0:0:0:
256,192,60796,1,8,0:0:0:0:
256,192,60892,1,0,0:0:0:0:
256,192,61083,1,0,0:0:0:0:
256,192,61179,1,0,0:0:0:0:
256,192,61274,1,8,0:0:0:0:
256,192,61465,1,0,0:0:0:0:
256,192,61656,1,8,0:0:0:0:
256,192,61752,1,8,0:0:0:0:
256,192,61847,1,0,0:0:0:0:
256,192,61943,1,0,0:0:0:0:
256,192,62038,1,8,0:0:0:0:
256,192,62230,1,0,0:0:0:0:
256,192,62421,1,8,0:0:0:0:
256,192,62516,1,0,0:0:0:0:
256,192,62612,1,8,0:0:0:0:
256,192,62707,1,8,0:0:0:0:
256,192,62803,1,0,0:0:0:0:
256,192,62994,1,0,0:0:0:0:
256,192,63185,1,8,0:0:0:0:
256,192,63281,1,8,0:0:0:0:
256,192,63376,1,0,0:0:0:0:
256,192,63472,1,8,0:0:0:0:
256,192,63567,1,0,0:0:0:0:
256,192,63663,1,0,0:0:0:0:
256,192,63758,1,8,0:0:0:0:
256,192,63854,1,0,0:0:0:0:
256,192,63949,1,8,0:0:0:0:
256,192,64140,1,0,0:0:0:0:
256,192,64236,1,0,0:0:0:0:
256,192,64331,1,8,0:0:0:0:
256,192,64427,1,8,0:0:0:0:
256,192,64523,1,8,0:0:0:0:
256,192,64618,1,8,0:0:0:0:
256,192,64714,1,4,0:0:0:0:
256,192,64905,1,8,0:0:0:0:
256,192,65000,1,0,0:0:0:0:
256,192,65191,1,0,0:0:0:0:
256,192,65287,1,8,0:0:0:0:
256,192,65478,1,0,0:0:0:0:
256,192,65669,1,8,0:0:0:0:
256,192,65765,1,8,0:0:0:0:
256,192,65860,1,0,0:0:0:0:
256,192,66051,1,8,0:0:0:0:
256,192,66242,1,0,0:0:0:0:
256,192,66338,1,0,0:0:0:0:
256,192,66433,1,8,0:0:0:0:
256,192,66529,1,8,0:0:0:0:
256,192,66624,1,0,0:0:0:0:
256,192,66720,1,0,0:0:0:0:
256,192,66816,1,8,0:0:0:0:
256,192,67007,1,0,0:0:0:0:
256,192,67198,1,8,0:0:0:0:
256,192,67293,1,0,0:0:0:0:
256,192,67389,1,8,0:0:0:0:
256,192,67484,1,8,0:0:0:0:
256,192,67580,1,0,0:0:0:0:
256,192,67675,1,0,0:0:0:0:
256,192,67771,1,12,0:0:0:0:
256,192,67962,1,0,0:0:0:0:
256,192,68058,1,8,0:0:0:0:
256,192,68249,1,8,0:0:0:0:
256,192,68344,1,0,0:0:0:0:
256,192,68535,1,8,0:0:0:0:
256,192,68631,1,8,0:0:0:0:
256,192,68726,1,0,0:0:0:0:
256,192,68822,1,0,0:0:0:0:
256,192,68917,1,8,0:0:0:0:
256,192,69109,1,0,0:0:0:0:
256,192,69300,1,8,0:0:0:0:
256,192,69395,1,8,0:0:0:0:
256,192,69491,1,0,0:0:0:0:
256,192,69586,1,0,0:0:0:0:
256,192,69682,1,0,0:0:0:0:
256,192,69873,1,8,0:0:0:0:
256,192,70064,1,0,0:0:0:0:
256,192,70255,1,8,0:0:0:0:
256,192,70351,1,8,0:0:0:0:
256,192,70446,1,0,0:0:0:0:
256,192,70637,1,8,0:0:0:0:
256,192,70828,1,0,0:0:0:0:
256,192,71019,1,8,0:0:0:0:
256,192,71115,1,0,0:0:0:0:
256,192,71306,1,0,0:0:0:0:
256,192,71402,1,8,0:0:0:0:
256,192,71593,1,0,0:0:0:0:
256,192,71784,1,8,0:0:0:0:
256,192,71879,1,8,0:0:0:0:
256,192,71975,1,0,0:0:0:0:
256,192,72166,1,8,0:0:0:0:
256,192,72357,1,8,0:0:0:0:
256,192,72453,1,8,0:0:0:0:
256,192,72548,1,0,0:0:0:0:
256,192,72644,1,0,0:0:0:0:
256,192,72739,1,8,0:0:0:0:
256,192,72930,1,0,0:0:0:0:
256,192,73121,1,8,0:0:0:0:
256,192,73217,1,0,0:0:0:0:
256,192,73312,1,0,0:0:0:0:
256,192,73408,1,0,0:0:0:0:
256,192,73503,1,8,0:0:0:0:
256,192,73695,1,0,0:0:0:0:
256,192,73886,1,12,0:0:0:0:
256,192,74077,1,0,0:0:0:0:
256,192,74172,1,8,0:0:0:0:
256,192,74363,1,8,0:0:0:0:
256,192,74459,1,0,0:0:0:0:
256,192,74650,1,8,0:0:0:0:
256,192,74841,1,0,0:0:0:0:
256,192,74937,1,8,0:0:0:0:
256,192,75032,1,0,0:0:0:0:
256,192,75223,1,8,0:0:0:0:
256,192,75414,1,0,0:0:0:0:
256,192,75510,1,0,0:0:0:0:
256,192,75605,1,8,0:0:0:0:
256,192,75701,1,0,0:0:0:0:
256,192,75796,1,8,0:0:0:0:
256,192,75892,1,8,0:0:0:0:
256,192,75988,1,0,0:0:0:0:
256,192,76179,1,8,0:0:0:0:
256,192,76274,1,8,0:0:0:0:
256,192,76370,1,0,0:0:0:0:
256,192,76465,1,0,0:0:0:0:
256,192,76561,1,12,0:0:0:0:
256,192,76943,1,4,0:0:0:0:
256,192,77230,1,4,0:0:0:0:
256,192,77516,1,12,0:0:0:0:
256,192,77898,1,0,0:0:0:0:
256,192,78089,1,8,0:0:0:0:
256,192,78281,1,8,0:0:0:0:
256,192,78376,1,8,0:0:0:0:
256,192,78472,1,0,0:0:0:0:
256,192,78663,1,8,0:0:0:0:
256,192,78854,1,0,0:0:0:0:
256,192,79236,1,8,0:0:0:0:
256,192,79331,1,8,0:0:0:0:
256,192,79427,1,0,0:0:0:0:
256,192,79523,1,0,0:0:0:0:
256,192,79618,1,8,0:0:0:0:
256,192,79714,1,8,0:0:0:0:
256,192,79809,1,8,0:0:0:0:
256,192,79905,1,8,0:0:0:0:
256,192,80000,1,4,0:0:0:0:
256,192,80191,1,8,0:0:0:0:
256,192,80287,1,8,0:0:0:0:
256,192,80382,1,0,0:0:0:0:
256,192,80478,1,0,0:0:0:0:
256,192,80574,1,8,0:0:0:0:
256,192,80669,1,0,0:0:0:0:
256,192,80765,1,0,0:0:0:0:
256,192,80860,1,0,0:0:0:0:
256,192,80956,1,8,0:0:0:0:
256,192,81051,1,0,0:0:0:0:
256,192,81147,1,8,0:0:0:0:
256,192,81242,1,8,0:0:0:0:
256,192,81338,1,0,0:0:0:0:
256,192,81433,1,0,0:0:0:0:
256,192,81529,1,12,0:0:0:0:
256,192,82102,1,0,0:0:0:0:
256,192,82198,1,0,0:0:0:0:
256,192,82293,1,12,0:0:0:0:
256,192,82675,1,12,0:0:0:0:
256,192,83058,1,0,0:0:0:0:
256,192,83153,1,0,0:0:0:0:
256,192,83249,1,8,0:0:0:0:
256,192,83344,1,0,0:0:0:0:
256,192,83440,1,8,0:0:0:0:
256,192,83535,1,8,0:0:0:0:
256,192,83631,1,0,0:0:0:0:
256,192,83726,1,0,0:0:0:0:
256,192,83822,1,8,0:0:0:0:
256,192,83917,1,0,0:0:0:0:
256,192,84013,1,0,0:0:0:0:
256,192,84109,1,0,0:0:0:0:
256,192,84204,1,8,0:0:0:0:
256,192,84300,1,8,0:0:0:0:
256,192,84395,1,0,0:0:0:0:
256,192,84491,1,8,0:0:0:0:
256,192,84586,1,0,0:0:0:0:
256,192,84682,1,0,0:0:0:0:
256,192,84777,1,8,0:0:0:0:
256,192,84873,1,0,0:0:0:0:
256,192,84968,1,8,0:0:0:0:
256,192,85064,1,8,0:0:0:0:
256,192,85160,1,0,0:0:0:0:
256,192,85255,1,0,0:0:0:0:
256,192,85351,1,8,0:0:0:0:
256,192,85446,1,0,0:0:0:0:
256,192,85542,1,8,0:0:0:0:
256,192,85637,1,8,0:0:0:0:
256,192,85733,1,0,0:0:0:0:
256,192,85828,1,8,0:0:0:0:
256,192,85924,1,0,0:0:0:0:
256,192,86019,1,0,0:0:0:0:
256,192,86115,1,8,0:0:0:0:
256,192,86210,1,8,0:0:0:0:
256,192,86306,1,0,0:0:0:0:
256,192,86402,1,0,0:0:0:0:
256,192,86497,1,8,0:0:0:0:
256,192,86593,1,0,0:0:0:0:
256,192,86688,1,0,0:0:0:0:
256,192,86784,1,0,0:0:0:0:
256,192,86879,1,8,0:0:0:0:
256,192,86975,1,8,0:0:0:0:
256,192,87070,1,8,0:0:0:0:
256,192,87166,1,0,0:0:0:0:
256,192,87261,1,8,0:0:0:0:
256,192,87357,1,8,0:0:0:0:
256,192,87453,1,0,0:0:0:0:
256,192,87548,1,0,0:0:0:0:
256,192,87644,1,8,0:0:0:0:
256,192,87739,1,8,0:0:0:0:
256,192,87835,1,0,0:0:0:0:
256,192,87930,1,8,0:0:0:0:
256,192,88026,1,0,0:0:0:0:
256,192,88121,1,0,0:0:0:0:
256,192,88217,1,8,0:0:0:0:
256,192,88312,1,0,0:0:0:0:
256,192,88408,1,8,0:0:0:0:
256,192,88503,1,8,0:0:0:0:
256,192,88599,1,0,0:0:0:0:
256,192,88695,1,0,0:0:0:0:
256,192,88790,1,8,0:0:0:0:
256,192,88886,1,0,0:0:0:0:
256,192,88981,1,0,0:0:0:0:
256,192,89077,1,0,0:0:0:0:
256,192,89172,1,8,0:0:0:0:
256,192,89268,1,8,0:0:0:0:
256,192,89363,1,0,0:0:0:0:
256,192,89459,1,8,0:0:0:0:
256,192,89554,1,0,0:0:0:0:
256,192,89650,1,0,0:0:0:0:
256,192,89746,1,8,0:0:0:0:
256,192,89841,1,0,0:0:0:0:
256,192,89937,1,8,0:0:0:0:
256,192,90032,1,8,0:0:0:0:
256,192,90128,1,8,0:0:0:0:
256,192,90223,1,8,0:0:0:0:
256,192,90319,1,0,0:0:0:0:
256,192,90414,1,0,0:0:0:0:
256,192,90510,1,0,0:0:0:0:
256,192,90605,1,0,0:0:0:0:
256,192,90701,1,8,0:0:0:0:
256,192,90796,1,8,0:0:0:0:
256,192,90892,1,0,0:0:0:0:
256,192,90988,1,0,0:0:0:0:
256,192,91083,1,0,0:0:0:0:
256,192,91179,1,0,0:0:0:0:
256,192,91274,1,8,0:0:0:0:
256,192,91370,1,0,0:0:0:0:
256,192,91465,1,8,0:0:0:0:
256,192,91561,1,8,0:0:0:0:
256,192,91656,1,0,0:0:0:0:
256,192,91752,1,0,0:0:0:0:
256,192,91847,1,8,0:0:0:0:
256,192,91943,1,0,0:0:0:0:
256,192,92038,1,0,0:0:0:0:
256,192,92134,1,0,0:0:0:0:
256,192,92230,1,8,0:0:0:0:
256,192,92325,1,8,0:0:0:0:
256,192,92421,1,0,0:0:0:0:
256,192,92516,1,8,0:0:0:0:
256,192,92612,1,0,0:0:0:0:
256,192,92707,1,0,0:0:0:0:
256,192,92803,1,8,0:0:0:0:
256,192,92898,1,0,0:0:0:0:
256,192,92994,1,8,0:0:0:0:
256,192,93089,1,8,0:0:0:0:
256,192,93185,1,8,0:0:0:0:
256,192,93281,1,8,0:0:0:0:
256,192,93376,1,0,0:0:0:0:
256,192,93472,1,0,0:0:0:0:
256,192,93567,1,8,0:0:0:0:
256,192,93663,1,8,0:0:0:0:
256,192,93758,1,4,0:0:0:0:
256,192,94045,1,4,0:0:0:0:
256,192,94331,1,4,0:0:0:0:
256,192,94523,1,12,0:0:0:0:
256,192,94809,1,12,0:0:0:0:
256,192,95096,1,12,0:0:0:0:
256,192,95287,1,0,0:0:0:0:
256,192,95382,1,0,0:0:0:0:
256,192,95478,1,8,0:0:0:0:
256,192,95574,1,0,0:0:0:0:
256,192,95669,1,8,0:0:0:0:
256,192,95765,1,8,0:0:0:0:
256,192,95860,1,0,0:0:0:0:
256,192,95956,1,0,0:0:0:0:
256,192,96051,1,8,0:0:0:0:
256,192,96147,1,0,0:0:0:0:
256,192,96242,1,0,0:0:0:0:
256,192,96338,1,0,0:0:0:0:
256,192,96433,1,8,0:0:0:0:
256,192,96529,1,8,0:0:0:0:
256,192,96624,1,0,0:0:0:0:
256,192,96720,1,8,0:0:0:0:
256,192,96816,1,0,0:0:0:0:
256,192,96911,1,0,0:0:0:0:
256,192,97007,1,8,0:0:0:0:
256,192,97102,1,0,0:0:0:0:
256,192,97198,1,8,0:0:0:0:
256,192,97293,1,8,0:0:0:0:
256,192,97389,1,0,0:0:0:0:
256,192,97484,1,0,0:0:0:0:
256,192,97580,1,8,0:0:0:0:
256,192,97675,1,0,0:0:0:0:
256,192,97771,1,8,0:0:0:0:
256,192,97867,1,8,0:0:0:0:
256,192,97962,1,0,0:0:0:0:
256,192,98058,1,8,0:0:0:0:
256,192,98153,1,0,0:0:0:0:
256,192,98249,1,0,0:0:0:0:
256,192,98344,1,8,0:0:0:0:
256,192,98440,1,8,0:0:0:0:
256,192,98535,1,0,0:0:0:0:
256,192,98631,1,0,0:0:0:0:
256,192,98726,1,8,0:0:0:0:
256,192,98822,1,0,0:0:0:0:
256,192,98917,1,0,0:0:0:0:
256,192,99013,1,0,0:0:0:0:
256,192,99109,1,8,0:0:0:0:
256,192,99204,1,8,0:0:0:0:
256,192,99300,1,8,0:0:0:0:
256,192,99395,1,8,0:0:0:0:
256,192,99491,1,0,0:0:0:0:
256,192,99586,1,0,0:0:0:0:
256,192,99682,1,0,0:0:0:0:
256,192,99777,1,0,0:0:0:0:
256,192,99873,1,8,0:0:0:0:
256,192,99968,1,8,0:0:0:0:
256,192,100064,1,0,0:0:0:0:
256,192,100160,1,8,0:0:0:0:
256,192,100255,1,0,0:0:0:0:
256,192,100351,1,0,0:0:0:0:
256,192,100446,1,8,0:0:0:0:
256,192,100542,1,0,0:0:0:0:
256,192,100637,1,8,0:0:0:0:
256,192,100733,1,8,0:0:0:0:
256,192,100828,1,0,0:0:0:0:
256,192,100924,1,0,0:0:0:0:
256,192,101019,1,8,0:0:0:0:
256,192,101115,1,0,0:0:0:0:
256,192,101210,1,0,0:0:0:0:
256,192,101306,1,0,0:0:0:0:
256,192,101402,1,8,0:0:0:0:
256,192,101497,1,8,0:0:0:0:
256,192,101593,1,0,0:0:0:0:
256,192,101688,1,8,0:0:0:0:
256,192,101784,1,0,0:0:0:0:
256,192,101879,1,0,0:0:0:0:
256,192,101975,1,8,0:0:0:0:
256,192,102070,1,0,0:0:0:0:
256,192,102166,1,8,0:0:0:0:
256,192,102261,1,8,0:0:0:0:
256,192,102357,1,0,0:0:0:0:
256,192,102453,1,0,0:0:0:0:
256,192,102548,1,8,0:0:0:0:
256,192,102644,1,0,0:0:0:0:
256,192,102739,1,0,0:0:0:0:
256,192,102835,1,0,0:0:0:0:
256,192,102930,1,8,0:0:0:0:
256,192,103026,1,8,0:0:0:0:
256,192,103121,1,8,0:0:0:0:
256,192,103217,1,8,0:0:0:0:
256,192,103312,1,0,0:0:0:0:
256,192,103408,1,0,0:0:0:0:
256,192,103503,1,8,0:0:0:0:
256,192,103599,1,0,0:0:0:0:
256,192,103695,1,8,0:0:0:0:
256,192,103790,1,8,0:0:0:0:
256,192,103886,1,0,0:0:0:0:
256,192,103981,1,0,0:0:0:0:
256,192,104077,1,8,0:0:0:0:
256,192,104172,1,0,0:0:0:0:
256,192,104268,1,0,0:0:0:0:
256,192,104363,1,0,0:0:0:0:
256,192,104459,1,8,0:0:0:0:
256,192,104554,1,8,0:0:0:0:
256,192,104650,1,0,0:0:0:0:
256,192,104746,1,8,0:0:0:0:
256,192,104841,1,0,0:0:0:0:
256,192,104937,1,0,0:0:0:0:
256,192,105032,1,8,0:0:0:0:
256,192,105128,1,0,0:0:0:0:
256,192,105223,1,8,0:0:0:0:
256,192,105319,1,8,0:0:0:0:
256,192,105414,1,0,0:0:0:0:
256,192,105510,1,0,0:0:0:0:
256,192,105605,1,0,0:0:0:0:
256,192,105701,1,0,0:0:0:0:
256,192,105796,1,8,0:0:0:0:
256,192,105892,1,8,0:0:0:0:
256,192,105988,1,4,0:0:0:0:
256,192,106752,1,12,0:0:0:0:
256,192,107134,1,12,0:0:0:0:
256,192,107516,1,8,0:0:0:0:
256,192,107612,1,8,0:0:0:0:
256,192,107707,1,0,0:0:0:0:
256,192,107803,1,0,0:0:0:0:
256,192,107898,1,8,0:0:0:0:
256,192,107994,1,0,0:0:0:0:
256,192,108089,1,8,0:0:0:0:
256,192,108185,1,8,0:0:0:0:
256,192,108281,1,0,0:0:0:0:
256,192,108376,1,8,0:0:0:0:
256,192,108472,1,0,0:0:0:0:
256,192,108567,1,0,0:0:0:0:
256,192,108663,1,8,0:0:0:0:
256,192,108758,1,0,0:0:0:0:
256,192,108854,1,0,0:0:0:0:
256,192,108949,1,0,0:0:0:0:
256,192,109045,1,8,0:0:0:0:
256,192,109140,1,8,0:0:0:0:
256,192,109236,1,0,0:0:0:0:
256,192,109331,1,0,0:0:0:0:
256,192,109427,1,8,0:0:0:0:
256,192,109523,1,0,0:0:0:0:
256,192,109618,1,8,0:0:0:0:
256,192,109714,1,8,0:0:0:0:
256,192,109809,1,0,0:0:0:0:
256,192,109905,1,8,0:0:0:0:
256,192,110000,1,0,0:0:0:0:
256,192,110096,1,0,0:0:0:0:
256,192,110191,1,8,0:0:0:0:
256,192,110287,1,0,0:0:0:0:
256,192,110382,1,8,0:0:0:0:
256,192,110478,1,0,0:0:0:0:
256,192,110574,1,8,0:0:0:0:
256,192,110669,1,8,0:0:0:0:
256,192,110765,1,0,0:0:0:0:
256,192,110860,1,0,0:0:0:0:
256,192,110956,1,8,0:0:0:0:
256,192,111051,1,0,0:0:0:0:
256,192,111147,1,8,0:0:0:0:
256,192,111242,1,8,0:0:0:0:
256,192,111338,1,0,0:0:0:0:
256,192,111433,1,8,0:0:0:0:
256,192,111529,1,0,0:0:0:0:
256,192,111624,1,0,0:0:0:0:
256,192,111720,1,8,0:0:0:0:
256,192,111816,1,8,0:0:0:0:
256,192,111911,1,8,0:0:0:0:
256,192,112007,1,8,0:0:0:0:
256,192,112102,1,4,0:0:0:0:
256,192,112389,1,4,0:0:0:0:
256,192,112675,1,12,0:0:0:0:
256,192,113058,1,12,0:0:0:0:
256,192,113249,1,4,0:0:0:0:
256,192,113440,1,12,0:0:0:0:
256,192,113631,1,4,0:0:0:0:
256,192,113917,1,4,0:0:0:0:
256,192,114204,1,12,0:0:0:0:
256,192,114586,1,12,0:0:0:0:
256,192,114777,1,4,0:0:0:0:
256,192,114968,1,12,0:0:0:0:
256,192,115160,1,4,0:0:0:0:
256,192,115446,1,4,0:0:0:0:
256,192,115733,1,12,0:0:0:0:
256,192,116115,1,12,0:0:0:0:
256,192,116306,1,4,0:0:0:0:
256,192,116497,1,12,0:0:0:0:
256,192,116688,1,4,0:0:0:0:
256,192,117835,1,8,0:0:0:0:
256,192,117930,1,8,0:0:0:0:
256,192,118026,1,0,0:0:0:0:
256,192,118089,1,0,0:0:0:0:
256,192,118153,1,0,0:0:0:0:
256,192,118217,1,8,0:0:0:0:
256,192,118408,1,12,0:0:0:0:
