osu file format v14

[General]
AudioFilename: audio.mp3
AudioLeadIn: 0
PreviewTime: 82198
Countdown: 0
SampleSet: Normal
StackLeniency: 0.7
Mode: 1
LetterboxInBreaks: 0
WidescreenStoryboard: 0

[Editor]
Bookmarks: 3567,15796,28026,39491,52484,64714,76943,83058,95287,105988,112102,118408
DistanceSpacing: 1.3
BeatDivisor: 4
GridSize: 32
TimelineZoom: 1.7

[Metadata]
Title:LOVELESS WORLD
TitleUnicode:LOVELESS WORLD
Artist:u's
ArtistUnicode:µ's
Creator:Slyme
Version:Kantan
Source:ラブライブ! School idol project
Tags:スクールアイドルフェスティバル school idol festival Love Live! muse Japanese Anime Video Game Kosaka Honoka 高坂穂乃果 Nitta Emi 新田恵海 Minami Kotori 南ことり Uchida Aya 内田彩 Sonoda Umi 園田海未 Suzuko Mimori 三森すずこ Hoshizora Rin 星空凛 Iida Riho 飯田里穂 Nishikino Maki 西木野真姫 Pile Koizumi Hanayo 小泉花陽 Kubo Yurika 久保ユリカ Ayase Eli 絢瀬絵里 Nanjou Yoshino 南條愛乃 Tojo Nozomi 東條希 Kusuda Aina 楠田亜衣奈 Yazawa Nico 矢澤にこ Tokui Sora 徳井青空 Mari 0hara Mari_0hara Slyme JRock J-Rock Rock Metal 畑亜貴 Aki Hata 山田高弘 Takahiro Yamada 河田貴央 Takao Kawada Kōsaka Kousaka Nanjō Nanjou Tōjō Toujou Nokduro KyeX gaston_2199
BeatmapID:3726784
BeatmapSetID:1808925

[Difficulty]
HPDrainRate:8
CircleSize:5
OverallDifficulty:3
ApproachRate:5
SliderMultiplier:1.4
SliderTickRate:1

[Events]
//Background and Video events
Video,1015,"output.mp4"
0,0,"im here nozomi.jpg",0,-50
//Break Periods
//Storyboard Layer 0 (Background)
//Storyboard Layer 1 (Fail)
//Storyboard Layer 2 (Pass)
//Storyboard Layer 3 (Foreground)
//Storyboard Layer 4 (Overlay)
//Storyboard Sound Samples

[TimingPoints]
2039,382.165605095541,4,1,0,60,1,8
15796,-100,4,1,0,80,0,0
27166,-100,4,1,0,100,0,0
40160,-100,4,1,0,90,0,0
46274,-100,4,1,0,90,0,0
52389,-100,4,1,0,85,0,0
76752,-100,4,1,0,90,0,0
83058,-100,4,1,0,100,0,1
105988,-100,4,1,0,100,0,0

[HitObjects]
256,192,2039,12,0,3376,0:0:0:0:
256,192,3567,5,0,0:0:0:0:
256,192,4331,1,0,0:0:0:0:
448,64,5096,1,8,0:0:0:0:
64,64,5861,1,0,0:0:0:0:
64,64,6243,1,0,0:0:0:0:
448,64,6625,1,8,0:0:0:0:
64,64,7389,1,0,0:0:0:0:
448,64,8154,1,8,0:0:0:0:
256,192,9682,1,0,0:0:0:0:
256,192,10446,1,8,0:0:0:0:
256,192,11210,1,0,0:0:0:0:
256,192,11975,1,8,0:0:0:0:
256,192,12357,1,8,0:0:0:0:
256,192,12739,1,0,0:0:0:0:
256,192,13503,1,8,0:0:0:0:
256,192,14268,1,0,0:0:0:0:
256,192,15796,1,4,0:0:0:0:
448,64,16179,1,8,0:0:0:0:
256,192,16560,1,0,0:0:0:0:
256,192,17325,1,0,0:0:0:0:
64,64,18090,1,0,0:0:0:0:
256,192,18472,1,8,0:0:0:0:
64,64,18854,1,0,0:0:0:0:
448,64,19619,1,8,0:0:0:0:
256,192,20382,1,0,0:0:0:0:
256,192,21911,1,0,0:0:0:0:
256,192,22675,1,8,0:0:0:0:
256,192,23440,1,8,0:0:0:0:
448,64,23822,1,8,0:0:0:0:
64,64,24205,1,0,0:0:0:0:
256,192,24968,1,0,0:0:0:0:
256,192,25733,1,8,0:0:0:0:
64,64,26115,1,0,0:0:0:0:
256,192,26497,1,8,0:0:0:0:
256,192,27261,1,12,0:0:0:0:
256,192,27643,1,4,0:0:0:0:
256,192,28025,1,12,0:0:0:0:
256,192,29172,1,12,0:0:0:0:
256,192,29554,1,4,0:0:0:0:
256,192,30701,1,4,0:0:0:0:
256,192,31083,1,12,0:0:0:0:
256,192,32230,1,12,0:0:0:0:
448,320,32612,1,12,0:0:0:0:
64,320,33185,1,4,0:0:0:0:
256,192,33758,1,12,0:0:0:0:
256,192,34140,1,4,0:0:0:0:
448,320,35287,1,12,0:0:0:0:
256,192,35669,1,4,0:0:0:0:
256,192,36816,1,12,0:0:0:0:
256,192,37198,1,4,0:0:0:0:
256,192,38344,1,12,0:0:0:0:
256,192,38726,1,12,0:0:0:0:
256,192,39491,1,12,0:0:0:0:
256,192,40255,5,0,0:0:0:0:
256,192,41019,1,8,0:0:0:0:
256,192,41402,1,0,0:0:0:0:
256,192,41784,1,8,0:0:0:0:
256,192,42166,1,8,0:0:0:0:
256,192,42548,1,0,0:0:0:0:
256,192,43312,1,8,0:0:0:0:
256,192,44077,1,0,0:0:0:0:
256,192,44459,1,8,0:0:0:0:
256,192,44841,1,8,0:0:0:0:
256,192,45605,1,0,0:0:0:0:
256,192,46370,1,4,0:0:0:0:
256,192,46943,1,12,0:0:0:0:
256,192,47516,1,8,0:0:0:0:
64,64,47899,1,0,0:0:0:0:
256,192,48663,1,8,0:0:0:0:
64,64,49428,1,0,0:0:0:0:
256,192,49809,1,8,0:0:0:0:
256,192,50191,1,8,0:0:0:0:
64,64,50574,1,0,0:0:0:0:
256,192,50956,1,4,0:0:0:0:
256,192,51720,1,4,0:0:0:0:
256,192,52484,1,8,0:0:0:0:
448,64,52867,1,8,0:0:0:0:
64,64,54014,1,0,0:0:0:0:
256,192,54777,1,8,0:0:0:0:
256,192,55542,1,8,0:0:0:0:
64,64,55924,1,0,0:0:0:0:
448,64,56307,1,8,0:0:0:0:
64,64,57071,1,0,0:0:0:0:
448,64,57453,1,8,0:0:0:0:
256,192,57835,1,0,0:0:0:0:
448,64,58599,1,8,0:0:0:0:
448,64,58982,1,8,0:0:0:0:
256,192,60128,1,8,0:0:0:0:
64,64,60510,1,0,0:0:0:0:
64,64,60893,1,0,0:0:0:0:
448,64,61657,1,8,0:0:0:0:
64,64,62039,1,0,0:0:0:0:
256,192,62421,1,8,0:0:0:0:
64,64,63185,1,0,0:0:0:0:
448,64,63949,1,8,0:0:0:0:
256,192,64714,1,12,0:0:0:0:
64,64,65861,1,0,0:0:0:0:
256,192,66242,1,8,0:0:0:0:
256,192,66816,1,8,0:0:0:0:
256,192,67389,1,0,0:0:0:0:
256,192,67771,1,8,0:0:0:0:
256,192,68153,1,0,0:0:0:0:
256,192,68535,1,8,0:0:0:0:
256,192,69300,1,0,0:0:0:0:
256,192,70446,1,8,0:0:0:0:
64,64,70829,1,0,0:0:0:0:
256,192,71593,1,8,0:0:0:0:
256,192,72357,1,8,0:0:0:0:
256,192,72739,1,0,0:0:0:0:
256,192,73121,1,8,0:0:0:0:
256,192,73886,1,0,0:0:0:0:
448,64,74268,1,8,0:0:0:0:
256,192,74650,1,8,0:0:0:0:
256,192,75414,1,8,0:0:0:0:
64,64,75797,1,0,0:0:0:0:
64,64,76179,1,0,0:0:0:0:
256,192,76943,1,4,0:0:0:0:
256,192,77516,1,12,0:0:0:0:
448,64,78472,1,8,0:0:0:0:
256,192,78854,1,0,0:0:0:0:
256,192,79236,1,8,0:0:0:0:
256,192,80000,1,12,0:0:0:0:
256,192,80574,1,4,0:0:0:0:
256,192,81529,1,12,0:0:0:0:
256,192,82293,1,12,0:0:0:0:
256,192,82675,1,12,0:0:0:0:
256,192,83058,1,4,0:0:0:0:
448,64,83440,1,8,0:0:0:0:
256,192,83822,1,0,0:0:0:0:
256,192,84586,1,0,0:0:0:0:
448,64,84969,1,8,0:0:0:0:
448,64,85351,1,8,0:0:0:0:
64,64,85733,1,0,0:0:0:0:
448,64,86115,1,8,0:0:0:0:
64,64,87262,1,0,0:0:0:0:
256,192,87644,1,8,0:0:0:0:
64,64,88408,1,0,0:0:0:0:
256,192,89172,1,4,0:0:0:0:
64,64,89555,1,0,0:0:0:0:
256,192,89937,1,8,0:0:0:0:
64,64,90319,1,0,0:0:0:0:
448,64,90701,1,8,0:0:0:0:
256,192,91465,1,0,0:0:0:0:
256,192,92230,1,0,0:0:0:0:
64,64,92612,1,0,0:0:0:0:
256,192,92994,1,8,0:0:0:0:
64,64,93377,1,0,0:0:0:0:
256,192,93758,1,12,0:0:0:0:
256,192,94523,1,12,0:0:0:0:
256,192,95287,1,4,0:0:0:0:
448,64,95670,1,8,0:0:0:0:
256,192,96052,1,0,0:0:0:0:
256,192,96816,1,0,0:0:0:0:
448,64,97198,1,8,0:0:0:0:
448,64,97580,1,8,0:0:0:0:
64,64,97963,1,0,0:0:0:0:
448,64,98345,1,8,0:0:0:0:
64,64,99491,1,0,0:0:0:0:
256,192,99873,1,12,0:0:0:0:
64,64,100637,1,0,0:0:0:0:
256,192,101402,1,4,0:0:0:0:
64,64,101784,1,0,0:0:0:0:
256,192,102166,1,8,0:0:0:0:
64,64,102549,1,0,0:0:0:0:
448,64,102931,1,8,0:0:0:0:
448,64,103313,1,8,0:0:0:0:
64,64,103695,1,0,0:0:0:0:
256,192,104459,1,0,0:0:0:0:
64,64,104842,1,0,0:0:0:0:
256,192,105224,1,8,0:0:0:0:
64,64,105606,1,0,0:0:0:0:
256,192,105988,1,12,0:0:0:0:
256,192,106752,1,12,0:0:0:0:
256,192,107134,1,4,0:0:0:0:
256,192,107516,1,12,0:0:0:0:
256,192,108663,1,12,0:0:0:0:
256,192,109045,1,4,0:0:0:0:
256,192,109427,1,8,0:0:0:0:
256,192,109809,1,0,0:0:0:0:
256,192,110191,1,4,0:0:0:0:
256,192,110574,1,12,0:0:0:0:
256,192,111720,1,12,0:0:0:0:
64,320,112103,1,4,0:0:0:0:
256,192,112675,1,12,0:0:0:0:
256,192,113249,1,12,0:0:0:0:
256,192,113631,1,4,0:0:0:0:
256,192,114203,1,12,0:0:0:0:
256,192,115159,1,4,0:0:0:0:
256,192,115732,1,12,0:0:0:0:
256,192,116306,1,12,0:0:0:0:
64,320,116689,1,4,0:0:0:0:
256,192,118217,1,12,0:0:0:0:
