osu file format v14

[General]
AudioFilename: audio.mp3
AudioLeadIn: 0
PreviewTime: 92896
Countdown: 0
SampleSet: Soft
StackLeniency: 0.4
Mode: 0
LetterboxInBreaks: 0
WidescreenStoryboard: 0

[Editor]
Bookmarks: 7100,8724,9488,50953,63183,87641,101972,127386,136558,148788,154902,177832,180125,180890,181654,190062,197705,216049,222164,223692,228278,254265,288469
DistanceSpacing: 0.7
BeatDivisor: 8
GridSize: 16
TimelineZoom: 3.799998

[Metadata]
Title:LOVELESS WORLD
TitleUnicode:LOVELESS WORLD
Artist:u's
ArtistUnicode:μ's
Creator:Sakurauchi Riko
Version:Unbound by Fate
Source:ラブライブ! School idol project
Tags:Love Live! muse Kosaka Honoka 高坂穂乃果 Nitta Emi 新田恵海 Minami Kotori 南ことり Uchida Aya 内田彩 Sonoda Umi 園田海未 Suzuko Mimori 三森すずこ Hoshizora Rin 星空凛 Iida Riho 飯田里穂 Nishikino Maki 西木野真姫 Pile Koizumi Hanayo 小泉花陽 Kubo Yurika 久保ユリカ Ayase Eli 絢瀬絵里 Nanjou Yoshino 南條愛乃 Tojo Nozomi 東條希 Kusuda Aina 楠田亜衣奈 Yazawa Nico 矢澤にこ Tokui Sora 徳井青空 marathon Phyloukz
BeatmapID:1270687
BeatmapSetID:519990

[Difficulty]
HPDrainRate:7.5
CircleSize:5
OverallDifficulty:9
ApproachRate:9.3
SliderMultiplier:1.4
SliderTickRate:1

[Events]
//Background and Video events
0,0,"rdmbg.jpg",0,0
//Break Periods
2,124529,126450
//Storyboard Layer 0 (Background)
//Storyboard Layer 1 (Fail)
//Storyboard Layer 2 (Pass)
//Storyboard Layer 3 (Foreground)
//Storyboard Sound Samples

[TimingPoints]
508,382.165605095541,4,2,26,20,1,0
2800,-133.333333333333,4,2,26,5,0,0
3087,-133.333333333333,4,2,26,40,0,0
3947,-133.333333333333,4,2,26,5,0,0
4186,-133.333333333333,4,2,26,40,0,0
4902,-133.333333333333,4,2,26,5,0,0
5093,-200,4,2,26,40,0,0
6527,-200,4,2,26,5,0,0
7052,-200,4,2,26,40,0,0
10062,-200,4,2,26,5,0,0
10253,-200,4,2,26,40,0,0
25539,-200,4,2,1,40,0,0
25730,-200,4,2,5,40,0,0
25922,-200,4,2,2,40,0,0
26113,-200,4,2,3,40,0,0
26304,-200,4,2,4,40,0,0
26495,-133.333333333333,4,2,2,60,0,0
27832,-133.333333333333,4,2,1,60,0,0
28023,-133.333333333333,4,2,2,60,0,0
28979,-133.333333333333,4,2,1,60,0,0
29552,-133.333333333333,4,2,3,60,0,0
30316,-133.333333333333,4,2,2,60,0,0
31081,-133.333333333333,4,2,3,60,0,0
32036,-133.333333333333,4,2,2,40,0,0
32227,-133.333333333333,4,2,3,40,0,0
32418,-133.333333333333,4,2,4,40,0,0
32609,-133.333333333333,4,2,2,60,0,0
34138,-133.333333333333,4,2,3,60,0,0
35093,-133.333333333333,4,2,2,60,0,0
35285,-133.333333333333,4,2,3,60,0,0
35476,-133.333333333333,4,2,4,60,0,0
35667,-133.333333333333,4,2,2,60,0,0
36336,-133.333333333333,4,2,3,60,0,0
36718,-133.333333333333,4,2,4,60,0,0
37004,-133.333333333333,4,2,1,60,0,0
37195,-133.333333333333,4,2,6,60,0,0
37960,-66.6666666666667,4,2,2,60,0,0
38246,-66.6666666666667,4,2,1,5,0,0
38342,-66.6666666666667,4,2,3,60,0,0
38629,-66.6666666666667,4,2,1,5,0,0
38724,-200,4,2,2,60,0,0
39775,-200,4,2,2,5,0,0
39871,-200,4,2,6,60,0,0
41304,-200,4,2,6,5,0,0
41399,-200,4,2,6,60,0,0
43310,-100,4,2,3,60,0,0
43597,-100,4,2,2,60,0,0
44265,-100,4,2,3,60,0,0
44839,-100,4,2,2,60,0,0
45221,-100,4,2,1,60,0,0
45985,-100,4,2,6,60,0,0
46750,-100,4,2,1,60,0,0
47514,-100,4,2,6,60,0,0
48278,-100,4,2,1,60,0,0
49043,-100,4,2,6,60,0,0
49711,-100,4,2,3,60,0,0
49998,-100,4,2,6,60,0,0
50380,-100,4,2,2,60,0,0
50571,-100,4,2,3,60,0,0
50762,-100,4,2,4,60,0,0
50953,-100,4,2,1,60,0,0
56304,-100,4,2,5,60,0,0
56495,-100,4,2,2,60,0,0
56686,-100,4,2,3,60,0,0
56877,-100,4,2,4,60,0,0
57068,-66.6666666666667,4,2,2,60,0,0
57259,-66.6666666666667,4,2,1,5,0,0
57355,-66.6666666666667,4,2,3,60,0,0
57546,-66.6666666666667,4,2,1,5,0,0
57641,-66.6666666666667,4,2,2,60,0,0
58215,-66.6666666666667,4,2,5,60,0,0
58406,-66.6666666666667,4,2,1,60,0,0
59361,-66.6666666666667,4,2,6,60,0,0
61272,-66.6666666666667,4,2,5,60,0,0
61941,-66.6666666666667,4,2,2,60,0,0
62227,-66.6666666666667,4,2,3,60,0,0
62418,-100,4,2,5,60,0,0
63183,-100,4,2,1,60,0,0
69297,-100,4,2,5,60,0,0
69393,-100,4,2,1,60,0,0
74648,-100,4,2,6,60,0,0
75030,-100,4,2,2,60,0,0
75221,-100,4,2,3,60,0,0
75412,-100,4,2,5,60,0,0
75603,-100,4,2,7,60,0,0
78469,-100,4,2,6,60,0,0
78660,-100,4,2,7,60,0,0
80762,-100,4,2,6,60,0,0
80953,-100,4,2,5,60,0,0
81144,-100,4,2,6,60,0,0
81336,-100,4,2,5,60,0,0
81527,-100,4,2,7,60,0,0
86877,-100,4,2,6,60,0,0
87259,-100,4,2,2,60,0,0
87546,-100,4,2,3,60,0,0
87641,-66.6666666666667,4,2,5,60,0,0
87832,-66.6666666666667,4,2,5,5,0,0
87928,-66.6666666666667,4,2,5,60,0,0
88119,-66.6666666666667,4,2,5,5,0,0
88215,-66.6666666666667,4,2,5,60,0,0
88788,-66.6666666666667,4,2,6,60,0,0
89170,-100,4,2,5,60,0,0
90125,-100,4,2,3,60,0,0
90316,-100,4,2,3,60,0,0
90699,-100,4,2,5,60,0,0
90890,-100,4,2,1,60,0,0
91654,-100,4,2,2,60,0,0
91845,-100,4,2,3,60,0,0
92036,-100,4,2,4,60,0,0
92227,-100,4,2,6,60,0,0
92992,-200,4,2,5,60,0,0
93278,-100,4,2,1,5,0,0
93374,-100,4,2,5,60,0,0
93756,-100,4,2,1,80,0,1
98342,-100,4,2,5,80,0,1
98437,-100,4,2,1,80,0,1
99106,-100,4,2,5,80,0,1
99202,-100,4,2,1,80,0,1
99871,-100,4,2,6,80,0,1
99966,-100,4,2,1,80,0,1
102928,-100,4,2,5,80,0,1
103023,-100,4,2,1,80,0,1
104457,-100,4,2,5,80,0,1
105030,-100,4,2,6,80,0,1
105221,-100,4,2,5,80,0,1
105316,-100,4,2,1,80,0,1
105794,-100,4,2,5,80,0,1
105890,-100,4,2,1,80,0,1
110571,-100,4,2,5,80,0,1
110667,-100,4,2,1,80,0,1
111336,-100,4,2,6,80,0,1
111431,-100,4,2,1,80,0,1
112100,-100,4,2,6,80,0,1
112195,-100,4,2,1,80,0,1
113629,-100,4,2,6,80,0,1
113724,-100,4,2,1,80,0,1
114011,-100,4,2,6,80,0,1
114106,-100,4,2,1,80,0,1
114393,-100,4,2,5,80,0,1
114488,-100,4,2,1,80,0,1
114679,-100,4,2,2,80,0,1
114775,-100,4,2,3,80,0,1
114966,-100,4,2,4,80,0,1
115157,-83.3333333333333,4,2,6,80,0,1
115922,-83.3333333333333,4,2,5,80,0,1
116686,-100,4,2,1,80,0,0
117450,-66.6666666666667,4,2,5,80,0,0
117737,-66.6666666666667,4,2,1,5,0,0
117832,-66.6666666666667,4,2,6,80,0,0
118119,-66.6666666666667,4,2,1,5,0,0
118215,-200,4,2,5,60,0,0
121272,-100,4,2,1,60,0,0
122418,-100,4,2,5,60,0,0
122800,-100,4,2,6,60,0,0
123565,-100,4,2,5,60,0,0
127004,-100,4,2,4,60,0,0
127386,-100,4,2,1,60,0,0
128915,-100,4,2,6,60,0,0
129871,-100,4,2,7,60,0,0
130444,-100,4,2,1,60,0,0
132737,-100,4,2,5,60,0,0
132832,-100,4,2,1,60,0,0
133119,-100,4,2,5,60,0,0
133214,-100,4,2,1,60,0,0
135030,-100,4,2,5,60,0,0
135316,-100,4,2,6,60,0,0
135794,-100,4,2,1,60,0,0
135985,-100,4,2,2,60,0,0
136176,-100,4,2,3,60,0,0
136367,-100,4,2,4,60,0,0
136558,-100,4,2,6,60,0,0
137323,-100,4,2,5,60,0,0
139043,-100,4,2,2,60,0,0
139234,-100,4,2,3,60,0,0
139616,-100,4,2,5,60,0,0
142100,-100,4,2,3,60,0,0
142291,-100,4,2,4,60,0,0
142482,-100,4,2,5,60,0,0
145157,-100,4,2,3,60,0,0
145348,-100,4,2,4,60,0,0
145730,-100,4,2,5,60,0,0
148406,-100,4,2,4,60,0,0
148597,-100,4,2,1,60,0,0
148788,-66.6666666666667,4,2,5,60,0,0
149648,-100,4,2,2,60,0,0
149934,-100,4,2,3,60,0,0
150125,-100,4,2,4,60,0,0
150316,-100,4,2,5,60,0,0
151272,-100,4,2,2,60,0,0
151463,-100,4,2,3,60,0,0
151845,-100,4,2,6,60,0,0
152418,-100,4,2,1,60,0,0
152514,-100,4,2,3,60,0,0
152705,-100,4,2,5,60,0,0
153087,-100,4,2,1,60,0,0
153374,-100,4,2,5,60,0,0
153565,-100,4,2,1,5,0,0
153660,-71.4285714285714,4,2,1,60,0,0
153947,-83.3333333333333,4,2,1,5,0,0
154043,-100,4,2,1,60,0,0
154234,-100,4,2,1,5,0,0
154329,-100,4,2,1,60,0,0
154520,-200,4,2,1,60,0,0
154902,-100,4,2,1,80,0,1
159488,-100,4,2,5,80,0,1
159583,-100,4,2,1,80,0,1
160252,-100,4,2,5,80,0,1
160348,-100,4,2,1,80,0,1
161017,-100,4,2,6,80,0,1
161112,-100,4,2,1,80,0,1
164074,-100,4,2,5,80,0,1
164169,-100,4,2,1,80,0,1
165603,-100,4,2,5,80,0,1
166176,-100,4,2,6,80,0,1
166367,-100,4,2,5,80,0,1
166462,-100,4,2,1,80,0,1
166940,-100,4,2,5,80,0,1
167036,-100,4,2,1,80,0,1
171717,-100,4,2,5,80,0,1
171813,-100,4,2,1,80,0,1
172482,-100,4,2,6,80,0,1
172577,-100,4,2,1,80,0,1
173246,-100,4,2,6,80,0,1
173341,-100,4,2,1,80,0,1
174775,-100,4,2,6,80,0,1
174870,-100,4,2,1,80,0,1
175157,-100,4,2,6,80,0,1
175252,-100,4,2,1,80,0,1
175539,-100,4,2,5,80,0,1
175634,-100,4,2,1,80,0,1
175825,-100,4,2,2,80,0,1
175921,-100,4,2,3,80,0,1
176112,-100,4,2,4,80,0,1
176303,-83.3333333333333,4,2,6,80,0,1
176304,-83.3333333333333,4,2,6,80,0,1
177068,-83.3333333333333,4,2,5,80,0,1
177832,-83.3333333333333,4,2,1,80,0,0
178597,-66.6666666666667,4,2,5,80,0,0
178883,-66.6666666666667,4,2,1,5,0,0
178979,-66.6666666666667,4,2,6,80,0,0
179265,-66.6666666666667,4,2,1,5,0,0
179361,-100,4,2,5,60,0,0
179457,-100,4,2,1,60,0,0
190062,-100,4,2,2,60,0,0
190444,-100,4,2,3,60,0,0
190635,-100,4,2,4,60,0,0
190826,-66.6666666666667,4,2,5,60,0,0
191208,-66.6666666666667,4,2,6,60,0,0
191590,-100,4,2,5,60,0,0
191686,-100,4,2,1,60,0,0
197705,-83.3333333333333,4,2,6,60,0,0
197896,-83.3333333333333,4,2,1,60,0,0
200762,-83.3333333333333,4,2,5,60,0,0
203820,-100,4,2,5,60,0,0
203915,-100,4,2,7,60,0,0
206877,-100,4,2,5,60,0,0
206972,-100,4,2,7,60,0,0
209934,-100,4,2,5,60,0,0
210030,-100,4,2,7,60,0,0
213183,-100,4,2,2,60,0,0
213374,-100,4,2,3,60,0,0
213565,-100,4,2,4,60,0,0
213756,-100,4,2,7,60,0,0
215285,-100,4,2,5,60,0,0
215380,-100,4,2,1,60,0,0
215476,-100,4,2,2,60,0,0
215667,-100,4,2,3,60,0,0
215858,-100,4,2,4,60,0,0
216049,-83.3333333333333,4,2,1,70,0,0
219106,-66.6666666666667,4,2,1,70,0,0
222068,-66.6666666666667,4,2,1,5,0,0
222164,-66.6666666666667,4,2,5,80,0,1
222259,-66.6666666666667,4,2,1,80,0,1
223692,-66.6666666666667,4,2,6,90,0,1
223788,-66.6666666666667,4,2,1,90,0,1
225221,-62.5,4,2,5,60,0,0
225794,-62.5,4,2,1,60,0,0
225985,-62.5,4,2,5,60,0,0
226176,-62.5,4,2,2,60,0,0
226367,-62.5,4,2,3,60,0,0
226558,-62.5,4,2,4,60,0,0
226747,-66.6666666666667,4,2,6,60,0,0
228326,-133.333333333333,4,2,26,40,0,0
234393,-100,4,2,6,60,0,0
236686,-100,4,2,5,60,0,0
237450,-100,4,2,6,60,0,0
237737,-100,4,2,6,5,0,0
237832,-100,4,2,6,60,0,0
238023,-100,4,2,6,30,0,0
238406,-100,4,2,6,40,0,0
238788,-100,4,2,6,50,0,0
240507,-100,4,2,5,50,0,0
243183,-100,4,2,4,50,0,0
243565,-100,4,2,5,50,0,0
246049,-100,4,2,2,50,0,0
246240,-100,4,2,3,50,0,0
246431,-100,4,2,4,50,0,0
246622,-100,4,2,5,60,0,0
248151,-66.6666666666667,4,2,5,60,0,0
248820,-100,4,2,5,60,0,0
249297,-100,4,2,2,60,0,0
249488,-100,4,2,3,60,0,0
249679,-100,4,2,6,60,0,0
250444,-100,4,2,5,60,0,0
250635,-100,4,2,6,60,0,0
250826,-100,4,2,5,60,0,0
254265,-83.3333333333333,4,2,1,80,0,1
258851,-83.3333333333333,4,2,6,80,0,1
258947,-83.3333333333333,4,2,1,80,0,1
259616,-83.3333333333333,4,2,5,80,0,1
259711,-83.3333333333333,4,2,1,80,0,1
260380,-83.3333333333333,4,2,6,80,0,1
260476,-83.3333333333333,4,2,1,80,0,1
264966,-83.3333333333333,4,2,5,80,0,1
265539,-83.3333333333333,4,2,6,80,0,1
265730,-83.3333333333333,4,2,5,80,0,1
265826,-83.3333333333333,4,2,1,80,0,1
266304,-83.3333333333333,4,2,6,80,0,1
266399,-83.3333333333333,4,2,1,80,0,1
271081,-83.3333333333333,4,2,5,80,0,1
271176,-83.3333333333333,4,2,1,80,0,1
271845,-83.3333333333333,4,2,6,80,0,1
271941,-83.3333333333333,4,2,1,80,0,1
272609,-83.3333333333333,4,2,5,80,0,1
272705,-83.3333333333333,4,2,1,80,0,1
275093,-83.3333333333333,4,2,2,80,0,1
275285,-83.3333333333333,4,2,3,80,0,1
275476,-83.3333333333333,4,2,4,80,0,1
275667,-83.3333333333333,4,2,1,80,0,1
277195,-83.3333333333333,4,2,5,80,0,1
277482,-83.3333333333333,4,2,6,80,0,1
277769,-83.3333333333333,4,2,5,80,0,1
277960,-83.3333333333333,4,2,6,80,0,1
278246,-83.3333333333333,4,2,5,80,0,1
278533,-83.3333333333333,4,2,6,80,0,1
278724,-83.3333333333333,4,2,5,80,0,1
278820,-83.3333333333333,4,2,1,80,0,1
280253,-83.3333333333333,4,2,5,80,0,1
280540,-83.3333333333333,4,2,6,80,0,1
280827,-83.3333333333333,4,2,5,80,0,1
281018,-83.3333333333333,4,2,6,80,0,1
281304,-83.3333333333333,4,2,5,80,0,1
281591,-83.3333333333333,4,2,6,80,0,1
281782,-83.3333333333333,4,2,6,80,0,1
282546,-83.3333333333333,4,2,5,80,0,1
283310,-83.3333333333333,4,2,1,80,0,0
284074,-66.6666666666667,4,2,5,80,0,0
284361,-66.6666666666667,4,2,1,5,0,0
284457,-66.6666666666667,4,2,6,80,0,0
284743,-66.6666666666667,4,2,1,5,0,0
284839,-100,4,2,5,80,0,0
286941,-66.6666666666667,4,2,1,40,0,0
287132,-66.6666666666667,4,2,1,60,0,0
287514,-200,4,2,1,60,0,0
287896,-100,4,2,1,60,0,0
289043,-100,4,2,8,60,0,0
289138,-100,4,2,1,60,0,0
289425,-100,4,2,8,60,0,0
289520,-100,4,2,1,60,0,0
290571,-100,4,2,8,60,0,0
290666,-100,4,2,1,60,0,0
290953,-100,4,2,8,60,0,0
291048,-100,4,2,1,60,0,0
292482,-50,4,2,5,60,0,0
292769,-50,4,2,6,60,0,0
293055,-50,4,2,5,60,0,0
294011,-100,4,2,1,60,0,0
295157,-100,4,2,8,60,0,0
295252,-100,4,2,1,60,0,0
295539,-100,4,2,8,60,0,0
295634,-100,4,2,1,60,0,0
296686,-100,4,2,8,60,0,0
296781,-100,4,2,1,60,0,0
297068,-100,4,2,8,60,0,0
297163,-100,4,2,1,60,0,0
298597,-50,4,2,5,60,0,1
298883,-50,4,2,6,60,0,1
299170,-50,4,2,5,60,0,1
299552,-50,4,2,8,60,0,1
299648,-50,4,2,1,5,0,1
299743,-50,4,2,8,60,0,1
299839,-50,4,2,1,5,0,1
299934,-50,4,2,8,60,0,1
300030,-50,4,2,1,5,0,1
300125,-50,4,2,5,60,0,1
300412,-50,4,2,6,60,0,1
300699,-50,4,2,5,60,0,1
301081,-50,4,2,8,60,0,1
301177,-50,4,2,1,5,0,1
301272,-50,4,2,8,60,0,1
301368,-50,4,2,1,5,0,1
301463,-50,4,2,8,60,0,1
301559,-50,4,2,1,5,0,1
301654,-50,4,2,5,60,0,1
301941,-50,4,2,6,60,0,1
302227,-50,4,2,5,60,0,1
302514,-50,4,2,1,5,0,1
302609,-50,4,2,8,60,0,1
302705,-50,4,2,1,5,0,1
302800,-50,4,2,8,60,0,1
302896,-50,4,2,1,5,0,1
302991,-50,4,2,8,60,0,1
303087,-50,4,2,1,5,0,1
303183,-50,4,2,6,60,0,0
304138,-50,4,2,6,5,0,0
304329,-50,4,2,1,60,0,1
304902,-66.6666666666667,4,2,5,60,0,0
305476,-66.6666666666667,4,2,1,5,0,0

[Colours]
Combo1 : 213,89,182
Combo2 : 247,91,91
Combo3 : 120,120,120
Combo4 : 96,63,226
Combo5 : 232,201,106

[HitObjects]
256,192,603,12,0,2800,0:0:0:0:
424,57,3087,5,0,0:0:0:0:
405,39,3183,2,0,B|352:26|306:59|306:59|286:46|286:46|247:73|189:53,1,210.000008010865
103,18,4186,2,0,P|23:55|24:158,1,196.875007510186
72,216,5093,2,0,B|123:195|169:230|169:230|159:236|159:236|168:243|168:243|157:248|157:248|168:254|168:254|158:260|158:260|201:232|257:245,1,262.5
408,360,7052,6,0,B|426:361|442:349|442:349|453:354|453:354|460:343|460:343|472:351|472:351|477:338|477:338|489:344|489:344|475:303|492:268|492:268|506:244|500:203|451:201|428:235|446:266|446:266|436:257|436:257|426:264|426:264|418:254|418:254|407:261|407:261|398:250|398:250|388:258|388:258|390:228|376:204|376:204|389:199|389:199|379:190|379:190|392:186|392:186|383:176|383:176|395:172|395:172|386:163|386:163|398:159|398:159|389:149,1,551.25
306,248,10253,1,0,0:0:0:0:
481,132,10539,2,0,L|494:122,2,8.75
256,192,13023,12,0,14074,0:0:0:0:
158,260,14265,6,0,L|148:317,2,52.5,2|0|0,0:0|0:0|0:0,0:0:0:0:
236,206,15030,2,0,L|249:283,1,70,2|0,0:0|0:0,0:0:0:0:
312,325,15603,1,0,0:0:0:0:
453,268,15794,6,0,L|520:276,2,52.5,2|0|0,0:0|0:0|0:0,0:0:0:0:
365,257,16558,1,2,0:0:0:0:
445,367,16941,1,0,0:0:0:0:
419,182,17323,6,0,P|441:153|450:111,1,70,2|0,0:0|0:0,0:0:0:0:
319,40,18087,2,0,P|336:62|348:108,1,70,2|0,0:0|0:0,0:0:0:0:
172,133,18851,6,0,L|228:114,1,52.5,2|0,0:0|0:0,0:0:0:0:
252,214,19425,1,0,0:0:0:0:
249,231,19520,1,0,0:0:0:0:
246,247,19616,2,0,L|234:318,1,70,2|0,0:0|0:0,0:0:0:0:
66,354,20380,6,0,L|121:361,2,52.5,2|0|0,0:0|0:0|0:0,0:0:0:0:
19,277,21144,2,0,L|97:267,1,70,2|0,0:0|0:0,0:0:0:0:
184,134,21909,6,0,P|185:98|203:59,1,70,2|0,0:0|0:0,0:0:0:0:
281,47,22482,1,0,0:0:0:0:
293,55,22578,1,0,0:0:0:0:
307,62,22673,2,0,P|342:69|387:61,1,70,2|0,0:0|0:0,0:0:0:0:
452,216,23437,6,0,P|455:239|474:279,2,52.5,2|0|0,0:0|0:0|0:0,0:0:0:0:
366,150,24202,2,0,P|340:152|311:146,2,52.5,2|0|0,0:0|0:0|0:0,0:0:0:0:
348,251,24966,2,0,L|309:302,1,52.5,2|0,0:0|0:0,0:0:0:0:
112,254,25539,1,2,0:0:0:0:
76,250,25635,1,2,0:0:0:0:
44,263,25730,1,12,0:0:0:0:
167,320,25922,5,8,0:0:0:0:
152,299,26017,1,8,0:0:0:0:
143,274,26113,1,8,0:0:0:0:
143,247,26208,1,8,0:0:0:0:
154,223,26304,1,8,0:0:0:0:
173,205,26399,1,8,0:0:0:0:
219,264,26495,6,0,P|257:268|302:244,1,78.7500030040742,6|0,0:0|0:0,0:0:0:0:
246,195,26877,1,2,0:0:0:0:
112,254,27068,1,0,0:0:0:0:
320,183,27259,2,0,P|296:139|241:120,1,105.000004005432,2|2,0:0|0:0,0:0:0:0:
293,252,27832,1,4,0:0:0:0:
359,86,28023,6,0,P|381:56|431:40,1,78.7500030040742,6|0,0:0|0:0,0:0:0:0:
428,115,28406,1,2,0:0:0:0:
268,92,28597,1,0,0:0:0:0:
492,71,28788,2,0,P|503:96|500:140,1,52.5000020027161,2|4,0:0|0:0,0:0:0:0:
403,212,29170,2,0,P|393:241|394:265,1,52.5000020027161,2|4,0:0|0:0,0:0:0:0:
216,345,29552,6,0,P|174:345|209:315,1,105.000004005432,6|2,0:0|0:0,0:0:0:0:
379,300,30316,2,0,P|423:285|380:270,1,105.000004005432,6|2,0:0|0:0,0:0:0:0:
85,371,31081,6,0,L|68:293,1,78.7500030040742,6|0,0:0|0:0,0:0:0:0:
105,223,31463,1,6,0:0:0:0:
312,259,31654,1,0,0:0:0:0:
304,297,31750,1,0,0:0:0:0:
297,335,31845,1,6,0:0:0:0:
265,201,32036,1,8,0:0:0:0:
288,188,32132,1,8,0:0:0:0:
313,184,32227,2,0,P|339:187|367:208,1,52.5000020027161,10|8,0:0|0:0,0:0:0:0:
240,270,32609,6,0,P|206:247|191:202,1,78.7500030040742,6|0,0:0|0:0,0:0:0:0:
265,201,32992,1,2,0:0:0:0:
297,335,33183,1,0,0:0:0:0:
109,314,33374,2,0,P|69:320|14:366,1,105.000004005432,6|2,0:0|0:0,0:0:0:0:
414,300,34138,6,0,L|436:220,1,78.7500030040742,6|0,0:0|0:0,0:0:0:0:
492,281,34520,2,0,L|515:195,1,78.7500030040742,6|0,0:0|0:0,0:0:0:0:
455,151,34902,1,6,0:0:0:0:
348,64,35093,1,8,0:0:0:0:
322,69,35189,1,8,0:0:0:0:
296,76,35285,1,10,0:0:0:0:
270,82,35380,1,8,0:0:0:0:
244,88,35476,1,8,0:0:0:0:
90,40,35667,6,0,P|79:35|52:33,2,26.2500010013581,6|0|2,0:0|0:0|0:0,0:0:0:0:
31,113,35953,2,0,P|44:107|66:107,2,26.2500010013581,10|8|2,0:0|0:0|0:0,0:0:0:0:
107,163,36240,2,0,L|125:198,1,26.2500010013581,2|8,0:0|0:0,0:0:0:0:
184,311,36431,6,0,P|189:298|191:285,2,26.2500010013581,8|2|2,0:0|0:0|0:0,0:0:0:0:
99,260,36718,2,0,P|106:270|110:283,2,26.2500010013581,8|8|0,0:0|0:0|0:0,0:0:0:0:
48,331,37004,2,0,L|30:361,1,26.2500010013581,2|2,0:0|0:0,0:0:0:0:
211,384,37195,5,12,0:0:0:0:
157,120,37960,2,0,B|132:5|132:5|164:52,1,157.500006008148,6|0,0:0|0:0,0:0:0:0:
241,145,38342,2,0,B|125:148|125:148|183:174,1,157.500006008148,6|0,0:0|0:0,0:0:0:0:
227,219,38724,6,0,B|239:288|239:288|230:315|230:315|238:357|238:357|241:330|266:307,1,192.5
314,369,39871,1,14,0:0:0:0:
124,384,40062,1,14,0:0:0:0:
334,299,40253,6,0,B|383:316|386:370|386:370|414:353|414:353|443:381|478:375,1,192.5
469,301,41399,1,14,0:0:0:0:
314,369,41590,1,14,0:0:0:0:
462,220,41781,1,14,0:0:0:0:
462,220,42928,5,14,0:0:0:0:
314,369,43119,1,14,0:0:0:0:
254,165,43310,2,0,B|261:136|261:136|249:92|249:92|256:63,2,105,6|6|0,0:0|0:0|0:0,0:0:0:0:
462,220,44265,5,6,0:0:0:0:
314,369,44457,1,6,0:0:0:0:
254,165,44648,1,6,0:0:0:0:
447,347,44839,5,6,0:0:0:0:
65,347,45221,1,6,0:0:0:0:
447,347,45603,1,6,0:0:0:0:
65,347,45985,1,14,0:0:0:0:
177,202,46176,1,14,0:0:0:0:
228,384,46367,5,14,0:0:0:0:
124,25,46750,1,6,0:0:0:0:
228,384,47132,1,6,0:0:0:0:
124,25,47514,1,14,0:0:0:0:
177,202,47705,1,14,0:0:0:0:
12,110,47896,5,14,0:0:0:0:
390,0,48278,1,6,0:0:0:0:
12,110,48660,1,6,0:0:0:0:
275,165,48851,6,0,L|281:213,1,35,2|2,0:0|0:0,0:0:0:0:
367,224,49043,1,14,0:0:0:0:
256,18,49234,1,14,0:0:0:0:
129,178,49425,2,0,L|14:193,2,105,10|6|10,0:0|0:0|0:0,0:0:0:0:
357,257,50189,6,0,P|360:239|371:215,1,35
275,165,50380,2,0,P|272:146|262:123,1,35,8|8,0:0|0:0,0:0:0:0:
163,108,50571,2,0,P|152:91|129:72,1,35,10|8,0:0|0:0,0:0:0:0:
49,155,50762,2,0,P|29:151|1:157,1,35,8|8,0:0|0:0,0:0:0:0:
155,239,50953,5,2,0:0:0:0:
180,263,51049,1,2,0:0:0:0:
191,295,51144,1,14,0:0:0:0:
190,330,51240,1,2,0:0:0:0:
175,361,51336,1,6,0:0:0:0:
146,380,51431,1,2,0:0:0:0:
110,383,51527,1,14,0:0:0:0:
75,376,51622,1,2,0:0:0:0:
51,349,51718,5,6,0:0:0:0:
85,344,51813,1,2,0:0:0:0:
119,337,51909,1,14,0:0:0:0:
153,330,52004,1,2,0:0:0:0:
180,308,52100,5,6,0:0:0:0:
214,301,52195,1,2,0:0:0:0:
248,295,52291,2,0,L|296:289,1,35,14|2,0:0|0:0,0:0:0:0:
361,194,52482,5,6,0:0:0:0:
333,172,52578,1,2,0:0:0:0:
298,164,52673,2,0,P|275:165|240:174,1,35,14|2,0:0|0:0,0:0:0:0:
155,239,52864,1,6,0:0:0:0:
138,208,52960,1,2,0:0:0:0:
130,173,53055,2,0,P|131:154|138:131,1,35,14|2,0:0|0:0,0:0:0:0:
236,35,53246,5,6,0:0:0:0:
242,69,53342,1,2,0:0:0:0:
249,102,53437,2,0,L|258:149,1,35,14|2,0:0|0:0,0:0:0:0:
375,227,53629,1,6,0:0:0:0:
381,192,53724,1,2,0:0:0:0:
388,157,53820,2,0,L|397:109,1,35,14|2,0:0|0:0,0:0:0:0:
229,0,54011,5,6,0:0:0:0:
198,15,54106,1,2,0:0:0:0:
167,31,54202,1,14,0:0:0:0:
135,46,54297,1,2,0:0:0:0:
124,79,54393,1,6,0:0:0:0:
93,95,54488,1,2,0:0:0:0:
62,112,54584,1,14,0:0:0:0:
32,131,54679,1,2,0:0:0:0:
1,147,54775,5,6,0:0:0:0:
36,145,54871,1,2,0:0:0:0:
68,157,54966,1,14,0:0:0:0:
93,181,55062,1,2,0:0:0:0:
101,214,55157,1,2,0:0:0:0:
67,223,55253,1,2,0:0:0:0:
54,255,55348,1,14,0:0:0:0:
66,287,55444,1,2,0:0:0:0:
99,297,55539,1,6,0:0:0:0:
128,277,55635,5,2,0:0:0:0:
94,265,55730,1,14,0:0:0:0:
59,271,55826,1,2,0:0:0:0:
35,297,55922,1,6,0:0:0:0:
29,331,56017,1,2,0:0:0:0:
48,359,56113,1,14,0:0:0:0:
78,375,56208,1,2,0:0:0:0:
113,371,56304,5,6,0:0:0:0:
108,322,56399,1,2,0:0:0:0:
128,277,56495,1,10,0:0:0:0:
171,255,56590,1,10,0:0:0:0:
219,261,56686,1,10,0:0:0:0:
257,291,56781,1,10,0:0:0:0:
268,338,56877,1,10,0:0:0:0:
249,384,56972,1,10,0:0:0:0:
185,335,57068,6,0,L|166:222,1,105.000004005432,6|0,0:0|0:0,0:0:0:0:
91,192,57355,2,0,L|110:88,1,105.000004005432,6|0,0:0|0:0,0:0:0:0:
53,41,57641,2,0,P|134:50|53:63,1,210.000008010865,6|2,0:0|0:0,0:0:0:0:
255,17,58215,1,12,0:0:0:0:
419,117,58406,1,2,0:0:0:0:
412,316,58597,6,0,L|345:332,1,52.5000020027161
296,273,58788,2,0,L|512:303,1,210.000008010865,2|0,0:0|0:0,0:0:0:0:
447,228,59265,1,0,0:0:0:0:
430,271,59361,2,0,B|412:317|412:317|333:116|333:116|318:180,1,315.000012016297,12|0,0:0|0:0,0:0:0:0:
118,300,60125,6,0,B|66:292|66:292|47:269,2,70.0000026702882,6|2|2,0:0|0:0|0:0,0:0:0:0:
208,316,60507,2,0,B|228:366|228:366|217:394,2,70.0000026702882,6|2|2,0:0|0:0|0:0,0:0:0:0:
178,233,60890,2,0,B|210:191|210:191|240:187,2,70.0000026702882,6|2|2,0:0|0:0|0:0,0:0:0:0:
321,164,61272,2,0,B|279:52|279:52|265:112,1,157.500006008148,12|2,0:0|0:0,0:0:0:0:
161,103,61654,6,0,P|103:103|18:37,2,157.500006008148,6|12|10,0:0|0:0|0:0,0:0:0:0:
469,57,62418,2,0,B|472:95|503:116|503:116|481:145|481:145|497:174|497:174|452:216|467:283,1,245
512,351,63183,5,6,0:0:0:0:
492,322,63278,1,2,0:0:0:0:
461,304,63374,1,12,0:0:0:0:
426,298,63469,1,0,0:0:0:0:
391,305,63565,1,6,0:0:0:0:
363,326,63660,1,2,0:0:0:0:
343,355,63756,6,0,L|360:394,1,35,12|0,0:0|0:0,0:0:0:0:
243,313,63947,2,0,L|190:308,2,35,2|0|12,0:0|0:0|0:0,0:0:0:0:
326,255,64234,2,0,L|350:221,2,35,6|4|2,0:0|0:0|0:0,0:0:0:0:
256,353,64520,2,0,L|213:349,1,35,12|0,0:0|0:0,0:0:0:0:
113,293,64711,5,6,0:0:0:0:
96,261,64807,1,0,0:0:0:0:
94,226,64902,1,12,0:0:0:0:
110,194,64998,1,0,0:0:0:0:
125,163,65093,1,6,0:0:0:0:
116,128,65189,1,2,0:0:0:0:
89,104,65285,1,12,0:0:0:0:
62,126,65380,1,0,0:0:0:0:
37,149,65476,5,6,0:0:0:0:
70,158,65571,1,0,0:0:0:0:
103,169,65667,1,12,0:0:0:0:
135,180,65762,1,2,0:0:0:0:
168,170,65858,1,4,0:0:0:0:
201,179,65953,1,2,0:0:0:0:
234,188,66049,6,0,L|276:203,1,35,12|0,0:0|0:0,0:0:0:0:
349,137,66240,2,0,L|340:97,2,35,6|0|12,0:0|0:0|0:0,0:0:0:0:
453,173,66527,2,0,L|477:148,2,35,0|6|2,0:0|0:0|0:0,0:0:0:0:
479,272,66813,6,0,L|516:284,1,35,12|0,0:0|0:0,0:0:0:0:
393,346,67004,2,0,L|397:395,2,35,6|0|12,0:0|0:0|0:0,0:0:0:0:
291,309,67291,2,0,L|244:348,2,35,2|4|2,0:0|0:0|0:0,0:0:0:0:
266,199,67578,6,0,L|214:184,1,35,12|0,0:0|0:0,0:0:0:0:
108,158,67769,1,6,0:0:0:0:
82,181,67864,1,0,0:0:0:0:
49,194,67960,1,12,0:0:0:0:
14,191,68055,1,0,0:0:0:0:
33,220,68151,1,6,0:0:0:0:
42,253,68246,1,2,0:0:0:0:
42,288,68342,6,0,P|34:309|8:336,1,35,12|0,0:0|0:0,0:0:0:0:
134,350,68533,2,0,P|145:369|151:406,1,35,6|0,0:0|0:0,0:0:0:0:
262,328,68724,1,14,0:0:0:0:
296,324,68820,1,2,0:0:0:0:
331,362,68915,5,6,0:0:0:0:
379,341,69011,1,2,0:0:0:0:
394,291,69106,1,14,0:0:0:0:
383,239,69202,1,2,0:0:0:0:
345,205,69297,6,0,L|294:196,2,35,6|0|12,0:0|0:0|0:0,0:0:0:0:
457,162,69584,2,0,L|502:158,2,35,0|6|2,0:0|0:0|0:0,0:0:0:0:
344,103,69871,2,0,L|292:90,1,35,12|0,0:0|0:0,0:0:0:0:
158,179,70062,6,0,L|112:185,2,35,6|0|12,0:0|0:0|0:0,0:0:0:0:
278,228,70348,2,0,L|324:236,2,35,2|4|2,0:0|0:0|0:0,0:0:0:0:
155,275,70635,2,0,L|96:281,1,35,12|0,0:0|0:0,0:0:0:0:
6,231,70826,6,0,L|-5:171,2,35,6|0|12,0:0|0:0|0:0,0:0:0:0:
5,329,71113,2,0,L|-2:372,2,35,0|6|2,0:0|0:0|0:0,0:0:0:0:
120,278,71399,2,0,L|168:286,1,35,8|0,0:0|0:0,0:0:0:0:
259,362,71590,5,6,0:0:0:0:
288,343,71686,1,0,0:0:0:0:
322,336,71781,1,12,0:0:0:0:
357,339,71877,1,2,0:0:0:0:
388,353,71972,1,4,0:0:0:0:
423,353,72068,1,2,0:0:0:0:
457,345,72164,2,0,P|471:337|483:323,1,35,12|0,0:0|0:0,0:0:0:0:
445,144,72355,6,0,L|433:110,2,35,6|0|12,0:0|0:0|0:0,0:0:0:0:
421,226,72641,2,0,L|409:277,2,35,0|6|2,0:0|0:0|0:0,0:0:0:0:
327,156,72928,2,0,L|271:178,1,35,12|0,0:0|0:0,0:0:0:0:
185,223,73119,6,0,L|197:279,2,35,6|0|12,0:0|0:0|0:0,0:0:0:0:
165,141,73406,2,0,L|181:96,2,35,2|4|2,0:0|0:0|0:0,0:0:0:0:
42,169,73692,2,0,L|-12:148,1,35,12|0,0:0|0:0,0:0:0:0:
8,32,73883,6,0,L|41:20,2,35,6|0|12,0:0|0:0|0:0,0:0:0:0:
176,108,74170,2,0,L|125:126,2,35,0|6|2,0:0|0:0|0:0,0:0:0:0:
8,193,74457,2,0,L|60:214,1,35,12|0,0:0|0:0,0:0:0:0:
141,302,74648,5,6,0:0:0:0:
174,292,74743,1,0,0:0:0:0:
207,281,74839,1,8,0:0:0:0:
240,272,74934,1,8,0:0:0:0:
259,223,75030,5,10,0:0:0:0:
219,256,75125,1,8,0:0:0:0:
213,308,75221,1,8,0:0:0:0:
237,354,75316,1,8,0:0:0:0:
287,368,75412,6,0,L|367:387,1,70,12|4,0:0|0:0,0:0:0:0:
421,360,75699,2,0,P|401:332|367:318,1,70,2|2,0:0|0:0,0:0:0:0:
308,227,75985,2,0,L|320:158,1,70,12|6,0:0|0:0,0:0:0:0:
468,244,76367,1,6,0:0:0:0:
460,281,76463,1,2,0:0:0:0:
436,306,76558,2,0,P|396:320|347:310,1,70,6|12,0:0|0:0,0:0:0:0:
187,235,76941,6,0,P|160:223|100:225,1,70,6|12,0:0|0:0,0:0:0:0:
61,263,77227,1,0,0:0:0:0:
48,230,77323,1,6,0:0:0:0:
35,197,77418,1,2,0:0:0:0:
1,186,77514,2,0,L|18:111,1,70,12|6,0:0|0:0,0:0:0:0:
154,29,77896,6,0,L|198:36,1,35,12|2,0:0|0:0,0:0:0:0:
242,85,78087,2,0,L|294:72,1,35,4|2,0:0|0:0,0:0:0:0:
346,58,78278,1,12,0:0:0:0:
453,177,78469,6,0,P|434:207|435:254,1,70,6|12,0:0|0:0,0:0:0:0:
388,349,78851,1,4,0:0:0:0:
353,352,78947,1,2,0:0:0:0:
318,355,79043,1,12,0:0:0:0:
239,241,79234,2,0,L|325:254,1,70,6|12,0:0|0:0,0:0:0:0:
362,201,79520,1,0,0:0:0:0:
360,165,79616,2,0,P|351:147|329:124,2,35,0|6|8,0:0|0:0|0:0,0:0:0:0:
166,262,79998,6,0,P|165:224|193:178,1,70,6|12,0:0|0:0,0:0:0:0:
241,76,80380,1,6,0:0:0:0:
206,82,80476,1,2,0:0:0:0:
172,89,80571,1,12,0:0:0:0:
17,86,80762,2,0,L|25:132,1,35,6|0,0:0|0:0,0:0:0:0:
87,152,80953,1,12,0:0:0:0:
266,47,81144,2,0,L|336:63,1,70,6|12,0:0|0:0,0:0:0:0:
480,11,81527,6,0,P|432:11|368:71,1,140,6|4,0:0|0:0,0:0:0:0:
391,140,82004,1,2,0:0:0:0:
403,172,82100,2,0,P|441:180|480:212,1,70,12|6,0:0|0:0,0:0:0:0:
385,315,82482,1,12,0:0:0:0:
350,322,82578,2,0,L|259:338,1,70,2|2,0:0|0:0,0:0:0:0:
225,291,82864,1,12,0:0:0:0:
93,191,83055,6,0,P|126:191|168:168,1,70,6|12,0:0|0:0,0:0:0:0:
54,99,83437,2,0,P|36:91|16:73,1,35,6|2,0:0|0:0,0:0:0:0:
0,16,83629,1,12,0:0:0:0:
178,79,83820,2,0,L|188:158,1,70,6|12,0:0|0:0,0:0:0:0:
212,124,84106,1,2,0:0:0:0:
238,100,84202,1,4,0:0:0:0:
261,74,84297,1,2,0:0:0:0:
286,49,84393,1,12,0:0:0:0:
458,130,84584,6,0,L|488:220,1,70,6|12,0:0|0:0,0:0:0:0:
410,213,84871,2,2,L|390:286,1,70,0|2,0:0|0:0,0:0:0:0:
450,326,85157,1,12,0:0:0:0:
260,291,85348,2,0,P|226:294|192:312,1,70,6|12,0:0|0:0,0:0:0:0:
128,349,85635,2,0,P|96:344|62:324,1,70,2|2,0:0|0:0,0:0:0:0:
43,257,85922,1,12,0:0:0:0:
295,357,86113,6,0,L|391:366,1,70,6|12,0:0|0:0,0:0:0:0:
389,339,86399,1,0,0:0:0:0:
412,313,86495,1,6,0:0:0:0:
434,286,86590,1,2,0:0:0:0:
456,259,86686,1,12,0:0:0:0:
356,243,86877,1,6,0:0:0:0:
504,341,87068,1,8,0:0:0:0:
284,275,87259,2,0,P|247:288|210:361,1,105,10|8,0:0|0:0,0:0:0:0:
200,265,87641,6,0,L|184:148,1,105.000004005432,6|0,0:0|0:0,0:0:0:0:
114,125,87928,2,0,L|132:12,1,105.000004005432,6|0,0:0|0:0,0:0:0:0:
186,161,88215,2,0,B|39:181|39:181|94:142,1,210.000008010865,12|2,0:0|0:0,0:0:0:0:
222,68,88788,1,12,0:0:0:0:
30,59,88979,1,0,0:0:0:0:
289,147,89170,6,0,P|280:208|218:266,1,140,6|0,0:0|0:0,0:0:0:0:
488,246,89934,1,8,0:0:0:0:
454,236,90030,1,8,0:0:0:0:
418,238,90125,1,8,0:0:0:0:
389,258,90221,1,8,0:0:0:0:
401,290,90316,2,0,P|456:303|492:341,1,105,8|0,0:0|0:0,0:0:0:0:
409,384,90699,5,6,0:0:0:0:
312,234,90890,2,0,L|325:152,1,70,12|6,0:0|0:0,0:0:0:0:
390,99,91272,1,12,0:0:0:0:
181,137,91463,1,8,0:0:0:0:
146,135,91558,1,8,0:0:0:0:
115,117,91654,5,8,0:0:0:0:
139,163,91750,1,8,0:0:0:0:
98,195,91845,1,8,0:0:0:0:
52,169,91941,1,8,0:0:0:0:
35,119,92036,1,8,0:0:0:0:
51,68,92132,1,8,0:0:0:0:
132,37,92227,6,0,P|186:79|169:179,1,175,12|0,0:0|0:0,0:0:0:0:
223,228,92800,2,0,P|240:219|269:214,1,35,2|2,0:0|0:0,0:0:0:0:
174,282,92992,6,0,P|151:266|115:261,1,52.5,12|0,0:0|0:0,0:0:0:0:
19,333,93374,1,14,0:0:0:0:
19,333,93756,5,6,0:0:0:0:
39,361,93851,1,2,0:0:0:0:
71,373,93947,1,14,0:0:0:0:
105,365,94043,2,0,L|121:334,1,35,2|6,0:0|0:0,0:0:0:0:
104,232,94234,1,2,0:0:0:0:
80,206,94329,2,0,L|29:198,1,35,14|2,0:0|0:0,0:0:0:0:
140,116,94520,5,6,0:0:0:0:
174,112,94616,1,2,0:0:0:0:
208,108,94711,1,14,0:0:0:0:
243,105,94807,1,2,0:0:0:0:
267,79,94902,1,6,0:0:0:0:
297,97,94998,1,2,0:0:0:0:
319,123,95093,1,14,0:0:0:0:
330,156,95189,1,2,0:0:0:0:
330,191,95285,6,0,P|325:210|314:229,1,35,6|2,0:0|0:0,0:0:0:0:
205,270,95476,1,14,0:0:0:0:
219,301,95571,2,0,P|234:319|267:336,1,35,2|6,0:0|0:0,0:0:0:0:
380,333,95762,1,2,0:0:0:0:
407,311,95858,2,0,P|429:301|455:300,1,35,14|2,0:0|0:0,0:0:0:0:
318,223,96049,5,6,0:0:0:0:
284,214,96144,1,2,0:0:0:0:
249,219,96240,1,14,0:0:0:0:
220,238,96336,1,2,0:0:0:0:
205,270,96431,1,6,0:0:0:0:
235,251,96527,1,2,0:0:0:0:
249,219,96622,1,14,0:0:0:0:
245,183,96718,1,2,0:0:0:0:
221,157,96813,6,0,L|167:143,1,35,6|2,0:0|0:0,0:0:0:0:
48,115,97004,1,14,0:0:0:0:
52,149,97100,1,2,0:0:0:0:
54,183,97195,2,0,L|58:236,1,35,6|2,0:0|0:0,0:0:0:0:
187,148,97386,1,14,0:0:0:0:
190,112,97482,1,2,0:0:0:0:
194,70,97578,6,0,L|199:17,1,35,6|2,0:0|0:0,0:0:0:0:
316,0,97769,1,14,0:0:0:0:
357,7,97864,1,2,0:0:0:0:
397,17,97960,2,0,L|461:34,1,35,6|2,0:0|0:0,0:0:0:0:
512,140,98151,1,14,0:0:0:0:
471,150,98246,1,2,0:0:0:0:
429,158,98342,6,0,L|381:170,1,35,6|2,0:0|0:0,0:0:0:0:
355,298,98533,1,14,0:0:0:0:
396,309,98629,2,0,L|453:326,1,35,2|6,0:0|0:0,0:0:0:0:
271,349,98820,1,2,0:0:0:0:
267,307,98915,1,14,0:0:0:0:
263,264,99011,1,2,0:0:0:0:
305,233,99106,5,6,0:0:0:0:
276,277,99202,1,2,0:0:0:0:
230,302,99297,1,14,0:0:0:0:
177,301,99393,1,2,0:0:0:0:
129,277,99488,1,6,0:0:0:0:
96,235,99584,1,2,0:0:0:0:
88,183,99679,1,14,0:0:0:0:
103,132,99775,1,2,0:0:0:0:
141,96,99871,6,0,L|193:112,1,35,6|2,0:0|0:0,0:0:0:0:
303,65,100062,1,14,0:0:0:0:
332,54,100157,2,0,L|372:39,1,35,2|6,0:0|0:0,0:0:0:0:
487,100,100348,1,2,0:0:0:0:
484,131,100444,2,0,L|480:175,1,35,14|2,0:0|0:0,0:0:0:0:
465,308,100635,5,6,0:0:0:0:
431,296,100730,1,2,0:0:0:0:
395,297,100826,1,14,0:0:0:0:
362,310,100922,1,2,0:0:0:0:
342,338,101017,2,0,L|329:388,1,35,6|2,0:0|0:0,0:0:0:0:
291,235,101208,2,0,L|284:201,1,35,14|2,0:0|0:0,0:0:0:0:
205,347,101399,5,6,0:0:0:0:
170,339,101495,1,2,0:0:0:0:
135,333,101590,1,14,0:0:0:0:
100,325,101686,1,2,0:0:0:0:
65,319,101781,1,6,0:0:0:0:
30,311,101877,1,2,0:0:0:0:
15,279,101972,2,0,L|2:237,1,35,14|2,0:0|0:0,0:0:0:0:
77,120,102164,5,6,0:0:0:0:
117,109,102259,1,2,0:0:0:0:
158,114,102355,2,0,L|195:148,1,35,14|2,0:0|0:0,0:0:0:0:
291,235,102546,5,6,0:0:0:0:
332,227,102641,1,2,0:0:0:0:
373,220,102737,1,14,0:0:0:0:
414,215,102832,1,2,0:0:0:0:
455,208,102928,6,0,L|510:201,2,35,6|2|14,0:0|0:0|0:0,0:0:0:0:
459,84,103215,2,0,L|505:91,2,35,2|6|2,0:0|0:0|0:0,0:0:0:0:
323,137,103501,2,0,L|288:137,1,35,14|2,0:0|0:0,0:0:0:0:
138,209,103692,2,0,L|128:264,2,35,6|2|14,0:0|0:0|0:0,0:0:0:0:
0,211,103979,2,0,L|15:267,2,35,2|6|2,0:0|0:0|0:0,0:0:0:0:
71,68,104265,2,0,L|71:26,1,35,14|2,0:0|0:0,0:0:0:0:
272,15,104457,5,6,0:0:0:0:
319,24,104552,1,2,0:0:0:0:
367,34,104648,1,2,0:0:0:0:
413,48,104743,5,6,0:0:0:0:
366,65,104839,1,2,0:0:0:0:
320,81,104934,1,2,0:0:0:0:
273,97,105030,5,14,0:0:0:0:
318,113,105125,1,2,0:0:0:0:
343,155,105221,5,6,0:0:0:0:
316,195,105316,1,2,0:0:0:0:
323,243,105412,1,2,0:0:0:0:
371,237,105507,5,10,0:0:0:0:
407,274,105603,1,10,0:0:0:0:
459,282,105699,1,14,0:0:0:0:
496,246,105794,1,14,0:0:0:0:
501,193,105890,1,2,0:0:0:0:
466,153,105985,5,6,0:0:0:0:
454,186,106081,1,2,0:0:0:0:
432,213,106176,1,14,0:0:0:0:
404,227,106272,2,0,L|371:237,1,35,2|6,0:0|0:0,0:0:0:0:
270,315,106463,1,2,0:0:0:0:
276,349,106558,2,0,L|285:403,1,35,14|2,0:0|0:0,0:0:0:0:
155,337,106750,5,6,0:0:0:0:
120,332,106845,1,2,0:0:0:0:
85,327,106941,1,14,0:0:0:0:
50,323,107036,1,2,0:0:0:0:
17,336,107132,1,6,0:0:0:0:
3,303,107227,1,2,0:0:0:0:
3,267,107323,1,14,0:0:0:0:
20,236,107418,1,2,0:0:0:0:
46,212,107514,6,0,L|95:199,1,35,6|2,0:0|0:0,0:0:0:0:
210,257,107705,1,14,0:0:0:0:
218,290,107800,2,0,L|226:333,1,35,2|6,0:0|0:0,0:0:0:0:
371,245,107992,1,2,0:0:0:0:
379,211,108087,2,0,L|387:177,1,35,14|2,0:0|0:0,0:0:0:0:
449,58,108278,5,6,0:0:0:0:
416,72,108374,1,2,0:0:0:0:
381,70,108469,1,14,0:0:0:0:
347,58,108565,1,2,0:0:0:0:
324,31,108660,1,6,0:0:0:0:
295,10,108756,1,2,0:0:0:0:
260,2,108851,1,14,0:0:0:0:
225,10,108947,1,2,0:0:0:0:
197,32,109043,6,0,L|177:86,1,35,2|2,0:0|0:0,0:0:0:0:
65,52,109234,1,14,0:0:0:0:
75,85,109329,1,2,0:0:0:0:
86,118,109425,2,0,L|102:171,1,35,6|2,0:0|0:0,0:0:0:0:
22,249,109616,1,14,0:0:0:0:
55,258,109711,1,2,0:0:0:0:
95,269,109807,6,0,L|150:283,1,35,6|2,0:0|0:0,0:0:0:0:
252,210,109998,1,14,0:0:0:0:
289,191,110093,1,2,0:0:0:0:
326,171,110189,2,0,L|368:149,1,35,6|2,0:0|0:0,0:0:0:0:
493,219,110380,1,14,0:0:0:0:
497,260,110476,1,2,0:0:0:0:
503,301,110571,6,0,L|512:364,1,35,6|2,0:0|0:0,0:0:0:0:
372,298,110762,1,14,0:0:0:0:
353,336,110858,2,0,L|333:376,1,35,2|4,0:0|0:0,0:0:0:0:
204,329,111049,1,2,0:0:0:0:
163,317,111144,1,14,0:0:0:0:
122,306,111240,1,2,0:0:0:0:
73,327,111336,5,6,0:0:0:0:
114,295,111431,1,2,0:0:0:0:
130,244,111527,1,14,0:0:0:0:
115,193,111622,1,2,0:0:0:0:
72,162,111718,1,6,0:0:0:0:
28,132,111813,1,2,0:0:0:0:
19,79,111909,1,14,0:0:0:0:
35,30,112004,1,2,0:0:0:0:
77,0,112100,6,0,L|123:13,1,35,6|2,0:0|0:0,0:0:0:0:
186,102,112291,1,14,0:0:0:0:
219,92,112386,1,2,0:0:0:0:
252,83,112482,1,6,0:0:0:0:
263,116,112578,1,2,0:0:0:0:
273,149,112673,2,8,L|286:198,1,35,14|2,0:0|0:0,0:0:0:0:
380,247,112864,5,6,0:0:0:0:
387,212,112960,1,2,0:0:0:0:
395,178,113055,1,14,0:0:0:0:
402,143,113151,1,2,0:0:0:0:
412,109,113246,2,0,L|423:56,1,35,6|2,0:0|0:0,0:0:0:0:
486,182,113437,2,0,L|502:235,1,35,14|2,0:0|0:0,0:0:0:0:
281,182,113629,5,6,0:0:0:0:
239,182,113724,1,2,0:0:0:0:
196,182,113820,2,0,L|142:182,1,35,14|2,0:0|0:0,0:0:0:0:
109,331,114011,1,6,0:0:0:0:
150,331,114106,1,2,0:0:0:0:
192,331,114202,2,0,L|238:331,1,35,14|2,0:0|0:0,0:0:0:0:
294,214,114393,1,6,0:0:0:0:
281,182,114488,1,2,0:0:0:0:
269,148,114584,1,10,0:0:0:0:
256,115,114679,1,10,0:0:0:0:
244,81,114775,5,10,0:0:0:0:
257,91,114871,1,10,0:0:0:0:
273,97,114966,1,10,0:0:0:0:
290,98,115062,1,10,0:0:0:0:
326,87,115157,6,0,L|343:28,2,41.9999987182618,6|2|2,0:0|0:0|0:0,0:0:0:0:
408,138,115444,2,0,L|451:116,2,41.9999987182618,2|0|2,0:0|0:0|0:0,0:0:0:0:
412,249,115730,2,0,L|459:263,1,41.9999987182618,2|2,0:0|0:0,0:0:0:0:
336,373,115922,2,0,L|321:326,2,41.9999987182618,6|2|2,0:0|0:0|0:0,0:0:0:0:
166,344,116208,1,2,0:0:0:0:
196,314,116304,1,2,0:0:0:0:
229,287,116399,1,2,0:0:0:0:
207,219,116495,1,2,0:0:0:0:
165,220,116590,1,2,0:0:0:0:
228,155,116686,5,10,0:0:0:0:
123,223,117450,2,0,B|10:193|10:193|55:227,1,157.500006008148,6|0,0:0|0:0,0:0:0:0:
145,148,117832,2,0,B|135:263|135:263|115:199,1,157.500006008148,6|0,0:0|0:0,0:0:0:0:
42,217,118215,6,0,B|19:283|19:283|31:309|31:309|18:349|18:349|49:329|84:334|84:334|102:324|102:324|127:336|156:330,1,280
256,110,120125,5,2,0:0:0:0:
355,384,120890,1,2,0:0:0:0:
256,256,121272,5,0,0:0:0:0:
256,238,121367,1,0,0:0:0:0:
256,220,121463,1,0,0:0:0:0:
256,202,121558,1,0,0:0:0:0:
281,177,121654,2,0,L|328:177,1,35,2|0,0:0|0:0,0:0:0:0:
382,213,121845,5,0,0:0:0:0:
399,213,121941,1,0,0:0:0:0:
416,213,122036,1,0,0:0:0:0:
433,212,122132,1,0,0:0:0:0:
458,187,122227,2,0,L|459:139,1,35
459,79,122418,5,12,0:0:0:0:
256,32,122609,5,2,0:0:0:0:
256,67,122705,1,2,0:0:0:0:
256,101,122800,2,0,L|135:101,2,105,12|2|2,0:0|0:0|0:0,0:0:0:0:
202,192,123565,1,12,0:0:0:0:
167,192,123660,1,2,0:0:0:0:
131,192,123756,1,2,0:0:0:0:
96,192,123851,1,2,0:0:0:0:
71,216,123947,6,0,B|71:324|71:324|90:285,1,140,6|0,0:0|0:0,0:0:0:0:
193,105,127004,5,10,0:0:0:0:
53,185,127386,2,0,B|95:190|128:157|128:157|146:173|146:173|184:157|197:190|186:225|160:223|127:191,1,210,2|2,0:0|0:0,0:0:0:0:
246,153,128151,2,0,P|253:198|224:261,1,105,8|0,0:0|0:0,0:0:0:0:
167,280,128533,2,0,P|186:307|225:323,1,70,2|2,0:0|0:0,0:0:0:0:
366,314,128915,6,0,P|409:290|481:294,2,105,6|2|2,0:0|0:0|0:0,0:0:0:0:
438,383,129679,1,10,0:0:0:0:
467,279,129871,1,4,0:0:0:0:
470,269,129966,1,4,0:0:0:0:
473,259,130062,1,4,0:0:0:0:
446,69,130444,6,0,L|487:79,2,35,6|2|6,0:0|0:0|0:0,0:0:0:0:
421,156,130730,2,0,L|469:170,2,35,2|14|2,0:0|0:0|0:0,0:0:0:0:
357,91,131017,2,0,L|309:104,1,35,6|2,0:0|0:0,0:0:0:0:
188,132,131208,6,0,L|173:87,2,35,10|2|6,0:0|0:0|0:0,0:0:0:0:
100,162,131495,2,0,L|83:107,2,35,2|14|2,0:0|0:0|0:0,0:0:0:0:
169,220,131781,2,0,L|157:275,1,35,2|2,0:0|0:0,0:0:0:0:
142,347,131972,5,14,0:0:0:0:
171,328,132068,1,2,0:0:0:0:
205,322,132164,1,6,0:0:0:0:
239,327,132259,1,2,0:0:0:0:
268,346,132355,1,14,0:0:0:0:
302,350,132450,1,2,0:0:0:0:
333,334,132546,1,6,0:0:0:0:
300,320,132641,1,2,0:0:0:0:
277,292,132737,5,14,0:0:0:0:
310,280,132832,1,2,0:0:0:0:
335,256,132928,1,6,0:0:0:0:
341,221,133023,1,2,0:0:0:0:
326,188,133119,1,14,0:0:0:0:
298,166,133215,1,2,0:0:0:0:
263,166,133310,1,6,0:0:0:0:
234,186,133406,1,2,0:0:0:0:
216,215,133501,6,0,L|206:267,2,35,14|2|14,0:0|0:0|0:0,0:0:0:0:
119,249,133788,2,0,L|111:213,2,35,2|6|2,0:0|0:0|0:0,0:0:0:0:
26,215,134074,2,0,L|16:248,1,35,14|2,0:0|0:0,0:0:0:0:
163,328,134265,2,0,L|150:376,2,35,6|2|14,0:0|0:0|0:0,0:0:0:0:
263,359,134552,2,0,L|251:317,2,35,2|6|2,0:0|0:0|0:0,0:0:0:0:
369,327,134839,2,0,L|353:380,1,35,6|2,0:0|0:0,0:0:0:0:
497,361,135030,2,0,B|481:276,1,70,6|2,0:0|0:0,0:0:0:0:
506,224,135316,1,12,0:0:0:0:
369,327,135603,1,2,0:0:0:0:
408,259,135794,5,8,0:0:0:0:
413,223,135890,1,8,0:0:0:0:
419,188,135985,1,10,0:0:0:0:
424,153,136081,1,8,0:0:0:0:
410,163,136176,5,8,0:0:0:0:
392,168,136272,1,8,0:0:0:0:
374,167,136367,1,8,0:0:0:0:
357,161,136463,1,8,0:0:0:0:
327,136,136558,6,0,B|313:18,1,105,6|0,0:0|0:0,0:0:0:0:
98,109,137132,1,2,0:0:0:0:
182,167,137323,2,0,P|212:150|262:152,1,70,12|0,0:0|0:0,0:0:0:0:
264,319,137705,2,0,L|234:218,1,105,6|0,0:0|0:0,0:0:0:0:
166,235,138087,6,0,P|133:217|113:180,1,70,6|0,0:0|0:0,0:0:0:0:
46,198,138374,2,0,P|35:234|-3:269,1,70
92,275,138660,1,2,0:0:0:0:
74,130,138851,1,12,0:0:0:0:
166,235,139043,1,8,0:0:0:0:
174,268,139138,1,8,0:0:0:0:
170,302,139234,1,8,0:0:0:0:
35,334,139425,1,0,0:0:0:0:
188,333,139616,6,0,P|232:311|291:315,1,105,6|0,0:0|0:0,0:0:0:0:
339,366,139998,2,0,P|359:334|360:298,1,70,0|2,0:0|0:0,0:0:0:0:
283,119,140380,2,0,P|279:194|323:256,1,140,12|2,0:0|0:0,0:0:0:0:
114,348,141144,6,0,L|3:325,2,105,6|2|2,0:0|0:0|0:0,0:0:0:0:
286,313,141909,1,12,0:0:0:0:
169,292,142100,1,8,0:0:0:0:
164,257,142195,1,8,0:0:0:0:
157,222,142291,1,8,0:0:0:0:
295,243,142482,1,8,0:0:0:0:
290,277,142578,1,8,0:0:0:0:
286,313,142673,6,0,B|388:291|388:291|360:262,1,140,6|0,0:0|0:0,0:0:0:0:
300,203,143246,1,2,0:0:0:0:
91,341,143437,2,0,L|127:193,1,140,12|2,0:0|0:0,0:0:0:0:
456,113,144202,6,0,P|393:123|303:76,1,140,6|0,0:0|0:0,0:0:0:0:
406,0,144775,1,2,0:0:0:0:
473,148,144966,1,12,0:0:0:0:
302,126,145157,1,8,0:0:0:0:
284,156,145253,1,8,0:0:0:0:
266,185,145348,6,0,P|214:178|152:205,1,105,8|0,0:0|0:0,0:0:0:0:
174,266,145730,2,0,P|225:273|280:250,2,105,6|0|2,0:0|0:0|0:0,0:0:0:0:
266,185,146495,2,0,P|314:195|341:278,1,140,12|2,0:0|0:0,0:0:0:0:
75,248,147259,6,0,P|127:245|189:279,2,105,6|2|2,0:0|0:0|0:0,0:0:0:0:
108,346,148023,1,12,0:0:0:0:
274,254,148215,2,0,L|264:174,1,70,0|8,0:0|0:0,0:0:0:0:
434,74,148597,1,8,0:0:0:0:
426,108,148692,1,8,0:0:0:0:
395,144,148788,6,0,B|416:259,1,105.000004005432,6|0,0:0|0:0,0:0:0:0:
451,186,149074,2,0,B|417:304,1,105.000004005432,6|0,0:0|0:0,0:0:0:0:
510,232,149361,2,0,B|429:322|429:322|419:276,1,157.500006008148,6|0,0:0|0:0,0:0:0:0:
349,281,149743,5,8,0:0:0:0:
340,315,149839,1,8,0:0:0:0:
332,349,149934,2,0,L|322:385,1,35,10|8,0:0|0:0,0:0:0:0:
188,384,150125,2,0,L|179:348,1,35,8|8,0:0|0:0,0:0:0:0:
233,217,150316,6,0,B|256:284|256:284|280:208,1,140,6|2,0:0|0:0,0:0:0:0:
115,106,151081,1,8,0:0:0:0:
72,223,151272,1,8,0:0:0:0:
81,256,151367,1,8,0:0:0:0:
92,289,151463,2,0,L|107:166,1,105,10|0,0:0|0:0,0:0:0:0:
115,106,151845,5,12,0:0:0:0:
258,40,152036,1,2,0:0:0:0:
263,74,152132,2,0,L|276:146,1,70,2|2,0:0|0:0,0:0:0:0:
289,227,152418,1,0,0:0:0:0:
311,199,152514,5,8,0:0:0:0:
345,200,152609,1,8,0:0:0:0:
379,204,152705,1,2,0:0:0:0:
413,209,152800,2,0,L|400:329,1,105,6|2,0:0|0:0,0:0:0:0:
131,171,153374,2,0,L|121:98,1,70,6|0,0:0|0:0,0:0:0:0:
46,151,153660,1,0,0:0:0:0:
39,187,153756,6,0,P|91:166|148:180,1,97.9999970092774
99,267,154043,2,0,P|71:289|58:327,1,70
145,341,154329,2,0,P|148:363|160:385,1,35
220,337,154520,6,0,L|276:331,1,52.5,2|0,0:0|0:0,0:0:0:0:
346,326,154902,5,6,0:0:0:0:
335,292,154998,1,2,0:0:0:0:
309,268,155093,1,14,0:0:0:0:
274,261,155189,2,0,L|214:268,1,35,2|6,0:0|0:0,0:0:0:0:
334,188,155380,1,2,0:0:0:0:
368,182,155476,2,0,L|418:176,1,35,14|2,0:0|0:0,0:0:0:0:
259,127,155667,5,6,0:0:0:0:
224,130,155762,1,2,0:0:0:0:
189,135,155858,1,14,0:0:0:0:
154,140,155953,1,2,0:0:0:0:
126,117,156049,1,6,0:0:0:0:
141,147,156144,1,2,0:0:0:0:
144,182,156240,1,14,0:0:0:0:
135,216,156336,1,2,0:0:0:0:
113,243,156431,6,0,L|69:251,1,35,6|2,0:0|0:0,0:0:0:0:
182,324,156622,1,14,0:0:0:0:
215,333,156718,2,0,L|269:348,1,35,2|6,0:0|0:0,0:0:0:0:
369,289,156909,1,2,0:0:0:0:
335,278,157004,2,0,L|281:263,1,35,14|2,0:0|0:0,0:0:0:0:
259,127,157195,5,6,0:0:0:0:
294,123,157291,1,2,0:0:0:0:
328,119,157386,1,14,0:0:0:0:
363,115,157482,1,2,0:0:0:0:
398,111,157578,1,6,0:0:0:0:
424,133,157673,1,2,0:0:0:0:
448,157,157769,1,14,0:0:0:0:
474,179,157864,1,2,0:0:0:0:
497,205,157960,6,0,L|490:239,1,35,6|2,0:0|0:0,0:0:0:0:
397,358,158151,1,14,0:0:0:0:
382,323,158246,1,2,0:0:0:0:
369,289,158342,2,0,L|380:245,1,35,6|2,0:0|0:0,0:0:0:0:
328,119,158533,1,14,0:0:0:0:
294,123,158629,1,2,0:0:0:0:
251,128,158724,6,0,L|234:193,1,35,6|2,0:0|0:0,0:0:0:0:
198,326,158915,1,14,0:0:0:0:
156,330,159011,1,2,0:0:0:0:
114,335,159106,2,0,L|98:285,1,35,6|2,0:0|0:0,0:0:0:0:
15,206,159297,1,14,0:0:0:0:
27,165,159393,1,2,0:0:0:0:
38,124,159488,6,0,L|48:85,1,35,6|2,0:0|0:0,0:0:0:0:
174,7,159679,1,14,0:0:0:0:
164,48,159775,2,0,L|151:102,1,35,2|6,0:0|0:0,0:0:0:0:
294,123,159966,1,2,0:0:0:0:
328,119,160062,1,14,0:0:0:0:
369,115,160157,1,2,0:0:0:0:
406,77,160253,5,6,0:0:0:0:
390,126,160348,1,2,0:0:0:0:
375,176,160444,1,14,0:0:0:0:
359,225,160539,1,2,0:0:0:0:
390,267,160635,1,6,0:0:0:0:
346,295,160730,1,2,0:0:0:0:
298,318,160826,1,14,0:0:0:0:
251,343,160922,1,2,0:0:0:0:
204,367,161017,6,0,L|165:386,1,35,6|2,0:0|0:0,0:0:0:0:
137,264,161208,1,14,0:0:0:0:
170,273,161304,2,0,L|221:290,1,35,2|6,0:0|0:0,0:0:0:0:
390,267,161495,1,2,0:0:0:0:
422,278,161590,2,0,L|480:298,1,35,14|2,0:0|0:0,0:0:0:0:
298,318,161781,5,6,0:0:0:0:
294,283,161877,1,2,0:0:0:0:
289,248,161972,1,14,0:0:0:0:
285,213,162068,1,2,0:0:0:0:
281,178,162164,2,0,L|277:141,1,35,6|2,0:0|0:0,0:0:0:0:
194,40,162355,2,0,L|199:95,1,35,14|2,0:0|0:0,0:0:0:0:
146,204,162546,5,6,0:0:0:0:
114,190,162641,1,2,0:0:0:0:
94,161,162737,1,14,0:0:0:0:
87,126,162832,1,2,0:0:0:0:
100,93,162928,1,6,0:0:0:0:
127,71,163023,1,2,0:0:0:0:
163,63,163119,2,0,L|217:81,1,35,14|2,0:0|0:0,0:0:0:0:
340,118,163310,5,6,0:0:0:0:
308,131,163406,1,2,0:0:0:0:
277,143,163501,2,0,L|226:161,1,35,14|2,0:0|0:0,0:0:0:0:
199,285,163692,1,6,0:0:0:0:
232,296,163788,1,2,0:0:0:0:
265,305,163883,1,14,0:0:0:0:
298,315,163979,1,2,0:0:0:0:
331,325,164074,6,0,L|366:312,2,35,6|2|14,0:0|0:0|0:0,0:0:0:0:
209,372,164361,2,0,L|154:393,2,35,2|6|2,0:0|0:0|0:0,0:0:0:0:
394,347,164648,2,0,L|446:361,1,35,14|2,0:0|0:0,0:0:0:0:
325,220,164839,2,0,L|276:238,2,35,6|2|14,0:0|0:0|0:0,0:0:0:0:
445,174,165125,2,0,L|492:157,2,35,2|6|2,0:0|0:0|0:0,0:0:0:0:
259,202,165412,2,0,L|221:192,1,35,14|2,0:0|0:0,0:0:0:0:
91,156,165603,5,6,0:0:0:0:
116,198,165699,1,2,0:0:0:0:
111,246,165794,1,2,0:0:0:0:
64,229,165890,5,6,0:0:0:0:
37,269,165985,1,2,0:0:0:0:
37,318,166081,1,2,0:0:0:0:
84,315,166176,5,14,0:0:0:0:
118,350,166272,1,2,0:0:0:0:
162,330,166367,5,6,0:0:0:0:
210,337,166463,1,2,0:0:0:0:
258,344,166558,1,6,0:0:0:0:
213,373,166654,5,10,0:0:0:0:
210,320,166750,1,14,0:0:0:0:
254,291,166845,1,10,0:0:0:0:
301,314,166941,1,14,0:0:0:0:
305,366,167036,1,2,0:0:0:0:
258,344,167132,5,6,0:0:0:0:
272,312,167227,1,2,0:0:0:0:
287,280,167323,1,14,0:0:0:0:
302,249,167418,2,0,L|325:193,1,35,2|6,0:0|0:0,0:0:0:0:
442,144,167609,1,2,0:0:0:0:
451,177,167705,2,0,L|469:234,1,35,14|2,0:0|0:0,0:0:0:0:
315,216,167896,5,6,0:0:0:0:
279,218,167992,1,2,0:0:0:0:
244,221,168087,1,14,0:0:0:0:
208,223,168183,1,2,0:0:0:0:
230,196,168278,1,6,0:0:0:0:
237,230,168374,1,2,0:0:0:0:
231,264,168469,1,14,0:0:0:0:
209,291,168565,1,2,0:0:0:0:
176,304,168660,6,0,L|120:296,1,35,6|2,0:0|0:0,0:0:0:0:
62,200,168851,1,14,0:0:0:0:
86,174,168947,2,0,L|130:170,1,35,2|6,0:0|0:0,0:0:0:0:
200,89,169138,1,2,0:0:0:0:
224,63,169234,2,0,L|271:60,1,35,14|2,0:0|0:0,0:0:0:0:
417,55,169425,5,6,0:0:0:0:
412,89,169520,1,2,0:0:0:0:
407,123,169616,1,14,0:0:0:0:
402,157,169711,1,2,0:0:0:0:
368,166,169807,1,6,0:0:0:0:
372,200,169902,1,2,0:0:0:0:
379,234,169998,1,14,0:0:0:0:
385,268,170093,1,2,0:0:0:0:
393,302,170189,6,0,L|403:346,1,35,6|2,0:0|0:0,0:0:0:0:
258,384,170380,1,14,0:0:0:0:
264,349,170476,1,2,0:0:0:0:
272,315,170571,2,0,L|280:263,1,35,6|2,0:0|0:0,0:0:0:0:
187,171,170762,1,14,0:0:0:0:
160,203,170858,1,2,0:0:0:0:
133,235,170953,6,0,L|103:273,1,35,6|2,0:0|0:0,0:0:0:0:
277,280,171144,1,14,0:0:0:0:
318,287,171240,1,2,0:0:0:0:
359,295,171336,2,0,L|416:308,1,35,6|2,0:0|0:0,0:0:0:0:
330,152,171527,1,14,0:0:0:0:
313,113,171622,1,2,0:0:0:0:
298,72,171718,6,0,L|275:19,1,35,6|2,0:0|0:0,0:0:0:0:
426,7,171909,1,14,0:0:0:0:
467,0,172004,2,0,L|511:14,1,35,2|6,0:0|0:0,0:0:0:0:
504,152,172195,1,2,0:0:0:0:
494,193,172291,1,14,0:0:0:0:
485,233,172386,1,2,0:0:0:0:
510,279,172482,5,6,0:0:0:0:
463,255,172578,1,2,0:0:0:0:
412,269,172673,1,14,0:0:0:0:
392,317,172769,1,2,0:0:0:0:
412,365,172864,1,6,0:0:0:0:
432,316,172960,1,2,0:0:0:0:
412,269,173055,1,14,0:0:0:0:
360,255,173151,1,2,0:0:0:0:
312,279,173246,6,0,L|302:326,1,35,6|2,0:0|0:0,0:0:0:0:
147,336,173437,1,14,0:0:0:0:
115,319,173533,2,0,L|103:261,1,35,2|6,0:0|0:0,0:0:0:0:
83,155,173724,1,2,0:0:0:0:
51,139,173820,2,0,L|43:102,1,35,14|2,0:0|0:0,0:0:0:0:
149,17,174011,5,6,0:0:0:0:
181,29,174106,1,2,0:0:0:0:
214,40,174202,1,14,0:0:0:0:
246,52,174297,1,2,0:0:0:0:
279,62,174393,2,0,L|332:42,1,35,6|2,0:0|0:0,0:0:0:0:
482,42,174584,2,0,L|429:61,1,35,14|2,0:0|0:0,0:0:0:0:
371,167,174775,5,6,0:0:0:0:
366,208,174871,1,2,0:0:0:0:
362,249,174966,2,0,L|357:290,1,35,14|2,0:0|0:0,0:0:0:0:
218,366,175157,1,6,0:0:0:0:
213,324,175253,1,2,0:0:0:0:
207,282,175348,2,0,L|200:237,1,35,14|2,0:0|0:0,0:0:0:0:
228,126,175539,1,6,0:0:0:0:
198,145,175635,1,2,0:0:0:0:
164,154,175730,1,10,0:0:0:0:
128,150,175826,1,10,0:0:0:0:
98,129,175922,5,10,0:0:0:0:
111,117,176017,1,10,0:0:0:0:
121,102,176113,1,10,0:0:0:0:
126,85,176208,1,10,0:0:0:0:
116,44,176304,6,0,L|100:-8,2,41.9999987182618,6|2|2,0:0|0:0|0:0,0:0:0:0:
16,61,176590,2,0,L|7:104,2,41.9999987182618,2|2|2,0:0|0:0|0:0,0:0:0:0:
209,31,176877,2,0,L|281:22,1,41.9999987182618,2|2,0:0|0:0,0:0:0:0:
376,185,177068,2,0,L|366:241,2,41.9999987182618,6|2|2,0:0|0:0|0:0,0:0:0:0:
437,72,177355,1,2,0:0:0:0:
443,113,177450,1,2,0:0:0:0:
450,154,177546,1,2,0:0:0:0:
512,198,177641,1,2,0:0:0:0:
504,239,177737,1,2,0:0:0:0:
480,339,177832,5,10,0:0:0:0:
136,229,178597,2,0,B|22:251|22:251|69:220,1,157.500006008148,6|0,0:0|0:0,0:0:0:0:
136,229,178979,2,0,B|126:114|126:114|106:178,1,157.500006008148,6|0,0:0|0:0,0:0:0:0:
62,331,179361,5,6,0:0:0:0:
93,345,179457,1,0,0:0:0:0:
126,352,179552,1,12,0:0:0:0:
161,350,179648,1,0,0:0:0:0:
194,340,179743,1,6,0:0:0:0:
222,319,179839,1,2,0:0:0:0:
243,291,179934,1,12,0:0:0:0:
253,257,180030,1,0,0:0:0:0:
255,222,180125,5,6,0:0:0:0:
282,244,180221,1,0,0:0:0:0:
293,276,180316,1,12,0:0:0:0:
281,309,180412,1,2,0:0:0:0:
252,329,180507,1,4,0:0:0:0:
217,332,180603,1,2,0:0:0:0:
186,314,180699,1,12,0:0:0:0:
174,280,180794,1,0,0:0:0:0:
182,245,180890,5,6,0:0:0:0:
209,266,180985,1,0,0:0:0:0:
243,271,181081,1,12,0:0:0:0:
277,263,181176,1,0,0:0:0:0:
307,246,181272,1,4,0:0:0:0:
334,224,181367,1,2,0:0:0:0:
368,219,181463,1,8,0:0:0:0:
402,224,181558,1,0,0:0:0:0:
428,247,181654,5,6,0:0:0:0:
393,255,181750,1,0,0:0:0:0:
358,249,181845,1,12,0:0:0:0:
334,224,181941,1,2,0:0:0:0:
327,189,182036,6,0,L|349:146,1,35,4|2,0:0|0:0,0:0:0:0:
447,52,182227,2,0,L|420:106,1,35,12|0,0:0|0:0,0:0:0:0:
248,94,182418,5,6,0:0:0:0:
213,98,182514,1,0,0:0:0:0:
178,102,182609,1,12,0:0:0:0:
142,104,182705,1,0,0:0:0:0:
107,108,182800,1,4,0:0:0:0:
72,111,182896,1,2,0:0:0:0:
53,80,182992,5,12,0:0:0:0:
84,95,183087,1,0,0:0:0:0:
107,120,183183,1,6,0:0:0:0:
116,153,183278,1,0,0:0:0:0:
113,188,183374,1,12,0:0:0:0:
97,218,183469,1,2,0:0:0:0:
72,242,183565,6,0,L|19:229,1,35,4|2,0:0|0:0,0:0:0:0:
202,180,183756,2,0,L|250:175,1,35,12|0,0:0|0:0,0:0:0:0:
353,231,183947,5,6,0:0:0:0:
383,247,184043,1,0,0:0:0:0:
417,242,184138,1,12,0:0:0:0:
449,228,184234,1,2,0:0:0:0:
463,196,184329,1,4,0:0:0:0:
463,160,184425,1,2,0:0:0:0:
443,131,184520,5,12,0:0:0:0:
437,165,184616,1,0,0:0:0:0:
432,199,184711,1,6,0:0:0:0:
428,233,184807,1,0,0:0:0:0:
422,267,184902,1,12,0:0:0:0:
417,301,184998,1,2,0:0:0:0:
411,335,185093,6,0,L|401:397,1,35,4|2,0:0|0:0,0:0:0:0:
512,312,185285,2,0,L|499:264,1,35,12|0,0:0|0:0,0:0:0:0:
273,310,185476,2,0,L|281:361,2,35,6|0|12,0:0|0:0|0:0,0:0:0:0:
318,235,185762,2,0,L|371:228,2,35,0|4|2,0:0|0:0|0:0,0:0:0:0:
209,123,186049,5,12,0:0:0:0:
209,157,186144,1,0,0:0:0:0:
209,192,186240,1,6,0:0:0:0:
209,227,186336,1,0,0:0:0:0:
209,261,186431,1,12,0:0:0:0:
209,295,186527,1,2,0:0:0:0:
209,329,186622,5,4,0:0:0:0:
182,306,186718,1,2,0:0:0:0:
155,282,186813,1,12,0:0:0:0:
129,257,186909,1,0,0:0:0:0:
104,232,187004,5,6,0:0:0:0:
139,229,187100,1,0,0:0:0:0:
170,213,187195,1,12,0:0:0:0:
196,189,187291,1,0,0:0:0:0:
209,157,187386,6,0,L|209:110,1,35,6|2,0:0|0:0,0:0:0:0:
263,0,187578,2,0,L|282:50,1,35,12|0,0:0|0:0,0:0:0:0:
404,32,187769,2,0,L|419:-4,1,35,6|0,0:0|0:0,0:0:0:0:
468,128,187960,2,0,L|468:175,1,35,12|2,0:0|0:0,0:0:0:0:
314,196,188151,2,0,L|367:196,1,35,4|2,0:0|0:0,0:0:0:0:
468,101,188342,2,0,L|421:101,1,35,12|0,0:0|0:0,0:0:0:0:
282,196,188533,6,0,L|282:256,2,35,6|0|12,0:0|0:0|0:0,0:0:0:0:
467,192,188820,2,0,L|511:192,2,35,0|4|2,0:0|0:0|0:0,0:0:0:0:
415,285,189106,5,12,0:0:0:0:
428,317,189202,1,0,0:0:0:0:
440,349,189297,1,6,0:0:0:0:
453,381,189393,1,0,0:0:0:0:
469,350,189488,5,12,0:0:0:0:
439,331,189584,1,2,0:0:0:0:
404,329,189679,1,4,0:0:0:0:
369,334,189775,1,2,0:0:0:0:
338,351,189871,1,12,0:0:0:0:
319,380,189966,1,0,0:0:0:0:
359,366,190062,5,14,0:0:0:0:
367,325,190157,1,8,0:0:0:0:
377,284,190253,1,12,0:0:0:0:
385,243,190348,1,8,0:0:0:0:
415,213,190444,1,8,0:0:0:0:
422,171,190539,1,8,0:0:0:0:
431,129,190635,1,8,0:0:0:0:
439,88,190730,1,8,0:0:0:0:
491,32,190826,6,0,P|445:56|326:37,1,157.500006008148,6|0,0:0|0:0,0:0:0:0:
195,30,191208,2,0,P|272:16|359:63,1,157.500006008148,6|0,0:0|0:0,0:0:0:0:
257,141,191590,5,6,0:0:0:0:
238,171,191686,1,0,0:0:0:0:
232,205,191781,1,12,0:0:0:0:
243,238,191877,1,0,0:0:0:0:
267,262,191972,1,4,0:0:0:0:
295,282,192068,1,2,0:0:0:0:
306,315,192164,1,12,0:0:0:0:
294,347,192259,1,0,0:0:0:0:
262,362,192355,1,4,0:0:0:0:
229,350,192450,1,2,0:0:0:0:
213,318,192546,6,0,L|244:284,3,35,12|2|4|2,0:0|0:0|0:0|0:0,0:0:0:0:
375,338,192928,2,0,L|397:311,1,35,12|0,0:0|0:0,0:0:0:0:
479,220,193119,2,0,L|460:172,2,35,6|0|12,0:0|0:0|0:0,0:0:0:0:
363,202,193406,2,0,L|347:168,2,35,0|4|2,0:0|0:0|0:0,0:0:0:0:
397,310,193692,2,0,L|373:340,1,35,12|0,0:0|0:0,0:0:0:0:
236,292,193883,5,6,0:0:0:0:
201,283,193979,1,0,0:0:0:0:
166,272,194074,1,12,0:0:0:0:
132,260,194170,1,2,0:0:0:0:
99,248,194265,5,4,0:0:0:0:
131,233,194361,1,2,0:0:0:0:
163,218,194457,1,12,0:0:0:0:
194,202,194552,1,0,0:0:0:0:
211,231,194648,5,6,0:0:0:0:
244,221,194743,1,0,0:0:0:0:
269,196,194839,1,12,0:0:0:0:
277,162,194934,1,0,0:0:0:0:
273,126,195030,1,4,0:0:0:0:
255,95,195125,1,2,0:0:0:0:
223,78,195221,1,12,0:0:0:0:
208,46,195316,1,0,0:0:0:0:
220,13,195412,1,6,0:0:0:0:
252,0,195507,1,0,0:0:0:0:
287,9,195603,6,0,L|307:57,2,35,12|2|4,0:0|0:0|0:0,0:0:0:0:
400,42,195890,2,0,L|408:8,2,35,2|12|0,0:0|0:0|0:0,0:0:0:0:
499,94,196176,2,0,L|453:122,2,35,6|0|12,0:0|0:0|0:0,0:0:0:0:
448,214,196463,2,0,L|485:238,2,35,0|4|2,0:0|0:0|0:0,0:0:0:0:
349,281,196750,2,0,L|355:239,1,35,12|0,0:0|0:0,0:0:0:0:
279,175,196941,5,6,0:0:0:0:
233,191,197036,1,8,0:0:0:0:
188,211,197132,1,8,0:0:0:0:
143,231,197227,1,10,0:0:0:0:
107,197,197323,5,10,0:0:0:0:
154,209,197418,1,10,0:0:0:0:
189,243,197514,1,8,0:0:0:0:
203,289,197609,1,8,0:0:0:0:
186,332,197705,6,0,L|137:324,2,41.9999987182618,6|0|12,0:0|0:0|0:0,0:0:0:0:
285,245,197992,1,0,0:0:0:0:
282,211,198087,1,4,0:0:0:0:
279,175,198183,1,2,0:0:0:0:
274,141,198278,1,12,0:0:0:0:
271,107,198374,1,0,0:0:0:0:
268,73,198469,6,0,L|284:28,2,41.9999987182618,6|0|12,0:0|0:0|0:0,0:0:0:0:
179,133,198756,1,2,0:0:0:0:
211,147,198851,1,4,0:0:0:0:
245,162,198947,1,2,0:0:0:0:
279,175,199043,1,12,0:0:0:0:
312,189,199138,1,0,0:0:0:0:
358,208,199234,5,6,0:0:0:0:
342,160,199329,1,0,0:0:0:0:
372,119,199425,1,12,0:0:0:0:
422,118,199520,1,0,0:0:0:0:
456,155,199616,5,4,0:0:0:0:
452,192,199711,1,2,0:0:0:0:
447,229,199807,1,12,0:0:0:0:
442,266,199902,1,0,0:0:0:0:
432,315,199998,5,6,0:0:0:0:
480,301,200093,1,0,0:0:0:0:
489,251,200189,1,12,0:0:0:0:
451,218,200285,1,2,0:0:0:0:
403,234,200380,5,4,0:0:0:0:
370,272,200476,1,2,0:0:0:0:
321,284,200571,1,12,0:0:0:0:
269,271,200667,1,0,0:0:0:0:
244,227,200762,6,0,B|226:179|297:182|306:231|243:234|280:319,1,167.999994873047,6|2,0:0|0:0,0:0:0:0:
370,272,201336,1,0,0:0:0:0:
324,139,201527,2,0,P|325:92|359:136,2,125.999996154785,2|0|0,0:0|0:0|0:0,0:0:0:0:
498,201,202291,1,6,0:0:0:0:
81,144,203055,5,2,0:0:0:0:
79,156,203151,1,0,0:0:0:0:
77,168,203246,1,0,0:0:0:0:
75,180,203342,1,0,0:0:0:0:
89,208,203437,1,0,0:0:0:0:
90,220,203533,1,0,0:0:0:0:
92,232,203629,1,0,0:0:0:0:
93,244,203724,1,0,0:0:0:0:
72,276,203820,5,6,0:0:0:0:
100,295,203915,1,0,0:0:0:0:
134,302,204011,1,12,0:0:0:0:
167,293,204106,1,0,0:0:0:0:
198,278,204202,1,4,0:0:0:0:
225,256,204297,1,2,0:0:0:0:
260,254,204393,1,12,0:0:0:0:
291,269,204488,1,0,0:0:0:0:
305,301,204584,1,6,0:0:0:0:
297,335,204679,1,0,0:0:0:0:
270,358,204775,6,0,L|215:346,1,35,12|2,0:0|0:0,0:0:0:0:
229,176,204966,2,0,L|273:167,1,35,4|2,0:0|0:0,0:0:0:0:
406,267,205157,2,0,L|342:267,1,35,12|0,0:0|0:0,0:0:0:0:
512,200,205348,6,0,L|512:165,1,35,4|0,0:0|0:0,0:0:0:0:
512,337,205539,2,0,L|512:375,1,35,12|0,0:0|0:0,0:0:0:0:
371,267,205730,1,6,0:0:0:0:
335,267,205826,1,2,0:0:0:0:
299,267,205922,2,0,L|246:267,1,35,12|0,0:0|0:0,0:0:0:0:
122,336,206113,6,0,L|111:376,2,35,6|0|12,0:0|0:0|0:0,0:0:0:0:
92,242,206399,2,0,L|54:267,2,35,2|4|2,0:0|0:0|0:0,0:0:0:0:
162,167,206686,2,0,L|128:158,1,35,12|0,0:0|0:0,0:0:0:0:
67,55,206877,5,6,0:0:0:0:
101,48,206972,1,0,0:0:0:0:
135,41,207068,1,12,0:0:0:0:
169,35,207164,1,0,0:0:0:0:
187,5,207259,5,4,0:0:0:0:
191,39,207355,1,2,0:0:0:0:
210,67,207450,1,12,0:0:0:0:
239,86,207546,1,0,0:0:0:0:
273,89,207641,1,6,0:0:0:0:
307,83,207737,1,0,0:0:0:0:
335,62,207832,6,0,L|355:22,3,35,12|2|4|2,0:0|0:0|0:0|0:0,0:0:0:0:
465,84,208215,2,0,L|474:118,1,35,12|0,0:0|0:0,0:0:0:0:
365,201,208406,5,6,0:0:0:0:
330,194,208501,1,0,0:0:0:0:
295,198,208597,1,12,0:0:0:0:
264,214,208692,1,0,0:0:0:0:
244,243,208788,6,0,L|255:288,1,35,6|2,0:0|0:0,0:0:0:0:
393,321,208979,2,0,L|383:277,1,35,12|0,0:0|0:0,0:0:0:0:
198,340,209170,5,6,0:0:0:0:
163,346,209265,1,0,0:0:0:0:
128,354,209361,1,12,0:0:0:0:
93,362,209457,1,2,0:0:0:0:
59,370,209552,6,0,L|47:324,1,35,4|2,0:0|0:0,0:0:0:0:
128,209,209743,2,0,L|115:267,1,35,12|0,0:0|0:0,0:0:0:0:
12,149,209934,5,6,0:0:0:0:
32,120,210030,1,0,0:0:0:0:
58,97,210125,1,12,0:0:0:0:
90,82,210221,1,0,0:0:0:0:
124,77,210316,1,4,0:0:0:0:
159,79,210412,1,2,0:0:0:0:
191,91,210507,1,12,0:0:0:0:
219,110,210603,1,0,0:0:0:0:
237,140,210699,5,6,0:0:0:0:
202,133,210794,1,0,0:0:0:0:
182,103,210890,1,12,0:0:0:0:
184,68,210985,1,2,0:0:0:0:
204,39,211081,1,4,0:0:0:0:
237,31,211176,1,2,0:0:0:0:
269,45,211272,2,0,L|282:86,1,35,12|0,0:0|0:0,0:0:0:0:
404,110,211463,6,0,L|460:95,2,35,6|0|12,0:0|0:0|0:0,0:0:0:0:
403,203,211750,2,0,L|454:220,2,35,0|6|0,0:0|0:0|0:0,0:0:0:0:
279,226,212036,2,0,L|269:263,1,35,12|0,0:0|0:0,0:0:0:0:
182,351,212227,6,0,L|193:396,2,35,6|0|12,0:0|0:0|0:0,0:0:0:0:
89,352,212514,2,0,L|74:393,2,35,2|4|2,0:0|0:0|0:0,0:0:0:0:
6,259,212800,2,0,L|0:225,1,35,12|0,0:0|0:0,0:0:0:0:
87,119,212992,1,14,0:0:0:0:
121,124,213087,1,8,0:0:0:0:
153,96,213183,5,8,0:0:0:0:
168,134,213278,1,8,0:0:0:0:
196,165,213374,1,8,0:0:0:0:
232,179,213469,1,8,0:0:0:0:
273,184,213565,1,8,0:0:0:0:
314,177,213660,1,8,0:0:0:0:
348,152,213756,6,0,P|359:138|372:109,2,35,6|0|12,0:0|0:0|0:0,0:0:0:0:
264,71,214043,2,0,P|254:55|248:17,2,35,2|4|2,0:0|0:0|0:0,0:0:0:0:
352,25,214329,2,0,P|372:22|404:29,1,35,12|0,0:0|0:0,0:0:0:0:
474,95,214520,5,6,0:0:0:0:
477,130,214616,1,0,0:0:0:0:
479,164,214711,1,12,0:0:0:0:
481,199,214807,1,0,0:0:0:0:
499,228,214902,1,6,0:0:0:0:
500,263,214998,1,2,0:0:0:0:
500,297,215093,1,12,0:0:0:0:
503,331,215189,1,0,0:0:0:0:
466,364,215285,5,12,0:0:0:0:
433,327,215380,1,8,0:0:0:0:
387,309,215476,1,12,0:0:0:0:
338,315,215571,1,8,0:0:0:0:
303,350,215667,1,14,0:0:0:0:
255,360,215762,1,8,0:0:0:0:
206,354,215858,2,8,P|190:346|176:334,1,35,12|8,0:0|0:0,0:0:0:0:
257,214,216049,6,0,L|250:257,1,41.9999987182618,6|0,0:0|0:0,0:0:0:0:
159,147,216240,2,0,L|153:93,3,41.9999987182618,12|0|6|2,0:0|0:0|0:0|0:0,0:0:0:0:
283,60,216622,2,0,L|339:72,1,41.9999987182618,12|0,0:0|0:0,0:0:0:0:
406,177,216813,6,0,L|356:183,2,41.9999987182618,6|0|12,0:0|0:0|0:0,0:0:0:0:
471,250,217100,2,0,L|525:258,2,41.9999987182618,2|4|2,0:0|0:0|0:0,0:0:0:0:
320,275,217386,2,0,L|272:283,1,41.9999987182618,12|0,0:0|0:0,0:0:0:0:
123,310,217578,5,6,0:0:0:0:
105,271,217673,1,0,0:0:0:0:
107,228,217769,1,12,0:0:0:0:
131,193,217864,1,0,0:0:0:0:
152,156,217960,1,4,0:0:0:0:
144,114,218055,1,2,0:0:0:0:
123,77,218151,2,0,L|73:71,1,41.9999987182618,12|0,0:0|0:0,0:0:0:0:
244,158,218342,5,6,0:0:0:0:
284,169,218437,1,0,0:0:0:0:
325,160,218533,1,12,0:0:0:0:
355,130,218629,1,0,0:0:0:0:
365,89,218724,1,4,0:0:0:0:
362,46,218820,1,2,0:0:0:0:
388,13,218915,1,12,0:0:0:0:
429,3,219011,1,0,0:0:0:0:
475,26,219106,6,0,L|493:132,1,105.000004005432,6|12,0:0|0:0,0:0:0:0:
443,181,219393,2,0,L|426:298,1,105.000004005432,0|2,0:0|0:0,0:0:0:0:
393,349,219679,2,0,P|416:358|458:350,1,52.5000020027161,12|0,0:0|0:0,0:0:0:0:
354,286,219871,2,0,P|304:282|243:319,1,105.000004005432,6|12,0:0|0:0,0:0:0:0:
226,370,220157,2,0,P|189:334|189:283,1,105.000004005432,2|2,0:0|0:0,0:0:0:0:
195,212,220444,2,0,P|220:218|241:235,1,52.5000020027161,12|0,0:0|0:0,0:0:0:0:
130,239,220635,6,0,P|125:138|194:214,1,262.500010013581,6|2,0:0|0:0,0:0:0:0:
268,166,221208,2,0,P|261:141|239:108,1,52.5000020027161,12|0,0:0|0:0,0:0:0:0:
314,223,221399,2,0,B|355:244|403:227|403:227|429:246|429:246|459:178|539:195|578:240|549:338|470:319,1,367.500014019013,6|0,0:0|0:0,0:0:0:0:
323,323,222164,5,6,0:0:0:0:
302,275,222259,1,0,0:0:0:0:
314,223,222355,1,12,0:0:0:0:
351,186,222450,1,0,0:0:0:0:
316,145,222546,5,4,0:0:0:0:
264,151,222641,1,2,0:0:0:0:
211,159,222737,1,12,0:0:0:0:
159,168,222832,1,0,0:0:0:0:
122,130,222928,5,6,0:0:0:0:
85,167,223023,1,0,0:0:0:0:
47,203,223119,1,12,0:0:0:0:
12,242,223215,1,2,0:0:0:0:
28,291,223310,5,4,0:0:0:0:
80,287,223406,1,2,0:0:0:0:
125,312,223501,2,0,P|139:331|148:359,1,52.5000020027161,12|0,0:0|0:0,0:0:0:0:
235,224,223692,5,6,0:0:0:0:
264,151,223788,1,0,0:0:0:0:
293,78,223883,1,12,0:0:0:0:
321,4,223979,1,0,0:0:0:0:
371,64,224074,5,4,0:0:0:0:
296,90,224170,1,2,0:0:0:0:
222,64,224265,1,12,0:0:0:0:
171,2,224361,1,0,0:0:0:0:
138,74,224457,5,6,0:0:0:0:
187,134,224552,1,0,0:0:0:0:
157,207,224648,1,12,0:0:0:0:
79,219,224743,1,2,0:0:0:0:
105,293,224839,5,4,0:0:0:0:
180,314,224934,1,2,0:0:0:0:
257,328,225030,1,12,0:0:0:0:
333,346,225125,1,0,0:0:0:0:
391,285,225221,6,0,P|368:230|385:168,1,112,6|0,0:0|0:0,0:0:0:0:
504,142,225507,2,0,P|450:130|399:150,1,112
322,65,225794,2,0,P|303:85|288:131,1,56
226,247,225985,2,0,P|197:249|154:235,1,56,6|8,0:0|0:0,0:0:0:0:
32,144,226176,5,8,0:0:0:0:
35,104,226272,1,8,0:0:0:0:
40,65,226367,2,0,L|47:1,1,56,10|8,0:0|0:0,0:0:0:0:
130,89,226558,2,0,L|138:160,1,56,8|8,0:0|0:0,0:0:0:0:
316,290,226750,6,0,B|360:290|387:327|387:327|425:306|425:306|463:345|536:350|606:262|526:176|466:193|466:193|394:221|298:137|388:-8|543:85|473:210|414:234,1,761.250029039384,6|0,0:0|0:0,0:0:0:0:
312,207,228326,6,0,P|297:166|298:121,1,78.7500030040742,2|0,0:0|0:0,0:0:0:0:
346,42,228851,1,0,0:0:0:0:
260,35,229043,2,0,P|214:56|157:51,1,105.000004005432,2|0,0:0|0:0,0:0:0:0:
83,21,229616,1,0,0:0:0:0:
134,223,229807,6,0,L|221:237,2,78.7500030040742,2|0|0,0:0|0:0|0:0,0:0:0:0:
171,358,230571,2,0,B|293:336,1,105.000004005432,2|0,0:0|0:0,0:0:0:0:
461,94,231336,6,0,P|436:129|437:201,1,105.000004005432,2|0,0:0|0:0,0:0:0:0:
274,338,232100,2,0,P|241:298|233:247,1,105.000004005432,2|0,0:0|0:0,0:0:0:0:
79,289,232864,6,0,L|-9:318,2,78.7500030040742,2|0|0,0:0|0:0|0:0,0:0:0:0:
118,226,233533,1,0,0:0:0:0:
109,193,233629,2,0,B|94:143|126:142|104:87,1,105.000004005432,2|0,0:0|0:0,0:0:0:0:
332,244,234393,5,6,0:0:0:0:
346,216,234775,1,2,0:0:0:0:
445,198,235157,5,6,0:0:0:0:
403,134,235539,1,2,0:0:0:0:
485,20,235922,5,6,0:0:0:0:
373,0,236304,1,2,0:0:0:0:
389,202,236686,2,0,L|408:103,1,70,6|0,0:0|0:0,0:0:0:0:
121,63,237068,2,0,L|139:134,1,70,6|2,0:0|0:0,0:0:0:0:
160,205,237355,1,2,0:0:0:0:
194,194,237450,6,0,B|240:180|240:180|246:172|246:172|297:157,1,105,12|0,0:0|0:0,0:0:0:0:
344,95,237832,1,2,0:0:0:0:
493,112,238023,1,8,0:0:0:0:
263,88,238215,1,8,0:0:0:0:
422,56,238406,1,8,0:0:0:0:
473,313,238597,5,8,0:0:0:0:
503,24,238788,1,8,0:0:0:0:
143,136,238979,1,0,0:0:0:0:
165,134,239934,5,2,0:0:0:0:
189,131,240030,1,2,0:0:0:0:
213,129,240125,1,8,0:0:0:0:
48,27,240507,6,0,B|20:125|95:112|47:232,1,210,6|2,0:0|0:0,0:0:0:0:
156,311,241272,2,0,P|178:273|120:295,1,140,12|0,0:0|0:0,0:0:0:0:
319,335,242036,2,0,P|271:364|197:358,2,105,6|2|2,0:0|0:0|0:0,0:0:0:0:
294,145,242800,2,0,P|247:195|243:264,1,140,12|8,0:0|0:0,0:0:0:0:
479,253,243565,6,0,B|443:239|443:239|380:250|380:250|345:237,1,140,6|0,0:0|0:0,0:0:0:0:
242,263,244138,1,2,0:0:0:0:
388,165,244329,2,0,B|400:128|400:128|382:69|382:69|396:29,1,140,12|0,0:0|0:0,0:0:0:0:
152,87,245093,2,0,B|117:96|117:96|47:81,1,105,2|2,0:0|0:0,0:0:0:0:
268,140,245667,1,2,0:0:0:0:
271,164,245762,1,2,0:0:0:0:
274,188,245858,1,8,0:0:0:0:
136,308,246049,5,8,0:0:0:0:
165,290,246144,1,8,0:0:0:0:
199,285,246240,1,8,0:0:0:0:
232,294,246336,1,8,0:0:0:0:
257,317,246431,2,0,L|282:301,1,17.5,8|0,0:0|0:0,0:0:0:0:
268,350,246527,2,0,L|293:347,1,17.5,8|0,0:0|0:0,0:0:0:0:
192,360,246622,5,6,0:0:0:0:
320,24,247386,1,14,0:0:0:0:
256,192,247578,1,14,0:0:0:0:
422,82,247960,1,2,0:0:0:0:
430,115,248055,1,2,0:0:0:0:
474,143,248151,6,0,B|447:249|447:249|403:288,1,157.500006008148,14|0,0:0|0:0,0:0:0:0:
428,363,248533,2,0,B|266:310,1,157.500006008148,14|0,0:0|0:0,0:0:0:0:
198,354,248915,1,14,0:0:0:0:
176,218,249106,1,8,0:0:0:0:
170,183,249202,1,8,0:0:0:0:
163,148,249297,2,0,L|151:75,1,70,8|8,0:0|0:0,0:0:0:0:
260,175,249679,5,6,0:0:0:0:
299,191,249775,1,2,0:0:0:0:
328,159,249871,1,2,0:0:0:0:
307,122,249966,1,2,0:0:0:0:
266,134,250062,5,2,0:0:0:0:
306,142,250157,1,2,0:0:0:0:
347,132,250253,1,2,0:0:0:0:
387,143,250348,1,2,0:0:0:0:
426,157,250444,5,14,0:0:0:0:
389,177,250539,1,2,0:0:0:0:
384,219,250635,1,6,0:0:0:0:
413,246,250730,1,2,0:0:0:0:
450,263,250826,5,2,0:0:0:0:
476,295,250922,1,2,0:0:0:0:
480,336,251017,1,2,0:0:0:0:
463,374,251113,1,2,0:0:0:0:
401,324,251208,5,10,0:0:0:0:
67,194,251972,6,0,B|-3:232|-3:232|47:248,1,105
123,264,252355,2,0,L|22:239,1,105
171,146,252737,5,8,0:0:0:0:
180,142,252832,1,2,0:0:0:0:
189,137,252928,1,2,0:0:0:0:
216,124,253023,5,8,0:0:0:0:
225,128,253119,1,2,0:0:0:0:
234,132,253215,1,2,0:0:0:0:
263,148,253310,5,8,0:0:0:0:
272,143,253406,1,2,0:0:0:0:
291,112,253501,6,0,L|328:95,1,35,2|2,0:0|0:0,0:0:0:0:
391,148,253692,2,0,L|430:154,1,35,2|2,0:0|0:0,0:0:0:0:
458,232,253883,2,0,L|488:257,1,35,2|2,0:0|0:0,0:0:0:0:
475,345,254074,2,0,P|485:362|489:382,1,35,2|2,0:0|0:0,0:0:0:0:
297,318,254265,5,6,0:0:0:0:
257,304,254361,1,2,0:0:0:0:
215,311,254457,1,14,0:0:0:0:
188,343,254552,2,0,L|171:388,1,41.9999987182618,2|6,0:0|0:0,0:0:0:0:
81,260,254743,1,2,0:0:0:0:
58,224,254839,2,0,L|76:171,1,41.9999987182618,14|2,0:0|0:0,0:0:0:0:
122,72,255030,5,6,0:0:0:0:
154,97,255125,1,2,0:0:0:0:
195,104,255221,1,14,0:0:0:0:
234,91,255316,1,2,0:0:0:0:
226,49,255412,1,6,0:0:0:0:
213,88,255507,1,2,0:0:0:0:
196,126,255603,1,14,0:0:0:0:
180,165,255699,1,2,0:0:0:0:
191,205,255794,6,0,L|204:249,1,41.9999987182618,6|2,0:0|0:0,0:0:0:0:
299,336,255985,1,14,0:0:0:0:
326,304,256081,2,0,L|390:294,1,41.9999987182618,2|6,0:0|0:0,0:0:0:0:
469,196,256272,1,2,0:0:0:0:
479,155,256367,2,0,L|488:111,1,41.9999987182618,14|2,0:0|0:0,0:0:0:0:
356,17,256558,5,6,0:0:0:0:
314,10,256654,1,2,0:0:0:0:
272,19,256750,1,14,0:0:0:0:
245,51,256845,1,2,0:0:0:0:
234,91,256941,1,6,0:0:0:0:
212,126,257036,1,2,0:0:0:0:
177,150,257132,1,14,0:0:0:0:
135,157,257227,1,2,0:0:0:0:
94,145,257323,6,0,L|81:95,1,41.9999987182618,6|2,0:0|0:0,0:0:0:0:
33,223,257514,1,14,0:0:0:0:
27,264,257609,1,2,0:0:0:0:
19,305,257705,2,0,L|10:361,1,41.9999987182618,6|2,0:0|0:0,0:0:0:0:
178,312,257896,1,14,0:0:0:0:
219,304,257992,1,2,0:0:0:0:
267,293,258087,6,0,L|323:282,1,41.9999987182618,6|2,0:0|0:0,0:0:0:0:
486,342,258278,1,14,0:0:0:0:
438,323,258374,1,2,0:0:0:0:
404,285,258469,2,0,P|397:261|400:224,1,41.9999987182618,6|2,0:0|0:0,0:0:0:0:
497,92,258660,1,14,0:0:0:0:
458,59,258756,1,2,0:0:0:0:
409,47,258851,6,0,P|386:47|347:62,1,41.9999987182618,6|2,0:0|0:0,0:0:0:0:
221,135,259043,1,14,0:0:0:0:
179,163,259138,2,0,L|121:147,1,41.9999987182618,2|6,0:0|0:0,0:0:0:0:
16,70,259329,1,2,0:0:0:0:
26,119,259425,1,14,0:0:0:0:
37,167,259520,1,2,0:0:0:0:
0,254,259616,5,6,0:0:0:0:
47,213,259711,1,2,0:0:0:0:
110,216,259807,1,14,0:0:0:0:
152,262,259902,1,2,0:0:0:0:
148,326,259998,1,6,0:0:0:0:
101,367,260093,1,2,0:0:0:0:
114,305,260189,1,14,0:0:0:0:
126,241,260285,1,2,0:0:0:0:
139,177,260380,6,0,L|186:160,1,41.9999987182618,6|2,0:0|0:0,0:0:0:0:
338,198,260571,1,14,0:0:0:0:
344,239,260667,1,2,0:0:0:0:
349,280,260762,1,6,0:0:0:0:
354,321,260858,1,2,0:0:0:0:
357,362,260953,2,0,L|305:347,1,41.9999987182618,14|2,0:0|0:0,0:0:0:0:
177,283,261144,5,6,0:0:0:0:
136,296,261240,1,2,0:0:0:0:
95,308,261336,1,14,0:0:0:0:
55,320,261431,1,2,0:0:0:0:
14,331,261527,2,0,L|28:282,1,41.9999987182618,6|2,0:0|0:0,0:0:0:0:
201,202,261718,2,0,L|185:260,1,41.9999987182618,14|2,0:0|0:0,0:0:0:0:
118,79,261909,5,6,0:0:0:0:
158,48,262004,1,2,0:0:0:0:
209,42,262100,1,14,0:0:0:0:
259,48,262195,1,2,0:0:0:0:
300,77,262291,1,6,0:0:0:0:
328,118,262386,1,2,0:0:0:0:
376,132,262482,2,0,P|397:130|418:123,1,41.9999987182618,14|2,0:0|0:0,0:0:0:0:
512,233,262673,5,6,0:0:0:0:
503,282,262769,1,2,0:0:0:0:
495,331,262864,2,0,L|483:393,1,41.9999987182618,14|2,0:0|0:0,0:0:0:0:
336,338,263055,1,6,0:0:0:0:
298,319,263151,1,2,0:0:0:0:
256,311,263246,1,14,0:0:0:0:
214,318,263342,1,2,0:0:0:0:
179,341,263437,6,0,L|168:392,2,41.9999987182618,6|2|14,0:0|0:0|0:0,0:0:0:0:
399,273,263724,2,0,L|389:225,2,41.9999987182618,2|6|2,0:0|0:0|0:0,0:0:0:0:
244,243,264011,2,0,L|187:246,1,41.9999987182618,14|2,0:0|0:0,0:0:0:0:
12,138,264202,2,0,L|2:92,2,41.9999987182618,6|2|14,0:0|0:0|0:0,0:0:0:0:
252,201,264488,2,0,L|242:247,2,41.9999987182618,2|6|2,0:0|0:0|0:0,0:0:0:0:
153,109,264775,2,0,L|105:119,1,41.9999987182618,14|2,0:0|0:0,0:0:0:0:
218,0,264966,5,6,0:0:0:0:
280,9,265062,1,2,0:0:0:0:
341,18,265157,1,2,0:0:0:0:
402,1,265253,5,6,0:0:0:0:
366,52,265348,1,2,0:0:0:0:
378,114,265444,1,2,0:0:0:0:
437,94,265539,5,6,0:0:0:0:
455,154,265635,1,2,0:0:0:0:
507,187,265730,5,6,0:0:0:0:
493,246,265826,1,2,0:0:0:0:
476,307,265922,1,6,0:0:0:0:
498,365,266017,5,10,0:0:0:0:
504,297,266113,1,14,0:0:0:0:
441,273,266208,1,10,0:0:0:0:
397,324,266304,1,14,0:0:0:0:
428,384,266399,1,2,0:0:0:0:
436,316,266495,5,6,0:0:0:0:
417,278,266590,1,2,0:0:0:0:
396,240,266686,1,14,0:0:0:0:
378,202,266781,2,0,L|395:141,1,41.9999987182618,2|6,0:0|0:0,0:0:0:0:
272,80,266972,1,2,0:0:0:0:
260,120,267068,2,0,L|244:174,1,41.9999987182618,14|2,0:0|0:0,0:0:0:0:
172,309,267259,5,6,0:0:0:0:
133,291,267355,1,2,0:0:0:0:
91,291,267450,1,14,0:0:0:0:
51,306,267546,1,2,0:0:0:0:
79,336,267641,1,6,0:0:0:0:
68,295,267737,1,2,0:0:0:0:
60,253,267832,1,14,0:0:0:0:
50,211,267928,1,2,0:0:0:0:
39,170,268023,6,0,L|26:112,1,41.9999987182618,6|2,0:0|0:0,0:0:0:0:
164,40,268215,1,14,0:0:0:0:
198,63,268310,1,2,0:0:0:0:
231,88,268406,2,0,L|288:77,1,41.9999987182618,6|2,0:0|0:0,0:0:0:0:
407,0,268597,2,0,L|341:14,1,41.9999987182618,14|2,0:0|0:0,0:0:0:0:
363,156,268788,5,6,0:0:0:0:
378,194,268883,1,2,0:0:0:0:
411,219,268979,1,14,0:0:0:0:
452,219,269074,1,2,0:0:0:0:
481,248,269170,1,6,0:0:0:0:
439,248,269265,1,2,0:0:0:0:
399,262,269361,1,14,0:0:0:0:
370,293,269457,1,2,0:0:0:0:
359,333,269552,6,0,L|368:379,1,41.9999987182618,6|2,0:0|0:0,0:0:0:0:
226,302,269743,1,14,0:0:0:0:
187,284,269839,1,2,0:0:0:0:
148,266,269934,2,0,L|95:272,1,41.9999987182618,6|2,0:0|0:0,0:0:0:0:
56,121,270125,1,14,0:0:0:0:
98,123,270221,1,2,0:0:0:0:
147,126,270316,6,0,L|214:133,1,41.9999987182618,6|2,0:0|0:0,0:0:0:0:
363,59,270507,1,14,0:0:0:0:
327,94,270603,1,2,0:0:0:0:
314,143,270699,2,0,P|313:168|328:203,1,41.9999987182618,6|2,0:0|0:0,0:0:0:0:
477,281,270890,1,14,0:0:0:0:
427,274,270985,1,2,0:0:0:0:
378,287,271081,6,0,P|359:298|339:327,1,41.9999987182618,6|2,0:0|0:0,0:0:0:0:
192,365,271272,1,14,0:0:0:0:
141,363,271367,2,0,P|122:356|101:336,1,41.9999987182618,2|6,0:0|0:0,0:0:0:0:
9,223,271558,1,2,0:0:0:0:
17,173,271654,1,14,0:0:0:0:
25,123,271750,1,2,0:0:0:0:
0,38,271845,5,6,0:0:0:0:
46,81,271941,1,2,0:0:0:0:
106,95,272036,1,14,0:0:0:0:
163,68,272132,1,2,0:0:0:0:
212,29,272227,1,6,0:0:0:0:
274,21,272323,1,2,0:0:0:0:
326,55,272418,1,14,0:0:0:0:
338,117,272514,1,2,0:0:0:0:
309,173,272609,6,0,L|251:186,1,41.9999987182618,6|2,0:0|0:0,0:0:0:0:
100,228,272800,1,14,0:0:0:0:
122,263,272896,2,0,L|177:275,1,41.9999987182618,2|6,0:0|0:0,0:0:0:0:
304,306,273087,1,2,0:0:0:0:
326,341,273183,2,0,L|378:329,1,41.9999987182618,14|2,0:0|0:0,0:0:0:0:
476,209,273374,5,6,0:0:0:0:
435,199,273469,1,2,0:0:0:0:
393,189,273565,1,14,0:0:0:0:
351,181,273660,1,2,0:0:0:0:
309,173,273756,2,0,L|260:184,1,41.9999987182618,6|2,0:0|0:0,0:0:0:0:
326,341,273947,2,0,L|370:332,1,41.9999987182618,14|2,0:0|0:0,0:0:0:0:
456,122,274138,5,6,0:0:0:0:
451,71,274234,1,2,0:0:0:0:
423,29,274329,2,0,P|408:18|377:9,1,41.9999987182618,14|2,0:0|0:0,0:0:0:0:
204,48,274520,1,6,0:0:0:0:
163,76,274616,1,2,0:0:0:0:
114,86,274711,2,0,P|92:83|56:65,1,41.9999987182618,14|2,0:0|0:0,0:0:0:0:
0,203,274902,1,14,0:0:0:0:
10,252,274998,1,10,0:0:0:0:
20,300,275093,5,10,0:0:0:0:
41,263,275189,1,10,0:0:0:0:
77,242,275285,1,10,0:0:0:0:
117,251,275380,1,10,0:0:0:0:
146,280,275476,1,10,0:0:0:0:
148,321,275571,1,10,0:0:0:0:
131,359,275667,6,0,L|82:368,2,41.9999987182618,6|2|14,0:0|0:0|0:0,0:0:0:0:
381,359,275953,2,0,L|435:369,2,41.9999987182618,2|6|2,0:0|0:0|0:0,0:0:0:0:
256,144,276240,2,0,L|256:212,1,41.9999987182618,14|2,0:0|0:0,0:0:0:0:
77,242,276431,2,0,L|17:222,2,41.9999987182618,6|2|14,0:0|0:0|0:0,0:0:0:0:
256,313,276718,2,0,L|256:380,2,41.9999987182618,2|6|2,0:0|0:0|0:0,0:0:0:0:
436,242,277004,2,0,L|493:226,1,41.9999987182618,14|2,0:0|0:0,0:0:0:0:
387,93,277195,5,6,0:0:0:0:
345,85,277291,1,2,0:0:0:0:
303,81,277386,1,10,0:0:0:0:
285,42,277482,5,6,0:0:0:0:
267,80,277578,1,2,0:0:0:0:
231,102,277673,1,2,0:0:0:0:
194,80,277769,5,14,0:0:0:0:
184,120,277864,1,2,0:0:0:0:
145,136,277960,5,6,0:0:0:0:
128,174,278055,1,2,0:0:0:0:
92,195,278151,1,10,0:0:0:0:
61,166,278246,5,6,0:0:0:0:
102,175,278342,1,6,0:0:0:0:
143,177,278437,1,2,0:0:0:0:
175,204,278533,5,14,0:0:0:0:
216,211,278629,1,2,0:0:0:0:
256,221,278724,6,0,L|256:283,2,41.9999987182618,6|2|14,0:0|0:0|0:0,0:0:0:0:
124,69,279011,2,0,L|112:17,2,41.9999987182618,2|6|2,0:0|0:0|0:0,0:0:0:0:
373,69,279297,2,0,L|386:18,1,41.9999987182618,14|2,0:0|0:0,0:0:0:0:
256,221,279488,2,0,L|256:279,2,41.9999987182618,6|2|14,0:0|0:0|0:0,0:0:0:0:
387,180,279775,2,0,L|442:203,2,41.9999987182618,2|6|2,0:0|0:0|0:0,0:0:0:0:
125,180,280062,2,0,L|83:197,1,41.9999987182618,14|2,0:0|0:0,0:0:0:0:
72,339,280253,5,6,0:0:0:0:
112,348,280348,1,2,0:0:0:0:
153,356,280444,1,10,0:0:0:0:
174,320,280539,5,6,0:0:0:0:
215,314,280635,1,2,0:0:0:0:
256,312,280730,1,2,0:0:0:0:
278,276,280826,5,14,0:0:0:0:
316,259,280922,1,2,0:0:0:0:
329,219,281017,5,6,0:0:0:0:
356,250,281113,1,2,0:0:0:0:
384,280,281208,1,10,0:0:0:0:
387,322,281304,5,6,0:0:0:0:
414,353,281399,1,2,0:0:0:0:
442,383,281495,1,2,0:0:0:0:
480,367,281590,5,14,0:0:0:0:
490,326,281686,1,2,0:0:0:0:
498,285,281781,6,0,L|508:222,2,41.9999987182618,6|2|2,0:0|0:0|0:0,0:0:0:0:
376,163,282068,2,0,L|364:117,2,41.9999987182618,2|2|2,0:0|0:0|0:0,0:0:0:0:
256,263,282355,2,0,L|256:320,1,41.9999987182618,2|2,0:0|0:0,0:0:0:0:
147,122,282546,2,0,L|136:163,2,41.9999987182618,6|2|2,0:0|0:0|0:0,0:0:0:0:
391,95,282832,1,2,0:0:0:0:
401,136,282928,1,2,0:0:0:0:
411,177,283023,1,2,0:0:0:0:
455,244,283119,1,2,0:0:0:0:
477,208,283215,1,2,0:0:0:0:
376,245,283310,5,12,0:0:0:0:
179,238,284074,2,0,B|65:267|65:267|110:232,1,157.500006008148,6|0,0:0|0:0,0:0:0:0:
38,194,284457,2,0,B|108:284|108:284|90:219,1,157.500006008148,6|0,0:0|0:0,0:0:0:0:
123,165,284839,6,0,B|176:130|232:163|232:163|270:136|270:136|337:205|389:220|479:151|456:71|368:39|323:51|175:154|406:233|362:278|323:354|323:354|327:312|298:271,1,770
179,238,287132,5,8,0:0:0:0:
131,216,287227,1,8,0:0:0:0:
123,165,287323,1,8,0:0:0:0:
115,113,287418,1,8,0:0:0:0:
104,40,287514,6,0,L|154:15,1,52.5,6|0,0:0|0:0,0:0:0:0:
351,21,287896,5,6,0:0:0:0:
356,55,287992,1,2,0:0:0:0:
360,89,288087,1,6,0:0:0:0:
365,123,288183,1,2,0:0:0:0:
370,157,288278,1,14,0:0:0:0:
373,192,288374,1,2,0:0:0:0:
377,226,288469,5,6,0:0:0:0:
395,188,288565,1,2,0:0:0:0:
414,151,288660,1,14,0:0:0:0:
448,146,288756,5,2,0:0:0:0:
432,114,288851,1,6,0:0:0:0:
402,95,288947,1,2,0:0:0:0:
360,89,289043,5,14,0:0:0:0:
321,123,289138,1,2,0:0:0:0:
268,129,289234,1,6,0:0:0:0:
221,104,289329,1,2,0:0:0:0:
201,54,289425,5,14,0:0:0:0:
197,88,289520,1,2,0:0:0:0:
191,122,289616,1,6,0:0:0:0:
185,156,289711,1,2,0:0:0:0:
180,190,289807,1,14,0:0:0:0:
174,224,289902,1,2,0:0:0:0:
168,258,289998,5,6,0:0:0:0:
208,248,290093,1,2,0:0:0:0:
249,239,290189,1,14,0:0:0:0:
265,208,290285,5,2,0:0:0:0:
293,227,290380,1,6,0:0:0:0:
310,257,290476,1,2,0:0:0:0:
312,291,290571,5,14,0:0:0:0:
328,241,290667,1,2,0:0:0:0:
368,207,290762,1,6,0:0:0:0:
419,196,290858,1,2,0:0:0:0:
469,210,290953,5,14,0:0:0:0:
436,224,291049,1,2,0:0:0:0:
401,228,291144,1,6,0:0:0:0:
366,223,291240,1,2,0:0:0:0:
334,203,291336,1,14,0:0:0:0:
300,194,291431,1,2,0:0:0:0:
265,208,291527,5,6,0:0:0:0:
248,246,291622,1,2,0:0:0:0:
231,284,291718,1,14,0:0:0:0:
196,284,291813,5,2,0:0:0:0:
183,251,291909,1,6,0:0:0:0:
172,217,292004,1,2,0:0:0:0:
162,183,292100,5,14,0:0:0:0:
122,217,292195,1,2,0:0:0:0:
69,210,292291,1,6,0:0:0:0:
39,167,292386,1,2,0:0:0:0:
102,154,292482,6,0,L|83:352,1,140,6|0,0:0|0:0,0:0:0:0:
2,347,292769,2,0,L|146:302,1,140,6|0,0:0|0:0,0:0:0:0:
172,217,293055,2,0,P|239:292|344:257,1,210,6|0,0:0|0:0,0:0:0:0:
393,191,293437,2,0,P|327:171|266:201,2,140,12|2|2,0:0|0:0|0:0,0:0:0:0:
495,297,294011,5,6,0:0:0:0:
489,262,294106,1,2,0:0:0:0:
483,227,294202,1,14,0:0:0:0:
477,192,294297,1,2,0:0:0:0:
472,157,294393,1,6,0:0:0:0:
465,122,294488,1,2,0:0:0:0:
459,87,294584,5,14,0:0:0:0:
438,123,294679,1,2,0:0:0:0:
415,158,294775,1,6,0:0:0:0:
381,168,294871,5,2,0:0:0:0:
360,139,294966,1,14,0:0:0:0:
328,123,295062,1,2,0:0:0:0:
293,122,295157,5,6,0:0:0:0:
262,165,295253,1,2,0:0:0:0:
213,185,295348,1,14,0:0:0:0:
162,170,295444,1,2,0:0:0:0:
132,126,295539,5,6,0:0:0:0:
157,149,295635,1,2,0:0:0:0:
163,183,295730,1,14,0:0:0:0:
152,216,295826,1,2,0:0:0:0:
133,246,295922,1,6,0:0:0:0:
132,280,296017,1,2,0:0:0:0:
146,312,296113,5,14,0:0:0:0:
176,284,296208,1,2,0:0:0:0:
217,276,296304,1,6,0:0:0:0:
233,306,296399,5,2,0:0:0:0:
263,323,296495,1,14,0:0:0:0:
297,327,296590,1,2,0:0:0:0:
329,312,296686,5,6,0:0:0:0:
335,260,296781,1,2,0:0:0:0:
340,207,296877,1,14,0:0:0:0:
344,154,296972,1,2,0:0:0:0:
348,101,297068,5,6,0:0:0:0:
371,126,297164,1,2,0:0:0:0:
396,150,297259,1,14,0:0:0:0:
421,173,297355,1,2,0:0:0:0:
443,199,297450,1,6,0:0:0:0:
467,224,297546,1,2,0:0:0:0:
492,247,297641,5,14,0:0:0:0:
453,263,297737,1,2,0:0:0:0:
415,280,297832,1,6,0:0:0:0:
407,314,297928,5,2,0:0:0:0:
439,326,298023,1,14,0:0:0:0:
471,338,298119,1,2,0:0:0:0:
503,352,298215,5,6,0:0:0:0:
451,359,298310,1,2,0:0:0:0:
399,368,298406,1,10,0:0:0:0:
347,376,298501,1,2,0:0:0:0:
285,381,298597,6,0,P|235:355|211:265,1,140,6|2,0:0|0:0,0:0:0:0:
176,165,298883,2,0,P|124:119|56:121,1,140,10|2,0:0|0:0,0:0:0:0:
287,189,299170,2,0,P|383:156|430:51,1,210,6|2,0:0|0:0,0:0:0:0:
287,189,299552,6,0,P|289:229|313:276,1,70,12|0,0:0|0:0,0:0:0:0:
471,225,299743,2,0,P|435:206|382:204,1,70,6|0,0:0|0:0,0:0:0:0:
351,370,299934,2,0,P|384:348|413:303,1,70,6|0,0:0|0:0,0:0:0:0:
300,62,300125,6,0,B|197:40|197:40|242:72,1,140,6|0,0:0|0:0,0:0:0:0:
383,175,300412,2,0,B|453:96|453:96|403:119,1,140,6|2,0:0|0:0,0:0:0:0:
240,191,300699,2,0,B|282:334|282:334|277:236,1,210,0|2,0:0|0:0,0:0:0:0:
120,129,301081,6,0,P|83:133|38:158,1,70,6|0,0:0|0:0,0:0:0:0:
193,285,301272,2,0,P|208:250|208:199,1,70,6|0,0:0|0:0,0:0:0:0:
15,271,301463,2,0,P|36:301|81:327,1,70,6|0,0:0|0:0,0:0:0:0:
398,244,301654,6,0,P|423:237|392:279,1,140,6|2,0:0|0:0,0:0:0:0:
291,99,301941,2,0,P|266:92|297:134,1,140,6|0,0:0|0:0,0:0:0:0:
153,49,302227,2,0,P|136:143|202:245,1,210,6|0,0:0|0:0,0:0:0:0:
479,183,302609,6,0,P|446:168|412:163,1,70,6|0,0:0|0:0,0:0:0:0:
455,358,302800,2,0,P|483:336|504:308,1,70,6|0,0:0|0:0,0:0:0:0:
319,256,302992,2,0,P|322:290|335:322,1,70,6|0,0:0|0:0,0:0:0:0:
416,266,303183,5,6,0:0:0:0:
256,192,303278,12,0,304138,0:0:0:0:
166,254,304329,6,0,L|208:243,1,35
149,213,304425,2,0,L|105:226,1,35
149,171,304520,2,0,L|108:166,1,35,2|2,0:0|0:0,0:0:0:0:
167,131,304616,2,0,L|209:138,1,35,2|2,0:0|0:0,0:0:0:0:
101,90,304711,5,14,0:0:0:0:
102,300,304902,2,0,B|131:360|266:355|272:283|272:283|217:317|230:381,1,315.000012016297,14|0,0:0|0:0,0:0:0:0:
