osu file format v14

[General]
AudioFilename: audio.mp3
AudioLeadIn: 0
PreviewTime: 93520
Countdown: 0
SampleSet: None
StackLeniency: 0.2
Mode: 1
LetterboxInBreaks: 0
WidescreenStoryboard: 0

[Editor]
Bookmarks: 1986,14215,26444,38673,50903,63132,75361,93705,118164,130393,136508,154852,179310,203769,228228,254215,284788,287845
DistanceSpacing: 0.8
BeatDivisor: 12
GridSize: 32
TimelineZoom: 2.6

[Metadata]
Title:LOVELESS WORLD
TitleUnicode:LOVELESS WORLD
Artist:u's
ArtistUnicode:μ's
Creator:Sakurauchi Riko
Version:Green's Ruthless Repudiation
Source:ラブライブ! School idol project
Tags:anime japanese rock Love Live! muse Kosaka Honoka 高坂穂乃果 Nitta Emi 新田恵海 Minami Kotori 南ことり Uchida Aya 内田彩 Sonoda Umi 園田海未 Suzuko Mimori 三森すずこ Hoshizora Rin 星空凛 Iida Riho 飯田里穂 Nishikino Maki 西木野真姫 Pile Koizumi Hanayo 小泉花陽 Kubo Yurika 久保ユリカ Ayase Eli 絢瀬絵里 Nanjou Yoshino 南條愛乃 Tojo Nozomi 東條希 Kusuda Aina 楠田亜衣奈 Yazawa Nico 矢澤にこ Tokui Sora 徳井青空 marathon Phyloukz grünschale greenshell
BeatmapID:2344222
BeatmapSetID:1033500

[Difficulty]
HPDrainRate:6
CircleSize:3
OverallDifficulty:6
ApproachRate:10
SliderMultiplier:1.4
SliderTickRate:1

[Events]
//Background and Video events
0,0,"7895a847-e546-4ab0-caa7-f51c41940334_waifu2x_art_noise1_scale_tta_1.jpg",0,70
//Break Periods
//Storyboard Layer 0 (Background)
//Storyboard Layer 1 (Fail)
//Storyboard Layer 2 (Pass)
//Storyboard Layer 3 (Foreground)
//Storyboard Layer 4 (Overlay)
//Storyboard Sound Samples

[TimingPoints]
714,382.165605095541,4,1,0,10,1,0
714,-200,4,1,0,10,0,0
12752,-200,4,1,0,20,0,0
12847,-200,4,1,0,22,0,0
12943,-200,4,1,0,24,0,0
13038,-200,4,1,0,26,0,0
13134,-200,4,1,0,28,0,0
13230,-200,4,1,0,30,0,0
13325,-200,4,1,0,32,0,0
13421,-200,4,1,0,34,0,0
13516,-200,4,1,0,36,0,0
13612,-200,4,1,0,38,0,0
13707,-200,4,1,0,40,0,0
13803,-200,4,1,0,42,0,0
13898,-200,4,1,0,44,0,0
14280,382.165605095541,4,1,0,55,1,0
14280,-125,4,1,0,55,0,0
25649,-123.456790123457,4,1,0,65,0,0
25744,-121.951219512195,4,1,0,65,0,0
25936,-119.047619047619,4,1,0,65,0,0
26031,-117.647058823529,4,1,0,65,0,0
26127,-116.279069767442,4,1,0,65,0,0
26222,-114.942528735632,4,1,0,65,0,0
26318,-113.636363636364,4,1,0,65,0,0
26413,-112.359550561798,4,1,0,65,0,0
26509,-111.111111111111,4,1,0,75,0,0
31764,-109.89010989011,4,1,0,75,0,0
31859,-108.695652173913,4,1,0,75,0,0
32050,-106.382978723404,4,1,0,75,0,0
32146,-105.263157894737,4,1,0,75,0,0
32241,-104.166666666667,4,1,0,75,0,0
32337,-103.092783505155,4,1,0,75,0,0
32432,-102.040816326531,4,1,0,75,0,0
32623,-100,4,1,0,75,0,0
38834,-100,4,1,0,50,0,0
39789,-83.3333333333333,4,1,0,80,0,0
40362,-100,4,1,0,50,0,0
41318,-83.3333333333333,4,1,0,80,0,0
41891,-100,4,1,0,50,0,0
42846,-83.3333333333333,4,1,0,80,0,0
44948,-100,4,1,0,50,0,0
45904,-83.3333333333333,4,1,0,80,0,0
46477,-100,4,1,0,50,0,0
47432,-83.3333333333333,4,1,0,80,0,0
48006,-100,4,1,0,50,0,0
48865,-86.9565217391304,4,1,0,50,0,0
48961,-85.1063829787234,4,1,0,50,0,0
49057,-83.3333333333333,4,1,0,80,0,0
49725,-86.9565217391304,4,1,0,80,0,0
50012,-90.9090909090909,4,1,0,80,0,0
50203,-95.2380952380952,4,1,0,70,0,0
50299,-94.3396226415094,4,1,0,72,0,0
50394,-93.4579439252336,4,1,0,74,0,0
50490,-92.5925925925926,4,1,0,76,0,0
50585,-91.743119266055,4,1,0,78,0,0
50681,-90.9090909090909,4,1,0,80,0,0
50776,-90.0900900900901,4,1,0,82,0,0
50872,-89.2857142857143,4,1,0,84,0,0
50967,-88.4955752212389,4,1,0,90,0,1
56604,-87.719298245614,4,1,0,90,0,1
56700,-86.9565217391304,4,1,0,90,0,1
56795,-86.2068965517241,4,1,0,90,0,1
56891,-85.4700854700855,4,1,0,90,0,1
56987,-84.7457627118644,4,1,0,90,0,1
57082,-84.0336134453781,4,1,0,90,0,1
63197,-100,4,1,0,80,0,0
86987,-98.7654320987654,4,1,0,80,0,0
87082,-97.5609756097561,4,1,0,80,0,0
87178,-96.3855421686747,4,1,0,80,0,0
87273,-95.2380952380952,4,1,0,80,0,0
87464,-93.0232558139535,4,1,0,80,0,0
87560,-91.9540229885057,4,1,0,80,0,0
87655,-90.9090909090909,4,1,0,80,0,0
88611,-100,4,1,0,80,0,0
90999,-98.7654320987654,4,1,0,80,0,0
91095,-97.5609756097561,4,1,0,80,0,0
91190,-96.3855421686747,4,1,0,80,0,0
91286,-95.2380952380951,4,1,0,80,0,0
91381,-94.1176470588235,4,1,0,80,0,0
91477,-93.0232558139535,4,1,0,80,0,0
91572,-91.9540229885057,4,1,0,80,0,0
91668,-90.9090909090909,4,1,0,80,0,0
91764,-89.8876404494382,4,1,0,80,0,0
91859,-88.8888888888889,4,1,0,80,0,0
91955,-87.9120879120879,4,1,0,80,0,0
92050,-86.9565217391304,4,1,0,80,0,0
92146,-86.0215053763441,4,1,0,80,0,0
92241,-85.1063829787234,4,1,0,80,0,0
92815,-76.9230769230769,4,1,0,80,0,0
92910,-74.0740740740741,4,1,0,80,0,0
93006,-71.4285714285714,4,1,0,90,0,0
93770,-83.3333333333333,4,1,0,90,0,1
104757,-90.9090909090909,4,1,0,90,0,1
105044,-100,4,1,0,90,0,1
105235,-76.9230769230769,4,1,0,90,0,1
105522,-71.4285714285714,4,1,0,90,0,1
105808,-76.9230769230769,4,1,0,90,0,1
105999,-83.3333333333333,4,1,0,90,0,1
118229,-83.3333333333333,4,1,0,80,0,0
118324,-111.111111111111,4,1,0,65,0,0
122337,-109.58904109589,4,1,0,65,0,0
122432,-108.108108108108,4,1,0,65,0,0
122623,-105.263157894737,4,1,0,65,0,0
122719,-103.896103896104,4,1,0,65,0,0
122815,-102.564102564103,4,1,0,65,0,0
123865,-103.896103896104,4,1,0,65,0,0
123961,-105.263157894737,4,1,0,63,0,0
124057,-106.666666666667,4,1,0,61,0,0
124152,-108.108108108108,4,1,0,59,0,0
124248,-109.58904109589,4,1,0,57,0,0
124343,-111.111111111111,4,1,0,55,0,0
127401,-100,4,1,0,65,0,0
130458,-90.9090909090909,4,1,0,80,0,0
135808,-91.743119266055,4,1,0,80,0,0
135904,-92.5925925925926,4,1,0,80,0,0
135999,-93.4579439252336,4,1,0,80,0,0
136095,-94.3396226415094,4,1,0,80,0,0
136190,-95.2380952380952,4,1,0,80,0,0
136286,-96.1538461538461,4,1,0,80,0,0
136381,-97.0873786407767,4,1,0,80,0,0
136572,-100,4,1,0,80,0,0
148133,-98.7654320987654,4,1,0,80,0,0
148229,-97.5609756097561,4,1,0,80,0,0
148324,-96.3855421686747,4,1,0,80,0,0
148420,-95.2380952380952,4,1,0,80,0,0
148515,-94.1176470588235,4,1,0,80,0,0
148611,-93.0232558139535,4,1,0,80,0,0
148706,-91.9540229885057,4,1,0,80,0,0
148802,-90.9090909090909,4,1,0,80,0,0
149757,-100,4,1,0,80,0,0
151955,-98.7654320987654,4,1,0,80,0,0
152050,-97.5609756097561,4,1,0,80,0,0
152146,-96.3855421686747,4,1,0,80,0,0
152241,-95.2380952380951,4,1,0,80,0,0
152337,-94.1176470588235,4,1,0,80,0,0
152432,-93.0232558139535,4,1,0,80,0,0
152528,-91.9540229885057,4,1,0,80,0,0
152623,-90.9090909090909,4,1,0,80,0,0
152719,-89.8876404494382,4,1,0,80,0,0
152815,-88.8888888888889,4,1,0,80,0,0
152910,-87.9120879120879,4,1,0,80,0,0
153006,-86.9565217391304,4,1,0,80,0,0
153101,-86.0215053763441,4,1,0,80,0,0
153197,-85.1063829787234,4,1,0,80,0,0
153292,-83.3333333333333,4,1,0,80,0,0
153388,-82.4742268041237,4,1,0,80,0,0
153483,-100,4,1,0,70,0,0
154534,-71.4285714285714,4,1,0,90,0,0
154916,-83.3333333333333,4,1,0,90,0,1
165904,-90.9090909090909,4,1,0,90,0,1
166190,-100,4,1,0,90,0,1
166381,-76.9230769230769,4,1,0,90,0,1
166668,-71.4285714285714,4,1,0,90,0,1
166955,-76.9230769230769,4,1,0,90,0,1
167146,-83.3333333333333,4,1,0,90,0,1
179375,-100,4,1,0,80,0,0
197719,-95.2380952380952,4,1,0,80,0,0
198483,-90.9090909090909,4,1,0,80,0,0
199248,-86.9565217391304,4,1,0,80,0,0
200012,-83.3333333333333,4,1,0,80,0,0
200776,-80,4,1,0,80,0,0
203069,-90.9090909090909,4,1,0,80,0,0
203165,-89.8876404494382,4,1,0,80,0,0
203260,-88.8888888888889,4,1,0,80,0,0
203356,-87.9120879120879,4,1,0,80,0,0
203451,-86.9565217391304,4,1,0,80,0,0
203547,-86.0215053763441,4,1,0,80,0,0
203643,-85.1063829787234,4,1,0,80,0,0
203738,-84.2105263157895,4,1,0,80,0,0
203834,-83.3333333333333,4,1,0,90,0,1
228292,-111.111111111111,4,1,0,65,0,0
234407,-100,4,1,0,80,0,0
238037,-98.0392156862745,4,1,0,80,0,0
238229,-96.1538461538461,4,1,0,80,0,0
238420,-94.3396226415094,4,1,0,80,0,0
238611,-92.5925925925926,4,1,0,80,0,0
238802,-90.9090909090909,4,1,0,80,0,0
238993,-89.2857142857143,4,1,0,80,0,0
239948,-100,4,1,0,70,0,0
240522,-111.111111111111,4,1,0,70,0,0
245776,-109.58904109589,4,1,0,70,0,0
245872,-108.108108108108,4,1,0,70,0,0
246063,-105.263157894737,4,1,0,70,0,0
246158,-103.896103896104,4,1,0,71,0,0
246254,-102.564102564103,4,1,0,72,0,0
246350,-101.26582278481,4,1,0,73,0,0
246445,-100,4,1,0,74,0,0
246541,-98.7654320987654,4,1,0,75,0,0
246636,-97.5609756097561,4,1,0,80,0,0
252846,-96.3855421686747,4,1,0,80,0,0
252942,-95.2380952380952,4,1,0,80,0,0
253037,-94.1176470588235,4,1,0,80,0,0
253133,-93.0232558139535,4,1,0,80,0,0
253229,-91.9540229885057,4,1,0,80,0,0
253324,-90.9090909090909,4,1,0,80,0,0
253420,-89.8876404494382,4,1,0,80,0,0
253515,-88.8888888888889,4,1,0,80,0,0
253579,-87.9120879120879,4,1,0,80,0,0
253643,-86.9565217391304,4,1,0,80,0,0
253706,-86.0215053763441,4,1,0,80,0,0
253770,-85.1063829787234,4,1,0,80,0,0
253834,-84.2105263157895,4,1,0,80,0,0
253897,-83.3333333333333,4,1,0,80,0,0
253993,-82.4742268041237,4,1,0,80,0,0
254088,-81.6326530612245,4,1,0,80,0,0
254184,-80.8080808080808,4,1,0,80,0,0
254279,382.165605095541,4,1,0,90,1,1
254279,-80,4,1,0,90,0,1
265266,-86.9565217391304,4,1,0,90,0,1
265552,-95.2380952380952,4,1,0,90,0,1
265743,-74.0740740740741,4,1,0,90,0,1
266030,-68.9655172413793,4,1,0,90,0,1
266317,-74.0740740740741,4,1,0,90,0,1
266508,-80,4,1,0,90,0,1
284852,-80,4,1,0,90,0,0
285043,-81.6326530612245,4,1,0,80,0,0
285234,-83.3333333333333,4,1,0,80,0,0
285425,-85.1063829787234,4,1,0,80,0,0
285616,-86.9565217391304,4,1,0,80,0,0
285807,-88.8888888888889,4,1,0,80,0,0
285998,-90.9090909090909,4,1,0,80,0,0
286189,-93.0232558139535,4,1,0,80,0,0
286380,-95.2380952380952,4,1,0,80,0,0
286571,-97.5609756097561,4,1,0,80,0,0
286763,-100,4,1,0,80,0,0
286954,-102.564102564103,4,1,0,80,0,0
287145,-105.263157894737,4,1,0,80,0,0
287240,-106.666666666667,4,1,0,80,0,0
287336,-108.108108108108,4,1,0,80,0,0
287431,-109.58904109589,4,1,0,80,0,0
287527,-111.111111111111,4,1,0,80,0,0
287909,382.165605095541,4,1,0,90,1,1
287909,-79.9999999999999,4,1,0,90,0,1
305106,-79.9999999999999,4,1,0,60,0,0
305870,-79.9999999999999,4,1,0,55,0,0
306635,-79.9999999999999,4,1,0,50,0,0
307399,-79.9999999999999,4,1,0,45,0,0
308163,-79.9999999999999,4,1,0,40,0,0
308928,-79.9999999999999,4,1,0,35,0,0
309692,-79.9999999999999,4,1,0,30,0,0
310456,-79.9999999999999,4,1,0,25,0,0
311221,-79.9999999999999,4,1,0,20,0,0
311985,-79.9999999999999,4,1,0,15,0,0
312526,-79.9999999999999,4,1,0,10,0,0

[Colours]
Combo1 : 242,190,142
Combo2 : 167,23,3

[HitObjects]
256,192,714,12,0,10602,0:0:0:0:
256,192,12513,12,0,13898,0:0:0:0:
224,224,14280,5,4,0:0:0:0:
224,160,15044,1,0,0:0:0:0:
224,160,15808,1,0,0:0:0:0:
224,160,16095,1,0,0:0:0:0:
288,160,16381,1,8,0:0:0:0:
224,160,16572,1,0,0:0:0:0:
288,160,16955,1,8,0:0:0:0:
224,160,17337,1,0,0:0:0:0:
224,160,17719,1,0,0:0:0:0:
288,160,18101,1,8,0:0:0:0:
288,160,18483,1,8,0:0:0:0:
224,160,18865,1,0,0:0:0:0:
288,160,19152,1,8,0:0:0:0:
288,160,19439,1,8,0:0:0:0:
288,160,19534,1,8,0:0:0:0:
224,160,19630,1,0,0:0:0:0:
224,160,20394,1,0,0:0:0:0:
224,160,20681,1,0,0:0:0:0:
288,160,20967,1,8,0:0:0:0:
224,160,21158,1,0,0:0:0:0:
288,160,21541,1,8,0:0:0:0:
224,160,21923,1,0,0:0:0:0:
288,160,22496,1,8,0:0:0:0:
288,160,22592,1,8,0:0:0:0:
224,160,22687,1,0,0:0:0:0:
224,160,23069,1,0,0:0:0:0:
288,160,23451,1,8,0:0:0:0:
224,160,23738,1,0,0:0:0:0:
288,160,24025,1,8,0:0:0:0:
288,160,24216,1,8,0:0:0:0:
224,160,24502,1,0,0:0:0:0:
288,160,24789,1,8,0:0:0:0:
224,160,24980,1,0,0:0:0:0:
224,160,25267,1,0,0:0:0:0:
224,160,25553,1,0,0:0:0:0:
224,160,25649,1,0,0:0:0:0:
288,160,25744,1,8,0:0:0:0:
288,160,25936,1,8,0:0:0:0:
288,160,26031,1,8,0:0:0:0:
224,160,26127,1,0,0:0:0:0:
224,160,26222,1,0,0:0:0:0:
288,160,26318,1,8,0:0:0:0:
288,160,26413,1,8,0:0:0:0:
224,224,26509,1,4,0:0:0:0:
224,160,26891,1,0,0:0:0:0:
224,160,27273,1,0,0:0:0:0:
224,160,27655,1,0,0:0:0:0:
288,160,27846,1,8,0:0:0:0:
224,224,28037,1,4,0:0:0:0:
224,160,28420,1,0,0:0:0:0:
224,160,28802,1,0,0:0:0:0:
288,160,28993,1,8,0:0:0:0:
224,160,29184,1,0,0:0:0:0:
288,160,29375,1,8,0:0:0:0:
224,224,29566,1,4,0:0:0:0:
224,160,29948,1,0,0:0:0:0:
288,224,30330,1,12,0:0:0:0:
224,160,30713,1,0,0:0:0:0:
224,224,31095,1,4,0:0:0:0:
288,160,31477,1,8,0:0:0:0:
224,160,31668,1,0,0:0:0:0:
224,160,31764,1,0,0:0:0:0:
288,160,31859,1,8,0:0:0:0:
288,160,32050,1,8,0:0:0:0:
288,160,32146,1,8,0:0:0:0:
224,160,32241,1,0,0:0:0:0:
224,160,32337,1,0,0:0:0:0:
224,160,32432,1,0,0:0:0:0:
224,224,32623,1,4,0:0:0:0:
224,160,33006,1,0,0:0:0:0:
288,224,33388,1,12,0:0:0:0:
224,160,33770,1,0,0:0:0:0:
224,224,34152,1,4,0:0:0:0:
288,224,34534,1,12,0:0:0:0:
224,224,34916,1,4,0:0:0:0:
288,160,35108,1,8,0:0:0:0:
288,160,35203,1,8,0:0:0:0:
224,160,35299,1,0,0:0:0:0:
224,160,35394,1,0,0:0:0:0:
288,160,35490,1,8,0:0:0:0:
288,224,35681,1,12,0:0:0:0:
224,160,35872,1,0,0:0:0:0:
288,160,35967,1,8,0:0:0:0:
224,160,36063,1,0,0:0:0:0:
224,160,36158,1,0,0:0:0:0:
288,160,36254,1,8,0:0:0:0:
224,160,36350,1,0,0:0:0:0:
288,160,36445,1,8,0:0:0:0:
288,160,36541,1,8,0:0:0:0:
288,160,36636,1,8,0:0:0:0:
224,160,36732,1,0,0:0:0:0:
224,160,36827,1,0,0:0:0:0:
224,160,36923,1,0,0:0:0:0:
288,160,37018,1,8,0:0:0:0:
224,224,37209,1,4,0:0:0:0:
288,224,37974,1,12,0:0:0:0:
288,224,38356,1,12,0:0:0:0:
224,224,38738,1,4,0:0:0:0:
288,224,39885,1,12,0:0:0:0:
224,224,40076,1,4,0:0:0:0:
288,224,40267,1,12,0:0:0:0:
224,224,41413,1,4,0:0:0:0:
288,224,41604,1,12,0:0:0:0:
224,224,41795,1,4,0:0:0:0:
288,224,42942,1,12,0:0:0:0:
224,224,43133,1,4,0:0:0:0:
288,224,43324,1,12,0:0:0:0:
288,224,43611,1,12,0:0:0:0:
224,224,43897,1,4,0:0:0:0:
288,224,44279,1,12,0:0:0:0:
224,224,44471,1,4,0:0:0:0:
288,224,44662,1,12,0:0:0:0:
224,224,44853,1,4,0:0:0:0:
224,160,45235,1,0,0:0:0:0:
224,160,45617,1,0,0:0:0:0:
288,224,45999,1,12,0:0:0:0:
224,224,46190,1,4,0:0:0:0:
288,224,46381,1,12,0:0:0:0:
224,160,46764,1,0,0:0:0:0:
224,160,47146,1,0,0:0:0:0:
224,224,47528,1,4,0:0:0:0:
288,224,47719,1,12,0:0:0:0:
224,224,47910,1,4,0:0:0:0:
224,160,48292,1,0,0:0:0:0:
224,160,48674,1,0,0:0:0:0:
224,160,48865,1,0,0:0:0:0:
224,160,48961,1,0,0:0:0:0:
288,224,49057,1,12,0:0:0:0:
224,224,49248,1,4,0:0:0:0:
288,224,49439,1,12,0:0:0:0:
288,224,49725,1,12,0:0:0:0:
288,224,50012,1,12,0:0:0:0:
224,160,50203,1,0,0:0:0:0:
224,160,50299,1,0,0:0:0:0:
288,160,50394,1,8,0:0:0:0:
288,160,50490,1,8,0:0:0:0:
224,160,50585,1,0,0:0:0:0:
288,160,50681,1,8,0:0:0:0:
288,160,50776,1,8,0:0:0:0:
288,160,50872,1,8,0:0:0:0:
224,224,50967,1,4,0:0:0:0:
288,160,51158,1,8,0:0:0:0:
224,160,51254,1,0,0:0:0:0:
224,160,51350,1,0,0:0:0:0:
224,160,51445,1,0,0:0:0:0:
288,160,51541,1,8,0:0:0:0:
288,160,51636,1,8,0:0:0:0:
224,160,51732,1,0,0:0:0:0:
224,160,51827,1,0,0:0:0:0:
288,160,51923,1,8,0:0:0:0:
224,160,52018,1,0,0:0:0:0:
288,160,52114,1,8,0:0:0:0:
224,160,52209,1,0,0:0:0:0:
288,160,52305,1,8,0:0:0:0:
288,160,52401,1,8,0:0:0:0:
224,160,52496,1,0,0:0:0:0:
224,160,52592,1,0,0:0:0:0:
288,160,52687,1,8,0:0:0:0:
288,160,52783,1,8,0:0:0:0:
224,160,52878,1,0,0:0:0:0:
224,160,52974,1,0,0:0:0:0:
288,160,53069,1,8,0:0:0:0:
224,160,53165,1,0,0:0:0:0:
224,160,53260,1,0,0:0:0:0:
224,160,53356,1,0,0:0:0:0:
288,160,53451,1,8,0:0:0:0:
288,160,53547,1,8,0:0:0:0:
224,160,53643,1,0,0:0:0:0:
224,160,53738,1,0,0:0:0:0:
288,160,53834,1,8,0:0:0:0:
224,224,54025,1,4,0:0:0:0:
288,160,54216,1,8,0:0:0:0:
224,160,54311,1,0,0:0:0:0:
224,160,54407,1,0,0:0:0:0:
224,160,54502,1,0,0:0:0:0:
288,160,54598,1,8,0:0:0:0:
288,160,54694,1,8,0:0:0:0:
224,160,54789,1,0,0:0:0:0:
224,160,54885,1,0,0:0:0:0:
224,160,54980,1,0,0:0:0:0:
288,160,55076,1,8,0:0:0:0:
224,160,55171,1,0,0:0:0:0:
224,160,55267,1,0,0:0:0:0:
288,160,55362,1,8,0:0:0:0:
224,224,55553,1,4,0:0:0:0:
288,160,55744,1,8,0:0:0:0:
224,160,55840,1,0,0:0:0:0:
224,160,55936,1,0,0:0:0:0:
224,160,56031,1,0,0:0:0:0:
288,160,56127,1,8,0:0:0:0:
288,224,56318,1,12,0:0:0:0:
224,160,56509,1,0,0:0:0:0:
288,160,56604,1,8,0:0:0:0:
224,160,56700,1,0,0:0:0:0:
224,160,56795,1,0,0:0:0:0:
224,160,56891,1,0,0:0:0:0:
224,160,56987,1,0,0:0:0:0:
288,224,57082,1,12,0:0:0:0:
224,224,57369,1,4,0:0:0:0:
288,224,57655,1,12,0:0:0:0:
224,160,58037,1,0,0:0:0:0:
288,160,58229,1,8,0:0:0:0:
224,160,58420,1,0,0:0:0:0:
224,160,58515,1,0,0:0:0:0:
224,160,58611,1,0,0:0:0:0:
288,160,58802,1,8,0:0:0:0:
224,160,58993,1,0,0:0:0:0:
224,160,59279,1,0,0:0:0:0:
288,160,59375,1,8,0:0:0:0:
288,160,59566,1,8,0:0:0:0:
288,160,59662,1,8,0:0:0:0:
224,160,59757,1,0,0:0:0:0:
224,160,59853,1,0,0:0:0:0:
224,160,59948,1,0,0:0:0:0:
288,160,60139,1,8,0:0:0:0:
224,160,60267,1,0,0:0:0:0:
288,160,60394,1,8,0:0:0:0:
288,160,60522,1,8,0:0:0:0:
224,160,60649,1,0,0:0:0:0:
288,160,60776,1,8,0:0:0:0:
288,160,60904,1,8,0:0:0:0:
224,160,61031,1,0,0:0:0:0:
224,160,61095,1,0,0:0:0:0:
224,160,61158,1,0,0:0:0:0:
224,160,61222,1,0,0:0:0:0:
288,160,61286,1,8,0:0:0:0:
224,160,61541,1,0,0:0:0:0:
224,160,61604,1,0,0:0:0:0:
288,224,61668,1,12,0:0:0:0:
224,224,61955,1,4,0:0:0:0:
288,224,62241,1,12,0:0:0:0:
224,224,62432,1,4,0:0:0:0:
288,160,62623,1,8,0:0:0:0:
288,160,62719,1,8,0:0:0:0:
224,160,62815,1,0,0:0:0:0:
288,224,63197,1,12,0:0:0:0:
224,160,63388,1,0,0:0:0:0:
224,160,63483,1,0,0:0:0:0:
224,160,63579,1,0,0:0:0:0:
288,160,63770,1,8,0:0:0:0:
224,160,63961,1,0,0:0:0:0:
224,160,64057,1,0,0:0:0:0:
224,160,64152,1,0,0:0:0:0:
224,160,64248,1,0,0:0:0:0:
288,160,64343,1,8,0:0:0:0:
224,160,64534,1,0,0:0:0:0:
224,160,64630,1,0,0:0:0:0:
288,160,64725,1,8,0:0:0:0:
224,160,64916,1,0,0:0:0:0:
224,160,65012,1,0,0:0:0:0:
224,160,65108,1,0,0:0:0:0:
288,160,65299,1,8,0:0:0:0:
224,160,65490,1,0,0:0:0:0:
224,160,65585,1,0,0:0:0:0:
224,160,65681,1,0,0:0:0:0:
224,160,65776,1,0,0:0:0:0:
288,160,65872,1,8,0:0:0:0:
224,160,66063,1,0,0:0:0:0:
224,160,66158,1,0,0:0:0:0:
288,160,66254,1,8,0:0:0:0:
224,160,66445,1,0,0:0:0:0:
288,160,66541,1,8,0:0:0:0:
224,160,66636,1,0,0:0:0:0:
224,160,66732,1,0,0:0:0:0:
288,160,66827,1,8,0:0:0:0:
288,160,67018,1,8,0:0:0:0:
288,160,67114,1,8,0:0:0:0:
224,160,67209,1,0,0:0:0:0:
288,160,67305,1,8,0:0:0:0:
288,160,67401,1,8,0:0:0:0:
288,160,67592,1,8,0:0:0:0:
224,160,67783,1,0,0:0:0:0:
224,160,67878,1,0,0:0:0:0:
224,160,67974,1,0,0:0:0:0:
288,160,68069,1,8,0:0:0:0:
224,160,68165,1,0,0:0:0:0:
224,160,68260,1,0,0:0:0:0:
288,160,68356,1,8,0:0:0:0:
224,160,68547,1,0,0:0:0:0:
224,160,68643,1,0,0:0:0:0:
288,160,68738,1,8,0:0:0:0:
224,160,68834,1,0,0:0:0:0:
288,160,68929,1,8,0:0:0:0:
224,160,69025,1,0,0:0:0:0:
288,160,69120,1,8,0:0:0:0:
288,160,69184,1,8,0:0:0:0:
288,160,69248,1,8,0:0:0:0:
224,160,69311,1,0,0:0:0:0:
288,160,69502,1,8,0:0:0:0:
288,160,69598,1,8,0:0:0:0:
224,160,69694,1,0,0:0:0:0:
288,160,69885,1,8,0:0:0:0:
224,160,70076,1,0,0:0:0:0:
224,160,70171,1,0,0:0:0:0:
224,160,70267,1,0,0:0:0:0:
224,160,70362,1,0,0:0:0:0:
288,160,70458,1,8,0:0:0:0:
224,160,70649,1,0,0:0:0:0:
224,160,70744,1,0,0:0:0:0:
288,160,70840,1,8,0:0:0:0:
288,160,71031,1,8,0:0:0:0:
288,160,71127,1,8,0:0:0:0:
224,160,71222,1,0,0:0:0:0:
288,160,71413,1,8,0:0:0:0:
224,160,71604,1,0,0:0:0:0:
224,160,71700,1,0,0:0:0:0:
224,160,71795,1,0,0:0:0:0:
224,160,71891,1,0,0:0:0:0:
288,160,71987,1,8,0:0:0:0:
224,160,72178,1,0,0:0:0:0:
224,160,72273,1,0,0:0:0:0:
288,160,72369,1,8,0:0:0:0:
224,160,72560,1,0,0:0:0:0:
288,160,72655,1,8,0:0:0:0:
288,160,72751,1,8,0:0:0:0:
224,160,72846,1,0,0:0:0:0:
288,160,72942,1,8,0:0:0:0:
288,160,73133,1,8,0:0:0:0:
224,160,73229,1,0,0:0:0:0:
224,160,73324,1,0,0:0:0:0:
288,160,73420,1,8,0:0:0:0:
224,160,73515,1,0,0:0:0:0:
288,160,73706,1,8,0:0:0:0:
288,160,73897,1,8,0:0:0:0:
288,160,73993,1,8,0:0:0:0:
288,160,74088,1,8,0:0:0:0:
224,160,74184,1,0,0:0:0:0:
224,160,74279,1,0,0:0:0:0:
224,160,74375,1,0,0:0:0:0:
288,160,74471,1,8,0:0:0:0:
224,224,74662,1,4,0:0:0:0:
288,160,74853,1,8,0:0:0:0:
288,160,74948,1,8,0:0:0:0:
224,160,75044,1,0,0:0:0:0:
224,160,75139,1,0,0:0:0:0:
224,160,75235,1,0,0:0:0:0:
224,224,75426,1,4,0:0:0:0:
288,160,75617,1,8,0:0:0:0:
224,160,75713,1,0,0:0:0:0:
224,160,75904,1,0,0:0:0:0:
288,160,75999,1,8,0:0:0:0:
224,160,76190,1,0,0:0:0:0:
288,160,76381,1,8,0:0:0:0:
224,160,76477,1,0,0:0:0:0:
288,160,76572,1,8,0:0:0:0:
224,160,76668,1,0,0:0:0:0:
224,160,76764,1,0,0:0:0:0:
224,160,76955,1,0,0:0:0:0:
288,160,77146,1,8,0:0:0:0:
224,160,77337,1,0,0:0:0:0:
224,160,77432,1,0,0:0:0:0:
288,160,77528,1,8,0:0:0:0:
224,160,77719,1,0,0:0:0:0:
288,160,77910,1,8,0:0:0:0:
224,160,78006,1,0,0:0:0:0:
288,160,78101,1,8,0:0:0:0:
288,160,78197,1,8,0:0:0:0:
224,160,78292,1,0,0:0:0:0:
288,224,78483,1,12,0:0:0:0:
288,160,78674,1,8,0:0:0:0:
224,160,78865,1,0,0:0:0:0:
224,160,78961,1,0,0:0:0:0:
288,160,79057,1,8,0:0:0:0:
224,160,79248,1,0,0:0:0:0:
288,160,79439,1,8,0:0:0:0:
288,160,79534,1,8,0:0:0:0:
224,160,79630,1,0,0:0:0:0:
224,160,79725,1,0,0:0:0:0:
288,160,79821,1,8,0:0:0:0:
224,160,80012,1,0,0:0:0:0:
288,160,80203,1,8,0:0:0:0:
224,160,80394,1,0,0:0:0:0:
224,160,80490,1,0,0:0:0:0:
288,160,80585,1,8,0:0:0:0:
224,224,80776,1,4,0:0:0:0:
288,160,80967,1,8,0:0:0:0:
288,160,81063,1,8,0:0:0:0:
224,224,81158,1,4,0:0:0:0:
288,160,81350,1,8,0:0:0:0:
224,224,81541,1,4,0:0:0:0:
288,160,81732,1,8,0:0:0:0:
224,160,81827,1,0,0:0:0:0:
224,160,82018,1,0,0:0:0:0:
288,160,82114,1,8,0:0:0:0:
288,160,82305,1,8,0:0:0:0:
288,160,82496,1,8,0:0:0:0:
224,160,82592,1,0,0:0:0:0:
224,160,82783,1,0,0:0:0:0:
288,160,82878,1,8,0:0:0:0:
224,160,83069,1,0,0:0:0:0:
288,160,83260,1,8,0:0:0:0:
224,160,83451,1,0,0:0:0:0:
224,160,83547,1,0,0:0:0:0:
288,160,83643,1,8,0:0:0:0:
224,160,83834,1,0,0:0:0:0:
288,160,84025,1,8,0:0:0:0:
288,160,84120,1,8,0:0:0:0:
224,160,84216,1,0,0:0:0:0:
224,160,84311,1,0,0:0:0:0:
288,160,84407,1,8,0:0:0:0:
224,224,84598,1,4,0:0:0:0:
288,160,84789,1,8,0:0:0:0:
224,160,84885,1,0,0:0:0:0:
224,160,85076,1,0,0:0:0:0:
288,160,85171,1,8,0:0:0:0:
224,160,85362,1,0,0:0:0:0:
288,160,85553,1,8,0:0:0:0:
224,160,85649,1,0,0:0:0:0:
224,160,85840,1,0,0:0:0:0:
288,160,85936,1,8,0:0:0:0:
288,160,86127,1,8,0:0:0:0:
224,160,86318,1,0,0:0:0:0:
288,160,86413,1,8,0:0:0:0:
224,160,86509,1,0,0:0:0:0:
224,160,86604,1,0,0:0:0:0:
288,160,86700,1,8,0:0:0:0:
224,160,86891,1,0,0:0:0:0:
224,160,86987,1,0,0:0:0:0:
224,160,87082,1,0,0:0:0:0:
224,160,87178,1,0,0:0:0:0:
288,224,87273,1,12,0:0:0:0:
288,160,87464,1,8,0:0:0:0:
288,160,87560,1,8,0:0:0:0:
224,224,87655,1,4,0:0:0:0:
224,224,87942,1,4,0:0:0:0:
288,224,88229,1,12,0:0:0:0:
224,160,88611,1,0,0:0:0:0:
288,160,88802,1,8,0:0:0:0:
224,160,88993,1,0,0:0:0:0:
224,160,89088,1,0,0:0:0:0:
224,160,89184,1,0,0:0:0:0:
288,160,89375,1,8,0:0:0:0:
288,160,89471,1,8,0:0:0:0:
224,160,89566,1,0,0:0:0:0:
288,160,89662,1,8,0:0:0:0:
224,160,89757,1,0,0:0:0:0:
224,160,89948,1,0,0:0:0:0:
288,160,90044,1,8,0:0:0:0:
288,160,90139,1,8,0:0:0:0:
224,160,90235,1,0,0:0:0:0:
224,160,90330,1,0,0:0:0:0:
224,160,90426,1,0,0:0:0:0:
288,160,90522,1,8,0:0:0:0:
224,160,90713,1,0,0:0:0:0:
288,160,90904,1,8,0:0:0:0:
224,160,90999,1,0,0:0:0:0:
224,160,91095,1,0,0:0:0:0:
224,160,91190,1,0,0:0:0:0:
288,160,91286,1,8,0:0:0:0:
288,160,91381,1,8,0:0:0:0:
224,160,91477,1,0,0:0:0:0:
288,160,91572,1,8,0:0:0:0:
288,160,91668,1,8,0:0:0:0:
288,160,91764,1,8,0:0:0:0:
224,160,91859,1,0,0:0:0:0:
224,160,91955,1,0,0:0:0:0:
288,160,92050,1,8,0:0:0:0:
288,160,92146,1,8,0:0:0:0:
224,224,92241,1,4,0:0:0:0:
224,160,92815,1,0,0:0:0:0:
224,160,92910,1,0,0:0:0:0:
288,224,93006,1,12,0:0:0:0:
288,224,93388,1,12,0:0:0:0:
224,224,93770,1,4,0:0:0:0:
224,160,93961,1,0,0:0:0:0:
288,160,94057,1,8,0:0:0:0:
224,160,94152,1,0,0:0:0:0:
224,160,94248,1,0,0:0:0:0:
288,160,94343,1,8,0:0:0:0:
224,160,94534,1,0,0:0:0:0:
224,160,94630,1,0,0:0:0:0:
224,160,94725,1,0,0:0:0:0:
224,160,94821,1,0,0:0:0:0:
288,160,94916,1,8,0:0:0:0:
224,160,95108,1,0,0:0:0:0:
288,160,95299,1,8,0:0:0:0:
288,160,95394,1,8,0:0:0:0:
224,160,95490,1,0,0:0:0:0:
288,160,95585,1,8,0:0:0:0:
288,160,95681,1,8,0:0:0:0:
224,160,95776,1,0,0:0:0:0:
288,160,95872,1,8,0:0:0:0:
224,160,96063,1,0,0:0:0:0:
224,160,96158,1,0,0:0:0:0:
224,160,96254,1,0,0:0:0:0:
224,160,96350,1,0,0:0:0:0:
288,160,96445,1,8,0:0:0:0:
224,160,96636,1,0,0:0:0:0:
224,160,96827,1,0,0:0:0:0:
224,160,96923,1,0,0:0:0:0:
224,160,97018,1,0,0:0:0:0:
224,160,97114,1,0,0:0:0:0:
288,160,97209,1,8,0:0:0:0:
224,160,97305,1,0,0:0:0:0:
224,160,97401,1,0,0:0:0:0:
224,160,97496,1,0,0:0:0:0:
288,160,97592,1,8,0:0:0:0:
288,160,97687,1,8,0:0:0:0:
224,160,97783,1,0,0:0:0:0:
224,160,97878,1,0,0:0:0:0:
288,160,97974,1,8,0:0:0:0:
288,160,98069,1,8,0:0:0:0:
288,160,98165,1,8,0:0:0:0:
288,160,98260,1,8,0:0:0:0:
224,224,98356,1,4,0:0:0:0:
288,224,98643,1,12,0:0:0:0:
288,160,98929,1,8,0:0:0:0:
288,160,99025,1,8,0:0:0:0:
224,224,99120,1,4,0:0:0:0:
224,160,99311,1,0,0:0:0:0:
224,160,99407,1,0,0:0:0:0:
288,160,99502,1,8,0:0:0:0:
288,160,99598,1,8,0:0:0:0:
224,160,99694,1,0,0:0:0:0:
288,160,99789,1,8,0:0:0:0:
224,224,99885,1,4,0:0:0:0:
224,160,100076,1,0,0:0:0:0:
288,160,100171,1,8,0:0:0:0:
224,160,100267,1,0,0:0:0:0:
224,160,100362,1,0,0:0:0:0:
288,160,100458,1,8,0:0:0:0:
224,160,100649,1,0,0:0:0:0:
224,160,100744,1,0,0:0:0:0:
224,160,100840,1,0,0:0:0:0:
224,160,100936,1,0,0:0:0:0:
288,160,101031,1,8,0:0:0:0:
224,160,101222,1,0,0:0:0:0:
288,160,101413,1,8,0:0:0:0:
288,160,101509,1,8,0:0:0:0:
288,160,101604,1,8,0:0:0:0:
288,160,101700,1,8,0:0:0:0:
224,160,101795,1,0,0:0:0:0:
224,160,101891,1,0,0:0:0:0:
288,160,101987,1,8,0:0:0:0:
288,160,102082,1,8,0:0:0:0:
224,160,102178,1,0,0:0:0:0:
224,160,102273,1,0,0:0:0:0:
224,160,102369,1,0,0:0:0:0:
224,160,102464,1,0,0:0:0:0:
288,160,102560,1,8,0:0:0:0:
224,160,102751,1,0,0:0:0:0:
224,160,102942,1,0,0:0:0:0:
288,160,103037,1,8,0:0:0:0:
224,160,103133,1,0,0:0:0:0:
288,160,103229,1,8,0:0:0:0:
224,160,103324,1,0,0:0:0:0:
224,160,103420,1,0,0:0:0:0:
288,160,103515,1,8,0:0:0:0:
224,160,103611,1,0,0:0:0:0:
288,160,103706,1,8,0:0:0:0:
288,160,103802,1,8,0:0:0:0:
224,160,103897,1,0,0:0:0:0:
288,160,103993,1,8,0:0:0:0:
224,160,104088,1,0,0:0:0:0:
224,160,104184,1,0,0:0:0:0:
288,160,104279,1,8,0:0:0:0:
288,160,104375,1,8,0:0:0:0:
224,224,104471,1,4,0:0:0:0:
224,224,104757,1,4,0:0:0:0:
224,224,105044,1,4,0:0:0:0:
288,224,105235,1,12,0:0:0:0:
288,224,105522,1,12,0:0:0:0:
288,224,105808,1,12,0:0:0:0:
224,224,105999,1,4,0:0:0:0:
224,160,106190,1,0,0:0:0:0:
288,160,106286,1,8,0:0:0:0:
224,160,106381,1,0,0:0:0:0:
224,160,106477,1,0,0:0:0:0:
288,160,106572,1,8,0:0:0:0:
224,160,106764,1,0,0:0:0:0:
224,160,106859,1,0,0:0:0:0:
288,160,106955,1,8,0:0:0:0:
224,160,107050,1,0,0:0:0:0:
288,160,107146,1,8,0:0:0:0:
224,160,107337,1,0,0:0:0:0:
288,160,107528,1,8,0:0:0:0:
288,160,107623,1,8,0:0:0:0:
224,160,107719,1,0,0:0:0:0:
288,160,107815,1,8,0:0:0:0:
288,160,107910,1,8,0:0:0:0:
224,160,108006,1,0,0:0:0:0:
288,160,108101,1,8,0:0:0:0:
224,160,108292,1,0,0:0:0:0:
224,160,108388,1,0,0:0:0:0:
288,160,108483,1,8,0:0:0:0:
224,160,108579,1,0,0:0:0:0:
288,160,108674,1,8,0:0:0:0:
224,160,108865,1,0,0:0:0:0:
224,160,109057,1,0,0:0:0:0:
224,160,109152,1,0,0:0:0:0:
224,160,109248,1,0,0:0:0:0:
224,160,109343,1,0,0:0:0:0:
288,160,109439,1,8,0:0:0:0:
224,160,109534,1,0,0:0:0:0:
224,160,109630,1,0,0:0:0:0:
224,160,109725,1,0,0:0:0:0:
288,160,109821,1,8,0:0:0:0:
288,160,109916,1,8,0:0:0:0:
288,160,110012,1,8,0:0:0:0:
288,160,110108,1,8,0:0:0:0:
224,160,110203,1,0,0:0:0:0:
288,160,110299,1,8,0:0:0:0:
288,160,110394,1,8,0:0:0:0:
288,160,110490,1,8,0:0:0:0:
224,224,110585,1,4,0:0:0:0:
288,224,110872,1,12,0:0:0:0:
288,160,111158,1,8,0:0:0:0:
288,160,111254,1,8,0:0:0:0:
224,224,111350,1,4,0:0:0:0:
288,160,111541,1,8,0:0:0:0:
288,160,111636,1,8,0:0:0:0:
224,160,111732,1,0,0:0:0:0:
224,160,111827,1,0,0:0:0:0:
288,160,111923,1,8,0:0:0:0:
288,160,112018,1,8,0:0:0:0:
224,224,112114,1,4,0:0:0:0:
224,160,112305,1,0,0:0:0:0:
288,160,112401,1,8,0:0:0:0:
224,160,112496,1,0,0:0:0:0:
224,160,112592,1,0,0:0:0:0:
288,160,112687,1,8,0:0:0:0:
224,160,112878,1,0,0:0:0:0:
224,160,112974,1,0,0:0:0:0:
288,160,113069,1,8,0:0:0:0:
224,160,113165,1,0,0:0:0:0:
288,160,113260,1,8,0:0:0:0:
224,160,113451,1,0,0:0:0:0:
288,160,113643,1,8,0:0:0:0:
288,160,113738,1,8,0:0:0:0:
288,160,113834,1,8,0:0:0:0:
288,160,113929,1,8,0:0:0:0:
224,160,114025,1,0,0:0:0:0:
224,160,114120,1,0,0:0:0:0:
288,160,114216,1,8,0:0:0:0:
288,160,114311,1,8,0:0:0:0:
224,160,114407,1,0,0:0:0:0:
224,160,114502,1,0,0:0:0:0:
224,160,114598,1,0,0:0:0:0:
224,160,114694,1,0,0:0:0:0:
288,160,114789,1,8,0:0:0:0:
224,160,114980,1,0,0:0:0:0:
224,160,115171,1,0,0:0:0:0:
224,160,115267,1,0,0:0:0:0:
224,160,115362,1,0,0:0:0:0:
288,160,115458,1,8,0:0:0:0:
288,160,115553,1,8,0:0:0:0:
288,160,115649,1,8,0:0:0:0:
224,160,115744,1,0,0:0:0:0:
224,160,115840,1,0,0:0:0:0:
288,160,115936,1,8,0:0:0:0:
288,160,116031,1,8,0:0:0:0:
288,160,116127,1,8,0:0:0:0:
224,160,116222,1,0,0:0:0:0:
224,160,116318,1,0,0:0:0:0:
224,160,116413,1,0,0:0:0:0:
288,160,116509,1,8,0:0:0:0:
224,224,116700,1,4,0:0:0:0:
224,224,117464,1,4,0:0:0:0:
224,224,117846,1,4,0:0:0:0:
288,224,118229,1,12,0:0:0:0:
224,160,118611,1,0,0:0:0:0:
288,160,119375,1,8,0:0:0:0:
224,160,120139,1,0,0:0:0:0:
288,160,120904,1,8,0:0:0:0:
224,160,121668,1,0,0:0:0:0:
224,160,122241,1,0,0:0:0:0:
224,160,122337,1,0,0:0:0:0:
288,160,122432,1,8,0:0:0:0:
224,160,122623,1,0,0:0:0:0:
224,160,122719,1,0,0:0:0:0:
288,224,122815,1,12,0:0:0:0:
288,224,123101,1,12,0:0:0:0:
224,224,123388,1,4,0:0:0:0:
288,224,123579,1,12,0:0:0:0:
224,160,123770,1,0,0:0:0:0:
224,160,123865,1,0,0:0:0:0:
288,160,123961,1,8,0:0:0:0:
224,160,124152,1,0,0:0:0:0:
224,160,124248,1,0,0:0:0:0:
224,160,124343,1,0,0:0:0:0:
288,160,125872,1,8,0:0:0:0:
224,160,127018,1,0,0:0:0:0:
288,224,127401,1,12,0:0:0:0:
288,160,127783,1,8,0:0:0:0:
224,160,127974,1,0,0:0:0:0:
288,160,128165,1,8,0:0:0:0:
224,160,128547,1,0,0:0:0:0:
288,160,128643,1,8,0:0:0:0:
288,160,128738,1,8,0:0:0:0:
288,160,128834,1,8,0:0:0:0:
224,160,128929,1,0,0:0:0:0:
224,160,129216,1,0,0:0:0:0:
224,160,129502,1,0,0:0:0:0:
288,160,129694,1,8,0:0:0:0:
288,160,129885,1,8,0:0:0:0:
288,160,129980,1,8,0:0:0:0:
288,160,130076,1,8,0:0:0:0:
288,160,130458,1,8,0:0:0:0:
288,160,130553,1,8,0:0:0:0:
224,160,130649,1,0,0:0:0:0:
224,160,130744,1,0,0:0:0:0:
288,160,130840,1,8,0:0:0:0:
224,160,130936,1,0,0:0:0:0:
288,160,131031,1,8,0:0:0:0:
288,160,131127,1,8,0:0:0:0:
288,160,131222,1,8,0:0:0:0:
224,160,131318,1,0,0:0:0:0:
224,160,131413,1,0,0:0:0:0:
224,160,131509,1,0,0:0:0:0:
288,160,131604,1,8,0:0:0:0:
224,160,131700,1,0,0:0:0:0:
288,160,131795,1,8,0:0:0:0:
224,160,131891,1,0,0:0:0:0:
288,160,131987,1,8,0:0:0:0:
288,160,132082,1,8,0:0:0:0:
224,160,132178,1,0,0:0:0:0:
224,160,132273,1,0,0:0:0:0:
288,160,132369,1,8,0:0:0:0:
224,160,132464,1,0,0:0:0:0:
288,160,132560,1,8,0:0:0:0:
288,160,132655,1,8,0:0:0:0:
224,160,132751,1,0,0:0:0:0:
224,160,132846,1,0,0:0:0:0:
288,160,132942,1,8,0:0:0:0:
224,160,133037,1,0,0:0:0:0:
288,160,133133,1,8,0:0:0:0:
288,160,133229,1,8,0:0:0:0:
224,160,133324,1,0,0:0:0:0:
288,160,133420,1,8,0:0:0:0:
224,160,133515,1,0,0:0:0:0:
224,160,133611,1,0,0:0:0:0:
288,160,133706,1,8,0:0:0:0:
224,160,133802,1,0,0:0:0:0:
224,160,133897,1,0,0:0:0:0:
224,160,133993,1,0,0:0:0:0:
288,160,134088,1,8,0:0:0:0:
288,160,134184,1,8,0:0:0:0:
224,160,134279,1,0,0:0:0:0:
224,160,134375,1,0,0:0:0:0:
288,160,134471,1,8,0:0:0:0:
224,160,134566,1,0,0:0:0:0:
288,160,134662,1,8,0:0:0:0:
288,160,134757,1,8,0:0:0:0:
288,160,134853,1,8,0:0:0:0:
288,160,134948,1,8,0:0:0:0:
224,224,135044,1,4,0:0:0:0:
288,224,135330,1,12,0:0:0:0:
224,224,135617,1,4,0:0:0:0:
288,160,135808,1,8,0:0:0:0:
224,160,135904,1,0,0:0:0:0:
288,160,135999,1,8,0:0:0:0:
288,160,136095,1,8,0:0:0:0:
224,160,136190,1,0,0:0:0:0:
224,160,136286,1,0,0:0:0:0:
288,160,136381,1,8,0:0:0:0:
224,160,136572,1,0,0:0:0:0:
224,160,137146,1,0,0:0:0:0:
288,160,137337,1,8,0:0:0:0:
224,160,137719,1,0,0:0:0:0:
224,160,138101,1,0,0:0:0:0:
224,160,138674,1,0,0:0:0:0:
288,160,138865,1,8,0:0:0:0:
224,160,139057,1,0,0:0:0:0:
224,160,139152,1,0,0:0:0:0:
288,160,139248,1,8,0:0:0:0:
224,160,139343,1,0,0:0:0:0:
224,160,139439,1,0,0:0:0:0:
224,224,139630,1,4,0:0:0:0:
224,160,140203,1,0,0:0:0:0:
288,160,140394,1,8,0:0:0:0:
224,160,140776,1,0,0:0:0:0:
224,160,141158,1,0,0:0:0:0:
224,160,141445,1,0,0:0:0:0:
224,160,141732,1,0,0:0:0:0:
288,160,141923,1,8,0:0:0:0:
288,160,142114,1,8,0:0:0:0:
224,160,142209,1,0,0:0:0:0:
224,160,142305,1,0,0:0:0:0:
288,160,142496,1,8,0:0:0:0:
288,160,142592,1,8,0:0:0:0:
224,160,142687,1,0,0:0:0:0:
288,160,143260,1,8,0:0:0:0:
288,160,143451,1,8,0:0:0:0:
224,160,143834,1,0,0:0:0:0:
224,160,144216,1,0,0:0:0:0:
224,160,144789,1,0,0:0:0:0:
288,160,144980,1,8,0:0:0:0:
288,160,145171,1,8,0:0:0:0:
288,160,145267,1,8,0:0:0:0:
224,160,145362,1,0,0:0:0:0:
224,160,145458,1,0,0:0:0:0:
224,160,145553,1,0,0:0:0:0:
224,224,145744,1,4,0:0:0:0:
224,160,146318,1,0,0:0:0:0:
288,160,146509,1,8,0:0:0:0:
224,160,146891,1,0,0:0:0:0:
288,160,147273,1,8,0:0:0:0:
224,160,147560,1,0,0:0:0:0:
224,160,147846,1,0,0:0:0:0:
288,160,148037,1,8,0:0:0:0:
288,160,148229,1,8,0:0:0:0:
224,160,148324,1,0,0:0:0:0:
224,160,148420,1,0,0:0:0:0:
224,160,148515,1,0,0:0:0:0:
288,160,148611,1,8,0:0:0:0:
288,160,148706,1,8,0:0:0:0:
224,224,148802,1,4,0:0:0:0:
224,224,149088,1,4,0:0:0:0:
288,224,149375,1,12,0:0:0:0:
224,160,149757,1,0,0:0:0:0:
224,160,149853,1,0,0:0:0:0:
288,160,149948,1,8,0:0:0:0:
224,160,150044,1,0,0:0:0:0:
224,160,150139,1,0,0:0:0:0:
288,224,150330,1,12,0:0:0:0:
224,160,150522,1,0,0:0:0:0:
224,160,150617,1,0,0:0:0:0:
224,160,150713,1,0,0:0:0:0:
288,160,150808,1,8,0:0:0:0:
224,160,150904,1,0,0:0:0:0:
288,160,151095,1,8,0:0:0:0:
288,160,151190,1,8,0:0:0:0:
224,160,151286,1,0,0:0:0:0:
288,160,151381,1,8,0:0:0:0:
224,160,151477,1,0,0:0:0:0:
224,160,151572,1,0,0:0:0:0:
224,160,151668,1,0,0:0:0:0:
288,160,151859,1,8,0:0:0:0:
288,160,151955,1,8,0:0:0:0:
288,160,152050,1,8,0:0:0:0:
224,160,152146,1,0,0:0:0:0:
224,160,152241,1,0,0:0:0:0:
224,160,152337,1,0,0:0:0:0:
288,160,152432,1,8,0:0:0:0:
224,160,152528,1,0,0:0:0:0:
288,160,152623,1,8,0:0:0:0:
288,160,152719,1,8,0:0:0:0:
224,160,152815,1,0,0:0:0:0:
288,160,152910,1,8,0:0:0:0:
224,160,153006,1,0,0:0:0:0:
224,160,153101,1,0,0:0:0:0:
224,160,153197,1,0,0:0:0:0:
224,160,153292,1,0,0:0:0:0:
288,224,153388,1,12,0:0:0:0:
288,160,153674,1,8,0:0:0:0:
224,160,153770,1,0,0:0:0:0:
288,160,153961,1,8,0:0:0:0:
224,160,154152,1,0,0:0:0:0:
224,160,154248,1,0,0:0:0:0:
288,160,154343,1,8,0:0:0:0:
224,224,154534,1,4,0:0:0:0:
224,224,154916,1,4,0:0:0:0:
224,160,155108,1,0,0:0:0:0:
288,160,155203,1,8,0:0:0:0:
224,160,155299,1,0,0:0:0:0:
224,160,155394,1,0,0:0:0:0:
288,160,155490,1,8,0:0:0:0:
288,160,155585,1,8,0:0:0:0:
224,160,155681,1,0,0:0:0:0:
224,160,155776,1,0,0:0:0:0:
224,160,155872,1,0,0:0:0:0:
224,160,155967,1,0,0:0:0:0:
288,160,156063,1,8,0:0:0:0:
224,160,156254,1,0,0:0:0:0:
288,160,156445,1,8,0:0:0:0:
224,160,156541,1,0,0:0:0:0:
288,160,156636,1,8,0:0:0:0:
288,160,156732,1,8,0:0:0:0:
224,160,156827,1,0,0:0:0:0:
288,160,156923,1,8,0:0:0:0:
224,160,157018,1,0,0:0:0:0:
224,160,157114,1,0,0:0:0:0:
288,160,157209,1,8,0:0:0:0:
224,160,157305,1,0,0:0:0:0:
224,160,157401,1,0,0:0:0:0:
224,160,157496,1,0,0:0:0:0:
288,160,157592,1,8,0:0:0:0:
224,160,157783,1,0,0:0:0:0:
224,160,157974,1,0,0:0:0:0:
224,160,158069,1,0,0:0:0:0:
224,160,158165,1,0,0:0:0:0:
224,160,158260,1,0,0:0:0:0:
288,160,158356,1,8,0:0:0:0:
224,160,158451,1,0,0:0:0:0:
224,160,158547,1,0,0:0:0:0:
224,160,158643,1,0,0:0:0:0:
288,160,158738,1,8,0:0:0:0:
288,160,158834,1,8,0:0:0:0:
224,160,158929,1,0,0:0:0:0:
224,160,159025,1,0,0:0:0:0:
288,160,159120,1,8,0:0:0:0:
288,160,159216,1,8,0:0:0:0:
288,160,159311,1,8,0:0:0:0:
288,160,159407,1,8,0:0:0:0:
224,160,159502,1,0,0:0:0:0:
224,160,159598,1,0,0:0:0:0:
288,160,159789,1,8,0:0:0:0:
224,160,159885,1,0,0:0:0:0:
288,160,160076,1,8,0:0:0:0:
224,160,160171,1,0,0:0:0:0:
288,160,160267,1,8,0:0:0:0:
288,160,160362,1,8,0:0:0:0:
224,160,160458,1,0,0:0:0:0:
224,160,160553,1,0,0:0:0:0:
288,160,160649,1,8,0:0:0:0:
288,160,160744,1,8,0:0:0:0:
224,160,160840,1,0,0:0:0:0:
288,160,160936,1,8,0:0:0:0:
224,224,161031,1,4,0:0:0:0:
224,160,161222,1,0,0:0:0:0:
288,160,161318,1,8,0:0:0:0:
224,160,161413,1,0,0:0:0:0:
224,160,161509,1,0,0:0:0:0:
288,160,161604,1,8,0:0:0:0:
288,160,161700,1,8,0:0:0:0:
224,160,161795,1,0,0:0:0:0:
224,160,161891,1,0,0:0:0:0:
224,160,161987,1,0,0:0:0:0:
224,160,162082,1,0,0:0:0:0:
288,160,162178,1,8,0:0:0:0:
224,160,162369,1,0,0:0:0:0:
288,160,162560,1,8,0:0:0:0:
288,160,162655,1,8,0:0:0:0:
288,160,162751,1,8,0:0:0:0:
288,160,162846,1,8,0:0:0:0:
224,160,162942,1,0,0:0:0:0:
224,160,163037,1,0,0:0:0:0:
288,160,163133,1,8,0:0:0:0:
224,160,163229,1,0,0:0:0:0:
288,160,163324,1,8,0:0:0:0:
224,160,163420,1,0,0:0:0:0:
224,160,163515,1,0,0:0:0:0:
224,160,163611,1,0,0:0:0:0:
288,160,163706,1,8,0:0:0:0:
224,160,163897,1,0,0:0:0:0:
224,160,164088,1,0,0:0:0:0:
288,160,164184,1,8,0:0:0:0:
288,160,164279,1,8,0:0:0:0:
224,160,164375,1,0,0:0:0:0:
288,160,164471,1,8,0:0:0:0:
288,160,164566,1,8,0:0:0:0:
224,160,164662,1,0,0:0:0:0:
224,160,164757,1,0,0:0:0:0:
288,160,164853,1,8,0:0:0:0:
224,160,164948,1,0,0:0:0:0:
224,160,165044,1,0,0:0:0:0:
288,160,165139,1,8,0:0:0:0:
224,160,165235,1,0,0:0:0:0:
224,160,165330,1,0,0:0:0:0:
288,160,165426,1,8,0:0:0:0:
288,160,165522,1,8,0:0:0:0:
224,224,165617,1,4,0:0:0:0:
224,224,165904,1,4,0:0:0:0:
224,224,166190,1,4,0:0:0:0:
288,224,166381,1,12,0:0:0:0:
288,224,166668,1,12,0:0:0:0:
288,224,166955,1,12,0:0:0:0:
224,224,167146,1,4,0:0:0:0:
224,160,167337,1,0,0:0:0:0:
288,160,167432,1,8,0:0:0:0:
224,160,167528,1,0,0:0:0:0:
224,160,167623,1,0,0:0:0:0:
288,160,167719,1,8,0:0:0:0:
288,160,167815,1,8,0:0:0:0:
224,160,167910,1,0,0:0:0:0:
224,160,168006,1,0,0:0:0:0:
288,160,168101,1,8,0:0:0:0:
224,160,168197,1,0,0:0:0:0:
288,160,168292,1,8,0:0:0:0:
224,160,168483,1,0,0:0:0:0:
288,160,168674,1,8,0:0:0:0:
224,160,168770,1,0,0:0:0:0:
288,160,168865,1,8,0:0:0:0:
288,160,168961,1,8,0:0:0:0:
224,160,169057,1,0,0:0:0:0:
288,160,169152,1,8,0:0:0:0:
288,160,169248,1,8,0:0:0:0:
288,160,169343,1,8,0:0:0:0:
224,160,169439,1,0,0:0:0:0:
224,160,169534,1,0,0:0:0:0:
288,160,169630,1,8,0:0:0:0:
224,160,169725,1,0,0:0:0:0:
288,160,169821,1,8,0:0:0:0:
224,160,170012,1,0,0:0:0:0:
224,160,170203,1,0,0:0:0:0:
224,160,170299,1,0,0:0:0:0:
224,160,170394,1,0,0:0:0:0:
224,160,170490,1,0,0:0:0:0:
288,160,170585,1,8,0:0:0:0:
224,160,170681,1,0,0:0:0:0:
224,160,170776,1,0,0:0:0:0:
224,160,170872,1,0,0:0:0:0:
288,160,170967,1,8,0:0:0:0:
288,160,171063,1,8,0:0:0:0:
288,160,171158,1,8,0:0:0:0:
288,160,171254,1,8,0:0:0:0:
224,160,171350,1,0,0:0:0:0:
288,160,171445,1,8,0:0:0:0:
288,160,171541,1,8,0:0:0:0:
288,160,171636,1,8,0:0:0:0:
224,160,171732,1,0,0:0:0:0:
224,160,171827,1,0,0:0:0:0:
288,160,172018,1,8,0:0:0:0:
224,160,172114,1,0,0:0:0:0:
288,160,172305,1,8,0:0:0:0:
224,160,172401,1,0,0:0:0:0:
288,160,172496,1,8,0:0:0:0:
288,160,172592,1,8,0:0:0:0:
224,160,172687,1,0,0:0:0:0:
224,160,172783,1,0,0:0:0:0:
288,160,172878,1,8,0:0:0:0:
224,160,172974,1,0,0:0:0:0:
288,160,173069,1,8,0:0:0:0:
288,160,173165,1,8,0:0:0:0:
224,224,173260,1,4,0:0:0:0:
224,160,173451,1,0,0:0:0:0:
288,160,173547,1,8,0:0:0:0:
224,160,173643,1,0,0:0:0:0:
224,160,173738,1,0,0:0:0:0:
288,160,173834,1,8,0:0:0:0:
288,160,173929,1,8,0:0:0:0:
224,160,174025,1,0,0:0:0:0:
224,160,174120,1,0,0:0:0:0:
288,160,174216,1,8,0:0:0:0:
224,160,174311,1,0,0:0:0:0:
288,160,174407,1,8,0:0:0:0:
224,160,174598,1,0,0:0:0:0:
288,160,174789,1,8,0:0:0:0:
288,160,174885,1,8,0:0:0:0:
288,160,174980,1,8,0:0:0:0:
288,160,175076,1,8,0:0:0:0:
224,160,175171,1,0,0:0:0:0:
224,160,175267,1,0,0:0:0:0:
288,160,175362,1,8,0:0:0:0:
224,160,175458,1,0,0:0:0:0:
288,160,175553,1,8,0:0:0:0:
224,160,175649,1,0,0:0:0:0:
224,160,175744,1,0,0:0:0:0:
224,160,175840,1,0,0:0:0:0:
288,160,175936,1,8,0:0:0:0:
224,160,176127,1,0,0:0:0:0:
288,160,176318,1,8,0:0:0:0:
288,160,176413,1,8,0:0:0:0:
288,160,176509,1,8,0:0:0:0:
224,160,176604,1,0,0:0:0:0:
224,160,176700,1,0,0:0:0:0:
224,160,176795,1,0,0:0:0:0:
288,160,176891,1,8,0:0:0:0:
288,160,176987,1,8,0:0:0:0:
224,160,177082,1,0,0:0:0:0:
224,160,177178,1,0,0:0:0:0:
224,160,177273,1,0,0:0:0:0:
288,160,177369,1,8,0:0:0:0:
288,160,177464,1,8,0:0:0:0:
224,160,177560,1,0,0:0:0:0:
288,160,177655,1,8,0:0:0:0:
224,224,177846,1,4,0:0:0:0:
288,224,178611,1,12,0:0:0:0:
288,224,178993,1,12,0:0:0:0:
224,224,179375,1,4,0:0:0:0:
288,160,179566,1,8,0:0:0:0:
224,160,179757,1,0,0:0:0:0:
224,160,179853,1,0,0:0:0:0:
288,160,179948,1,8,0:0:0:0:
224,160,180139,1,0,0:0:0:0:
288,160,180330,1,8,0:0:0:0:
224,160,180426,1,0,0:0:0:0:
224,160,180617,1,0,0:0:0:0:
288,160,180713,1,8,0:0:0:0:
224,160,180808,1,0,0:0:0:0:
224,160,180904,1,0,0:0:0:0:
288,160,181095,1,8,0:0:0:0:
224,160,181381,1,0,0:0:0:0:
288,160,181477,1,8,0:0:0:0:
224,160,181668,1,0,0:0:0:0:
288,160,181859,1,8,0:0:0:0:
288,160,181955,1,8,0:0:0:0:
224,160,182050,1,0,0:0:0:0:
224,160,182146,1,0,0:0:0:0:
288,160,182241,1,8,0:0:0:0:
224,160,182432,1,0,0:0:0:0:
288,160,182623,1,8,0:0:0:0:
224,160,182815,1,0,0:0:0:0:
224,160,182910,1,0,0:0:0:0:
288,160,183006,1,8,0:0:0:0:
224,160,183197,1,0,0:0:0:0:
288,160,183388,1,8,0:0:0:0:
224,160,183483,1,0,0:0:0:0:
224,160,183674,1,0,0:0:0:0:
288,160,183770,1,8,0:0:0:0:
224,160,183865,1,0,0:0:0:0:
224,160,183961,1,0,0:0:0:0:
288,160,184152,1,8,0:0:0:0:
224,160,184439,1,0,0:0:0:0:
288,160,184534,1,8,0:0:0:0:
224,160,184725,1,0,0:0:0:0:
288,160,184916,1,8,0:0:0:0:
288,160,185012,1,8,0:0:0:0:
224,160,185108,1,0,0:0:0:0:
224,160,185203,1,0,0:0:0:0:
288,160,185299,1,8,0:0:0:0:
224,224,185490,1,4,0:0:0:0:
288,160,185681,1,8,0:0:0:0:
224,160,185776,1,0,0:0:0:0:
224,160,185967,1,0,0:0:0:0:
288,160,186063,1,8,0:0:0:0:
224,160,186254,1,0,0:0:0:0:
288,160,186445,1,8,0:0:0:0:
224,160,186541,1,0,0:0:0:0:
224,160,186732,1,0,0:0:0:0:
288,160,186827,1,8,0:0:0:0:
224,160,186923,1,0,0:0:0:0:
224,160,187018,1,0,0:0:0:0:
288,160,187209,1,8,0:0:0:0:
288,160,187401,1,8,0:0:0:0:
224,160,187496,1,0,0:0:0:0:
288,160,187592,1,8,0:0:0:0:
224,160,187783,1,0,0:0:0:0:
288,160,187974,1,8,0:0:0:0:
224,160,188069,1,0,0:0:0:0:
224,160,188260,1,0,0:0:0:0:
288,160,188356,1,8,0:0:0:0:
224,160,188451,1,0,0:0:0:0:
224,160,188547,1,0,0:0:0:0:
288,160,188738,1,8,0:0:0:0:
224,160,188834,1,0,0:0:0:0:
224,160,189025,1,0,0:0:0:0:
288,160,189120,1,8,0:0:0:0:
288,160,189216,1,8,0:0:0:0:
288,160,189311,1,8,0:0:0:0:
224,160,189502,1,0,0:0:0:0:
288,160,189598,1,8,0:0:0:0:
224,160,189789,1,0,0:0:0:0:
288,160,189885,1,8,0:0:0:0:
224,160,189980,1,0,0:0:0:0:
224,160,190076,1,0,0:0:0:0:
288,160,190267,1,8,0:0:0:0:
288,160,190362,1,8,0:0:0:0:
224,160,190458,1,0,0:0:0:0:
224,160,190553,1,0,0:0:0:0:
224,160,190649,1,0,0:0:0:0:
224,160,190744,1,0,0:0:0:0:
288,224,190840,1,12,0:0:0:0:
288,224,191222,1,12,0:0:0:0:
224,224,191604,1,4,0:0:0:0:
288,160,191795,1,8,0:0:0:0:
224,160,191987,1,0,0:0:0:0:
224,160,192082,1,0,0:0:0:0:
288,160,192178,1,8,0:0:0:0:
224,160,192369,1,0,0:0:0:0:
288,160,192560,1,8,0:0:0:0:
224,160,192655,1,0,0:0:0:0:
224,160,192846,1,0,0:0:0:0:
288,160,192942,1,8,0:0:0:0:
288,160,193037,1,8,0:0:0:0:
224,160,193133,1,0,0:0:0:0:
288,160,193324,1,8,0:0:0:0:
224,160,193420,1,0,0:0:0:0:
224,160,193611,1,0,0:0:0:0:
288,160,193706,1,8,0:0:0:0:
224,160,193897,1,0,0:0:0:0:
288,160,194088,1,8,0:0:0:0:
288,160,194184,1,8,0:0:0:0:
224,160,194279,1,0,0:0:0:0:
224,160,194375,1,0,0:0:0:0:
288,160,194471,1,8,0:0:0:0:
224,160,194662,1,0,0:0:0:0:
288,160,194853,1,8,0:0:0:0:
224,160,195044,1,0,0:0:0:0:
224,160,195139,1,0,0:0:0:0:
288,160,195235,1,8,0:0:0:0:
224,160,195426,1,0,0:0:0:0:
288,160,195617,1,8,0:0:0:0:
288,160,195713,1,8,0:0:0:0:
224,160,195904,1,0,0:0:0:0:
288,160,195999,1,8,0:0:0:0:
288,160,196095,1,8,0:0:0:0:
224,160,196190,1,0,0:0:0:0:
288,160,196381,1,8,0:0:0:0:
224,160,196477,1,0,0:0:0:0:
224,160,196668,1,0,0:0:0:0:
288,160,196764,1,8,0:0:0:0:
224,160,196955,1,0,0:0:0:0:
288,160,197146,1,8,0:0:0:0:
288,160,197241,1,8,0:0:0:0:
224,160,197337,1,0,0:0:0:0:
288,160,197432,1,8,0:0:0:0:
288,160,197528,1,8,0:0:0:0:
224,224,197719,1,4,0:0:0:0:
224,160,197910,1,0,0:0:0:0:
288,160,198006,1,8,0:0:0:0:
224,160,198101,1,0,0:0:0:0:
224,160,198197,1,0,0:0:0:0:
288,160,198292,1,8,0:0:0:0:
224,224,198483,1,4,0:0:0:0:
288,160,198674,1,8,0:0:0:0:
224,160,198770,1,0,0:0:0:0:
224,160,198865,1,0,0:0:0:0:
224,160,198961,1,0,0:0:0:0:
288,160,199057,1,8,0:0:0:0:
224,224,199248,1,4,0:0:0:0:
288,160,199439,1,8,0:0:0:0:
288,160,199534,1,8,0:0:0:0:
224,160,199630,1,0,0:0:0:0:
224,160,199725,1,0,0:0:0:0:
288,160,199821,1,8,0:0:0:0:
224,224,200012,1,4,0:0:0:0:
288,160,200203,1,8,0:0:0:0:
288,160,200299,1,8,0:0:0:0:
224,160,200394,1,0,0:0:0:0:
288,160,200490,1,8,0:0:0:0:
288,160,200585,1,8,0:0:0:0:
224,224,200776,1,4,0:0:0:0:
288,160,200967,1,8,0:0:0:0:
224,160,201063,1,0,0:0:0:0:
288,160,201158,1,8,0:0:0:0:
288,160,201254,1,8,0:0:0:0:
224,160,201350,1,0,0:0:0:0:
224,160,201445,1,0,0:0:0:0:
288,160,201541,1,8,0:0:0:0:
288,160,201636,1,8,0:0:0:0:
224,160,201732,1,0,0:0:0:0:
288,160,201827,1,8,0:0:0:0:
288,160,201923,1,8,0:0:0:0:
224,160,202018,1,0,0:0:0:0:
288,160,202114,1,8,0:0:0:0:
224,224,202305,1,4,0:0:0:0:
288,160,203069,1,8,0:0:0:0:
288,160,203165,1,8,0:0:0:0:
288,160,203260,1,8,0:0:0:0:
288,160,203356,1,8,0:0:0:0:
288,160,203451,1,8,0:0:0:0:
288,160,203547,1,8,0:0:0:0:
288,160,203643,1,8,0:0:0:0:
288,160,203738,1,8,0:0:0:0:
224,224,203834,1,4,0:0:0:0:
288,160,204025,1,8,0:0:0:0:
224,160,204216,1,0,0:0:0:0:
224,160,204311,1,0,0:0:0:0:
288,160,204407,1,8,0:0:0:0:
224,160,204598,1,0,0:0:0:0:
288,160,204789,1,8,0:0:0:0:
224,160,204885,1,0,0:0:0:0:
224,160,205076,1,0,0:0:0:0:
288,160,205171,1,8,0:0:0:0:
224,160,205362,1,0,0:0:0:0:
224,160,205553,1,0,0:0:0:0:
288,160,205649,1,8,0:0:0:0:
224,160,205744,1,0,0:0:0:0:
224,160,205840,1,0,0:0:0:0:
288,160,205936,1,8,0:0:0:0:
288,160,206127,1,8,0:0:0:0:
224,160,206318,1,0,0:0:0:0:
288,160,206413,1,8,0:0:0:0:
288,160,206509,1,8,0:0:0:0:
224,160,206604,1,0,0:0:0:0:
288,160,206700,1,8,0:0:0:0:
224,224,206891,1,4,0:0:0:0:
288,160,207082,1,8,0:0:0:0:
224,160,207273,1,0,0:0:0:0:
224,160,207369,1,0,0:0:0:0:
288,160,207464,1,8,0:0:0:0:
224,160,207655,1,0,0:0:0:0:
288,160,207846,1,8,0:0:0:0:
224,160,207942,1,0,0:0:0:0:
224,160,208133,1,0,0:0:0:0:
288,160,208229,1,8,0:0:0:0:
224,160,208420,1,0,0:0:0:0:
224,160,208515,1,0,0:0:0:0:
288,160,208706,1,8,0:0:0:0:
224,160,208802,1,0,0:0:0:0:
224,160,208897,1,0,0:0:0:0:
288,160,208993,1,8,0:0:0:0:
288,160,209184,1,8,0:0:0:0:
288,160,209279,1,8,0:0:0:0:
224,160,209375,1,0,0:0:0:0:
288,160,209471,1,8,0:0:0:0:
224,160,209566,1,0,0:0:0:0:
224,160,209662,1,0,0:0:0:0:
288,160,209757,1,8,0:0:0:0:
224,224,209948,1,4,0:0:0:0:
288,160,210139,1,8,0:0:0:0:
224,160,210330,1,0,0:0:0:0:
224,160,210426,1,0,0:0:0:0:
288,160,210522,1,8,0:0:0:0:
224,160,210713,1,0,0:0:0:0:
288,160,210904,1,8,0:0:0:0:
224,160,210999,1,0,0:0:0:0:
224,160,211190,1,0,0:0:0:0:
288,160,211286,1,8,0:0:0:0:
224,160,211477,1,0,0:0:0:0:
224,160,211668,1,0,0:0:0:0:
288,160,211764,1,8,0:0:0:0:
224,160,211859,1,0,0:0:0:0:
224,160,211955,1,0,0:0:0:0:
288,160,212050,1,8,0:0:0:0:
288,160,212241,1,8,0:0:0:0:
288,160,212337,1,8,0:0:0:0:
224,160,212432,1,0,0:0:0:0:
288,160,212528,1,8,0:0:0:0:
224,160,212623,1,0,0:0:0:0:
224,160,212719,1,0,0:0:0:0:
288,160,212815,1,8,0:0:0:0:
224,224,213006,1,4,0:0:0:0:
288,160,213197,1,8,0:0:0:0:
288,160,213292,1,8,0:0:0:0:
224,160,213388,1,0,0:0:0:0:
224,160,213483,1,0,0:0:0:0:
288,160,213579,1,8,0:0:0:0:
224,160,213770,1,0,0:0:0:0:
224,160,213961,1,0,0:0:0:0:
288,160,214057,1,8,0:0:0:0:
288,160,214152,1,8,0:0:0:0:
288,160,214248,1,8,0:0:0:0:
224,160,214343,1,0,0:0:0:0:
224,160,214534,1,0,0:0:0:0:
288,160,214725,1,8,0:0:0:0:
224,160,214916,1,0,0:0:0:0:
224,160,215012,1,0,0:0:0:0:
288,160,215108,1,8,0:0:0:0:
288,224,215299,1,12,0:0:0:0:
224,160,215490,1,0,0:0:0:0:
224,160,215585,1,0,0:0:0:0:
224,160,215681,1,0,0:0:0:0:
288,160,215808,1,8,0:0:0:0:
288,160,215936,1,8,0:0:0:0:
224,224,216063,1,4,0:0:0:0:
288,160,216254,1,8,0:0:0:0:
224,160,216445,1,0,0:0:0:0:
224,160,216541,1,0,0:0:0:0:
288,160,216636,1,8,0:0:0:0:
224,160,216732,1,0,0:0:0:0:
288,160,216827,1,8,0:0:0:0:
224,160,217018,1,0,0:0:0:0:
288,160,217114,1,8,0:0:0:0:
224,160,217209,1,0,0:0:0:0:
288,160,217401,1,8,0:0:0:0:
224,160,217592,1,0,0:0:0:0:
224,160,217687,1,0,0:0:0:0:
288,160,217783,1,8,0:0:0:0:
288,160,217878,1,8,0:0:0:0:
224,160,217974,1,0,0:0:0:0:
224,160,218069,1,0,0:0:0:0:
288,160,218165,1,8,0:0:0:0:
224,160,218260,1,0,0:0:0:0:
288,160,218356,1,8,0:0:0:0:
224,160,218451,1,0,0:0:0:0:
224,160,218547,1,0,0:0:0:0:
224,160,218643,1,0,0:0:0:0:
288,160,218738,1,8,0:0:0:0:
224,160,218929,1,0,0:0:0:0:
224,160,219120,1,0,0:0:0:0:
224,160,219216,1,0,0:0:0:0:
224,160,219311,1,0,0:0:0:0:
288,160,219407,1,8,0:0:0:0:
224,160,219502,1,0,0:0:0:0:
224,160,219598,1,0,0:0:0:0:
288,160,219694,1,8,0:0:0:0:
288,160,219885,1,8,0:0:0:0:
288,160,219980,1,8,0:0:0:0:
224,160,220076,1,0,0:0:0:0:
288,160,220171,1,8,0:0:0:0:
224,160,220267,1,0,0:0:0:0:
224,160,220362,1,0,0:0:0:0:
288,160,220458,1,8,0:0:0:0:
224,160,220649,1,0,0:0:0:0:
288,160,220744,1,8,0:0:0:0:
288,160,220840,1,8,0:0:0:0:
288,160,220936,1,8,0:0:0:0:
224,160,221031,1,0,0:0:0:0:
224,160,221127,1,0,0:0:0:0:
288,160,221222,1,8,0:0:0:0:
224,160,221318,1,0,0:0:0:0:
288,160,221413,1,8,0:0:0:0:
224,160,221509,1,0,0:0:0:0:
224,160,221604,1,0,0:0:0:0:
224,160,221700,1,0,0:0:0:0:
288,160,221795,1,8,0:0:0:0:
224,160,221987,1,0,0:0:0:0:
224,160,222178,1,0,0:0:0:0:
224,160,222273,1,0,0:0:0:0:
288,160,222369,1,8,0:0:0:0:
224,160,222464,1,0,0:0:0:0:
288,160,222560,1,8,0:0:0:0:
288,160,222655,1,8,0:0:0:0:
224,160,222751,1,0,0:0:0:0:
224,160,222846,1,0,0:0:0:0:
288,160,222942,1,8,0:0:0:0:
224,160,223037,1,0,0:0:0:0:
288,160,223133,1,8,0:0:0:0:
288,160,223229,1,8,0:0:0:0:
224,160,223324,1,0,0:0:0:0:
224,160,223420,1,0,0:0:0:0:
288,160,223515,1,8,0:0:0:0:
224,160,223611,1,0,0:0:0:0:
288,160,223706,1,8,0:0:0:0:
288,160,223770,1,8,0:0:0:0:
288,160,223834,1,8,0:0:0:0:
224,160,223897,1,0,0:0:0:0:
224,160,223993,1,0,0:0:0:0:
288,160,224088,1,8,0:0:0:0:
224,160,224152,1,0,0:0:0:0:
224,160,224216,1,0,0:0:0:0:
288,160,224279,1,8,0:0:0:0:
288,160,224375,1,8,0:0:0:0:
224,160,224471,1,0,0:0:0:0:
224,160,224534,1,0,0:0:0:0:
224,160,224598,1,0,0:0:0:0:
288,160,224662,1,8,0:0:0:0:
288,160,224757,1,8,0:0:0:0:
224,160,224853,1,0,0:0:0:0:
288,160,224916,1,8,0:0:0:0:
288,160,224980,1,8,0:0:0:0:
224,160,225044,1,0,0:0:0:0:
288,160,225139,1,8,0:0:0:0:
224,160,225235,1,0,0:0:0:0:
224,160,225330,1,0,0:0:0:0:
224,160,225426,1,0,0:0:0:0:
288,160,225522,1,8,0:0:0:0:
224,160,225617,1,0,0:0:0:0:
224,160,225713,1,0,0:0:0:0:
288,160,225808,1,8,0:0:0:0:
224,160,225904,1,0,0:0:0:0:
288,160,225999,1,8,0:0:0:0:
288,160,226095,1,8,0:0:0:0:
224,160,226190,1,0,0:0:0:0:
288,160,226286,1,8,0:0:0:0:
224,160,226381,1,0,0:0:0:0:
224,160,226477,1,0,0:0:0:0:
288,160,226572,1,8,0:0:0:0:
224,224,226764,1,4,0:0:0:0:
256,192,226955,12,0,227910,0:0:0:0:
224,160,228292,5,0,0:0:0:0:
224,160,229821,1,0,0:0:0:0:
224,160,231350,1,0,0:0:0:0:
288,160,232114,1,8,0:0:0:0:
224,160,232878,1,0,0:0:0:0:
288,160,233451,1,8,0:0:0:0:
288,160,233547,1,8,0:0:0:0:
288,160,233643,1,8,0:0:0:0:
224,224,234407,1,4,0:0:0:0:
224,160,234789,1,0,0:0:0:0:
224,224,235171,1,4,0:0:0:0:
224,160,235553,1,0,0:0:0:0:
288,224,235936,1,12,0:0:0:0:
224,160,236318,1,0,0:0:0:0:
288,224,236700,1,12,0:0:0:0:
224,160,237082,1,0,0:0:0:0:
224,160,237273,1,0,0:0:0:0:
224,160,237369,1,0,0:0:0:0:
288,160,237464,1,8,0:0:0:0:
224,160,237846,1,0,0:0:0:0:
224,160,238037,1,0,0:0:0:0:
288,160,238229,1,8,0:0:0:0:
224,160,238420,1,0,0:0:0:0:
288,160,238611,1,8,0:0:0:0:
288,160,238802,1,8,0:0:0:0:
224,224,238993,1,4,0:0:0:0:
224,160,239948,1,0,0:0:0:0:
224,160,240044,1,0,0:0:0:0:
288,160,240139,1,8,0:0:0:0:
224,160,240522,1,0,0:0:0:0:
224,160,241095,1,0,0:0:0:0:
288,160,241286,1,8,0:0:0:0:
224,160,242050,1,0,0:0:0:0:
224,160,242337,1,0,0:0:0:0:
224,160,242623,1,0,0:0:0:0:
288,160,242815,1,8,0:0:0:0:
224,160,243197,1,0,0:0:0:0:
224,160,243579,1,0,0:0:0:0:
224,160,244152,1,0,0:0:0:0:
288,160,244343,1,8,0:0:0:0:
224,160,244725,1,0,0:0:0:0:
224,160,245108,1,0,0:0:0:0:
224,160,245394,1,0,0:0:0:0:
224,160,245681,1,0,0:0:0:0:
224,160,245776,1,0,0:0:0:0:
288,160,245872,1,8,0:0:0:0:
288,160,246063,1,8,0:0:0:0:
224,160,246158,1,0,0:0:0:0:
224,160,246254,1,0,0:0:0:0:
288,160,246350,1,8,0:0:0:0:
288,160,246445,1,8,0:0:0:0:
288,160,246541,1,8,0:0:0:0:
224,224,246636,1,4,0:0:0:0:
288,224,247401,1,12,0:0:0:0:
288,224,247592,1,12,0:0:0:0:
224,160,247974,1,0,0:0:0:0:
224,160,248069,1,0,0:0:0:0:
288,224,248165,1,12,0:0:0:0:
288,224,248547,1,12,0:0:0:0:
224,224,248929,1,4,0:0:0:0:
288,160,249120,1,8,0:0:0:0:
288,160,249216,1,8,0:0:0:0:
224,160,249311,1,0,0:0:0:0:
224,160,249407,1,0,0:0:0:0:
288,160,249502,1,8,0:0:0:0:
288,160,249694,1,8,0:0:0:0:
224,160,249789,1,0,0:0:0:0:
224,160,249885,1,0,0:0:0:0:
288,160,249980,1,8,0:0:0:0:
288,160,250076,1,8,0:0:0:0:
224,160,250171,1,0,0:0:0:0:
288,160,250267,1,8,0:0:0:0:
224,160,250362,1,0,0:0:0:0:
288,160,250458,1,8,0:0:0:0:
288,160,250553,1,8,0:0:0:0:
288,160,250649,1,8,0:0:0:0:
224,160,250744,1,0,0:0:0:0:
224,160,250840,1,0,0:0:0:0:
224,160,250936,1,0,0:0:0:0:
288,160,251031,1,8,0:0:0:0:
224,224,251222,1,4,0:0:0:0:
288,160,252751,5,8,0:0:0:0:
224,160,252846,1,0,0:0:0:0:
224,160,252942,1,0,0:0:0:0:
288,160,253037,1,8,0:0:0:0:
224,160,253133,1,0,0:0:0:0:
224,160,253229,1,0,0:0:0:0:
288,160,253324,1,8,0:0:0:0:
224,160,253420,1,0,0:0:0:0:
288,160,253515,1,8,0:0:0:0:
288,160,253579,1,8,0:0:0:0:
288,160,253643,1,8,0:0:0:0:
288,160,253706,1,8,0:0:0:0:
288,160,253770,1,8,0:0:0:0:
288,160,253834,1,8,0:0:0:0:
224,160,253897,1,0,0:0:0:0:
288,160,253993,1,8,0:0:0:0:
288,160,254088,1,8,0:0:0:0:
288,160,254184,1,8,0:0:0:0:
224,160,254279,1,0,0:0:0:0:
224,160,254374,1,0,0:0:0:0:
224,160,254470,1,0,0:0:0:0:
288,160,254565,1,8,0:0:0:0:
224,160,254661,1,0,0:0:0:0:
224,160,254756,1,0,0:0:0:0:
288,160,254852,1,8,0:0:0:0:
224,160,254947,1,0,0:0:0:0:
288,160,255043,1,8,0:0:0:0:
224,160,255138,1,0,0:0:0:0:
224,160,255234,1,0,0:0:0:0:
224,160,255329,1,0,0:0:0:0:
288,160,255425,1,8,0:0:0:0:
288,160,255521,1,8,0:0:0:0:
224,160,255616,1,0,0:0:0:0:
224,160,255712,1,0,0:0:0:0:
288,160,255807,1,8,0:0:0:0:
288,160,255903,1,8,0:0:0:0:
224,160,255998,1,0,0:0:0:0:
288,160,256094,1,8,0:0:0:0:
288,160,256189,1,8,0:0:0:0:
224,160,256285,1,0,0:0:0:0:
288,160,256380,1,8,0:0:0:0:
224,160,256476,1,0,0:0:0:0:
288,160,256571,1,8,0:0:0:0:
224,160,256667,1,0,0:0:0:0:
224,160,256763,1,0,0:0:0:0:
224,160,256858,1,0,0:0:0:0:
288,160,256954,1,8,0:0:0:0:
288,160,257049,1,8,0:0:0:0:
288,160,257145,1,8,0:0:0:0:
288,160,257240,1,8,0:0:0:0:
224,160,257336,1,0,0:0:0:0:
224,160,257431,1,0,0:0:0:0:
224,160,257527,1,0,0:0:0:0:
224,160,257622,1,0,0:0:0:0:
288,160,257718,1,8,0:0:0:0:
224,160,257814,1,0,0:0:0:0:
224,160,257909,1,0,0:0:0:0:
224,160,258005,1,0,0:0:0:0:
288,160,258100,1,8,0:0:0:0:
288,160,258196,1,8,0:0:0:0:
224,160,258291,1,0,0:0:0:0:
224,160,258387,1,0,0:0:0:0:
288,160,258482,1,8,0:0:0:0:
288,160,258578,1,8,0:0:0:0:
288,160,258673,1,8,0:0:0:0:
224,160,258769,1,0,0:0:0:0:
288,160,258864,1,8,0:0:0:0:
224,160,258960,1,0,0:0:0:0:
224,160,259056,1,0,0:0:0:0:
288,160,259151,1,8,0:0:0:0:
224,160,259247,1,0,0:0:0:0:
224,160,259342,1,0,0:0:0:0:
288,160,259438,1,8,0:0:0:0:
288,160,259533,1,8,0:0:0:0:
288,160,259629,1,8,0:0:0:0:
224,160,259724,1,0,0:0:0:0:
224,160,259820,1,0,0:0:0:0:
288,160,259915,1,8,0:0:0:0:
224,160,260011,1,0,0:0:0:0:
224,160,260107,1,0,0:0:0:0:
288,160,260202,1,8,0:0:0:0:
288,160,260298,1,8,0:0:0:0:
224,160,260393,1,0,0:0:0:0:
224,160,260489,1,0,0:0:0:0:
224,160,260584,1,0,0:0:0:0:
288,160,260680,1,8,0:0:0:0:
224,160,260775,1,0,0:0:0:0:
224,160,260871,1,0,0:0:0:0:
288,160,260966,1,8,0:0:0:0:
224,160,261062,1,0,0:0:0:0:
288,160,261157,1,8,0:0:0:0:
224,160,261253,1,0,0:0:0:0:
224,160,261349,1,0,0:0:0:0:
224,160,261444,1,0,0:0:0:0:
288,160,261540,1,8,0:0:0:0:
288,160,261635,1,8,0:0:0:0:
224,160,261731,1,0,0:0:0:0:
224,160,261826,1,0,0:0:0:0:
288,160,261922,1,8,0:0:0:0:
288,160,262017,1,8,0:0:0:0:
288,160,262113,1,8,0:0:0:0:
288,160,262208,1,8,0:0:0:0:
224,160,262304,1,0,0:0:0:0:
224,160,262400,1,0,0:0:0:0:
288,160,262495,1,8,0:0:0:0:
224,160,262591,1,0,0:0:0:0:
288,160,262686,1,8,0:0:0:0:
288,160,262782,1,8,0:0:0:0:
288,160,262877,1,8,0:0:0:0:
288,160,262973,1,8,0:0:0:0:
224,160,263068,1,0,0:0:0:0:
224,160,263164,1,0,0:0:0:0:
288,160,263259,1,8,0:0:0:0:
288,160,263355,1,8,0:0:0:0:
224,160,263450,1,0,0:0:0:0:
288,160,263546,1,8,0:0:0:0:
224,160,263642,1,0,0:0:0:0:
288,160,263737,1,8,0:0:0:0:
224,160,263833,1,0,0:0:0:0:
224,160,263928,1,0,0:0:0:0:
288,160,264024,1,8,0:0:0:0:
224,160,264119,1,0,0:0:0:0:
288,160,264215,1,8,0:0:0:0:
288,160,264310,1,8,0:0:0:0:
224,160,264406,1,0,0:0:0:0:
288,160,264501,1,8,0:0:0:0:
224,160,264597,1,0,0:0:0:0:
224,160,264693,1,0,0:0:0:0:
288,160,264788,1,8,0:0:0:0:
288,160,264884,1,8,0:0:0:0:
224,224,264979,1,4,0:0:0:0:
224,224,265266,1,4,0:0:0:0:
224,224,265552,1,4,0:0:0:0:
288,224,265743,1,12,0:0:0:0:
288,224,266030,1,12,0:0:0:0:
288,224,266317,1,12,0:0:0:0:
224,160,266508,1,0,0:0:0:0:
224,160,266603,1,0,0:0:0:0:
224,160,266699,1,0,0:0:0:0:
288,160,266794,1,8,0:0:0:0:
224,160,266890,1,0,0:0:0:0:
224,160,266986,1,0,0:0:0:0:
288,160,267081,1,8,0:0:0:0:
288,160,267177,1,8,0:0:0:0:
224,160,267272,1,0,0:0:0:0:
224,160,267368,1,0,0:0:0:0:
288,160,267463,1,8,0:0:0:0:
224,160,267559,1,0,0:0:0:0:
288,160,267654,1,8,0:0:0:0:
288,160,267750,1,8,0:0:0:0:
224,160,267845,1,0,0:0:0:0:
224,160,267941,1,0,0:0:0:0:
288,160,268036,1,8,0:0:0:0:
288,160,268132,1,8,0:0:0:0:
224,160,268228,1,0,0:0:0:0:
288,160,268323,1,8,0:0:0:0:
288,160,268419,1,8,0:0:0:0:
224,160,268514,1,0,0:0:0:0:
288,160,268610,1,8,0:0:0:0:
288,160,268705,1,8,0:0:0:0:
224,160,268801,1,0,0:0:0:0:
224,160,268896,1,0,0:0:0:0:
288,160,268992,1,8,0:0:0:0:
224,160,269087,1,0,0:0:0:0:
288,160,269183,1,8,0:0:0:0:
288,160,269279,1,8,0:0:0:0:
288,160,269374,1,8,0:0:0:0:
288,160,269470,1,8,0:0:0:0:
224,160,269565,1,0,0:0:0:0:
224,160,269661,1,0,0:0:0:0:
224,160,269756,1,0,0:0:0:0:
224,160,269852,1,0,0:0:0:0:
288,160,269947,1,8,0:0:0:0:
224,160,270043,1,0,0:0:0:0:
224,160,270138,1,0,0:0:0:0:
224,160,270234,1,0,0:0:0:0:
288,160,270329,1,8,0:0:0:0:
288,160,270425,1,8,0:0:0:0:
288,160,270521,1,8,0:0:0:0:
288,160,270616,1,8,0:0:0:0:
224,160,270712,1,0,0:0:0:0:
288,160,270807,1,8,0:0:0:0:
288,160,270903,1,8,0:0:0:0:
288,160,270998,1,8,0:0:0:0:
224,160,271094,1,0,0:0:0:0:
288,160,271189,1,8,0:0:0:0:
288,160,271285,1,8,0:0:0:0:
224,160,271380,1,0,0:0:0:0:
288,160,271476,1,8,0:0:0:0:
288,160,271571,1,8,0:0:0:0:
224,160,271667,1,0,0:0:0:0:
288,160,271763,1,8,0:0:0:0:
224,160,271858,1,0,0:0:0:0:
224,160,271954,1,0,0:0:0:0:
288,160,272049,1,8,0:0:0:0:
288,160,272145,1,8,0:0:0:0:
224,160,272240,1,0,0:0:0:0:
224,160,272336,1,0,0:0:0:0:
288,160,272431,1,8,0:0:0:0:
288,160,272527,1,8,0:0:0:0:
224,160,272622,1,0,0:0:0:0:
224,160,272718,1,0,0:0:0:0:
224,160,272814,1,0,0:0:0:0:
288,160,272909,1,8,0:0:0:0:
224,160,273005,1,0,0:0:0:0:
224,160,273100,1,0,0:0:0:0:
288,160,273196,1,8,0:0:0:0:
288,160,273291,1,8,0:0:0:0:
224,160,273387,1,0,0:0:0:0:
224,160,273482,1,0,0:0:0:0:
288,160,273578,1,8,0:0:0:0:
224,160,273673,1,0,0:0:0:0:
288,160,273769,1,8,0:0:0:0:
288,160,273864,1,8,0:0:0:0:
224,160,273960,1,0,0:0:0:0:
224,160,274056,1,0,0:0:0:0:
288,160,274151,1,8,0:0:0:0:
288,160,274247,1,8,0:0:0:0:
288,160,274342,1,8,0:0:0:0:
288,160,274438,1,8,0:0:0:0:
224,160,274533,1,0,0:0:0:0:
224,160,274629,1,0,0:0:0:0:
288,160,274724,1,8,0:0:0:0:
224,160,274820,1,0,0:0:0:0:
288,160,274915,1,8,0:0:0:0:
224,160,275011,1,0,0:0:0:0:
224,160,275107,1,0,0:0:0:0:
224,160,275202,1,0,0:0:0:0:
288,160,275298,1,8,0:0:0:0:
224,160,275393,1,0,0:0:0:0:
288,160,275489,1,8,0:0:0:0:
288,160,275584,1,8,0:0:0:0:
288,160,275680,1,8,0:0:0:0:
224,160,275775,1,0,0:0:0:0:
224,160,275871,1,0,0:0:0:0:
288,160,275966,1,8,0:0:0:0:
288,160,276062,1,8,0:0:0:0:
224,160,276157,1,0,0:0:0:0:
288,160,276253,1,8,0:0:0:0:
224,160,276349,1,0,0:0:0:0:
288,160,276444,1,8,0:0:0:0:
288,160,276540,1,8,0:0:0:0:
224,160,276635,1,0,0:0:0:0:
288,160,276731,1,8,0:0:0:0:
224,160,276826,1,0,0:0:0:0:
224,160,276922,1,0,0:0:0:0:
288,160,277017,1,8,0:0:0:0:
288,160,277113,1,8,0:0:0:0:
224,160,277208,1,0,0:0:0:0:
224,160,277304,1,0,0:0:0:0:
224,160,277400,1,0,0:0:0:0:
288,160,277495,1,8,0:0:0:0:
224,160,277591,1,0,0:0:0:0:
224,160,277686,1,0,0:0:0:0:
288,160,277782,1,8,0:0:0:0:
224,160,277877,1,0,0:0:0:0:
288,160,277973,1,8,0:0:0:0:
224,160,278068,1,0,0:0:0:0:
224,160,278164,1,0,0:0:0:0:
288,160,278259,1,8,0:0:0:0:
224,160,278355,1,0,0:0:0:0:
224,160,278450,1,0,0:0:0:0:
288,160,278546,1,8,0:0:0:0:
224,160,278642,1,0,0:0:0:0:
288,160,278737,1,8,0:0:0:0:
288,160,278833,1,8,0:0:0:0:
224,160,278928,1,0,0:0:0:0:
288,160,279024,1,8,0:0:0:0:
288,160,279119,1,8,0:0:0:0:
224,160,279215,1,0,0:0:0:0:
288,160,279310,1,8,0:0:0:0:
224,160,279406,1,0,0:0:0:0:
288,160,279501,1,8,0:0:0:0:
288,160,279597,1,8,0:0:0:0:
224,160,279693,1,0,0:0:0:0:
288,160,279788,1,8,0:0:0:0:
224,160,279884,1,0,0:0:0:0:
224,160,279979,1,0,0:0:0:0:
288,160,280075,1,8,0:0:0:0:
288,160,280170,1,8,0:0:0:0:
224,160,280266,1,0,0:0:0:0:
224,160,280361,1,0,0:0:0:0:
224,160,280457,1,0,0:0:0:0:
288,160,280552,1,8,0:0:0:0:
224,160,280648,1,0,0:0:0:0:
224,160,280743,1,0,0:0:0:0:
288,160,280839,1,8,0:0:0:0:
224,160,280935,1,0,0:0:0:0:
288,160,281030,1,8,0:0:0:0:
288,160,281126,1,8,0:0:0:0:
224,160,281221,1,0,0:0:0:0:
288,160,281317,1,8,0:0:0:0:
288,160,281412,1,8,0:0:0:0:
288,160,281508,1,8,0:0:0:0:
224,160,281603,1,0,0:0:0:0:
288,160,281699,1,8,0:0:0:0:
224,160,281794,1,0,0:0:0:0:
224,160,281890,1,0,0:0:0:0:
224,160,281986,1,0,0:0:0:0:
288,160,282081,1,8,0:0:0:0:
288,160,282177,1,8,0:0:0:0:
288,160,282272,1,8,0:0:0:0:
224,160,282368,1,0,0:0:0:0:
224,160,282463,1,0,0:0:0:0:
288,160,282559,1,8,0:0:0:0:
288,160,282654,1,8,0:0:0:0:
288,160,282750,1,8,0:0:0:0:
224,160,282845,1,0,0:0:0:0:
224,160,282941,1,0,0:0:0:0:
224,160,283036,1,0,0:0:0:0:
288,160,283132,1,8,0:0:0:0:
224,224,283323,1,4,0:0:0:0:
224,224,284087,1,4,0:0:0:0:
224,224,284470,1,4,0:0:0:0:
288,224,284852,1,12,0:0:0:0:
224,160,285043,1,0,0:0:0:0:
288,160,285234,1,8,0:0:0:0:
288,160,285425,1,8,0:0:0:0:
224,160,285616,1,0,0:0:0:0:
288,160,285807,1,8,0:0:0:0:
288,160,285998,1,8,0:0:0:0:
224,160,286189,1,0,0:0:0:0:
224,160,286380,1,0,0:0:0:0:
288,160,286571,1,8,0:0:0:0:
224,160,286763,1,0,0:0:0:0:
224,160,286954,1,0,0:0:0:0:
288,160,287145,1,8,0:0:0:0:
288,160,287240,1,8,0:0:0:0:
224,160,287336,1,0,0:0:0:0:
224,160,287431,1,0,0:0:0:0:
288,160,287527,1,8,0:0:0:0:
288,160,287909,1,8,0:0:0:0:
224,160,288004,1,0,0:0:0:0:
224,160,288100,1,0,0:0:0:0:
224,160,288195,1,0,0:0:0:0:
288,160,288291,1,8,0:0:0:0:
224,160,288386,1,0,0:0:0:0:
288,160,288482,1,8,0:0:0:0:
288,160,288577,1,8,0:0:0:0:
288,160,288673,1,8,0:0:0:0:
224,160,288768,1,0,0:0:0:0:
224,160,288864,1,0,0:0:0:0:
224,160,288959,1,0,0:0:0:0:
288,160,289055,1,8,0:0:0:0:
224,160,289151,1,0,0:0:0:0:
288,160,289246,1,8,0:0:0:0:
224,160,289342,1,0,0:0:0:0:
288,160,289437,1,8,0:0:0:0:
224,160,289533,1,0,0:0:0:0:
224,160,289628,1,0,0:0:0:0:
224,160,289724,1,0,0:0:0:0:
288,160,289819,1,8,0:0:0:0:
224,160,289915,1,0,0:0:0:0:
288,160,290010,1,8,0:0:0:0:
288,160,290106,1,8,0:0:0:0:
288,160,290201,1,8,0:0:0:0:
224,160,290297,1,0,0:0:0:0:
224,160,290393,1,0,0:0:0:0:
224,160,290488,1,0,0:0:0:0:
288,160,290584,1,8,0:0:0:0:
224,160,290679,1,0,0:0:0:0:
288,160,290775,1,8,0:0:0:0:
224,160,290870,1,0,0:0:0:0:
288,160,290966,1,8,0:0:0:0:
224,160,291061,1,0,0:0:0:0:
224,160,291157,1,0,0:0:0:0:
224,160,291252,1,0,0:0:0:0:
288,160,291348,1,8,0:0:0:0:
224,160,291444,1,0,0:0:0:0:
288,160,291539,1,8,0:0:0:0:
288,160,291635,1,8,0:0:0:0:
288,160,291730,1,8,0:0:0:0:
224,160,291826,1,0,0:0:0:0:
224,160,291921,1,0,0:0:0:0:
224,160,292017,1,0,0:0:0:0:
288,160,292112,1,8,0:0:0:0:
224,160,292208,1,0,0:0:0:0:
288,160,292303,1,8,0:0:0:0:
224,160,292399,1,0,0:0:0:0:
288,224,292494,1,12,0:0:0:0:
288,224,292781,1,12,0:0:0:0:
224,224,293068,1,4,0:0:0:0:
288,224,293450,1,12,0:0:0:0:
224,224,293641,1,4,0:0:0:0:
288,224,293832,1,12,0:0:0:0:
224,160,294023,1,0,0:0:0:0:
224,160,294119,1,0,0:0:0:0:
288,160,294214,1,8,0:0:0:0:
224,160,294310,1,0,0:0:0:0:
224,160,294405,1,0,0:0:0:0:
224,160,294501,1,0,0:0:0:0:
288,160,294596,1,8,0:0:0:0:
288,160,294692,1,8,0:0:0:0:
224,160,294787,1,0,0:0:0:0:
224,160,294883,1,0,0:0:0:0:
288,160,294979,1,8,0:0:0:0:
224,160,295074,1,0,0:0:0:0:
288,160,295170,1,8,0:0:0:0:
288,160,295265,1,8,0:0:0:0:
224,160,295361,1,0,0:0:0:0:
224,160,295456,1,0,0:0:0:0:
288,160,295552,1,8,0:0:0:0:
224,160,295647,1,0,0:0:0:0:
288,160,295743,1,8,0:0:0:0:
224,160,295838,1,0,0:0:0:0:
224,160,295934,1,0,0:0:0:0:
224,160,296030,1,0,0:0:0:0:
288,160,296125,1,8,0:0:0:0:
288,160,296221,1,8,0:0:0:0:
224,160,296316,1,0,0:0:0:0:
224,160,296412,1,0,0:0:0:0:
288,160,296507,1,8,0:0:0:0:
224,160,296603,1,0,0:0:0:0:
288,160,296698,1,8,0:0:0:0:
224,160,296794,1,0,0:0:0:0:
288,160,296889,1,8,0:0:0:0:
288,160,296985,1,8,0:0:0:0:
224,160,297080,1,0,0:0:0:0:
224,160,297176,1,0,0:0:0:0:
288,160,297272,1,8,0:0:0:0:
224,160,297367,1,0,0:0:0:0:
224,160,297463,1,0,0:0:0:0:
224,160,297558,1,0,0:0:0:0:
288,160,297654,1,8,0:0:0:0:
288,160,297749,1,8,0:0:0:0:
224,160,297845,1,0,0:0:0:0:
224,160,297940,1,0,0:0:0:0:
288,160,298036,1,8,0:0:0:0:
224,160,298131,1,0,0:0:0:0:
288,160,298227,1,8,0:0:0:0:
288,160,298323,1,8,0:0:0:0:
224,160,298418,1,0,0:0:0:0:
224,160,298514,1,0,0:0:0:0:
288,224,298609,1,12,0:0:0:0:
288,224,298896,1,12,0:0:0:0:
224,224,299182,1,4,0:0:0:0:
288,224,299565,1,12,0:0:0:0:
224,224,299756,1,4,0:0:0:0:
288,224,299947,1,12,0:0:0:0:
288,160,300138,1,8,0:0:0:0:
224,160,300233,1,0,0:0:0:0:
288,160,300424,1,8,0:0:0:0:
224,160,300520,1,0,0:0:0:0:
224,224,300711,1,4,0:0:0:0:
288,224,301093,1,12,0:0:0:0:
224,224,301284,1,4,0:0:0:0:
288,224,301475,1,12,0:0:0:0:
288,160,301666,1,8,0:0:0:0:
288,160,301762,1,8,0:0:0:0:
288,160,301953,1,8,0:0:0:0:
288,160,302049,1,8,0:0:0:0:
224,224,302240,1,4,0:0:0:0:
288,224,302622,1,12,0:0:0:0:
224,224,302813,1,4,0:0:0:0:
288,224,303004,1,12,0:0:0:0:
224,224,303195,1,4,0:0:0:0:
288,160,303577,1,8,0:0:0:0:
288,160,303959,1,8,0:0:0:0:
288,160,304342,1,8,0:0:0:0:
288,160,304437,1,8,0:0:0:0:
224,160,304533,1,0,0:0:0:0:
224,160,304596,1,0,0:0:0:0:
224,160,304660,1,0,0:0:0:0:
288,160,304724,1,8,0:0:0:0:
288,224,304915,1,12,0:0:0:0:
256,192,305106,12,0,312526,0:0:0:0:
