osu file format v14

[General]
AudioFilename: audio.ogg
AudioLeadIn: 0
PreviewTime: 92853
Countdown: 0
SampleSet: Normal
StackLeniency: 0.7
Mode: 1
LetterboxInBreaks: 0
WidescreenStoryboard: 0

[Editor]
Bookmarks: 12694,14222,26451,37152,38681,44795,50910,57025,63139,75369,87598,92184,93713,116643,118171,124286,127343,130401,136515,148744,153330,154859,177789,179318,191547,197662,200719,203776,228235,234350,240464,246579,249636,252693,254222,283267,284795,287853,298553,304859
DistanceSpacing: 1.6
BeatDivisor: 4
GridSize: 32
TimelineZoom: 1.6

[Metadata]
Title:LOVELESS WORLD
TitleUnicode:LOVELESS WORLD
Artist:u's
ArtistUnicode:μ's
Creator:KyeX
Version:Rejection
Source:ラブライブ! School idol project
Tags:スクールアイドルフェスティバル school idol festival Love Live! muse Japanese Anime Video Game Kosaka Honoka 高坂穂乃果 Nitta Emi 新田恵海 Minami Kotori 南ことり Uchida Aya 内田彩 Sonoda Umi 園田海未 Suzuko Mimori 三森すずこ Hoshizora Rin 星空凛 Iida Riho 飯田里穂 Nishikino Maki 西木野真姫 Pile Koizumi Hanayo 小泉花陽 Kubo Yurika 久保ユリカ Ayase Eli 絢瀬絵里 Nanjou Yoshino 南條愛乃 Tojo Nozomi 東條希 Kusuda Aina 楠田亜衣奈 Yazawa Nico 矢澤にこ Tokui Sora 徳井青空 JRock J-Rock Rock Metal 畑亜貴 Aki Hata 山田高弘 Takahiro Yamada 河田貴央 Takao Kawada Kōsaka Kousaka Nanjō Nanjou Tōjō Toujou full ver. version marathon
BeatmapID:3884333
BeatmapSetID:1886395

[Difficulty]
HPDrainRate:6
CircleSize:3
OverallDifficulty:6
ApproachRate:10
SliderMultiplier:1.4
SliderTickRate:1

[Events]
//Background and Video events
0,0,"bg.jpg",0,80
//Break Periods
//Storyboard Layer 0 (Background)
//Storyboard Layer 1 (Fail)
//Storyboard Layer 2 (Pass)
//Storyboard Layer 3 (Foreground)
//Storyboard Layer 4 (Overlay)
//Storyboard Sound Samples

[TimingPoints]
454,382.165605095541,4,1,0,75,1,0
454,-125,4,1,0,75,0,0
24904,-125,4,1,0,75,0,0
25190,-124.454994,4,1,0,75,0,0
25477,-122.84068,4,1,0,75,0,0
25573,-122.07489,4,1,0,75,0,0
25668,-121.21212,4,1,0,75,0,0
25859,-119.18063,4,1,0,75,0,0
25955,-118.02047,4,1,0,75,0,0
26050,-116.78832,4,1,0,75,0,0
26146,-115.464264,4,1,0,75,0,0
26241,-114.08199,4,1,0,75,0,0
26337,-112.618706,4,1,0,75,0,0
26432,-111.11111,4,1,0,75,0,0
26624,-117.647058823529,4,1,0,80,0,0
27579,-117.647064,4,1,0,80,0,0
27770,-114.33238,4,1,0,80,0,0
27961,-111.11111,4,1,0,80,0,0
28152,-117.647058823529,4,1,0,80,0,0
28726,-117.62996,4,1,0,80,0,0
28918,-114.391685,4,1,0,80,0,0
29109,-111.25872,4,1,0,80,0,0
29300,-108.21157,4,1,0,80,0,0
29491,-105.247856,4,1,0,80,0,0
29681,-117.647058823529,4,1,0,80,0,0
30254,-105.263157894737,4,1,0,80,0,0
30445,-117.647058823529,4,1,0,80,0,0
31018,-105.263157894737,4,1,0,80,0,0
31210,-117.647058823529,4,1,0,80,0,0
31401,-117.647064,4,1,0,80,0,0
31592,-115.97788,4,1,0,80,0,0
31783,-114.33238,4,1,0,80,0,0
31974,-112.71025,4,1,0,80,0,0
32069,-111.911995,4,1,0,80,0,0
32165,-111.11111,4,1,0,80,0,0
32547,-105.263157894737,4,1,0,80,0,0
32738,-117.647058823529,4,1,0,80,0,0
33311,-105.263157894737,4,1,0,80,0,0
33503,-117.647058823529,4,1,0,80,0,0
34076,-95.2380952380954,4,1,0,80,0,0
34458,-100,4,1,0,80,0,0
34841,-105.256096,4,1,0,80,0,0
35036,-105.256096,4,1,0,80,0,0
35132,-104.34914,4,1,0,80,0,0
35228,-103.44998,4,1,0,80,0,0
35323,-102.56784,4,1,0,80,0,0
35419,-101.68404,4,1,0,80,0,0
35605,-99.993286,4,1,0,80,0,0
35796,-98.810295,4,1,0,85,0,0
35891,-98.22689,4,1,0,85,0,0
35987,-97.64085,4,1,0,85,0,0
36082,-97.06434,4,1,0,85,0,0
36178,-96.48523,4,1,0,85,0,0
36273,-95.91555,4,1,0,85,0,0
36369,-95.343285,4,1,0,85,0,0
36464,-94.78035,4,1,0,85,0,0
36560,-94.21487,4,1,0,85,0,0
36655,-93.658585,4,1,0,85,0,0
36751,-93.09979,4,1,0,85,0,0
36846,-92.5501,4,1,0,85,0,0
36942,-91.997925,4,1,0,85,0,0
37038,-91.449036,4,1,0,85,0,0
37133,-90.90909,4,1,0,85,0,0
37897,-90.90909,4,1,0,85,0,0
38280,-86.9565217391304,4,1,0,85,0,0
38662,-83.3333325694445,4,1,0,85,0,0
39999,-81.6326530612245,4,1,0,85,0,0
40190,-80,4,1,0,85,0,0
40382,-83.3333333333333,4,1,0,85,0,0
41528,-81.6326530612245,4,1,0,85,0,0
41719,-80,4,1,0,85,0,0
41911,-83.3333333333333,4,1,0,85,0,0
43057,-81.6326530612245,4,1,0,85,0,0
43248,-80,4,1,0,85,0,0
43534,-81.64674,4,1,0,85,0,0
43821,-83.333336,4,1,0,85,0,0
44203,-80.707504,4,1,0,85,0,0
44394,-79.42578,4,1,0,85,0,0
44585,-78.16441,4,1,0,85,0,0
44776,-76.92307,4,1,0,85,0,0
44967,-90.9090909090909,4,1,0,80,0,0
45923,-83.3333333333333,4,1,0,85,0,0
46114,-81.6326530612245,4,1,0,85,0,0
46305,-80,4,1,0,85,0,0
46496,-90.9090909090909,4,1,0,80,0,0
47452,-83.3333333333333,4,1,0,85,0,0
47643,-81.6326530612245,4,1,0,85,0,0
47834,-80,4,1,0,85,0,0
48025,-100,4,1,0,80,0,0
48598,-90.90909,4,1,0,80,0,0
48789,-88.04971,4,1,0,80,0,0
48885,-86.6467,4,1,0,80,0,0
48980,-85.28028,4,1,0,85,0,0
49171,-82.59795,4,1,0,85,0,0
49362,-80.00001,4,1,0,85,0,0
49649,-82.5421,4,1,0,85,0,0
49936,-85.16496,4,1,0,85,0,0
50127,-86.95652,4,1,0,85,0,0
50318,-95.2381,4,1,0,85,0,0
50413,-94.50638,4,1,0,85,0,0
50509,-93.77265,4,1,0,85,0,0
50604,-93.05219,4,1,0,85,0,0
50700,-92.329765,4,1,0,85,0,0
50796,-91.61295,4,1,0,85,0,0
50891,-90.90909,4,1,0,90,0,0
57292,-86.9565217391304,4,1,0,90,0,0
57579,-83.3333333333333,4,1,0,90,0,0
57961,-90.90909,4,1,0,90,0,0
58152,-91.876366,4,1,0,90,0,0
58343,-92.85393,4,1,0,90,0,0
58439,-93.349205,4,1,0,90,0,0
58534,-93.84191,4,1,0,90,0,0
58725,-94.84039,4,1,0,90,0,0
58917,-95.85482,4,1,0,90,0,0
59203,-97.38603,4,1,0,90,0,0
59299,-97.90548,4,1,0,90,0,0
59490,-98.9472,4,1,0,90,0,0
59681,-100,4,1,0,90,0,0
60063,-83.333336,4,1,0,90,0,0
60190,-85.03271,4,1,0,90,0,0
60318,-86.780525,4,1,0,90,0,0
60445,-88.550186,4,1,0,90,0,0
60573,-90.3703,4,1,0,90,0,0
60700,-92.21318,4,1,0,90,0,0
60827,-94.09363,4,1,0,90,0,0
60955,-96.02769,4,1,0,90,0,0
61082,-97.98593,4,1,0,90,0,0
61210,-100,4,1,0,90,0,0
61401,-98.42405,4,1,0,90,0,0
61496,-97.64947,4,1,0,90,0,0
61592,-96.87293,4,1,0,90,0,0
61878,-94.595894,4,1,0,90,0,0
62165,-92.364716,4,1,0,90,0,0
62356,-90.90909,4,1,0,90,0,0
62547,-93.10124,4,1,0,90,0,0
62643,-94.22294,4,1,0,90,0,0
62738,-95.34625,4,1,0,90,0,0
63120,-90.9090909090909,4,1,0,90,0,0
74776,-90.90909,4,1,0,90,0,0
74872,-91.61915,4,1,0,90,0,0
74967,-92.327286,4,1,0,90,0,0
75063,-93.048416,4,1,0,90,0,0
75159,-93.77519,4,1,0,90,0,0
75254,-94.499985,4,1,0,90,0,0
75350,-95.2381,4,1,0,90,0,0
87866,-90.9090909090909,4,1,0,90,0,0
88152,-86.9565217391304,4,1,0,90,0,0
88534,-90.90909,4,1,0,90,0,0
88725,-92.65678,4,1,0,90,0,0
88917,-94.44748,4,1,0,90,0,0
89012,-95.34625,4,1,0,90,0,0
89108,-96.26318,4,1,0,90,0,0
89299,-98.1138,4,1,0,90,0,0
89490,-100,4,1,0,90,0,0
89872,-100,4,1,0,90,0,0
89967,-98.82185,4,1,0,90,0,0
90063,-97.64541,4,1,0,90,0,0
90159,-96.48296,4,1,0,90,0,0
90254,-95.34626,4,1,0,90,0,0
90350,-94.21118,4,1,0,90,0,0
90445,-93.10124,4,1,0,90,0,0
90541,-91.9929,4,1,0,90,0,0
90636,-90.90909,4,1,0,90,0,0
90833,-95.2381,4,1,0,90,0,0
90928,-94.62447,4,1,0,90,0,0
91024,-94.0084,4,1,0,90,0,0
91119,-93.40268,4,1,0,90,0,0
91215,-92.79456,4,1,0,90,0,0
91310,-92.19668,4,1,0,90,0,0
91406,-91.59641,4,1,0,90,0,0
91501,-91.00625,4,1,0,90,0,0
91597,-90.41373,4,1,0,90,0,0
91693,-89.82508,4,1,0,90,0,0
91788,-89.24632,4,1,0,90,0,0
91884,-88.66526,4,1,0,90,0,0
91979,-88.09398,4,1,0,90,0,0
92075,-87.52042,4,1,0,90,0,0
92170,-86.95652,4,1,0,90,0,0
92738,-96.40688,4,1,0,90,0,0
92834,-95.81765,4,1,0,90,0,0
92929,-95.2381,4,1,0,90,0,0
93311,-90.9090909090909,4,1,0,90,0,0
93702,-86.9565217391304,4,1,0,90,0,1
104400,-86.95652,4,1,0,90,0,1
104686,-84.70564,4,1,0,90,0,1
104973,-82.50545,4,1,0,90,0,1
105164,-81.072975,4,1,0,90,0,1
105450,-78.974396,4,1,0,90,0,1
105737,-76.92308,4,1,0,90,0,1
105928,-86.9565217391304,4,1,0,90,0,1
116632,-86.9565217391304,4,1,0,90,0,0
117393,-90.9090909090909,4,1,0,90,0,0
117775,-95.2380952380952,4,1,0,90,0,0
118157,-100,4,1,0,90,0,0
118253,-125,4,1,0,80,0,0
122170,-125,4,1,0,80,0,0
122266,-124.180954,4,1,0,80,0,0
122361,-123.37572,4,1,0,80,0,0
122552,-121.772545,4,1,0,80,0,0
122743,-120.1902,4,1,0,80,0,0
123030,-117.85114,4,1,0,80,0,0
123317,-115.55758,4,1,0,80,0,0
123508,-114.05599,4,1,0,80,0,0
123699,-112.57392,4,1,0,80,0,0
123794,-111.84396,4,1,0,80,0,0
123890,-111.11111,4,1,0,80,0,0
124368,-125,4,1,0,75,0,0
126947,-117.647058823529,4,1,0,75,0,0
127329,-111.111111111111,4,1,0,80,0,0
128858,-111.11111,4,1,0,80,0,0
129145,-109.61806,4,1,0,80,0,0
129431,-108.150154,4,1,0,80,0,0
129622,-107.18083,4,1,0,80,0,0
129814,-106.215164,4,1,0,80,0,0
129909,-105.740585,4,1,0,80,0,0
130005,-105.26316,4,1,0,80,0,0
130387,-95.2380969614513,4,1,0,90,0,0
134973,-95.2381,4,1,0,90,0,0
135164,-96.43706,4,1,0,90,0,0
135259,-97.039,4,1,0,90,0,0
135450,-98.26063,4,1,0,90,0,0
135546,-98.88044,4,1,0,90,0,0
135737,-100.12524,4,1,0,90,0,0
135833,-100.756805,4,1,0,90,0,0
135928,-101.38572,4,1,0,90,0,0
136024,-102.02523,4,1,0,90,0,0
136119,-102.66206,4,1,0,90,0,0
136215,-103.30963,4,1,0,90,0,0
136310,-103.95449,4,1,0,90,0,0
136406,-104.61021,4,1,0,90,0,0
136501,-105.26316,4,1,0,90,0,0
136693,-111.111111111111,4,1,0,90,0,0
147202,-111.11111,4,1,0,90,0,0
147489,-110.45418,4,1,0,90,0,0
147775,-108.93843,4,1,0,90,0,0
147966,-107.56203,4,1,0,90,0,0
148158,-105.93634,4,1,0,90,0,0
148253,-105.05405,4,1,0,90,0,0
148349,-104.11596,4,1,0,90,0,0
148444,-103.145706,4,1,0,90,0,0
148540,-102.12685,4,1,0,90,0,0
148635,-101.08439,4,1,0,90,0,0
148731,-100,4,1,0,90,0,0
149017,-93.0232558139535,4,1,0,90,0,0
149304,-86.9565217391304,4,1,0,90,0,0
149686,-90.90909,4,1,0,90,0,0
149782,-91.78334,4,1,0,90,0,0
149877,-92.65678,4,1,0,90,0,0
150068,-94.43807,4,1,0,90,0,0
150164,-95.34625,4,1,0,90,0,0
150259,-96.253586,4,1,0,90,0,0
150450,-98.10402,4,1,0,90,0,0
150642,-100,4,1,0,90,0,0
151024,-100,4,1,0,90,0,0
151119,-98.82185,4,1,0,90,0,0
151215,-97.64541,4,1,0,90,0,0
151310,-96.495,4,1,0,90,0,0
151406,-95.34626,4,1,0,90,0,0
151501,-94.22294,4,1,0,90,0,0
151597,-93.10124,4,1,0,90,0,0
151693,-91.9929,4,1,0,90,0,0
151788,-90.90909,4,1,0,90,0,0
151979,-95.2381,4,1,0,90,0,0
152075,-94.618484,4,1,0,90,0,0
152170,-94.009315,4,1,0,90,0,0
152266,-93.39769,4,1,0,90,0,0
152361,-92.79638,4,1,0,90,0,0
152457,-92.19265,4,1,0,90,0,0
152552,-91.59908,4,1,0,90,0,0
152648,-91.00315,4,1,0,90,0,0
152743,-90.417244,4,1,0,90,0,0
152839,-89.829,4,1,0,90,0,0
152935,-89.24458,4,1,0,90,0,0
153030,-88.67,4,1,0,90,0,0
153126,-88.09312,4,1,0,90,0,0
153221,-87.525955,4,1,0,90,0,0
153317,-86.95652,4,1,0,90,0,0
153572,-91.831116,4,1,0,90,0,0
153699,-94.359856,4,1,0,90,0,0
153954,-99.64947,4,1,0,90,0,0
154081,-102.3935,4,1,0,90,0,0
154336,-108.133446,4,1,0,90,0,0
154463,-111.11111,4,1,0,90,0,0
154848,-86.9565217391304,4,1,0,90,0,1
165546,-86.95652,4,1,0,90,0,1
165833,-84.69953,4,1,0,90,0,1
166119,-82.50869,4,1,0,90,0,1
166310,-81.077225,4,1,0,90,0,1
166597,-78.97284,4,1,0,90,0,1
166884,-76.92308,4,1,0,90,0,1
167075,-86.9565217391304,4,1,0,90,0,1
177778,-86.9565217391304,4,1,0,90,0,0
178540,-86.9565217391304,4,1,0,90,0,0
178922,-90.9090909090909,4,1,0,90,0,0
179304,-95.2380952380952,4,1,0,90,0,0
190196,-95.2381,4,1,0,90,0,0
190291,-94.50638,4,1,0,90,0,0
190387,-93.77265,4,1,0,90,0,0
190482,-93.05219,4,1,0,90,0,0
190578,-92.329765,4,1,0,90,0,0
190673,-91.6204,4,1,0,90,0,0
190769,-90.90909,4,1,0,90,0,0
191151,-93.0232558139535,4,1,0,90,0,0
191533,-95.2380952380952,4,1,0,90,0,0
197648,-95.2381,4,1,0,90,0,0
197839,-95.229256,4,1,0,90,0,0
197935,-95.21361,4,1,0,90,0,0
198126,-95.15049,4,1,0,90,0,0
198221,-95.10034,4,1,0,90,0,0
198412,-94.95573,4,1,0,90,0,0
198603,-94.7459,4,1,0,90,0,0
198699,-94.613594,4,1,0,90,0,0
198794,-94.46399,4,1,0,90,0,0
198890,-94.29327,4,1,0,90,0,0
198986,-94.10227,4,1,0,90,0,0
199177,-93.659966,4,1,0,90,0,0
199368,-93.13194,4,1,0,90,0,0
199463,-92.83659,4,1,0,90,0,0
199559,-92.51578,4,1,0,90,0,0
199654,-92.17601,4,1,0,90,0,0
199750,-91.81007,4,1,0,90,0,0
199845,-91.42556,4,1,0,90,0,0
199941,-91.014404,4,1,0,90,0,0
200132,-90.12932,4,1,0,90,0,0
200228,-89.651115,4,1,0,90,0,0
200323,-89.15628,4,1,0,90,0,0
200419,-88.634705,4,1,0,90,0,0
200514,-88.097626,4,1,0,90,0,0
200610,-87.534164,4,1,0,90,0,0
200705,-86.95652,4,1,0,90,0,0
200896,-87.15545,4,1,0,90,0,0
200992,-87.36316,4,1,0,90,0,0
201087,-87.62926,4,1,0,90,0,0
201279,-88.33958,4,1,0,90,0,0
201470,-89.26692,4,1,0,90,0,0
201661,-90.412895,4,1,0,90,0,0
201756,-91.06564,4,1,0,90,0,0
201947,-92.54994,4,1,0,90,0,0
202043,-93.38589,4,1,0,90,0,0
202234,-95.23809,4,1,0,90,0,0
202998,-105.263151495845,4,1,0,90,0,0
203380,-100,4,1,0,90,0,0
203763,-95.2380952380952,4,1,0,90,0,0
222107,-95.2381,4,1,0,90,0,0
222298,-95.21155,4,1,0,90,0,0
222393,-95.17229,4,1,0,90,0,0
222489,-95.11196,4,1,0,90,0,0
222584,-95.03036,4,1,0,90,0,0
222680,-94.924614,4,1,0,90,0,0
222871,-94.64103,4,1,0,90,0,0
222966,-94.46234,4,1,0,90,0,0
223062,-94.25566,4,1,0,90,0,0
223158,-94.02241,4,1,0,90,0,0
223253,-93.76513,4,1,0,90,0,0
223349,-93.47827,4,1,0,90,0,0
223444,-93.16773,4,1,0,90,0,0
223635,-92.46329,4,1,0,90,0,0
223731,-92.06912,4,1,0,90,0,0
223826,-91.65297,4,1,0,90,0,0
223922,-91.20643,4,1,0,90,0,0
224017,-90.7392,4,1,0,90,0,0
224113,-90.2419,4,1,0,90,0,0
224208,-89.72544,4,1,0,90,0,0
224304,-89.179535,4,1,0,90,0,0
224400,-88.610146,4,1,0,90,0,0
224495,-88.02426,4,1,0,90,0,0
224591,-87.41028,4,1,0,90,0,0
224686,-86.78178,4,1,0,90,0,0
224782,-86.12635,4,1,0,90,0,0
224877,-85.45848,4,1,0,90,0,0
224973,-84.765,4,1,0,90,0,0
225068,-84.06125,4,1,0,90,0,0
225164,-83.333336,4,1,0,90,0,0
225450,-84.472275,4,1,0,90,0,0
225546,-85.104614,4,1,0,90,0,0
225737,-86.64632,4,1,0,90,0,0
225928,-88.54583,4,1,0,90,0,0
226024,-89.635124,4,1,0,90,0,0
226215,-92.079216,4,1,0,90,0,0
226310,-93.43842,4,1,0,90,0,0
226501,-96.48198,4,1,0,90,0,0
226693,-100.000015,4,1,0,90,0,0
226788,-95.2380952380952,4,1,0,85,0,0
228221,-125,4,1,0,75,0,0
234336,-111.111111111111,4,1,0,80,0,0
234718,-125,4,1,0,80,0,0
235100,-111.111111111111,4,1,0,80,0,0
235482,-125,4,1,0,80,0,0
235865,-111.111111111111,4,1,0,80,0,0
236247,-125,4,1,0,80,0,0
236629,-100,4,1,0,80,0,0
237011,-105.409256,4,1,0,80,0,0
237202,-108.22263,4,1,0,80,0,0
237298,-109.66492,4,1,0,80,0,0
237393,-111.11111,4,1,0,80,0,0
237584,-108.992,4,1,0,80,0,0
237775,-106.9133,4,1,0,80,0,0
237966,-104.874245,4,1,0,80,0,0
238158,-102.863716,4,1,0,80,0,0
238349,-100.9019,4,1,0,80,0,0
238540,-98.97749,4,1,0,80,0,0
238731,-97.0898,4,1,0,80,0,0
238922,-95.2381,4,1,0,80,0,0
239877,-114.28571,4,1,0,90,0,0
239973,-112.678925,4,1,0,90,0,0
240068,-111.11111,4,1,0,80,0,0
240450,-125,4,1,0,80,0,0
245992,-125,4,1,0,80,0,0
246087,-123.74989,4,1,0,80,0,0
246183,-122.49933,4,1,0,80,0,0
246279,-121.26139,4,1,0,80,0,0
246374,-120.04869,4,1,0,80,0,0
246470,-118.835526,4,1,0,80,0,0
246565,-117.647064,4,1,0,80,0,0
247329,-95.2380986303854,4,1,0,85,0,0
247903,-97.560974,4,1,0,85,0,0
247998,-96.39862,4,1,0,85,0,0
248094,-95.23809,4,1,0,85,0,0
248476,-100,4,1,0,85,0,0
248858,-105.263151495845,4,1,0,85,0,0
249049,-105.26315,4,1,0,85,0,0
249145,-104.362434,4,1,0,85,0,0
249240,-103.47869,4,1,0,85,0,0
249336,-102.59324,4,1,0,85,0,0
249431,-101.72447,4,1,0,85,0,0
249527,-100.854034,4,1,0,85,0,0
249622,-100,4,1,0,85,0,0
249814,-105.26315,4,1,0,90,0,0
249909,-104.51724,4,1,0,90,0,0
250005,-103.768845,4,1,0,90,0,0
250100,-103.03352,4,1,0,90,0,0
250196,-102.29575,4,1,0,90,0,0
250291,-101.57086,4,1,0,90,0,0
250387,-100.84357,4,1,0,90,0,0
250482,-100.12898,4,1,0,90,0,0
250578,-99.411995,4,1,0,90,0,0
250673,-98.70755,4,1,0,90,0,0
250769,-98.00077,4,1,0,90,0,0
250865,-97.299034,4,1,0,90,0,0
250960,-96.60955,4,1,0,90,0,0
251056,-95.91778,4,1,0,90,0,0
251151,-95.2380952380952,4,1,0,90,0,0
252680,-100,4,1,0,90,0,0
252775,-99.536476,4,1,0,90,0,0
252871,-98.897415,4,1,0,90,0,0
252966,-98.18679,4,1,0,90,0,0
253062,-97.416855,4,1,0,90,0,0
253158,-96.60967,4,1,0,90,0,0
253253,-95.78378,4,1,0,90,0,0
253349,-94.92872,4,1,0,90,0,0
253444,-94.06743,4,1,0,90,0,0
253540,-93.185875,4,1,0,90,0,0
253635,-92.30569,4,1,0,90,0,0
253731,-91.411064,4,1,0,90,0,0
253826,-90.52288,4,1,0,90,0,0
253922,-89.62435,4,1,0,90,0,0
254017,-88.7358,4,1,0,90,0,0
254113,-87.83991,4,1,0,90,0,0
254211,-86.95652,4,1,0,90,0,1
264909,-86.95652,4,1,0,90,0,1
265196,-84.69953,4,1,0,90,0,1
265482,-82.50869,4,1,0,90,0,1
265673,-81.077225,4,1,0,90,0,1
265960,-78.97284,4,1,0,90,0,1
266247,-76.92308,4,1,0,90,0,1
266438,-86.9565217391304,4,1,0,90,0,1
283256,-86.9565217391304,4,1,0,90,0,0
284017,-95.2380952380952,4,1,0,90,0,0
284782,-100,4,1,0,90,0,0
287075,-95.2381,4,1,0,90,0,0
287170,-94.16685,4,1,0,90,0,0
287266,-93.09654,4,1,0,90,0,0
287457,-91.00315,4,1,0,90,0,0
287648,-88.956825,4,1,0,90,0,0
287839,-86.95652,4,1,0,90,0,0
292425,-86.95652,4,1,0,90,0,0
292712,-84.69953,4,1,0,90,0,0
292998,-82.50869,4,1,0,90,0,0
293380,-79.6706,4,1,0,90,0,0
293572,-78.2812,4,1,0,90,0,0
293763,-76.92308,4,1,0,90,0,0
293954,-86.9565217391304,4,1,0,90,0,0
298535,-86.9565217391304,4,1,0,90,0,0
298821,-88.9055917327498,4,1,0,90,0,0
299108,-90.9090940826447,4,1,0,90,0,0
299490,-87.7930629817735,4,1,0,90,0,0
299681,-86.278518640246,4,1,0,90,0,0
299872,-84.7921373918748,4,1,0,90,0,0
300063,-83.3333252083334,4,1,0,90,0,0
300350,-86.9565217391304,4,1,0,90,0,0
300637,-90.9090812396696,4,1,0,90,0,0
301019,-87.7930629817735,4,1,0,90,0,0
301210,-86.278518640246,4,1,0,90,0,0
301401,-84.7921373918748,4,1,0,90,0,0
301592,-83.3333252083334,4,1,0,90,0,0
301879,-86.9565217391304,4,1,0,90,0,0
302166,-90.9090812396696,4,1,0,90,0,0
302548,-87.7930629817735,4,1,0,90,0,0
302739,-86.278518640246,4,1,0,90,0,0
302930,-84.7921373918748,4,1,0,90,0,0
303121,-83.3333252083334,4,1,0,90,0,0
303408,-90.9090909090909,4,1,0,90,0,0
304268,-90.90909,4,1,0,90,0,0
304363,-89.82365,4,1,0,90,0,0
304459,-88.73997,4,1,0,90,0,0
304559,-87.62502,4,1,0,90,0,0
304650,-86.62261,4,1,0,90,0,0
304841,-83.333336,4,1,0,90,0,0
305419,-100,4,1,0,60,0,0
305610,-111.111111111111,4,1,0,60,0,0

[HitObjects]
256,192,10485,12,0,12492,0:0:0:0:
256,192,12683,12,0,14020,0:0:0:0:
256,192,14211,5,0,0:0:0:0:
256,192,14498,1,0,0:0:0:0:
256,192,14785,1,8,0:0:0:0:
256,192,14976,1,0,0:0:0:0:
256,192,15549,1,0,0:0:0:0:
256,192,15740,1,8,0:0:0:0:
256,192,16027,1,0,0:0:0:0:
256,192,16313,1,8,0:0:0:0:
256,192,16504,1,8,0:0:0:0:
256,192,16887,1,8,0:0:0:0:
256,192,17269,1,0,0:0:0:0:
256,192,17651,1,0,0:0:0:0:
256,192,18033,1,8,0:0:0:0:
256,192,18415,1,8,0:0:0:0:
256,192,18797,1,0,0:0:0:0:
256,192,19084,1,8,0:0:0:0:
256,192,19371,1,0,0:0:0:0:
256,192,19466,1,8,0:0:0:0:
256,192,19562,1,0,0:0:0:0:
256,192,20326,1,0,0:0:0:0:
256,192,20613,1,0,0:0:0:0:
256,192,20899,1,8,0:0:0:0:
256,192,21090,1,8,0:0:0:0:
256,192,21473,1,0,0:0:0:0:
256,192,21855,1,0,0:0:0:0:
256,192,22428,1,8,0:0:0:0:
256,192,22524,1,0,0:0:0:0:
256,192,22619,1,8,0:0:0:0:
256,192,23001,1,0,0:0:0:0:
256,192,23383,1,8,0:0:0:0:
256,192,23670,1,8,0:0:0:0:
256,192,23957,1,0,0:0:0:0:
256,192,24148,1,8,0:0:0:0:
256,192,24434,1,8,0:0:0:0:
256,192,24721,1,8,0:0:0:0:
256,192,24912,1,0,0:0:0:0:
256,192,25199,1,0,0:0:0:0:
256,192,25485,1,0,0:0:0:0:
256,192,25581,1,0,0:0:0:0:
256,192,25676,1,8,0:0:0:0:
256,192,25868,1,8,0:0:0:0:
256,192,25963,1,8,0:0:0:0:
256,192,26059,1,0,0:0:0:0:
256,192,26154,1,8,0:0:0:0:
256,192,26250,1,0,0:0:0:0:
256,192,26345,1,0,0:0:0:0:
256,192,26441,1,12,0:0:0:0:
256,192,26823,1,0,0:0:0:0:
256,192,27205,1,0,0:0:0:0:
256,192,27587,1,0,0:0:0:0:
256,192,27778,1,8,0:0:0:0:
256,192,27969,1,4,0:0:0:0:
256,192,28352,1,0,0:0:0:0:
256,192,28734,1,0,0:0:0:0:
256,192,28925,1,8,0:0:0:0:
256,192,29116,1,0,0:0:0:0:
256,192,29307,1,8,0:0:0:0:
256,192,29498,1,4,0:0:0:0:
256,192,29880,1,0,0:0:0:0:
256,192,30262,1,12,0:0:0:0:
256,192,30645,1,8,0:0:0:0:
256,192,31027,1,4,0:0:0:0:
256,192,31409,1,0,0:0:0:0:
256,192,31600,1,0,0:0:0:0:
256,192,31791,1,8,0:0:0:0:
256,192,31982,1,0,0:0:0:0:
256,192,32078,1,0,0:0:0:0:
256,192,32173,1,0,0:0:0:0:
256,192,32555,1,4,0:0:0:0:
256,192,32938,1,0,0:0:0:0:
256,192,33320,1,12,0:0:0:0:
256,192,33702,1,0,0:0:0:0:
256,192,34084,1,12,0:0:0:0:
256,192,34466,1,12,0:0:0:0:
256,192,34848,1,4,0:0:0:0:
256,192,35039,1,8,0:0:0:0:
256,192,35135,1,8,0:0:0:0:
256,192,35231,1,0,0:0:0:0:
256,192,35326,1,0,0:0:0:0:
256,192,35422,1,8,0:0:0:0:
256,192,35613,1,4,0:0:0:0:
256,192,35804,1,0,0:0:0:0:
256,192,35899,1,0,0:0:0:0:
256,192,35995,1,8,0:0:0:0:
256,192,36090,1,0,0:0:0:0:
256,192,36186,1,8,0:0:0:0:
256,192,36282,1,8,0:0:0:0:
256,192,36377,1,0,0:0:0:0:
256,192,36473,1,0,0:0:0:0:
256,192,36568,1,8,0:0:0:0:
256,192,36664,1,8,0:0:0:0:
256,192,36759,1,0,0:0:0:0:
256,192,36855,1,8,0:0:0:0:
256,192,36950,1,0,0:0:0:0:
256,192,37046,1,0,0:0:0:0:
256,192,37141,1,12,0:0:0:0:
256,192,37906,1,4,0:0:0:0:
256,192,38288,1,4,0:0:0:0:
256,192,38670,1,12,0:0:0:0:
256,192,39817,1,12,0:0:0:0:
256,192,40008,1,12,0:0:0:0:
256,192,40199,1,4,0:0:0:0:
256,192,41345,1,12,0:0:0:0:
256,192,41536,1,4,0:0:0:0:
256,192,41727,1,12,0:0:0:0:
256,192,42874,1,12,0:0:0:0:
256,192,43065,1,12,0:0:0:0:
256,192,43256,1,4,0:0:0:0:
256,192,43543,1,4,0:0:0:0:
256,192,43829,1,12,0:0:0:0:
256,192,44211,1,12,0:0:0:0:
256,192,44403,1,4,0:0:0:0:
256,192,44594,1,12,0:0:0:0:
256,192,44785,1,4,0:0:0:0:
256,192,45167,1,0,0:0:0:0:
256,192,45549,1,0,0:0:0:0:
256,192,45931,1,12,0:0:0:0:
256,192,46122,1,12,0:0:0:0:
256,192,46313,1,4,0:0:0:0:
256,192,46696,1,0,0:0:0:0:
256,192,47078,1,0,0:0:0:0:
256,192,47460,1,12,0:0:0:0:
256,192,47651,1,4,0:0:0:0:
256,192,47842,1,12,0:0:0:0:
256,192,48224,1,0,0:0:0:0:
256,192,48606,1,0,0:0:0:0:
256,192,48797,1,0,0:0:0:0:
256,192,48893,1,0,0:0:0:0:
256,192,48989,1,12,0:0:0:0:
256,192,49180,1,12,0:0:0:0:
256,192,49371,1,4,0:0:0:0:
256,192,49657,1,4,0:0:0:0:
256,192,49944,1,4,0:0:0:0:
256,192,50135,1,12,0:0:0:0:
256,192,50326,1,0,0:0:0:0:
256,192,50422,1,0,0:0:0:0:
256,192,50517,1,8,0:0:0:0:
256,192,50613,1,0,0:0:0:0:
256,192,50708,1,8,0:0:0:0:
256,192,50804,1,8,0:0:0:0:
256,192,50899,1,4,0:0:0:0:
256,192,51090,1,8,0:0:0:0:
256,192,51186,1,8,0:0:0:0:
256,192,51282,1,0,0:0:0:0:
256,192,51377,1,8,0:0:0:0:
256,192,51473,1,0,0:0:0:0:
256,192,51568,1,0,0:0:0:0:
256,192,51664,1,8,0:0:0:0:
256,192,51759,1,8,0:0:0:0:
256,192,51855,1,0,0:0:0:0:
256,192,51950,1,0,0:0:0:0:
256,192,52046,1,8,0:0:0:0:
256,192,52141,1,0,0:0:0:0:
256,192,52237,1,8,0:0:0:0:
256,192,52332,1,8,0:0:0:0:
256,192,52428,1,0,0:0:0:0:
256,192,52524,1,0,0:0:0:0:
256,192,52619,1,0,0:0:0:0:
256,192,52715,1,0,0:0:0:0:
256,192,52810,1,8,0:0:0:0:
256,192,52906,1,8,0:0:0:0:
256,192,53001,1,0,0:0:0:0:
256,192,53097,1,0,0:0:0:0:
256,192,53192,1,8,0:0:0:0:
256,192,53288,1,0,0:0:0:0:
256,192,53383,1,0,0:0:0:0:
256,192,53479,1,0,0:0:0:0:
256,192,53575,1,8,0:0:0:0:
256,192,53670,1,8,0:0:0:0:
256,192,53766,1,0,0:0:0:0:
256,192,53861,1,0,0:0:0:0:
256,192,53957,1,8,0:0:0:0:
256,192,54052,1,8,0:0:0:0:
256,192,54148,1,8,0:0:0:0:
256,192,54243,1,8,0:0:0:0:
256,192,54339,1,0,0:0:0:0:
256,192,54434,1,0,0:0:0:0:
256,192,54530,1,8,0:0:0:0:
256,192,54625,1,0,0:0:0:0:
256,192,54721,1,8,0:0:0:0:
256,192,54817,1,8,0:0:0:0:
256,192,54912,1,0,0:0:0:0:
256,192,55008,1,0,0:0:0:0:
256,192,55103,1,8,0:0:0:0:
256,192,55199,1,0,0:0:0:0:
256,192,55294,1,8,0:0:0:0:
256,192,55390,1,0,0:0:0:0:
256,192,55485,1,8,0:0:0:0:
256,192,55581,1,8,0:0:0:0:
256,192,55676,1,8,0:0:0:0:
256,192,55772,1,8,0:0:0:0:
256,192,55868,1,0,0:0:0:0:
256,192,55963,1,0,0:0:0:0:
256,192,56059,1,8,0:0:0:0:
256,192,56154,1,0,0:0:0:0:
256,192,56250,1,8,0:0:0:0:
256,192,56345,1,8,0:0:0:0:
256,192,56441,1,0,0:0:0:0:
256,192,56536,1,0,0:0:0:0:
256,192,56632,1,8,0:0:0:0:
256,192,56727,1,0,0:0:0:0:
256,192,56823,1,0,0:0:0:0:
256,192,56918,1,0,0:0:0:0:
256,192,57014,1,12,0:0:0:0:
256,192,57301,1,4,0:0:0:0:
256,192,57587,1,12,0:0:0:0:
256,192,57969,1,0,0:0:0:0:
256,192,58161,1,8,0:0:0:0:
256,192,58352,1,8,0:0:0:0:
256,192,58447,1,8,0:0:0:0:
256,192,58543,1,0,0:0:0:0:
256,192,58734,1,8,0:0:0:0:
256,192,58925,1,0,0:0:0:0:
256,192,59211,1,0,0:0:0:0:
256,192,59307,1,8,0:0:0:0:
256,192,59498,1,8,0:0:0:0:
256,192,59689,1,0,0:0:0:0:
256,192,60071,1,8,0:0:0:0:
256,192,60199,1,8,0:0:0:0:
256,192,60326,1,0,0:0:0:0:
256,192,60453,1,8,0:0:0:0:
256,192,60581,1,0,0:0:0:0:
256,192,60708,1,0,0:0:0:0:
256,192,60836,1,8,0:0:0:0:
256,192,60963,1,8,0:0:0:0:
256,192,61090,1,0,0:0:0:0:
256,192,61218,1,8,0:0:0:0:
256,192,61473,1,0,0:0:0:0:
256,192,61600,1,12,0:0:0:0:
256,192,61887,1,4,0:0:0:0:
256,192,62173,1,12,0:0:0:0:
256,192,62364,1,4,0:0:0:0:
256,192,62555,1,8,0:0:0:0:
256,192,62651,1,8,0:0:0:0:
256,192,62746,1,0,0:0:0:0:
256,192,63129,1,12,0:0:0:0:
256,192,63320,1,0,0:0:0:0:
256,192,63415,1,8,0:0:0:0:
256,192,63511,1,0,0:0:0:0:
256,192,63702,1,8,0:0:0:0:
256,192,63893,1,0,0:0:0:0:
256,192,63989,1,8,0:0:0:0:
256,192,64084,1,0,0:0:0:0:
256,192,64180,1,0,0:0:0:0:
256,192,64275,1,8,0:0:0:0:
256,192,64466,1,0,0:0:0:0:
256,192,64657,1,8,0:0:0:0:
256,192,64753,1,0,0:0:0:0:
256,192,64848,1,8,0:0:0:0:
256,192,64944,1,8,0:0:0:0:
256,192,65039,1,0,0:0:0:0:
256,192,65231,1,8,0:0:0:0:
256,192,65422,1,0,0:0:0:0:
256,192,65517,1,0,0:0:0:0:
256,192,65613,1,8,0:0:0:0:
256,192,65708,1,0,0:0:0:0:
256,192,65804,1,8,0:0:0:0:
256,192,65995,1,0,0:0:0:0:
256,192,66186,1,8,0:0:0:0:
256,192,66282,1,8,0:0:0:0:
256,192,66377,1,0,0:0:0:0:
256,192,66473,1,8,0:0:0:0:
256,192,66568,1,0,0:0:0:0:
256,192,66664,1,0,0:0:0:0:
256,192,66759,1,8,0:0:0:0:
256,192,66855,1,8,0:0:0:0:
256,192,66950,1,0,0:0:0:0:
256,192,67141,1,8,0:0:0:0:
256,192,67237,1,8,0:0:0:0:
256,192,67332,1,0,0:0:0:0:
256,192,67524,1,8,0:0:0:0:
256,192,67715,1,0,0:0:0:0:
256,192,67810,1,0,0:0:0:0:
256,192,67906,1,8,0:0:0:0:
256,192,68001,1,8,0:0:0:0:
256,192,68097,1,0,0:0:0:0:
256,192,68288,1,8,0:0:0:0:
256,192,68383,1,0,0:0:0:0:
256,192,68479,1,8,0:0:0:0:
256,192,68670,1,0,0:0:0:0:
256,192,68861,1,8,0:0:0:0:
256,192,68957,1,8,0:0:0:0:
256,192,69052,1,8,0:0:0:0:
256,192,69148,1,8,0:0:0:0:
256,192,69243,1,4,0:0:0:0:
256,192,69434,1,8,0:0:0:0:
256,192,69530,1,8,0:0:0:0:
256,192,69625,1,0,0:0:0:0:
256,192,69817,1,8,0:0:0:0:
256,192,70008,1,8,0:0:0:0:
256,192,70103,1,8,0:0:0:0:
256,192,70199,1,0,0:0:0:0:
256,192,70294,1,0,0:0:0:0:
256,192,70390,1,8,0:0:0:0:
256,192,70581,1,8,0:0:0:0:
256,192,70772,1,0,0:0:0:0:
256,192,70868,1,0,0:0:0:0:
256,192,70963,1,8,0:0:0:0:
256,192,71059,1,8,0:0:0:0:
256,192,71154,1,0,0:0:0:0:
256,192,71345,1,8,0:0:0:0:
256,192,71441,1,8,0:0:0:0:
256,192,71536,1,0,0:0:0:0:
256,192,71727,1,0,0:0:0:0:
256,192,71823,1,0,0:0:0:0:
256,192,71918,1,8,0:0:0:0:
256,192,72110,1,8,0:0:0:0:
256,192,72301,1,0,0:0:0:0:
256,192,72396,1,0,0:0:0:0:
256,192,72492,1,8,0:0:0:0:
256,192,72587,1,0,0:0:0:0:
256,192,72683,1,8,0:0:0:0:
256,192,72874,1,0,0:0:0:0:
256,192,73065,1,8,0:0:0:0:
256,192,73161,1,0,0:0:0:0:
256,192,73256,1,8,0:0:0:0:
256,192,73352,1,8,0:0:0:0:
256,192,73447,1,0,0:0:0:0:
256,192,73638,1,0,0:0:0:0:
256,192,73829,1,8,0:0:0:0:
256,192,73925,1,8,0:0:0:0:
256,192,74020,1,0,0:0:0:0:
256,192,74116,1,8,0:0:0:0:
256,192,74211,1,0,0:0:0:0:
256,192,74307,1,0,0:0:0:0:
256,192,74403,1,8,0:0:0:0:
256,192,74498,1,0,0:0:0:0:
256,192,74594,1,8,0:0:0:0:
256,192,74785,1,0,0:0:0:0:
256,192,74880,1,0,0:0:0:0:
256,192,74976,1,8,0:0:0:0:
256,192,75071,1,8,0:0:0:0:
256,192,75167,1,8,0:0:0:0:
256,192,75262,1,8,0:0:0:0:
256,192,75358,1,4,0:0:0:0:
256,192,75549,1,8,0:0:0:0:
256,192,75645,1,0,0:0:0:0:
256,192,75836,1,0,0:0:0:0:
256,192,75931,1,8,0:0:0:0:
256,192,76122,1,0,0:0:0:0:
256,192,76313,1,8,0:0:0:0:
256,192,76409,1,8,0:0:0:0:
256,192,76504,1,0,0:0:0:0:
256,192,76696,1,8,0:0:0:0:
256,192,76887,1,0,0:0:0:0:
256,192,76982,1,0,0:0:0:0:
256,192,77078,1,8,0:0:0:0:
256,192,77173,1,8,0:0:0:0:
256,192,77269,1,0,0:0:0:0:
256,192,77364,1,0,0:0:0:0:
256,192,77460,1,8,0:0:0:0:
256,192,77651,1,0,0:0:0:0:
256,192,77842,1,8,0:0:0:0:
256,192,77938,1,0,0:0:0:0:
256,192,78033,1,8,0:0:0:0:
256,192,78129,1,8,0:0:0:0:
256,192,78224,1,0,0:0:0:0:
256,192,78320,1,0,0:0:0:0:
256,192,78415,1,12,0:0:0:0:
256,192,78606,1,0,0:0:0:0:
256,192,78702,1,8,0:0:0:0:
256,192,78893,1,8,0:0:0:0:
256,192,78989,1,0,0:0:0:0:
256,192,79180,1,8,0:0:0:0:
256,192,79275,1,8,0:0:0:0:
256,192,79371,1,0,0:0:0:0:
256,192,79466,1,0,0:0:0:0:
256,192,79562,1,8,0:0:0:0:
256,192,79753,1,0,0:0:0:0:
256,192,79944,1,8,0:0:0:0:
256,192,80039,1,8,0:0:0:0:
256,192,80135,1,0,0:0:0:0:
256,192,80231,1,0,0:0:0:0:
256,192,80326,1,0,0:0:0:0:
256,192,80517,1,8,0:0:0:0:
256,192,80708,1,0,0:0:0:0:
256,192,80899,1,8,0:0:0:0:
256,192,80995,1,8,0:0:0:0:
256,192,81090,1,0,0:0:0:0:
256,192,81282,1,8,0:0:0:0:
256,192,81473,1,0,0:0:0:0:
256,192,81664,1,8,0:0:0:0:
256,192,81759,1,0,0:0:0:0:
256,192,81950,1,0,0:0:0:0:
256,192,82046,1,8,0:0:0:0:
256,192,82237,1,0,0:0:0:0:
256,192,82428,1,8,0:0:0:0:
256,192,82524,1,8,0:0:0:0:
256,192,82619,1,0,0:0:0:0:
256,192,82810,1,8,0:0:0:0:
256,192,83001,1,8,0:0:0:0:
256,192,83097,1,8,0:0:0:0:
256,192,83192,1,0,0:0:0:0:
256,192,83288,1,0,0:0:0:0:
256,192,83383,1,8,0:0:0:0:
256,192,83575,1,0,0:0:0:0:
256,192,83766,1,8,0:0:0:0:
256,192,83861,1,0,0:0:0:0:
256,192,83957,1,0,0:0:0:0:
256,192,84052,1,0,0:0:0:0:
256,192,84148,1,8,0:0:0:0:
256,192,84339,1,0,0:0:0:0:
256,192,84530,1,12,0:0:0:0:
256,192,84721,1,0,0:0:0:0:
256,192,84817,1,8,0:0:0:0:
256,192,85008,1,8,0:0:0:0:
256,192,85103,1,0,0:0:0:0:
256,192,85294,1,8,0:0:0:0:
256,192,85485,1,0,0:0:0:0:
256,192,85581,1,8,0:0:0:0:
256,192,85676,1,0,0:0:0:0:
256,192,85868,1,8,0:0:0:0:
256,192,86059,1,0,0:0:0:0:
256,192,86154,1,0,0:0:0:0:
256,192,86250,1,8,0:0:0:0:
256,192,86345,1,0,0:0:0:0:
256,192,86441,1,8,0:0:0:0:
256,192,86536,1,8,0:0:0:0:
256,192,86632,1,0,0:0:0:0:
256,192,86823,1,8,0:0:0:0:
256,192,86918,1,8,0:0:0:0:
256,192,87014,1,0,0:0:0:0:
256,192,87110,1,0,0:0:0:0:
256,192,87205,1,12,0:0:0:0:
256,192,87587,1,4,0:0:0:0:
256,192,87874,1,4,0:0:0:0:
256,192,88161,1,12,0:0:0:0:
256,192,88543,1,0,0:0:0:0:
256,192,88734,1,8,0:0:0:0:
256,192,88925,1,8,0:0:0:0:
256,192,89020,1,8,0:0:0:0:
256,192,89116,1,0,0:0:0:0:
256,192,89307,1,8,0:0:0:0:
256,192,89498,1,0,0:0:0:0:
256,192,89880,1,8,0:0:0:0:
256,192,89976,1,8,0:0:0:0:
256,192,90071,1,0,0:0:0:0:
256,192,90167,1,0,0:0:0:0:
256,192,90262,1,8,0:0:0:0:
256,192,90358,1,8,0:0:0:0:
256,192,90453,1,8,0:0:0:0:
256,192,90549,1,8,0:0:0:0:
256,192,90645,1,4,0:0:0:0:
256,192,90836,1,8,0:0:0:0:
256,192,90931,1,8,0:0:0:0:
256,192,91027,1,0,0:0:0:0:
256,192,91122,1,0,0:0:0:0:
256,192,91218,1,8,0:0:0:0:
256,192,91313,1,0,0:0:0:0:
256,192,91409,1,0,0:0:0:0:
256,192,91504,1,0,0:0:0:0:
256,192,91600,1,8,0:0:0:0:
256,192,91696,1,8,0:0:0:0:
256,192,91791,1,0,0:0:0:0:
256,192,91887,1,8,0:0:0:0:
256,192,91982,1,0,0:0:0:0:
256,192,92078,1,0,0:0:0:0:
256,192,92173,1,12,0:0:0:0:
256,192,92746,1,0,0:0:0:0:
256,192,92842,1,0,0:0:0:0:
256,192,92938,1,12,0:0:0:0:
256,192,93320,1,12,0:0:0:0:
256,192,93702,1,0,0:0:0:0:
256,192,93797,1,0,0:0:0:0:
256,192,93893,1,8,0:0:0:0:
256,192,93989,1,0,0:0:0:0:
256,192,94084,1,8,0:0:0:0:
256,192,94180,1,8,0:0:0:0:
256,192,94275,1,0,0:0:0:0:
256,192,94371,1,0,0:0:0:0:
256,192,94466,1,8,0:0:0:0:
256,192,94562,1,0,0:0:0:0:
256,192,94657,1,0,0:0:0:0:
256,192,94753,1,0,0:0:0:0:
256,192,94848,1,8,0:0:0:0:
256,192,94944,1,8,0:0:0:0:
256,192,95039,1,0,0:0:0:0:
256,192,95135,1,8,0:0:0:0:
256,192,95231,1,0,0:0:0:0:
256,192,95326,1,0,0:0:0:0:
256,192,95422,1,8,0:0:0:0:
256,192,95517,1,0,0:0:0:0:
256,192,95613,1,8,0:0:0:0:
256,192,95708,1,8,0:0:0:0:
256,192,95804,1,0,0:0:0:0:
256,192,95899,1,0,0:0:0:0:
256,192,95995,1,8,0:0:0:0:
256,192,96090,1,0,0:0:0:0:
256,192,96186,1,8,0:0:0:0:
256,192,96282,1,8,0:0:0:0:
256,192,96377,1,0,0:0:0:0:
256,192,96473,1,8,0:0:0:0:
256,192,96568,1,0,0:0:0:0:
256,192,96664,1,0,0:0:0:0:
256,192,96759,1,8,0:0:0:0:
256,192,96855,1,8,0:0:0:0:
256,192,96950,1,0,0:0:0:0:
256,192,97046,1,0,0:0:0:0:
256,192,97141,1,8,0:0:0:0:
256,192,97237,1,0,0:0:0:0:
256,192,97332,1,0,0:0:0:0:
256,192,97428,1,0,0:0:0:0:
256,192,97524,1,8,0:0:0:0:
256,192,97619,1,8,0:0:0:0:
256,192,97715,1,8,0:0:0:0:
256,192,97810,1,0,0:0:0:0:
256,192,97906,1,8,0:0:0:0:
256,192,98001,1,8,0:0:0:0:
256,192,98097,1,0,0:0:0:0:
256,192,98192,1,0,0:0:0:0:
256,192,98288,1,8,0:0:0:0:
256,192,98383,1,8,0:0:0:0:
256,192,98479,1,0,0:0:0:0:
256,192,98575,1,8,0:0:0:0:
256,192,98670,1,0,0:0:0:0:
256,192,98766,1,0,0:0:0:0:
256,192,98861,1,8,0:0:0:0:
256,192,98957,1,0,0:0:0:0:
256,192,99052,1,8,0:0:0:0:
256,192,99148,1,8,0:0:0:0:
256,192,99243,1,0,0:0:0:0:
256,192,99339,1,0,0:0:0:0:
256,192,99434,1,8,0:0:0:0:
256,192,99530,1,0,0:0:0:0:
256,192,99625,1,0,0:0:0:0:
256,192,99721,1,0,0:0:0:0:
256,192,99817,1,8,0:0:0:0:
256,192,99912,1,8,0:0:0:0:
256,192,100008,1,0,0:0:0:0:
256,192,100103,1,8,0:0:0:0:
256,192,100199,1,0,0:0:0:0:
256,192,100294,1,0,0:0:0:0:
256,192,100390,1,8,0:0:0:0:
256,192,100485,1,0,0:0:0:0:
256,192,100581,1,8,0:0:0:0:
256,192,100676,1,8,0:0:0:0:
256,192,100772,1,8,0:0:0:0:
256,192,100868,1,8,0:0:0:0:
256,192,100963,1,0,0:0:0:0:
256,192,101059,1,0,0:0:0:0:
256,192,101154,1,0,0:0:0:0:
256,192,101250,1,0,0:0:0:0:
256,192,101345,1,8,0:0:0:0:
256,192,101441,1,8,0:0:0:0:
256,192,101536,1,0,0:0:0:0:
256,192,101632,1,0,0:0:0:0:
256,192,101727,1,0,0:0:0:0:
256,192,101823,1,0,0:0:0:0:
256,192,101918,1,8,0:0:0:0:
256,192,102014,1,0,0:0:0:0:
256,192,102110,1,8,0:0:0:0:
256,192,102205,1,8,0:0:0:0:
256,192,102301,1,0,0:0:0:0:
256,192,102396,1,0,0:0:0:0:
256,192,102492,1,8,0:0:0:0:
256,192,102587,1,0,0:0:0:0:
256,192,102683,1,0,0:0:0:0:
256,192,102778,1,0,0:0:0:0:
256,192,102874,1,8,0:0:0:0:
256,192,102969,1,8,0:0:0:0:
256,192,103065,1,0,0:0:0:0:
256,192,103161,1,8,0:0:0:0:
256,192,103256,1,0,0:0:0:0:
256,192,103352,1,0,0:0:0:0:
256,192,103447,1,8,0:0:0:0:
256,192,103543,1,0,0:0:0:0:
256,192,103638,1,8,0:0:0:0:
256,192,103734,1,8,0:0:0:0:
256,192,103829,1,8,0:0:0:0:
256,192,103925,1,8,0:0:0:0:
256,192,104020,1,0,0:0:0:0:
256,192,104116,1,0,0:0:0:0:
256,192,104211,1,8,0:0:0:0:
256,192,104307,1,8,0:0:0:0:
256,192,104403,1,4,0:0:0:0:
256,192,104689,1,4,0:0:0:0:
256,192,104976,1,4,0:0:0:0:
256,192,105167,1,12,0:0:0:0:
256,192,105453,1,12,0:0:0:0:
256,192,105740,1,12,0:0:0:0:
256,192,105931,1,0,0:0:0:0:
256,192,106027,1,0,0:0:0:0:
256,192,106122,1,8,0:0:0:0:
256,192,106218,1,0,0:0:0:0:
256,192,106313,1,8,0:0:0:0:
256,192,106409,1,8,0:0:0:0:
256,192,106504,1,0,0:0:0:0:
256,192,106600,1,0,0:0:0:0:
256,192,106696,1,8,0:0:0:0:
256,192,106791,1,0,0:0:0:0:
256,192,106887,1,0,0:0:0:0:
256,192,106982,1,0,0:0:0:0:
256,192,107078,1,8,0:0:0:0:
256,192,107173,1,8,0:0:0:0:
256,192,107269,1,0,0:0:0:0:
256,192,107364,1,8,0:0:0:0:
256,192,107460,1,0,0:0:0:0:
256,192,107555,1,0,0:0:0:0:
256,192,107651,1,8,0:0:0:0:
256,192,107746,1,0,0:0:0:0:
256,192,107842,1,8,0:0:0:0:
256,192,107938,1,8,0:0:0:0:
256,192,108033,1,0,0:0:0:0:
256,192,108129,1,0,0:0:0:0:
256,192,108224,1,8,0:0:0:0:
256,192,108320,1,0,0:0:0:0:
256,192,108415,1,8,0:0:0:0:
256,192,108511,1,8,0:0:0:0:
256,192,108606,1,0,0:0:0:0:
256,192,108702,1,8,0:0:0:0:
256,192,108797,1,0,0:0:0:0:
256,192,108893,1,0,0:0:0:0:
256,192,108989,1,8,0:0:0:0:
256,192,109084,1,8,0:0:0:0:
256,192,109180,1,0,0:0:0:0:
256,192,109275,1,0,0:0:0:0:
256,192,109371,1,8,0:0:0:0:
256,192,109466,1,0,0:0:0:0:
256,192,109562,1,0,0:0:0:0:
256,192,109657,1,0,0:0:0:0:
256,192,109753,1,8,0:0:0:0:
256,192,109848,1,8,0:0:0:0:
256,192,109944,1,8,0:0:0:0:
256,192,110039,1,8,0:0:0:0:
256,192,110135,1,0,0:0:0:0:
256,192,110231,1,0,0:0:0:0:
256,192,110326,1,0,0:0:0:0:
256,192,110422,1,0,0:0:0:0:
256,192,110517,1,8,0:0:0:0:
256,192,110613,1,8,0:0:0:0:
256,192,110708,1,0,0:0:0:0:
256,192,110804,1,8,0:0:0:0:
256,192,110899,1,0,0:0:0:0:
256,192,110995,1,0,0:0:0:0:
256,192,111090,1,8,0:0:0:0:
256,192,111186,1,0,0:0:0:0:
256,192,111282,1,8,0:0:0:0:
256,192,111377,1,8,0:0:0:0:
256,192,111473,1,0,0:0:0:0:
256,192,111568,1,0,0:0:0:0:
256,192,111664,1,8,0:0:0:0:
256,192,111759,1,0,0:0:0:0:
256,192,111855,1,0,0:0:0:0:
256,192,111950,1,0,0:0:0:0:
256,192,112046,1,8,0:0:0:0:
256,192,112141,1,8,0:0:0:0:
256,192,112237,1,0,0:0:0:0:
256,192,112332,1,8,0:0:0:0:
256,192,112428,1,0,0:0:0:0:
256,192,112524,1,0,0:0:0:0:
256,192,112619,1,8,0:0:0:0:
256,192,112715,1,0,0:0:0:0:
256,192,112810,1,8,0:0:0:0:
256,192,112906,1,8,0:0:0:0:
256,192,113001,1,0,0:0:0:0:
256,192,113097,1,0,0:0:0:0:
256,192,113192,1,8,0:0:0:0:
256,192,113288,1,0,0:0:0:0:
256,192,113383,1,0,0:0:0:0:
256,192,113479,1,0,0:0:0:0:
256,192,113575,1,8,0:0:0:0:
256,192,113670,1,8,0:0:0:0:
256,192,113766,1,8,0:0:0:0:
256,192,113861,1,8,0:0:0:0:
256,192,113957,1,0,0:0:0:0:
256,192,114052,1,0,0:0:0:0:
256,192,114148,1,8,0:0:0:0:
256,192,114243,1,0,0:0:0:0:
256,192,114339,1,8,0:0:0:0:
256,192,114434,1,8,0:0:0:0:
256,192,114530,1,0,0:0:0:0:
256,192,114625,1,0,0:0:0:0:
256,192,114721,1,8,0:0:0:0:
256,192,114817,1,0,0:0:0:0:
256,192,114912,1,0,0:0:0:0:
256,192,115008,1,0,0:0:0:0:
256,192,115103,1,8,0:0:0:0:
256,192,115199,1,8,0:0:0:0:
256,192,115294,1,0,0:0:0:0:
256,192,115390,1,8,0:0:0:0:
256,192,115485,1,0,0:0:0:0:
256,192,115581,1,0,0:0:0:0:
256,192,115676,1,8,0:0:0:0:
256,192,115772,1,0,0:0:0:0:
256,192,115868,1,8,0:0:0:0:
256,192,115963,1,8,0:0:0:0:
256,192,116059,1,0,0:0:0:0:
256,192,116154,1,8,0:0:0:0:
256,192,116250,1,0,0:0:0:0:
256,192,116345,1,0,0:0:0:0:
256,192,116441,1,8,0:0:0:0:
256,192,116536,1,8,0:0:0:0:
256,192,116632,1,4,0:0:0:0:
256,192,117396,1,12,0:0:0:0:
256,192,117778,1,12,0:0:0:0:
256,192,118161,1,4,0:0:0:0:
256,192,118543,1,0,0:0:0:0:
256,192,119307,1,0,0:0:0:0:
256,192,119689,1,8,0:0:0:0:
256,192,120071,1,0,0:0:0:0:
256,192,120836,1,0,0:0:0:0:
256,192,121218,1,8,0:0:0:0:
256,192,121600,1,0,0:0:0:0:
256,192,121791,1,8,0:0:0:0:
256,192,122173,1,0,0:0:0:0:
256,192,122269,1,0,0:0:0:0:
256,192,122364,1,8,0:0:0:0:
256,192,122555,1,8,0:0:0:0:
256,192,122746,1,0,0:0:0:0:
256,192,123033,1,0,0:0:0:0:
256,192,123320,1,0,0:0:0:0:
256,192,123511,1,8,0:0:0:0:
256,192,123702,1,0,0:0:0:0:
256,192,123797,1,0,0:0:0:0:
256,192,123893,1,0,0:0:0:0:
256,192,124275,1,8,0:0:0:0:
256,192,125804,1,8,0:0:0:0:
256,192,126950,1,0,0:0:0:0:
256,192,127332,1,12,0:0:0:0:
256,192,127906,1,0,0:0:0:0:
256,192,128097,1,8,0:0:0:0:
256,192,128479,1,8,0:0:0:0:
256,192,128670,1,8,0:0:0:0:
256,192,128861,1,0,0:0:0:0:
256,192,129148,1,0,0:0:0:0:
256,192,129434,1,0,0:0:0:0:
256,192,129625,1,8,0:0:0:0:
256,192,129817,1,0,0:0:0:0:
256,192,129912,1,0,0:0:0:0:
256,192,130008,1,8,0:0:0:0:
256,192,130390,1,8,0:0:0:0:
256,192,130485,1,0,0:0:0:0:
256,192,130581,1,8,0:0:0:0:
256,192,130676,1,8,0:0:0:0:
256,192,130772,1,0,0:0:0:0:
256,192,130868,1,8,0:0:0:0:
256,192,130963,1,0,0:0:0:0:
256,192,131059,1,0,0:0:0:0:
256,192,131154,1,8,0:0:0:0:
256,192,131250,1,8,0:0:0:0:
256,192,131345,1,0,0:0:0:0:
256,192,131441,1,8,0:0:0:0:
256,192,131536,1,8,0:0:0:0:
256,192,131632,1,8,0:0:0:0:
256,192,131727,1,0,0:0:0:0:
256,192,131823,1,0,0:0:0:0:
256,192,131918,1,8,0:0:0:0:
256,192,132014,1,8,0:0:0:0:
256,192,132110,1,0,0:0:0:0:
256,192,132205,1,8,0:0:0:0:
256,192,132301,1,0,0:0:0:0:
256,192,132396,1,0,0:0:0:0:
256,192,132492,1,8,0:0:0:0:
256,192,132587,1,0,0:0:0:0:
256,192,132683,1,8,0:0:0:0:
256,192,132778,1,8,0:0:0:0:
256,192,132874,1,0,0:0:0:0:
256,192,132969,1,0,0:0:0:0:
256,192,133065,1,8,0:0:0:0:
256,192,133161,1,0,0:0:0:0:
256,192,133256,1,0,0:0:0:0:
256,192,133352,1,0,0:0:0:0:
256,192,133447,1,8,0:0:0:0:
256,192,133543,1,0,0:0:0:0:
256,192,133638,1,8,0:0:0:0:
256,192,133734,1,8,0:0:0:0:
256,192,133829,1,0,0:0:0:0:
256,192,133925,1,8,0:0:0:0:
256,192,134020,1,0,0:0:0:0:
256,192,134116,1,0,0:0:0:0:
256,192,134211,1,8,0:0:0:0:
256,192,134307,1,8,0:0:0:0:
256,192,134403,1,0,0:0:0:0:
256,192,134498,1,8,0:0:0:0:
256,192,134594,1,8,0:0:0:0:
256,192,134689,1,8,0:0:0:0:
256,192,134785,1,0,0:0:0:0:
256,192,134880,1,0,0:0:0:0:
256,192,134976,1,8,0:0:0:0:
256,192,135167,1,0,0:0:0:0:
256,192,135262,1,8,0:0:0:0:
256,192,135453,1,8,0:0:0:0:
256,192,135549,1,0,0:0:0:0:
256,192,135740,1,8,0:0:0:0:
256,192,135836,1,8,0:0:0:0:
256,192,135931,1,0,0:0:0:0:
256,192,136027,1,0,0:0:0:0:
256,192,136122,1,8,0:0:0:0:
256,192,136218,1,0,0:0:0:0:
256,192,136313,1,8,0:0:0:0:
256,192,136409,1,8,0:0:0:0:
256,192,136504,1,4,0:0:0:0:
256,192,137078,1,0,0:0:0:0:
256,192,137269,1,8,0:0:0:0:
256,192,137651,1,0,0:0:0:0:
256,192,138033,1,8,0:0:0:0:
256,192,138606,1,0,0:0:0:0:
256,192,138797,1,8,0:0:0:0:
256,192,138989,1,0,0:0:0:0:
256,192,139084,1,0,0:0:0:0:
256,192,139180,1,8,0:0:0:0:
256,192,139275,1,0,0:0:0:0:
256,192,139371,1,8,0:0:0:0:
256,192,139466,1,8,0:0:0:0:
256,192,139562,1,0,0:0:0:0:
256,192,140135,1,0,0:0:0:0:
256,192,140326,1,8,0:0:0:0:
256,192,140708,1,0,0:0:0:0:
256,192,141090,1,8,0:0:0:0:
256,192,141377,1,0,0:0:0:0:
256,192,141664,1,0,0:0:0:0:
256,192,141855,1,8,0:0:0:0:
256,192,142046,1,8,0:0:0:0:
256,192,142141,1,8,0:0:0:0:
256,192,142237,1,0,0:0:0:0:
256,192,142332,1,8,0:0:0:0:
256,192,142428,1,0,0:0:0:0:
256,192,142524,1,0,0:0:0:0:
256,192,142619,1,8,0:0:0:0:
256,192,143192,1,0,0:0:0:0:
256,192,143383,1,8,0:0:0:0:
256,192,143766,1,0,0:0:0:0:
256,192,144148,1,8,0:0:0:0:
256,192,144721,1,0,0:0:0:0:
256,192,144912,1,8,0:0:0:0:
256,192,145103,1,0,0:0:0:0:
256,192,145199,1,0,0:0:0:0:
256,192,145294,1,8,0:0:0:0:
256,192,145390,1,0,0:0:0:0:
256,192,145485,1,8,0:0:0:0:
256,192,145581,1,8,0:0:0:0:
256,192,145676,1,0,0:0:0:0:
256,192,146250,1,0,0:0:0:0:
256,192,146441,1,8,0:0:0:0:
256,192,146823,1,0,0:0:0:0:
256,192,147205,1,8,0:0:0:0:
256,192,147492,1,0,0:0:0:0:
256,192,147778,1,0,0:0:0:0:
256,192,147969,1,8,0:0:0:0:
256,192,148161,1,8,0:0:0:0:
256,192,148256,1,8,0:0:0:0:
256,192,148352,1,0,0:0:0:0:
256,192,148447,1,8,0:0:0:0:
256,192,148543,1,0,0:0:0:0:
256,192,148638,1,0,0:0:0:0:
256,192,148734,1,12,0:0:0:0:
256,192,149020,1,4,0:0:0:0:
256,192,149307,1,12,0:0:0:0:
256,192,149689,1,0,0:0:0:0:
256,192,149785,1,0,0:0:0:0:
256,192,149880,1,8,0:0:0:0:
256,192,150071,1,8,0:0:0:0:
256,192,150167,1,8,0:0:0:0:
256,192,150262,1,0,0:0:0:0:
256,192,150453,1,8,0:0:0:0:
256,192,150645,1,0,0:0:0:0:
256,192,151027,1,8,0:0:0:0:
256,192,151122,1,8,0:0:0:0:
256,192,151218,1,0,0:0:0:0:
256,192,151313,1,0,0:0:0:0:
256,192,151409,1,8,0:0:0:0:
256,192,151504,1,8,0:0:0:0:
256,192,151600,1,8,0:0:0:0:
256,192,151696,1,8,0:0:0:0:
256,192,151791,1,0,0:0:0:0:
256,192,151982,1,8,0:0:0:0:
256,192,152078,1,0,0:0:0:0:
256,192,152173,1,0,0:0:0:0:
256,192,152269,1,0,0:0:0:0:
256,192,152364,1,8,0:0:0:0:
256,192,152460,1,8,0:0:0:0:
256,192,152555,1,0,0:0:0:0:
256,192,152651,1,0,0:0:0:0:
256,192,152746,1,8,0:0:0:0:
256,192,152842,1,0,0:0:0:0:
256,192,152938,1,8,0:0:0:0:
256,192,153033,1,8,0:0:0:0:
256,192,153129,1,0,0:0:0:0:
256,192,153224,1,0,0:0:0:0:
256,192,153320,1,12,0:0:0:0:
256,192,153575,1,8,0:0:0:0:
256,192,153702,1,0,0:0:0:0:
256,192,153957,1,0,0:0:0:0:
256,192,154084,1,8,0:0:0:0:
256,192,154339,1,8,0:0:0:0:
256,192,154466,1,0,0:0:0:0:
256,192,154848,1,0,0:0:0:0:
256,192,154944,1,0,0:0:0:0:
256,192,155039,1,8,0:0:0:0:
256,192,155135,1,0,0:0:0:0:
256,192,155231,1,8,0:0:0:0:
256,192,155326,1,8,0:0:0:0:
256,192,155422,1,0,0:0:0:0:
256,192,155517,1,0,0:0:0:0:
256,192,155613,1,8,0:0:0:0:
256,192,155708,1,0,0:0:0:0:
256,192,155804,1,0,0:0:0:0:
256,192,155899,1,0,0:0:0:0:
256,192,155995,1,8,0:0:0:0:
256,192,156090,1,8,0:0:0:0:
256,192,156186,1,0,0:0:0:0:
256,192,156282,1,8,0:0:0:0:
256,192,156377,1,0,0:0:0:0:
256,192,156473,1,0,0:0:0:0:
256,192,156568,1,8,0:0:0:0:
256,192,156664,1,0,0:0:0:0:
256,192,156759,1,8,0:0:0:0:
256,192,156855,1,8,0:0:0:0:
256,192,156950,1,0,0:0:0:0:
256,192,157046,1,0,0:0:0:0:
256,192,157141,1,8,0:0:0:0:
256,192,157237,1,0,0:0:0:0:
256,192,157332,1,8,0:0:0:0:
256,192,157428,1,8,0:0:0:0:
256,192,157524,1,0,0:0:0:0:
256,192,157619,1,8,0:0:0:0:
256,192,157715,1,0,0:0:0:0:
256,192,157810,1,0,0:0:0:0:
256,192,157906,1,8,0:0:0:0:
256,192,158001,1,8,0:0:0:0:
256,192,158097,1,0,0:0:0:0:
256,192,158192,1,0,0:0:0:0:
256,192,158288,1,8,0:0:0:0:
256,192,158383,1,0,0:0:0:0:
256,192,158479,1,0,0:0:0:0:
256,192,158575,1,0,0:0:0:0:
256,192,158670,1,8,0:0:0:0:
256,192,158766,1,8,0:0:0:0:
256,192,158861,1,8,0:0:0:0:
256,192,158957,1,8,0:0:0:0:
256,192,159052,1,0,0:0:0:0:
256,192,159148,1,0,0:0:0:0:
256,192,159243,1,0,0:0:0:0:
256,192,159339,1,0,0:0:0:0:
256,192,159434,1,8,0:0:0:0:
256,192,159530,1,8,0:0:0:0:
256,192,159625,1,0,0:0:0:0:
256,192,159721,1,8,0:0:0:0:
256,192,159817,1,0,0:0:0:0:
256,192,159912,1,0,0:0:0:0:
256,192,160008,1,8,0:0:0:0:
256,192,160103,1,0,0:0:0:0:
256,192,160199,1,8,0:0:0:0:
256,192,160294,1,8,0:0:0:0:
256,192,160390,1,0,0:0:0:0:
256,192,160485,1,0,0:0:0:0:
256,192,160581,1,8,0:0:0:0:
256,192,160676,1,0,0:0:0:0:
256,192,160772,1,0,0:0:0:0:
256,192,160868,1,0,0:0:0:0:
256,192,160963,1,8,0:0:0:0:
256,192,161059,1,8,0:0:0:0:
256,192,161154,1,0,0:0:0:0:
256,192,161250,1,0,0:0:0:0:
256,192,161345,1,8,0:0:0:0:
256,192,161441,1,0,0:0:0:0:
256,192,161536,1,8,0:0:0:0:
256,192,161632,1,0,0:0:0:0:
256,192,161727,1,8,0:0:0:0:
256,192,161823,1,8,0:0:0:0:
256,192,161918,1,8,0:0:0:0:
256,192,162014,1,8,0:0:0:0:
256,192,162110,1,0,0:0:0:0:
256,192,162205,1,8,0:0:0:0:
256,192,162301,1,0,0:0:0:0:
256,192,162396,1,0,0:0:0:0:
256,192,162492,1,8,0:0:0:0:
256,192,162587,1,8,0:0:0:0:
256,192,162683,1,0,0:0:0:0:
256,192,162778,1,0,0:0:0:0:
256,192,162874,1,0,0:0:0:0:
256,192,162969,1,0,0:0:0:0:
256,192,163065,1,8,0:0:0:0:
256,192,163161,1,0,0:0:0:0:
256,192,163256,1,8,0:0:0:0:
256,192,163352,1,0,0:0:0:0:
256,192,163447,1,0,0:0:0:0:
256,192,163543,1,0,0:0:0:0:
256,192,163638,1,8,0:0:0:0:
256,192,163734,1,8,0:0:0:0:
256,192,163829,1,0,0:0:0:0:
256,192,163925,1,0,0:0:0:0:
256,192,164020,1,8,0:0:0:0:
256,192,164116,1,8,0:0:0:0:
256,192,164211,1,0,0:0:0:0:
256,192,164307,1,8,0:0:0:0:
256,192,164403,1,0,0:0:0:0:
256,192,164498,1,0,0:0:0:0:
256,192,164594,1,8,0:0:0:0:
256,192,164689,1,0,0:0:0:0:
256,192,164785,1,8,0:0:0:0:
256,192,164880,1,8,0:0:0:0:
256,192,164976,1,0,0:0:0:0:
256,192,165071,1,0,0:0:0:0:
256,192,165167,1,8,0:0:0:0:
256,192,165262,1,0,0:0:0:0:
256,192,165358,1,8,0:0:0:0:
256,192,165453,1,8,0:0:0:0:
256,192,165549,1,4,0:0:0:0:
256,192,165836,1,4,0:0:0:0:
256,192,166122,1,4,0:0:0:0:
256,192,166313,1,12,0:0:0:0:
256,192,166600,1,12,0:0:0:0:
256,192,166887,1,12,0:0:0:0:
256,192,167078,1,0,0:0:0:0:
256,192,167173,1,0,0:0:0:0:
256,192,167269,1,8,0:0:0:0:
256,192,167364,1,0,0:0:0:0:
256,192,167460,1,8,0:0:0:0:
256,192,167555,1,8,0:0:0:0:
256,192,167651,1,0,0:0:0:0:
256,192,167746,1,0,0:0:0:0:
256,192,167842,1,8,0:0:0:0:
256,192,167938,1,0,0:0:0:0:
256,192,168033,1,0,0:0:0:0:
256,192,168129,1,0,0:0:0:0:
256,192,168224,1,8,0:0:0:0:
256,192,168320,1,8,0:0:0:0:
256,192,168415,1,0,0:0:0:0:
256,192,168511,1,8,0:0:0:0:
256,192,168606,1,0,0:0:0:0:
256,192,168702,1,0,0:0:0:0:
256,192,168797,1,8,0:0:0:0:
256,192,168893,1,0,0:0:0:0:
256,192,168989,1,8,0:0:0:0:
256,192,169084,1,8,0:0:0:0:
256,192,169180,1,0,0:0:0:0:
256,192,169275,1,0,0:0:0:0:
256,192,169371,1,8,0:0:0:0:
256,192,169466,1,0,0:0:0:0:
256,192,169562,1,8,0:0:0:0:
256,192,169657,1,8,0:0:0:0:
256,192,169753,1,0,0:0:0:0:
256,192,169848,1,8,0:0:0:0:
256,192,169944,1,0,0:0:0:0:
256,192,170039,1,0,0:0:0:0:
256,192,170135,1,8,0:0:0:0:
256,192,170231,1,8,0:0:0:0:
256,192,170326,1,0,0:0:0:0:
256,192,170422,1,0,0:0:0:0:
256,192,170517,1,8,0:0:0:0:
256,192,170613,1,0,0:0:0:0:
256,192,170708,1,0,0:0:0:0:
256,192,170804,1,0,0:0:0:0:
256,192,170899,1,8,0:0:0:0:
256,192,170995,1,8,0:0:0:0:
256,192,171090,1,8,0:0:0:0:
256,192,171186,1,8,0:0:0:0:
256,192,171282,1,0,0:0:0:0:
256,192,171377,1,0,0:0:0:0:
256,192,171473,1,0,0:0:0:0:
256,192,171568,1,0,0:0:0:0:
256,192,171664,1,8,0:0:0:0:
256,192,171759,1,8,0:0:0:0:
256,192,171855,1,0,0:0:0:0:
256,192,171950,1,8,0:0:0:0:
256,192,172046,1,0,0:0:0:0:
256,192,172141,1,0,0:0:0:0:
256,192,172237,1,8,0:0:0:0:
256,192,172332,1,0,0:0:0:0:
256,192,172428,1,8,0:0:0:0:
256,192,172524,1,8,0:0:0:0:
256,192,172619,1,0,0:0:0:0:
256,192,172715,1,0,0:0:0:0:
256,192,172810,1,8,0:0:0:0:
256,192,172906,1,0,0:0:0:0:
256,192,173001,1,0,0:0:0:0:
256,192,173097,1,0,0:0:0:0:
256,192,173192,1,8,0:0:0:0:
256,192,173288,1,0,0:0:0:0:
256,192,173383,1,8,0:0:0:0:
256,192,173479,1,8,0:0:0:0:
256,192,173575,1,0,0:0:0:0:
256,192,173670,1,0,0:0:0:0:
256,192,173766,1,8,0:0:0:0:
256,192,173861,1,0,0:0:0:0:
256,192,173957,1,8,0:0:0:0:
256,192,174052,1,8,0:0:0:0:
256,192,174148,1,0,0:0:0:0:
256,192,174243,1,0,0:0:0:0:
256,192,174339,1,8,0:0:0:0:
256,192,174434,1,0,0:0:0:0:
256,192,174530,1,0,0:0:0:0:
256,192,174625,1,0,0:0:0:0:
256,192,174721,1,8,0:0:0:0:
256,192,174817,1,8,0:0:0:0:
256,192,174912,1,8,0:0:0:0:
256,192,175008,1,8,0:0:0:0:
256,192,175103,1,0,0:0:0:0:
256,192,175199,1,0,0:0:0:0:
256,192,175294,1,8,0:0:0:0:
256,192,175390,1,0,0:0:0:0:
256,192,175485,1,8,0:0:0:0:
256,192,175581,1,8,0:0:0:0:
256,192,175676,1,0,0:0:0:0:
256,192,175772,1,0,0:0:0:0:
256,192,175868,1,8,0:0:0:0:
256,192,175963,1,0,0:0:0:0:
256,192,176059,1,0,0:0:0:0:
256,192,176154,1,0,0:0:0:0:
256,192,176250,1,8,0:0:0:0:
256,192,176345,1,8,0:0:0:0:
256,192,176441,1,0,0:0:0:0:
256,192,176536,1,8,0:0:0:0:
256,192,176632,1,0,0:0:0:0:
256,192,176727,1,0,0:0:0:0:
256,192,176823,1,8,0:0:0:0:
256,192,176918,1,0,0:0:0:0:
256,192,177014,1,8,0:0:0:0:
256,192,177110,1,8,0:0:0:0:
256,192,177205,1,0,0:0:0:0:
256,192,177301,1,8,0:0:0:0:
256,192,177396,1,0,0:0:0:0:
256,192,177492,1,0,0:0:0:0:
256,192,177587,1,8,0:0:0:0:
256,192,177683,1,8,0:0:0:0:
256,192,177778,1,4,0:0:0:0:
256,192,178543,1,12,0:0:0:0:
256,192,178925,1,12,0:0:0:0:
256,192,179307,1,4,0:0:0:0:
256,192,179498,1,8,0:0:0:0:
256,192,179594,1,0,0:0:0:0:
256,192,179785,1,0,0:0:0:0:
256,192,179880,1,8,0:0:0:0:
256,192,180071,1,0,0:0:0:0:
256,192,180262,1,8,0:0:0:0:
256,192,180358,1,8,0:0:0:0:
256,192,180453,1,0,0:0:0:0:
256,192,180549,1,0,0:0:0:0:
256,192,180645,1,8,0:0:0:0:
256,192,180836,1,0,0:0:0:0:
256,192,181027,1,8,0:0:0:0:
256,192,181122,1,0,0:0:0:0:
256,192,181313,1,0,0:0:0:0:
256,192,181409,1,8,0:0:0:0:
256,192,181600,1,0,0:0:0:0:
256,192,181791,1,8,0:0:0:0:
256,192,181982,1,0,0:0:0:0:
256,192,182078,1,0,0:0:0:0:
256,192,182173,1,8,0:0:0:0:
256,192,182269,1,8,0:0:0:0:
256,192,182364,1,0,0:0:0:0:
256,192,182555,1,8,0:0:0:0:
256,192,182651,1,0,0:0:0:0:
256,192,182842,1,0,0:0:0:0:
256,192,182938,1,8,0:0:0:0:
256,192,183129,1,0,0:0:0:0:
256,192,183320,1,8,0:0:0:0:
256,192,183511,1,8,0:0:0:0:
256,192,183606,1,0,0:0:0:0:
256,192,183702,1,8,0:0:0:0:
256,192,183797,1,8,0:0:0:0:
256,192,183893,1,0,0:0:0:0:
256,192,184084,1,8,0:0:0:0:
256,192,184180,1,0,0:0:0:0:
256,192,184371,1,0,0:0:0:0:
256,192,184466,1,8,0:0:0:0:
256,192,184657,1,0,0:0:0:0:
256,192,184848,1,8,0:0:0:0:
256,192,185039,1,0,0:0:0:0:
256,192,185135,1,8,0:0:0:0:
256,192,185231,1,0,0:0:0:0:
256,192,185326,1,0,0:0:0:0:
256,192,185422,1,8,0:0:0:0:
256,192,185613,1,0,0:0:0:0:
256,192,185708,1,8,0:0:0:0:
256,192,185899,1,0,0:0:0:0:
256,192,185995,1,8,0:0:0:0:
256,192,186186,1,0,0:0:0:0:
256,192,186377,1,8,0:0:0:0:
256,192,186473,1,8,0:0:0:0:
256,192,186568,1,0,0:0:0:0:
256,192,186664,1,0,0:0:0:0:
256,192,186759,1,8,0:0:0:0:
256,192,186950,1,0,0:0:0:0:
256,192,187141,1,8,0:0:0:0:
256,192,187332,1,0,0:0:0:0:
256,192,187428,1,0,0:0:0:0:
256,192,187524,1,8,0:0:0:0:
256,192,187619,1,0,0:0:0:0:
256,192,187715,1,8,0:0:0:0:
256,192,187906,1,0,0:0:0:0:
256,192,188097,1,8,0:0:0:0:
256,192,188192,1,0,0:0:0:0:
256,192,188288,1,8,0:0:0:0:
256,192,188383,1,8,0:0:0:0:
256,192,188479,1,0,0:0:0:0:
256,192,188670,1,8,0:0:0:0:
256,192,188766,1,8,0:0:0:0:
256,192,188957,1,0,0:0:0:0:
256,192,189052,1,8,0:0:0:0:
256,192,189243,1,0,0:0:0:0:
256,192,189434,1,8,0:0:0:0:
256,192,189530,1,8,0:0:0:0:
256,192,189625,1,0,0:0:0:0:
256,192,189721,1,0,0:0:0:0:
256,192,189817,1,8,0:0:0:0:
256,192,190008,1,0,0:0:0:0:
256,192,190199,1,8,0:0:0:0:
256,192,190294,1,8,0:0:0:0:
256,192,190390,1,8,0:0:0:0:
256,192,190485,1,8,0:0:0:0:
256,192,190581,1,0,0:0:0:0:
256,192,190676,1,0,0:0:0:0:
256,192,190772,1,12,0:0:0:0:
256,192,191154,1,12,0:0:0:0:
256,192,191536,1,4,0:0:0:0:
256,192,191727,1,8,0:0:0:0:
256,192,191823,1,0,0:0:0:0:
256,192,192014,1,0,0:0:0:0:
256,192,192110,1,8,0:0:0:0:
256,192,192301,1,0,0:0:0:0:
256,192,192492,1,8,0:0:0:0:
256,192,192587,1,8,0:0:0:0:
256,192,192683,1,0,0:0:0:0:
256,192,192778,1,8,0:0:0:0:
256,192,192874,1,0,0:0:0:0:
256,192,192969,1,0,0:0:0:0:
256,192,193065,1,8,0:0:0:0:
256,192,193256,1,0,0:0:0:0:
256,192,193352,1,8,0:0:0:0:
256,192,193543,1,0,0:0:0:0:
256,192,193638,1,8,0:0:0:0:
256,192,193829,1,8,0:0:0:0:
256,192,193925,1,8,0:0:0:0:
256,192,194020,1,0,0:0:0:0:
256,192,194116,1,0,0:0:0:0:
256,192,194211,1,8,0:0:0:0:
256,192,194307,1,0,0:0:0:0:
256,192,194403,1,0,0:0:0:0:
256,192,194498,1,0,0:0:0:0:
256,192,194594,1,8,0:0:0:0:
256,192,194785,1,0,0:0:0:0:
256,192,194880,1,8,0:0:0:0:
256,192,195071,1,8,0:0:0:0:
256,192,195167,1,0,0:0:0:0:
256,192,195358,1,8,0:0:0:0:
256,192,195549,1,0,0:0:0:0:
256,192,195645,1,0,0:0:0:0:
256,192,195740,1,8,0:0:0:0:
256,192,195836,1,0,0:0:0:0:
256,192,195931,1,8,0:0:0:0:
256,192,196027,1,8,0:0:0:0:
256,192,196122,1,0,0:0:0:0:
256,192,196313,1,8,0:0:0:0:
256,192,196409,1,0,0:0:0:0:
256,192,196600,1,0,0:0:0:0:
256,192,196696,1,8,0:0:0:0:
256,192,196791,1,8,0:0:0:0:
256,192,196887,1,0,0:0:0:0:
256,192,197078,1,8,0:0:0:0:
256,192,197269,1,0,0:0:0:0:
256,192,197364,1,0,0:0:0:0:
256,192,197460,1,8,0:0:0:0:
256,192,197555,1,8,0:0:0:0:
256,192,197651,1,4,0:0:0:0:
256,192,197842,1,8,0:0:0:0:
256,192,197938,1,0,0:0:0:0:
256,192,198129,1,0,0:0:0:0:
256,192,198224,1,8,0:0:0:0:
256,192,198415,1,4,0:0:0:0:
256,192,198606,1,8,0:0:0:0:
256,192,198702,1,8,0:0:0:0:
256,192,198797,1,0,0:0:0:0:
256,192,198893,1,0,0:0:0:0:
256,192,198989,1,8,0:0:0:0:
256,192,199180,1,4,0:0:0:0:
256,192,199371,1,0,0:0:0:0:
256,192,199466,1,0,0:0:0:0:
256,192,199562,1,8,0:0:0:0:
256,192,199657,1,0,0:0:0:0:
256,192,199753,1,8,0:0:0:0:
256,192,199848,1,8,0:0:0:0:
256,192,199944,1,4,0:0:0:0:
256,192,200135,1,0,0:0:0:0:
256,192,200231,1,0,0:0:0:0:
256,192,200326,1,8,0:0:0:0:
256,192,200422,1,8,0:0:0:0:
256,192,200517,1,8,0:0:0:0:
256,192,200613,1,8,0:0:0:0:
256,192,200708,1,4,0:0:0:0:
256,192,200899,1,8,0:0:0:0:
256,192,200995,1,8,0:0:0:0:
256,192,201090,1,0,0:0:0:0:
256,192,201282,1,8,0:0:0:0:
256,192,201473,1,0,0:0:0:0:
256,192,201664,1,8,0:0:0:0:
256,192,201759,1,8,0:0:0:0:
256,192,201950,1,0,0:0:0:0:
256,192,202046,1,8,0:0:0:0:
256,192,202237,1,4,0:0:0:0:
256,192,203001,1,12,0:0:0:0:
256,192,203383,1,12,0:0:0:0:
256,192,203766,1,4,0:0:0:0:
256,192,203957,1,8,0:0:0:0:
256,192,204052,1,0,0:0:0:0:
256,192,204243,1,0,0:0:0:0:
256,192,204339,1,8,0:0:0:0:
256,192,204530,1,0,0:0:0:0:
256,192,204721,1,8,0:0:0:0:
256,192,204817,1,8,0:0:0:0:
256,192,204912,1,0,0:0:0:0:
256,192,205103,1,8,0:0:0:0:
256,192,205294,1,0,0:0:0:0:
256,192,205485,1,0,0:0:0:0:
256,192,205581,1,0,0:0:0:0:
256,192,205676,1,8,0:0:0:0:
256,192,205772,1,0,0:0:0:0:
256,192,205868,1,8,0:0:0:0:
256,192,205963,1,8,0:0:0:0:
256,192,206059,1,0,0:0:0:0:
256,192,206250,1,8,0:0:0:0:
256,192,206345,1,8,0:0:0:0:
256,192,206441,1,0,0:0:0:0:
256,192,206632,1,8,0:0:0:0:
256,192,206823,1,4,0:0:0:0:
256,192,207014,1,8,0:0:0:0:
256,192,207110,1,0,0:0:0:0:
256,192,207301,1,0,0:0:0:0:
256,192,207396,1,8,0:0:0:0:
256,192,207587,1,0,0:0:0:0:
256,192,207778,1,8,0:0:0:0:
256,192,207874,1,8,0:0:0:0:
256,192,207969,1,0,0:0:0:0:
256,192,208065,1,0,0:0:0:0:
256,192,208161,1,8,0:0:0:0:
256,192,208352,1,0,0:0:0:0:
256,192,208543,1,8,0:0:0:0:
256,192,208638,1,0,0:0:0:0:
256,192,208829,1,0,0:0:0:0:
256,192,208925,1,8,0:0:0:0:
256,192,209116,1,0,0:0:0:0:
256,192,209307,1,8,0:0:0:0:
256,192,209403,1,8,0:0:0:0:
256,192,209498,1,0,0:0:0:0:
256,192,209689,1,8,0:0:0:0:
256,192,209880,1,4,0:0:0:0:
256,192,210071,1,8,0:0:0:0:
256,192,210167,1,0,0:0:0:0:
256,192,210358,1,0,0:0:0:0:
256,192,210453,1,8,0:0:0:0:
256,192,210645,1,0,0:0:0:0:
256,192,210836,1,8,0:0:0:0:
256,192,210931,1,8,0:0:0:0:
256,192,211027,1,0,0:0:0:0:
256,192,211218,1,8,0:0:0:0:
256,192,211409,1,0,0:0:0:0:
256,192,211504,1,0,0:0:0:0:
256,192,211600,1,8,0:0:0:0:
256,192,211696,1,0,0:0:0:0:
256,192,211791,1,8,0:0:0:0:
256,192,211982,1,0,0:0:0:0:
256,192,212173,1,8,0:0:0:0:
256,192,212269,1,0,0:0:0:0:
256,192,212364,1,8,0:0:0:0:
256,192,212460,1,8,0:0:0:0:
256,192,212555,1,0,0:0:0:0:
256,192,212746,1,8,0:0:0:0:
256,192,212938,1,4,0:0:0:0:
256,192,213129,1,8,0:0:0:0:
256,192,213224,1,0,0:0:0:0:
256,192,213415,1,0,0:0:0:0:
256,192,213511,1,8,0:0:0:0:
256,192,213606,1,8,0:0:0:0:
256,192,213702,1,0,0:0:0:0:
256,192,213893,1,8,0:0:0:0:
256,192,213989,1,8,0:0:0:0:
256,192,214084,1,8,0:0:0:0:
256,192,214275,1,0,0:0:0:0:
256,192,214466,1,8,0:0:0:0:
256,192,214562,1,8,0:0:0:0:
256,192,214657,1,0,0:0:0:0:
256,192,214753,1,0,0:0:0:0:
256,192,214848,1,8,0:0:0:0:
256,192,215039,1,0,0:0:0:0:
256,192,215231,1,12,0:0:0:0:
256,192,215740,1,8,0:0:0:0:
256,192,215868,1,8,0:0:0:0:
256,192,215995,1,4,0:0:0:0:
256,192,216186,1,8,0:0:0:0:
256,192,216377,1,0,0:0:0:0:
256,192,216473,1,0,0:0:0:0:
256,192,216568,1,8,0:0:0:0:
256,192,216664,1,8,0:0:0:0:
256,192,216759,1,0,0:0:0:0:
256,192,216950,1,8,0:0:0:0:
256,192,217046,1,8,0:0:0:0:
256,192,217141,1,0,0:0:0:0:
256,192,217332,1,0,0:0:0:0:
256,192,217524,1,8,0:0:0:0:
256,192,217619,1,8,0:0:0:0:
256,192,217715,1,8,0:0:0:0:
256,192,217810,1,8,0:0:0:0:
256,192,217906,1,0,0:0:0:0:
256,192,218097,1,8,0:0:0:0:
256,192,218288,1,0,0:0:0:0:
256,192,218383,1,0,0:0:0:0:
256,192,218479,1,8,0:0:0:0:
256,192,218575,1,8,0:0:0:0:
256,192,218670,1,0,0:0:0:0:
256,192,218861,1,8,0:0:0:0:
256,192,219052,1,0,0:0:0:0:
256,192,219148,1,0,0:0:0:0:
256,192,219243,1,8,0:0:0:0:
256,192,219339,1,0,0:0:0:0:
256,192,219434,1,0,0:0:0:0:
256,192,219530,1,0,0:0:0:0:
256,192,219625,1,8,0:0:0:0:
256,192,219721,1,0,0:0:0:0:
256,192,219817,1,8,0:0:0:0:
256,192,219912,1,8,0:0:0:0:
256,192,220008,1,0,0:0:0:0:
256,192,220103,1,0,0:0:0:0:
256,192,220199,1,8,0:0:0:0:
256,192,220390,1,0,0:0:0:0:
256,192,220581,1,8,0:0:0:0:
256,192,220676,1,8,0:0:0:0:
256,192,220772,1,0,0:0:0:0:
256,192,220868,1,0,0:0:0:0:
256,192,220963,1,0,0:0:0:0:
256,192,221059,1,0,0:0:0:0:
256,192,221154,1,8,0:0:0:0:
256,192,221250,1,8,0:0:0:0:
256,192,221345,1,8,0:0:0:0:
256,192,221536,1,0,0:0:0:0:
256,192,221632,1,0,0:0:0:0:
256,192,221727,1,8,0:0:0:0:
256,192,221823,1,0,0:0:0:0:
256,192,221918,1,0,0:0:0:0:
256,192,222014,1,0,0:0:0:0:
256,192,222110,1,12,0:0:0:0:
256,192,222301,1,0,0:0:0:0:
256,192,222396,1,8,0:0:0:0:
256,192,222492,1,0,0:0:0:0:
256,192,222587,1,0,0:0:0:0:
256,192,222683,1,8,0:0:0:0:
256,192,222874,1,0,0:0:0:0:
256,192,222969,1,0,0:0:0:0:
256,192,223065,1,8,0:0:0:0:
256,192,223161,1,0,0:0:0:0:
256,192,223256,1,8,0:0:0:0:
256,192,223352,1,8,0:0:0:0:
256,192,223447,1,0,0:0:0:0:
256,192,223638,1,8,0:0:0:0:
256,192,223734,1,8,0:0:0:0:
256,192,223829,1,0,0:0:0:0:
256,192,223925,1,0,0:0:0:0:
256,192,224020,1,8,0:0:0:0:
256,192,224116,1,8,0:0:0:0:
256,192,224211,1,0,0:0:0:0:
256,192,224307,1,0,0:0:0:0:
256,192,224403,1,8,0:0:0:0:
256,192,224498,1,8,0:0:0:0:
256,192,224594,1,8,0:0:0:0:
256,192,224689,1,0,0:0:0:0:
256,192,224785,1,8,0:0:0:0:
256,192,224880,1,8,0:0:0:0:
256,192,224976,1,0,0:0:0:0:
256,192,225071,1,0,0:0:0:0:
256,192,225167,1,8,0:0:0:0:
256,192,225453,1,8,0:0:0:0:
256,192,225549,1,0,0:0:0:0:
256,192,225740,1,0,0:0:0:0:
256,192,225931,1,8,0:0:0:0:
256,192,226027,1,8,0:0:0:0:
256,192,226218,1,0,0:0:0:0:
256,192,226313,1,8,0:0:0:0:
256,192,226504,1,0,0:0:0:0:
256,192,226696,1,12,0:0:0:0:
256,192,226887,12,0,228129,0:0:0:0:
256,192,228224,5,0,0:0:0:0:
256,192,228511,1,0,0:0:0:0:
256,192,228797,1,8,0:0:0:0:
256,192,228989,1,0,0:0:0:0:
256,192,229562,1,8,0:0:0:0:
256,192,229753,1,0,0:0:0:0:
256,192,230039,1,8,0:0:0:0:
256,192,230326,1,8,0:0:0:0:
256,192,230517,1,0,0:0:0:0:
256,192,230899,1,8,0:0:0:0:
256,192,231282,1,0,0:0:0:0:
256,192,231664,1,0,0:0:0:0:
256,192,232046,1,8,0:0:0:0:
256,192,232428,1,0,0:0:0:0:
256,192,232810,1,8,0:0:0:0:
256,192,233097,1,8,0:0:0:0:
256,192,233383,1,0,0:0:0:0:
256,192,233479,1,0,0:0:0:0:
256,192,233575,1,8,0:0:0:0:
256,192,234339,1,12,0:0:0:0:
256,192,234721,1,0,0:0:0:0:
256,192,235103,1,4,0:0:0:0:
256,192,235485,1,0,0:0:0:0:
256,192,235868,1,12,0:0:0:0:
256,192,236250,1,0,0:0:0:0:
256,192,236632,1,12,0:0:0:0:
256,192,237014,1,12,0:0:0:0:
256,192,237205,1,8,0:0:0:0:
256,192,237301,1,8,0:0:0:0:
256,192,237396,1,4,0:0:0:0:
256,192,237587,1,0,0:0:0:0:
256,192,237778,1,8,0:0:0:0:
256,192,237969,1,0,0:0:0:0:
256,192,238161,1,8,0:0:0:0:
256,192,238352,1,8,0:0:0:0:
256,192,238543,1,0,0:0:0:0:
256,192,238734,1,0,0:0:0:0:
256,192,238925,1,8,0:0:0:0:
256,192,239880,1,0,0:0:0:0:
256,192,239976,1,0,0:0:0:0:
256,192,240071,1,8,0:0:0:0:
256,192,240453,1,4,0:0:0:0:
256,192,241027,1,0,0:0:0:0:
256,192,241218,1,8,0:0:0:0:
256,192,241982,1,0,0:0:0:0:
256,192,242269,1,0,0:0:0:0:
256,192,242555,1,0,0:0:0:0:
256,192,242746,1,8,0:0:0:0:
256,192,243129,1,0,0:0:0:0:
256,192,243511,1,8,0:0:0:0:
256,192,244084,1,0,0:0:0:0:
256,192,244275,1,8,0:0:0:0:
256,192,244657,1,0,0:0:0:0:
256,192,245039,1,0,0:0:0:0:
256,192,245326,1,0,0:0:0:0:
256,192,245613,1,0,0:0:0:0:
256,192,245708,1,0,0:0:0:0:
256,192,245804,1,8,0:0:0:0:
256,192,245995,1,8,0:0:0:0:
256,192,246090,1,8,0:0:0:0:
256,192,246186,1,0,0:0:0:0:
256,192,246282,1,8,0:0:0:0:
256,192,246377,1,0,0:0:0:0:
256,192,246473,1,0,0:0:0:0:
256,192,246568,1,12,0:0:0:0:
256,192,247332,1,12,0:0:0:0:
256,192,247524,1,12,0:0:0:0:
256,192,247906,1,0,0:0:0:0:
256,192,248001,1,0,0:0:0:0:
256,192,248097,1,12,0:0:0:0:
256,192,248479,1,12,0:0:0:0:
256,192,248861,1,4,0:0:0:0:
256,192,249052,1,0,0:0:0:0:
256,192,249148,1,0,0:0:0:0:
256,192,249243,1,8,0:0:0:0:
256,192,249339,1,0,0:0:0:0:
256,192,249434,1,8,0:0:0:0:
256,192,249530,1,8,0:0:0:0:
256,192,249625,1,4,0:0:0:0:
256,192,249817,1,8,0:0:0:0:
256,192,249912,1,8,0:0:0:0:
256,192,250008,1,0,0:0:0:0:
256,192,250103,1,0,0:0:0:0:
256,192,250199,1,8,0:0:0:0:
256,192,250294,1,0,0:0:0:0:
256,192,250390,1,8,0:0:0:0:
256,192,250485,1,8,0:0:0:0:
256,192,250581,1,0,0:0:0:0:
256,192,250676,1,0,0:0:0:0:
256,192,250772,1,8,0:0:0:0:
256,192,250868,1,0,0:0:0:0:
256,192,250963,1,0,0:0:0:0:
256,192,251059,1,0,0:0:0:0:
256,192,251154,1,12,0:0:0:0:
256,192,252683,1,8,0:0:0:0:
256,192,252778,1,8,0:0:0:0:
256,192,252874,1,0,0:0:0:0:
256,192,252969,1,8,0:0:0:0:
256,192,253065,1,0,0:0:0:0:
256,192,253161,1,0,0:0:0:0:
256,192,253256,1,8,0:0:0:0:
256,192,253352,1,0,0:0:0:0:
256,192,253447,1,8,0:0:0:0:
256,192,253543,1,8,0:0:0:0:
256,192,253638,1,0,0:0:0:0:
256,192,253734,1,0,0:0:0:0:
256,192,253829,1,8,0:0:0:0:
256,192,253925,1,8,0:0:0:0:
256,192,254020,1,8,0:0:0:0:
256,192,254116,1,8,0:0:0:0:
256,192,254211,1,0,0:0:0:0:
256,192,254307,1,0,0:0:0:0:
256,192,254403,1,8,0:0:0:0:
256,192,254498,1,0,0:0:0:0:
256,192,254594,1,8,0:0:0:0:
256,192,254689,1,8,0:0:0:0:
256,192,254785,1,0,0:0:0:0:
256,192,254880,1,0,0:0:0:0:
256,192,254976,1,8,0:0:0:0:
256,192,255071,1,0,0:0:0:0:
256,192,255167,1,0,0:0:0:0:
256,192,255262,1,0,0:0:0:0:
256,192,255358,1,8,0:0:0:0:
256,192,255453,1,8,0:0:0:0:
256,192,255549,1,0,0:0:0:0:
256,192,255645,1,8,0:0:0:0:
256,192,255740,1,0,0:0:0:0:
256,192,255836,1,0,0:0:0:0:
256,192,255931,1,8,0:0:0:0:
256,192,256027,1,0,0:0:0:0:
256,192,256122,1,8,0:0:0:0:
256,192,256218,1,8,0:0:0:0:
256,192,256313,1,0,0:0:0:0:
256,192,256409,1,0,0:0:0:0:
256,192,256504,1,8,0:0:0:0:
256,192,256600,1,0,0:0:0:0:
256,192,256696,1,8,0:0:0:0:
256,192,256791,1,8,0:0:0:0:
256,192,256887,1,0,0:0:0:0:
256,192,256982,1,8,0:0:0:0:
256,192,257078,1,0,0:0:0:0:
256,192,257173,1,0,0:0:0:0:
256,192,257269,1,8,0:0:0:0:
256,192,257364,1,8,0:0:0:0:
256,192,257460,1,0,0:0:0:0:
256,192,257555,1,0,0:0:0:0:
256,192,257651,1,8,0:0:0:0:
256,192,257746,1,0,0:0:0:0:
256,192,257842,1,0,0:0:0:0:
256,192,257938,1,0,0:0:0:0:
256,192,258033,1,8,0:0:0:0:
256,192,258129,1,8,0:0:0:0:
256,192,258224,1,8,0:0:0:0:
256,192,258320,1,0,0:0:0:0:
256,192,258415,1,8,0:0:0:0:
256,192,258511,1,8,0:0:0:0:
256,192,258606,1,0,0:0:0:0:
256,192,258702,1,0,0:0:0:0:
256,192,258797,1,8,0:0:0:0:
256,192,258893,1,8,0:0:0:0:
256,192,258989,1,0,0:0:0:0:
256,192,259084,1,8,0:0:0:0:
256,192,259180,1,0,0:0:0:0:
256,192,259275,1,0,0:0:0:0:
256,192,259371,1,8,0:0:0:0:
256,192,259466,1,0,0:0:0:0:
256,192,259562,1,8,0:0:0:0:
256,192,259657,1,8,0:0:0:0:
256,192,259753,1,0,0:0:0:0:
256,192,259848,1,0,0:0:0:0:
256,192,259944,1,8,0:0:0:0:
256,192,260039,1,0,0:0:0:0:
256,192,260135,1,0,0:0:0:0:
256,192,260231,1,0,0:0:0:0:
256,192,260326,1,8,0:0:0:0:
256,192,260422,1,8,0:0:0:0:
256,192,260517,1,0,0:0:0:0:
256,192,260613,1,8,0:0:0:0:
256,192,260708,1,0,0:0:0:0:
256,192,260804,1,0,0:0:0:0:
256,192,260899,1,8,0:0:0:0:
256,192,260995,1,0,0:0:0:0:
256,192,261090,1,8,0:0:0:0:
256,192,261186,1,8,0:0:0:0:
256,192,261282,1,8,0:0:0:0:
256,192,261377,1,8,0:0:0:0:
256,192,261473,1,0,0:0:0:0:
256,192,261568,1,0,0:0:0:0:
256,192,261664,1,0,0:0:0:0:
256,192,261759,1,0,0:0:0:0:
256,192,261855,1,8,0:0:0:0:
256,192,261950,1,8,0:0:0:0:
256,192,262046,1,0,0:0:0:0:
256,192,262141,1,0,0:0:0:0:
256,192,262237,1,0,0:0:0:0:
256,192,262332,1,0,0:0:0:0:
256,192,262428,1,8,0:0:0:0:
256,192,262524,1,0,0:0:0:0:
256,192,262619,1,8,0:0:0:0:
256,192,262715,1,8,0:0:0:0:
256,192,262810,1,0,0:0:0:0:
256,192,262906,1,0,0:0:0:0:
256,192,263001,1,8,0:0:0:0:
256,192,263097,1,0,0:0:0:0:
256,192,263192,1,0,0:0:0:0:
256,192,263288,1,0,0:0:0:0:
256,192,263383,1,8,0:0:0:0:
256,192,263479,1,8,0:0:0:0:
256,192,263575,1,0,0:0:0:0:
256,192,263670,1,8,0:0:0:0:
256,192,263766,1,0,0:0:0:0:
256,192,263861,1,0,0:0:0:0:
256,192,263957,1,8,0:0:0:0:
256,192,264052,1,0,0:0:0:0:
256,192,264148,1,8,0:0:0:0:
256,192,264243,1,8,0:0:0:0:
256,192,264339,1,8,0:0:0:0:
256,192,264434,1,8,0:0:0:0:
256,192,264530,1,0,0:0:0:0:
256,192,264625,1,0,0:0:0:0:
256,192,264721,1,8,0:0:0:0:
256,192,264817,1,8,0:0:0:0:
256,192,264912,1,4,0:0:0:0:
256,192,265199,1,4,0:0:0:0:
256,192,265485,1,4,0:0:0:0:
256,192,265676,1,12,0:0:0:0:
256,192,265963,1,12,0:0:0:0:
256,192,266250,1,12,0:0:0:0:
256,192,266441,1,0,0:0:0:0:
256,192,266536,1,0,0:0:0:0:
256,192,266632,1,8,0:0:0:0:
256,192,266727,1,0,0:0:0:0:
256,192,266823,1,8,0:0:0:0:
256,192,266918,1,8,0:0:0:0:
256,192,267014,1,0,0:0:0:0:
256,192,267110,1,0,0:0:0:0:
256,192,267205,1,8,0:0:0:0:
256,192,267301,1,0,0:0:0:0:
256,192,267396,1,0,0:0:0:0:
256,192,267492,1,0,0:0:0:0:
256,192,267587,1,8,0:0:0:0:
256,192,267683,1,8,0:0:0:0:
256,192,267778,1,0,0:0:0:0:
256,192,267874,1,8,0:0:0:0:
256,192,267969,1,0,0:0:0:0:
256,192,268065,1,0,0:0:0:0:
256,192,268161,1,8,0:0:0:0:
256,192,268256,1,0,0:0:0:0:
256,192,268352,1,8,0:0:0:0:
256,192,268447,1,8,0:0:0:0:
256,192,268543,1,0,0:0:0:0:
256,192,268638,1,0,0:0:0:0:
256,192,268734,1,8,0:0:0:0:
256,192,268829,1,0,0:0:0:0:
256,192,268925,1,8,0:0:0:0:
256,192,269020,1,8,0:0:0:0:
256,192,269116,1,0,0:0:0:0:
256,192,269211,1,8,0:0:0:0:
256,192,269307,1,0,0:0:0:0:
256,192,269403,1,0,0:0:0:0:
256,192,269498,1,8,0:0:0:0:
256,192,269594,1,8,0:0:0:0:
256,192,269689,1,0,0:0:0:0:
256,192,269785,1,0,0:0:0:0:
256,192,269880,1,8,0:0:0:0:
256,192,269976,1,0,0:0:0:0:
256,192,270071,1,0,0:0:0:0:
256,192,270167,1,0,0:0:0:0:
256,192,270262,1,8,0:0:0:0:
256,192,270358,1,8,0:0:0:0:
256,192,270453,1,8,0:0:0:0:
256,192,270549,1,8,0:0:0:0:
256,192,270645,1,0,0:0:0:0:
256,192,270740,1,0,0:0:0:0:
256,192,270836,1,0,0:0:0:0:
256,192,270931,1,0,0:0:0:0:
256,192,271027,1,8,0:0:0:0:
256,192,271122,1,8,0:0:0:0:
256,192,271218,1,0,0:0:0:0:
256,192,271313,1,8,0:0:0:0:
256,192,271409,1,0,0:0:0:0:
256,192,271504,1,0,0:0:0:0:
256,192,271600,1,8,0:0:0:0:
256,192,271696,1,0,0:0:0:0:
256,192,271791,1,8,0:0:0:0:
256,192,271887,1,8,0:0:0:0:
256,192,271982,1,0,0:0:0:0:
256,192,272078,1,0,0:0:0:0:
256,192,272173,1,8,0:0:0:0:
256,192,272269,1,0,0:0:0:0:
256,192,272364,1,0,0:0:0:0:
256,192,272460,1,0,0:0:0:0:
256,192,272555,1,8,0:0:0:0:
256,192,272651,1,8,0:0:0:0:
256,192,272746,1,0,0:0:0:0:
256,192,272842,1,8,0:0:0:0:
256,192,272938,1,0,0:0:0:0:
256,192,273033,1,0,0:0:0:0:
256,192,273129,1,8,0:0:0:0:
256,192,273224,1,0,0:0:0:0:
256,192,273320,1,8,0:0:0:0:
256,192,273415,1,8,0:0:0:0:
256,192,273511,1,0,0:0:0:0:
256,192,273606,1,0,0:0:0:0:
256,192,273702,1,8,0:0:0:0:
256,192,273797,1,0,0:0:0:0:
256,192,273893,1,0,0:0:0:0:
256,192,273989,1,0,0:0:0:0:
256,192,274084,1,8,0:0:0:0:
256,192,274180,1,8,0:0:0:0:
256,192,274275,1,8,0:0:0:0:
256,192,274371,1,8,0:0:0:0:
256,192,274466,1,0,0:0:0:0:
256,192,274562,1,0,0:0:0:0:
256,192,274657,1,8,0:0:0:0:
256,192,274753,1,0,0:0:0:0:
256,192,274848,1,8,0:0:0:0:
256,192,274944,1,8,0:0:0:0:
256,192,275039,1,0,0:0:0:0:
256,192,275135,1,0,0:0:0:0:
256,192,275231,1,8,0:0:0:0:
256,192,275326,1,0,0:0:0:0:
256,192,275422,1,0,0:0:0:0:
256,192,275517,1,0,0:0:0:0:
256,192,275613,1,8,0:0:0:0:
256,192,275708,1,0,0:0:0:0:
256,192,275804,1,8,0:0:0:0:
256,192,275899,1,8,0:0:0:0:
256,192,275995,1,0,0:0:0:0:
256,192,276090,1,0,0:0:0:0:
256,192,276186,1,8,0:0:0:0:
256,192,276282,1,0,0:0:0:0:
256,192,276377,1,8,0:0:0:0:
256,192,276473,1,0,0:0:0:0:
256,192,276568,1,0,0:0:0:0:
256,192,276664,1,0,0:0:0:0:
256,192,276759,1,8,0:0:0:0:
256,192,276855,1,8,0:0:0:0:
256,192,276950,1,0,0:0:0:0:
256,192,277046,1,0,0:0:0:0:
256,192,277141,1,8,0:0:0:0:
256,192,277237,1,8,0:0:0:0:
256,192,277332,1,0,0:0:0:0:
256,192,277428,1,8,0:0:0:0:
256,192,277524,1,0,0:0:0:0:
256,192,277619,1,0,0:0:0:0:
256,192,277715,1,8,0:0:0:0:
256,192,277810,1,0,0:0:0:0:
256,192,277906,1,8,0:0:0:0:
256,192,278001,1,8,0:0:0:0:
256,192,278097,1,0,0:0:0:0:
256,192,278192,1,0,0:0:0:0:
256,192,278288,1,0,0:0:0:0:
256,192,278383,1,0,0:0:0:0:
256,192,278479,1,8,0:0:0:0:
256,192,278575,1,8,0:0:0:0:
256,192,278670,1,8,0:0:0:0:
256,192,278766,1,0,0:0:0:0:
256,192,278861,1,8,0:0:0:0:
256,192,278957,1,8,0:0:0:0:
256,192,279052,1,0,0:0:0:0:
256,192,279148,1,0,0:0:0:0:
256,192,279243,1,8,0:0:0:0:
256,192,279339,1,0,0:0:0:0:
256,192,279434,1,8,0:0:0:0:
256,192,279530,1,8,0:0:0:0:
256,192,279625,1,0,0:0:0:0:
256,192,279721,1,0,0:0:0:0:
256,192,279817,1,0,0:0:0:0:
256,192,279912,1,0,0:0:0:0:
256,192,280008,1,8,0:0:0:0:
256,192,280103,1,0,0:0:0:0:
256,192,280199,1,8,0:0:0:0:
256,192,280294,1,8,0:0:0:0:
256,192,280390,1,0,0:0:0:0:
256,192,280485,1,8,0:0:0:0:
256,192,280581,1,0,0:0:0:0:
256,192,280676,1,0,0:0:0:0:
256,192,280772,1,8,0:0:0:0:
256,192,280868,1,0,0:0:0:0:
256,192,280963,1,8,0:0:0:0:
256,192,281059,1,8,0:0:0:0:
256,192,281154,1,0,0:0:0:0:
256,192,281250,1,0,0:0:0:0:
256,192,281345,1,0,0:0:0:0:
256,192,281441,1,0,0:0:0:0:
256,192,281536,1,8,0:0:0:0:
256,192,281632,1,0,0:0:0:0:
256,192,281727,1,8,0:0:0:0:
256,192,281823,1,8,0:0:0:0:
256,192,281918,1,0,0:0:0:0:
256,192,282014,1,8,0:0:0:0:
256,192,282110,1,0,0:0:0:0:
256,192,282205,1,0,0:0:0:0:
256,192,282301,1,8,0:0:0:0:
256,192,282396,1,0,0:0:0:0:
256,192,282492,1,8,0:0:0:0:
256,192,282587,1,8,0:0:0:0:
256,192,282683,1,0,0:0:0:0:
256,192,282778,1,0,0:0:0:0:
256,192,282874,1,0,0:0:0:0:
256,192,282969,1,0,0:0:0:0:
256,192,283065,1,8,0:0:0:0:
256,192,283161,1,8,0:0:0:0:
256,192,283256,1,4,0:0:0:0:
256,192,284020,1,12,0:0:0:0:
256,192,284403,1,12,0:0:0:0:
256,192,284785,1,4,0:0:0:0:
256,192,287078,1,0,0:0:0:0:
256,192,287173,1,8,0:0:0:0:
256,192,287269,1,0,0:0:0:0:
256,192,287460,1,8,0:0:0:0:
256,192,287651,1,0,0:0:0:0:
256,192,287842,1,8,0:0:0:0:
256,192,287938,1,8,0:0:0:0:
256,192,288033,1,0,0:0:0:0:
256,192,288129,1,0,0:0:0:0:
256,192,288224,1,8,0:0:0:0:
256,192,288320,1,0,0:0:0:0:
256,192,288415,1,8,0:0:0:0:
256,192,288511,1,8,0:0:0:0:
256,192,288606,1,0,0:0:0:0:
256,192,288702,1,8,0:0:0:0:
256,192,288797,1,0,0:0:0:0:
256,192,288893,1,0,0:0:0:0:
256,192,288989,1,8,0:0:0:0:
256,192,289084,1,0,0:0:0:0:
256,192,289180,1,0,0:0:0:0:
256,192,289275,1,0,0:0:0:0:
256,192,289371,1,8,0:0:0:0:
256,192,289466,1,8,0:0:0:0:
256,192,289562,1,0,0:0:0:0:
256,192,289657,1,0,0:0:0:0:
256,192,289753,1,8,0:0:0:0:
256,192,289848,1,0,0:0:0:0:
256,192,289944,1,8,0:0:0:0:
256,192,290039,1,8,0:0:0:0:
256,192,290135,1,0,0:0:0:0:
256,192,290231,1,8,0:0:0:0:
256,192,290326,1,0,0:0:0:0:
256,192,290422,1,0,0:0:0:0:
256,192,290517,1,8,0:0:0:0:
256,192,290613,1,0,0:0:0:0:
256,192,290708,1,0,0:0:0:0:
256,192,290804,1,0,0:0:0:0:
256,192,290899,1,8,0:0:0:0:
256,192,290995,1,8,0:0:0:0:
256,192,291090,1,0,0:0:0:0:
256,192,291186,1,0,0:0:0:0:
256,192,291282,1,8,0:0:0:0:
256,192,291377,1,0,0:0:0:0:
256,192,291473,1,8,0:0:0:0:
256,192,291568,1,8,0:0:0:0:
256,192,291664,1,0,0:0:0:0:
256,192,291759,1,8,0:0:0:0:
256,192,291855,1,0,0:0:0:0:
256,192,291950,1,0,0:0:0:0:
256,192,292046,1,8,0:0:0:0:
256,192,292141,1,8,0:0:0:0:
256,192,292237,1,8,0:0:0:0:
256,192,292332,1,8,0:0:0:0:
256,192,292428,1,4,0:0:0:0:
256,192,292715,1,4,0:0:0:0:
256,192,293001,1,12,0:0:0:0:
256,192,293383,1,12,0:0:0:0:
256,192,293575,1,4,0:0:0:0:
256,192,293766,1,12,0:0:0:0:
256,192,293957,1,8,0:0:0:0:
256,192,294052,1,8,0:0:0:0:
256,192,294148,1,0,0:0:0:0:
256,192,294243,1,0,0:0:0:0:
256,192,294339,1,8,0:0:0:0:
256,192,294434,1,0,0:0:0:0:
256,192,294530,1,8,0:0:0:0:
256,192,294625,1,8,0:0:0:0:
256,192,294721,1,0,0:0:0:0:
256,192,294817,1,8,0:0:0:0:
256,192,294912,1,0,0:0:0:0:
256,192,295008,1,0,0:0:0:0:
256,192,295103,1,8,0:0:0:0:
256,192,295199,1,0,0:0:0:0:
256,192,295294,1,0,0:0:0:0:
256,192,295390,1,0,0:0:0:0:
256,192,295485,1,8,0:0:0:0:
256,192,295581,1,8,0:0:0:0:
256,192,295676,1,0,0:0:0:0:
256,192,295772,1,0,0:0:0:0:
256,192,295868,1,8,0:0:0:0:
256,192,295963,1,0,0:0:0:0:
256,192,296059,1,8,0:0:0:0:
256,192,296154,1,8,0:0:0:0:
256,192,296250,1,0,0:0:0:0:
256,192,296345,1,8,0:0:0:0:
256,192,296441,1,0,0:0:0:0:
256,192,296536,1,0,0:0:0:0:
256,192,296632,1,8,0:0:0:0:
256,192,296727,1,0,0:0:0:0:
256,192,296823,1,8,0:0:0:0:
256,192,296918,1,0,0:0:0:0:
256,192,297014,1,8,0:0:0:0:
256,192,297110,1,8,0:0:0:0:
256,192,297205,1,0,0:0:0:0:
256,192,297301,1,0,0:0:0:0:
256,192,297396,1,8,0:0:0:0:
256,192,297492,1,0,0:0:0:0:
256,192,297587,1,8,0:0:0:0:
256,192,297683,1,8,0:0:0:0:
256,192,297778,1,0,0:0:0:0:
256,192,297874,1,8,0:0:0:0:
256,192,297969,1,0,0:0:0:0:
256,192,298065,1,0,0:0:0:0:
256,192,298161,1,8,0:0:0:0:
256,192,298256,1,8,0:0:0:0:
256,192,298352,1,8,0:0:0:0:
256,192,298447,1,8,0:0:0:0:
256,192,298543,1,4,0:0:0:0:
256,192,298829,1,4,0:0:0:0:
256,192,299116,1,12,0:0:0:0:
256,192,299498,1,12,0:0:0:0:
256,192,299689,1,4,0:0:0:0:
256,192,299880,1,12,0:0:0:0:
256,192,300071,1,4,0:0:0:0:
256,192,300358,1,4,0:0:0:0:
256,192,300645,1,12,0:0:0:0:
256,192,301027,1,12,0:0:0:0:
256,192,301218,1,4,0:0:0:0:
256,192,301409,1,12,0:0:0:0:
256,192,301600,1,4,0:0:0:0:
256,192,301887,1,4,0:0:0:0:
256,192,302173,1,12,0:0:0:0:
256,192,302555,1,12,0:0:0:0:
256,192,302746,1,4,0:0:0:0:
256,192,302938,1,12,0:0:0:0:
256,192,303129,1,4,0:0:0:0:
256,192,304275,1,8,0:0:0:0:
256,192,304371,1,8,0:0:0:0:
256,192,304466,1,0,0:0:0:0:
256,192,304562,1,0,0:0:0:0:
256,192,304657,1,12,0:0:0:0:
256,192,304848,1,12,0:0:0:0:
256,192,305422,12,0,312301,0:0:0:0:
