osu file format v14

[General]
AudioFilename: LOVELESS_WORLD.mp3
AudioLeadIn: 0
PreviewTime: 92801
Countdown: 0
SampleSet: Normal
StackLeniency: 0.7
Mode: 1
LetterboxInBreaks: 0
WidescreenStoryboard: 0

[Editor]
Bookmarks: 63188,87642
DistanceSpacing: 1.2
BeatDivisor: 4
GridSize: 4
TimelineZoom: 2.799999

[Metadata]
Title:LOVELESS WORLD
TitleUnicode:LOVELESS WORLD
Artist:u's
ArtistUnicode:μ's
Creator:Hanjamon
Version:LOVELESS ONI
Source:ラブライブ! School idol project
Tags:Hata Aki Yamada Takahiro Kawada Takaou Love Live! Honoka Kotori Umi Maki Rin Hanayo Nico Eli Nozomi nico-nico-nii
BeatmapID:959168
BeatmapSetID:446641

[Difficulty]
HPDrainRate:5
CircleSize:2
OverallDifficulty:6
ApproachRate:5
SliderMultiplier:1.4
SliderTickRate:1

[Events]
//Background and Video events
0,0,"LoveliveTaikobg.jpg",0,90
//Break Periods
//Storyboard Layer 0 (Background)
//Storyboard Layer 1 (Fail)
//Storyboard Layer 2 (Pass)
//Storyboard Layer 3 (Foreground)
//Storyboard Sound Samples

[TimingPoints]
508,382.165605095541,4,1,0,5,1,0
508,-111.111111111111,4,1,0,5,0,0
890,-111.111111111111,4,1,0,10,0,0
1654,-111.111111111111,4,1,0,15,0,0
2418,-111.111111111111,4,1,0,20,0,0
3183,-111.111111111111,4,1,0,25,0,0
5093,-111.111111111111,4,1,0,30,0,0
7386,-111.111111111111,4,1,0,35,0,0
10539,-111.111111111111,4,1,0,40,0,0
13023,-111.111111111111,4,1,0,50,0,0
14265,-111.111111111111,4,1,0,60,0,0
26495,-100,4,1,0,75,0,0
50189,-99.009900990099,4,1,0,75,0,0
50285,-98.0392156862745,4,1,0,75,0,0
50380,-97.0873786407767,4,1,0,75,0,0
50476,-96.1538461538461,4,1,0,75,0,0
50571,-95.2380952380952,4,1,0,75,0,0
50667,-94.3396226415094,4,1,0,75,0,0
50762,-93.4579439252336,4,1,0,75,0,0
50953,-90.9090909090909,4,1,0,80,0,1
56590,-91.743119266055,4,1,0,80,0,1
56686,-92.5925925925926,4,1,0,80,0,1
56781,-93.4579439252336,4,1,0,80,0,1
56877,-94.3396226415094,4,1,0,80,0,1
57068,-95.2380952380952,4,1,0,75,0,0
63183,-100,4,1,0,75,0,0
93756,-90.9090909090909,4,1,0,80,0,1
117450,-100,4,1,0,80,0,1
118215,-100,4,1,0,60,0,0
122227,-100,4,1,0,75,0,0
124329,-100,4,1,0,60,0,0
127004,-100,4,1,0,70,0,0
127386,-100,4,1,0,75,0,0
136558,-100,4,1,0,60,0,0
148788,-100,4,1,0,75,0,0
154902,-90.9090909090909,4,1,0,80,0,1
178597,-100,4,1,0,80,0,1
179361,-100,4,1,0,75,0,0
203151,-98.0392156862745,4,1,0,75,0,0
203246,-96.1538461538461,4,1,0,75,0,0
203342,-94.3396226415094,4,1,0,75,0,0
203437,-92.5925925925926,4,1,0,75,0,0
203533,-90.9090909090909,4,1,0,75,0,0
203629,-89.2857142857143,4,1,0,75,0,0
203820,-86.9565217391304,4,1,0,80,0,1
228278,-111.111111111111,4,1,0,60,0,0
234393,-100,4,1,0,75,0,0
240507,-111.111111111111,4,1,0,60,0,0
246622,-100,4,1,0,75,0,0
252737,-99.009900990099,4,1,0,75,0,0
252832,-98.0392156862745,4,1,0,75,0,0
252928,-97.0873786407767,4,1,0,75,0,0
253023,-96.1538461538461,4,1,0,75,0,0
253119,-95.2380952380952,4,1,0,75,0,0
253215,-94.3396226415094,4,1,0,75,0,0
253310,-93.4579439252336,4,1,0,75,0,0
253406,-92.5925925925926,4,1,0,75,0,0
253501,-91.743119266055,4,1,0,75,0,0
253597,-90.9090909090909,4,1,0,75,0,0
254074,-89.2857142857143,4,1,0,75,0,0
254265,-86.9565217391304,4,1,0,80,0,1
284074,-100,4,1,0,80,0,1
284839,-100,4,1,0,70,0,0
287896,-86.9565217391304,4,1,0,80,0,1
292482,-86.9565217391304,4,1,0,75,0,0
294011,-86.9565217391304,4,1,0,80,0,1
298597,-86.9565217391304,4,1,0,75,0,0
305093,-86.9565217391304,4,1,0,60,0,0
305858,-86.9565217391304,4,1,0,55,0,0
306622,-86.9565217391304,4,1,0,50,0,0
307386,-86.9565217391304,4,1,0,45,0,0
308151,-86.9565217391304,4,1,0,40,0,0
308915,-86.9565217391304,4,1,0,35,0,0
309679,-86.9565217391304,4,1,0,30,0,0
310444,-86.9565217391304,4,1,0,25,0,0
311208,-86.9565217391304,4,1,0,20,0,0
311972,-86.9565217391304,4,1,0,15,0,0

[HitObjects]
256,192,603,12,0,12737,0:0:0:0:
256,192,13023,12,0,14074,0:0:0:0:
344,144,14265,5,4,0:0:0:0:
236,156,15030,1,8,0:0:0:0:
232,172,15794,1,0,0:0:0:0:
236,156,16558,1,8,0:0:0:0:
232,172,17323,1,0,0:0:0:0:
232,172,17705,1,0,0:0:0:0:
232,172,18087,1,8,0:0:0:0:
232,172,18469,1,8,0:0:0:0:
232,172,18851,1,0,0:0:0:0:
232,172,19138,1,8,0:0:0:0:
232,172,19425,1,8,0:0:0:0:
232,172,19520,1,8,0:0:0:0:
232,172,19616,1,0,0:0:0:0:
196,152,20380,1,0,0:0:0:0:
196,152,20667,1,0,0:0:0:0:
196,152,20953,1,8,0:0:0:0:
196,152,21144,1,8,0:0:0:0:
196,152,21527,1,0,0:0:0:0:
196,152,21909,1,8,0:0:0:0:
196,152,22482,1,0,0:0:0:0:
196,152,22578,1,0,0:0:0:0:
196,152,22673,1,8,0:0:0:0:
196,152,23055,1,8,0:0:0:0:
196,152,23437,1,0,0:0:0:0:
312,188,23724,1,0,0:0:0:0:
428,232,24011,1,8,0:0:0:0:
364,208,24202,1,8,0:0:0:0:
364,208,24488,1,0,0:0:0:0:
252,220,24775,1,8,0:0:0:0:
180,224,24966,1,0,0:0:0:0:
304,216,25253,1,0,0:0:0:0:
188,224,25539,1,0,0:0:0:0:
224,220,25635,1,0,0:0:0:0:
224,220,25730,1,8,0:0:0:0:
224,220,25922,1,8,0:0:0:0:
224,220,26017,1,8,0:0:0:0:
224,220,26113,1,0,0:0:0:0:
224,220,26208,1,0,0:0:0:0:
224,220,26304,1,0,0:0:0:0:
224,220,26495,1,4,0:0:0:0:
396,284,26877,1,0,0:0:0:0:
252,216,27259,1,0,0:0:0:0:
392,284,27641,1,0,0:0:0:0:
320,236,27832,1,8,0:0:0:0:
392,284,28023,1,4,0:0:0:0:
392,284,28406,1,0,0:0:0:0:
392,284,28788,1,0,0:0:0:0:
324,240,28979,1,8,0:0:0:0:
392,284,29170,1,0,0:0:0:0:
332,244,29361,1,8,0:0:0:0:
392,284,29552,1,4,0:0:0:0:
248,196,29934,1,0,0:0:0:0:
160,180,30125,1,0,0:0:0:0:
84,152,30316,1,12,0:0:0:0:
160,180,30699,1,8,0:0:0:0:
248,156,30890,1,0,0:0:0:0:
160,180,31081,1,4,0:0:0:0:
0,124,31463,1,0,0:0:0:0:
164,172,31654,1,8,0:0:0:0:
160,180,31845,1,0,0:0:0:0:
196,160,32036,1,8,0:0:0:0:
160,180,32132,1,8,0:0:0:0:
160,180,32227,1,0,0:0:0:0:
160,180,32418,1,0,0:0:0:0:
248,196,32609,1,4,0:0:0:0:
248,196,32992,1,0,0:0:0:0:
248,196,33183,1,0,0:0:0:0:
248,196,33374,1,12,0:0:0:0:
248,196,33756,1,0,0:0:0:0:
252,140,33947,1,8,0:0:0:0:
248,196,34138,1,4,0:0:0:0:
248,196,34520,1,12,0:0:0:0:
248,196,34902,1,4,0:0:0:0:
148,196,35093,1,8,0:0:0:0:
192,204,35189,1,8,0:0:0:0:
208,196,35285,1,0,0:0:0:0:
244,204,35380,1,0,0:0:0:0:
208,196,35476,1,0,0:0:0:0:
208,196,35667,1,8,0:0:0:0:
252,140,35762,1,0,0:0:0:0:
220,108,35858,1,0,0:0:0:0:
216,148,35953,1,8,0:0:0:0:
216,148,36049,1,0,0:0:0:0:
216,148,36144,1,0,0:0:0:0:
216,148,36240,1,8,0:0:0:0:
216,148,36336,1,0,0:0:0:0:
216,148,36431,1,8,0:0:0:0:
216,148,36527,1,0,0:0:0:0:
216,148,36622,1,0,0:0:0:0:
216,148,36718,1,8,0:0:0:0:
216,148,36813,1,0,0:0:0:0:
256,188,36909,1,0,0:0:0:0:
256,132,37004,1,8,0:0:0:0:
292,116,37195,1,4,0:0:0:0:
216,148,37960,1,4,0:0:0:0:
144,292,38342,1,4,0:0:0:0:
236,164,38724,1,12,0:0:0:0:
220,184,39871,1,12,0:0:0:0:
220,184,40062,1,0,0:0:0:0:
220,184,40253,1,12,0:0:0:0:
220,184,41399,1,4,0:0:0:0:
220,184,41590,1,8,0:0:0:0:
220,184,41781,1,4,0:0:0:0:
220,184,42928,1,4,0:0:0:0:
220,184,43119,1,0,0:0:0:0:
220,184,43310,1,12,0:0:0:0:
220,184,43597,1,12,0:0:0:0:
132,88,43883,1,4,0:0:0:0:
268,236,44265,1,12,0:0:0:0:
200,204,44457,1,4,0:0:0:0:
116,164,44648,1,12,0:0:0:0:
196,204,44839,1,4,0:0:0:0:
372,272,45221,1,0,0:0:0:0:
372,272,45603,1,0,0:0:0:0:
372,272,45985,1,12,0:0:0:0:
320,204,46176,1,0,0:0:0:0:
372,272,46367,1,12,0:0:0:0:
372,272,46750,1,0,0:0:0:0:
372,272,47132,1,0,0:0:0:0:
372,272,47514,1,4,0:0:0:0:
328,216,47705,1,8,0:0:0:0:
276,148,47896,1,4,0:0:0:0:
252,112,48278,1,0,0:0:0:0:
252,112,48660,1,0,0:0:0:0:
252,112,48851,1,0,0:0:0:0:
252,112,48947,1,0,0:0:0:0:
252,112,49043,1,8,0:0:0:0:
252,112,49234,1,0,0:0:0:0:
252,112,49425,1,12,0:0:0:0:
252,112,49711,1,12,0:0:0:0:
252,112,49998,1,12,0:0:0:0:
252,112,50189,1,0,0:0:0:0:
272,156,50285,1,0,0:0:0:0:
272,156,50380,1,8,0:0:0:0:
272,156,50476,1,8,0:0:0:0:
272,156,50571,1,0,0:0:0:0:
272,156,50667,1,8,0:0:0:0:
272,156,50762,1,8,0:0:0:0:
272,156,50953,1,4,0:0:0:0:
352,192,51144,1,8,0:0:0:0:
352,192,51240,1,0,0:0:0:0:
352,192,51336,1,0,0:0:0:0:
352,192,51431,1,0,0:0:0:0:
352,192,51527,1,8,0:0:0:0:
352,192,51622,1,0,0:0:0:0:
352,192,51718,1,0,0:0:0:0:
352,192,51813,1,0,0:0:0:0:
352,192,51909,1,8,0:0:0:0:
352,192,52004,1,0,0:0:0:0:
352,192,52100,1,0,0:0:0:0:
352,192,52195,1,0,0:0:0:0:
352,192,52291,1,8,0:0:0:0:
352,192,52482,1,4,0:0:0:0:
352,192,52673,1,8,0:0:0:0:
324,184,52769,1,8,0:0:0:0:
352,192,52864,1,0,0:0:0:0:
312,188,52960,1,0,0:0:0:0:
352,192,53055,1,8,0:0:0:0:
352,192,53246,1,4,0:0:0:0:
352,192,53437,1,8,0:0:0:0:
312,184,53533,1,8,0:0:0:0:
352,192,53629,1,0,0:0:0:0:
312,180,53724,1,8,0:0:0:0:
352,192,53820,1,8,0:0:0:0:
352,192,54011,1,4,0:0:0:0:
344,184,54202,1,8,0:0:0:0:
352,192,54297,1,0,0:0:0:0:
352,192,54393,1,0,0:0:0:0:
352,192,54488,1,0,0:0:0:0:
352,192,54584,1,8,0:0:0:0:
352,192,54679,1,0,0:0:0:0:
352,192,54775,1,0,0:0:0:0:
352,192,54871,1,0,0:0:0:0:
352,192,54966,1,8,0:0:0:0:
352,192,55062,1,0,0:0:0:0:
352,192,55157,1,0,0:0:0:0:
352,192,55253,1,0,0:0:0:0:
352,192,55348,1,8,0:0:0:0:
428,216,55539,1,4,0:0:0:0:
344,224,55730,1,8,0:0:0:0:
384,220,55826,1,8,0:0:0:0:
384,220,55922,1,0,0:0:0:0:
344,208,56017,1,0,0:0:0:0:
384,220,56113,1,8,0:0:0:0:
384,220,56304,1,12,0:0:0:0:
384,220,56495,1,0,0:0:0:0:
384,220,56590,1,0,0:0:0:0:
384,220,56686,1,0,0:0:0:0:
384,220,56781,1,0,0:0:0:0:
384,220,56877,1,0,0:0:0:0:
384,220,57068,1,12,0:0:0:0:
236,200,57355,1,4,0:0:0:0:
124,176,57641,1,12,0:0:0:0:
296,212,58023,1,0,0:0:0:0:
224,196,58215,1,8,0:0:0:0:
284,212,58406,1,0,0:0:0:0:
332,224,58501,1,0,0:0:0:0:
372,236,58597,1,8,0:0:0:0:
372,236,58788,1,4,0:0:0:0:
300,196,59170,1,0,0:0:0:0:
372,236,59265,1,0,0:0:0:0:
340,216,59361,1,8,0:0:0:0:
148,192,59743,1,0,0:0:0:0:
168,192,59839,1,0,0:0:0:0:
168,192,59934,1,0,0:0:0:0:
368,176,60125,1,8,0:0:0:0:
368,176,60253,1,0,0:0:0:0:
368,176,60380,1,0,0:0:0:0:
368,176,60507,1,8,0:0:0:0:
368,176,60635,1,0,0:0:0:0:
368,176,60762,1,0,0:0:0:0:
368,176,60890,1,8,0:0:0:0:
368,176,61017,1,0,0:0:0:0:
368,176,61144,1,0,0:0:0:0:
320,148,61272,1,8,0:0:0:0:
48,144,61463,1,0,0:0:0:0:
176,156,61527,1,0,0:0:0:0:
320,148,61590,1,0,0:0:0:0:
320,148,61654,1,8,0:0:0:0:
212,204,61941,1,0,0:0:0:0:
320,144,62227,1,8,0:0:0:0:
252,184,62418,1,4,0:0:0:0:
208,240,63183,1,0,0:0:0:0:
212,204,63374,1,8,0:0:0:0:
212,204,63565,1,0,0:0:0:0:
212,204,63660,1,0,0:0:0:0:
212,204,63756,1,8,0:0:0:0:
212,204,63947,1,0,0:0:0:0:
212,204,64138,1,8,0:0:0:0:
212,204,64234,1,0,0:0:0:0:
212,204,64425,1,0,0:0:0:0:
212,204,64520,1,8,0:0:0:0:
212,204,64711,1,0,0:0:0:0:
212,204,64902,1,8,0:0:0:0:
252,192,64998,1,8,0:0:0:0:
212,204,65093,1,0,0:0:0:0:
212,204,65189,1,0,0:0:0:0:
212,204,65285,1,8,0:0:0:0:
212,204,65476,1,0,0:0:0:0:
212,204,65667,1,8,0:0:0:0:
212,204,65762,1,0,0:0:0:0:
212,204,65953,1,0,0:0:0:0:
212,204,66049,1,8,0:0:0:0:
212,204,66240,1,0,0:0:0:0:
140,252,66431,1,8,0:0:0:0:
208,224,66622,1,0,0:0:0:0:
208,224,66718,1,0,0:0:0:0:
208,224,66813,1,8,0:0:0:0:
208,224,67004,1,0,0:0:0:0:
208,224,67195,1,8,0:0:0:0:
208,224,67291,1,0,0:0:0:0:
208,224,67482,1,0,0:0:0:0:
208,224,67578,1,8,0:0:0:0:
208,224,67769,1,0,0:0:0:0:
208,224,67960,1,8,0:0:0:0:
208,224,68055,1,8,0:0:0:0:
208,224,68151,1,0,0:0:0:0:
208,224,68246,1,0,0:0:0:0:
208,224,68342,1,8,0:0:0:0:
208,224,68533,1,0,0:0:0:0:
284,200,68724,1,8,0:0:0:0:
312,192,68820,1,0,0:0:0:0:
312,192,68915,1,8,0:0:0:0:
312,192,69011,1,8,0:0:0:0:
312,192,69106,1,0,0:0:0:0:
312,192,69297,1,4,0:0:0:0:
284,200,69488,1,8,0:0:0:0:
284,200,69679,1,0,0:0:0:0:
284,200,69775,1,8,0:0:0:0:
284,200,69871,1,8,0:0:0:0:
284,200,70062,1,0,0:0:0:0:
284,200,70253,1,8,0:0:0:0:
284,200,70348,1,0,0:0:0:0:
284,200,70539,1,0,0:0:0:0:
284,200,70635,1,8,0:0:0:0:
284,200,70826,1,0,0:0:0:0:
284,200,71017,1,8,0:0:0:0:
284,200,71113,1,0,0:0:0:0:
284,200,71208,1,0,0:0:0:0:
284,200,71304,1,0,0:0:0:0:
284,200,71399,1,8,0:0:0:0:
284,200,71590,1,0,0:0:0:0:
284,200,71781,1,8,0:0:0:0:
284,200,71877,1,0,0:0:0:0:
284,200,72068,1,0,0:0:0:0:
284,200,72164,1,8,0:0:0:0:
284,200,72355,1,0,0:0:0:0:
284,200,72546,1,8,0:0:0:0:
284,200,72737,1,0,0:0:0:0:
284,200,72832,1,8,0:0:0:0:
284,200,72928,1,8,0:0:0:0:
284,200,73119,1,0,0:0:0:0:
284,200,73310,1,8,0:0:0:0:
284,200,73406,1,0,0:0:0:0:
284,200,73597,1,0,0:0:0:0:
284,200,73692,1,8,0:0:0:0:
284,200,73883,1,0,0:0:0:0:
284,200,74074,1,8,0:0:0:0:
284,200,74170,1,8,0:0:0:0:
284,200,74265,1,0,0:0:0:0:
284,200,74361,1,0,0:0:0:0:
284,200,74457,1,8,0:0:0:0:
284,200,74648,1,0,0:0:0:0:
284,200,74839,1,8,0:0:0:0:
284,200,74934,1,8,0:0:0:0:
284,200,75030,1,0,0:0:0:0:
284,200,75125,1,0,0:0:0:0:
284,200,75221,1,0,0:0:0:0:
312,208,75412,5,4,0:0:0:0:
256,132,75603,1,8,0:0:0:0:
256,132,75699,1,0,0:0:0:0:
256,132,75890,1,0,0:0:0:0:
256,132,75985,1,8,0:0:0:0:
256,132,76176,1,0,0:0:0:0:
256,132,76367,1,8,0:0:0:0:
256,132,76463,1,0,0:0:0:0:
224,152,76558,1,8,0:0:0:0:
256,132,76654,1,0,0:0:0:0:
256,132,76750,1,8,0:0:0:0:
256,132,76941,1,0,0:0:0:0:
256,132,77132,1,8,0:0:0:0:
256,132,77227,1,0,0:0:0:0:
256,132,77418,1,0,0:0:0:0:
256,132,77514,1,8,0:0:0:0:
256,132,77705,1,0,0:0:0:0:
256,132,77896,1,8,0:0:0:0:
256,132,77992,1,0,0:0:0:0:
204,144,78087,1,8,0:0:0:0:
256,132,78183,1,8,0:0:0:0:
256,132,78278,1,8,0:0:0:0:
256,132,78469,1,4,0:0:0:0:
256,132,78660,1,8,0:0:0:0:
256,132,78756,1,8,0:0:0:0:
256,132,78851,1,0,0:0:0:0:
256,132,78947,1,0,0:0:0:0:
256,132,79043,1,8,0:0:0:0:
256,132,79138,1,0,0:0:0:0:
256,132,79234,1,8,0:0:0:0:
256,132,79329,1,8,0:0:0:0:
256,132,79425,1,0,0:0:0:0:
256,132,79520,1,8,0:0:0:0:
256,132,79616,1,0,0:0:0:0:
256,132,79711,1,0,0:0:0:0:
256,132,79807,1,8,0:0:0:0:
256,132,79998,1,0,0:0:0:0:
308,152,80093,1,0,0:0:0:0:
256,132,80189,1,8,0:0:0:0:
256,132,80285,1,8,0:0:0:0:
256,132,80380,1,0,0:0:0:0:
256,132,80476,1,0,0:0:0:0:
256,132,80571,1,8,0:0:0:0:
256,132,80762,1,4,0:0:0:0:
256,132,80953,1,8,0:0:0:0:
256,132,81144,1,4,0:0:0:0:
256,132,81336,1,8,0:0:0:0:
256,132,81527,1,4,0:0:0:0:
256,132,81718,1,8,0:0:0:0:
256,132,81813,1,0,0:0:0:0:
184,168,82004,1,0,0:0:0:0:
184,168,82100,1,8,0:0:0:0:
184,168,82291,1,0,0:0:0:0:
184,168,82482,1,8,0:0:0:0:
184,168,82578,1,0,0:0:0:0:
184,168,82673,1,8,0:0:0:0:
184,168,82769,1,0,0:0:0:0:
184,168,82864,1,8,0:0:0:0:
184,168,83055,1,0,0:0:0:0:
184,168,83246,1,8,0:0:0:0:
184,168,83342,1,0,0:0:0:0:
184,168,83533,1,0,0:0:0:0:
184,168,83629,1,8,0:0:0:0:
184,168,83820,1,0,0:0:0:0:
184,168,84011,1,8,0:0:0:0:
184,168,84106,1,0,0:0:0:0:
184,168,84202,1,8,0:0:0:0:
184,168,84297,1,8,0:0:0:0:
184,168,84393,1,8,0:0:0:0:
184,168,84584,1,0,0:0:0:0:
100,172,84775,1,8,0:0:0:0:
184,168,84871,1,0,0:0:0:0:
184,168,85062,1,0,0:0:0:0:
184,168,85157,1,8,0:0:0:0:
184,168,85348,1,0,0:0:0:0:
184,168,85539,1,8,0:0:0:0:
184,168,85635,1,0,0:0:0:0:
184,168,85730,1,8,0:0:0:0:
184,168,85826,1,0,0:0:0:0:
184,168,85922,1,8,0:0:0:0:
184,168,86113,1,8,0:0:0:0:
216,176,86208,1,0,0:0:0:0:
244,184,86304,1,0,0:0:0:0:
272,192,86399,1,8,0:0:0:0:
300,200,86495,1,0,0:0:0:0:
328,208,86590,1,0,0:0:0:0:
356,216,86686,1,8,0:0:0:0:
380,224,86781,1,0,0:0:0:0:
404,228,86877,1,0,0:0:0:0:
364,212,86972,1,0,0:0:0:0:
404,228,87068,1,8,0:0:0:0:
404,228,87164,1,0,0:0:0:0:
404,228,87259,1,8,0:0:0:0:
364,196,87355,1,8,0:0:0:0:
336,168,87450,1,8,0:0:0:0:
260,164,87641,1,4,0:0:0:0:
124,148,87928,1,4,0:0:0:0:
252,164,88215,1,12,0:0:0:0:
84,140,88597,1,0,0:0:0:0:
172,152,88788,1,8,0:0:0:0:
256,164,88979,1,0,0:0:0:0:
172,152,89170,1,12,0:0:0:0:
312,220,89552,1,0,0:0:0:0:
464,304,89934,1,8,0:0:0:0:
428,284,90030,1,8,0:0:0:0:
396,268,90125,1,0,0:0:0:0:
368,252,90221,1,0,0:0:0:0:
368,252,90316,1,0,0:0:0:0:
368,252,90412,1,0,0:0:0:0:
368,252,90507,1,0,0:0:0:0:
456,216,90699,1,4,0:0:0:0:
376,196,90890,1,8,0:0:0:0:
332,228,90985,1,0,0:0:0:0:
268,184,91176,1,0,0:0:0:0:
448,216,91272,1,8,0:0:0:0:
364,196,91463,1,0,0:0:0:0:
320,184,91558,1,0,0:0:0:0:
284,176,91654,1,8,0:0:0:0:
256,168,91750,1,8,0:0:0:0:
256,168,91845,1,0,0:0:0:0:
256,168,91941,1,0,0:0:0:0:
256,168,92036,1,0,0:0:0:0:
28,100,92227,1,12,0:0:0:0:
264,144,92800,1,0,0:0:0:0:
236,152,92864,1,0,0:0:0:0:
264,144,92928,1,0,0:0:0:0:
264,144,92992,1,8,0:0:0:0:
224,144,93374,1,8,0:0:0:0:
292,152,93756,1,4,0:0:0:0:
208,104,93947,1,0,0:0:0:0:
208,104,94043,1,0,0:0:0:0:
208,104,94138,1,8,0:0:0:0:
264,144,94329,1,8,0:0:0:0:
264,144,94425,1,8,0:0:0:0:
264,144,94520,1,0,0:0:0:0:
264,144,94616,1,0,0:0:0:0:
264,144,94711,1,8,0:0:0:0:
224,144,94902,1,0,0:0:0:0:
224,144,94998,1,0,0:0:0:0:
224,144,95093,1,8,0:0:0:0:
224,144,95285,1,4,0:0:0:0:
224,144,95476,1,8,0:0:0:0:
224,144,95571,1,8,0:0:0:0:
224,144,95667,1,0,0:0:0:0:
224,144,95858,1,8,0:0:0:0:
224,144,95953,1,0,0:0:0:0:
224,144,96049,1,0,0:0:0:0:
224,144,96144,1,0,0:0:0:0:
224,144,96240,1,8,0:0:0:0:
244,152,96431,1,8,0:0:0:0:
300,176,96527,1,0,0:0:0:0:
336,192,96622,1,8,0:0:0:0:
272,136,96813,1,0,0:0:0:0:
300,160,96909,1,0,0:0:0:0:
300,160,97004,1,8,0:0:0:0:
300,160,97100,1,8,0:0:0:0:
300,160,97195,1,0,0:0:0:0:
300,160,97291,1,0,0:0:0:0:
300,160,97386,1,8,0:0:0:0:
300,160,97482,1,8,0:0:0:0:
300,160,97578,1,0,0:0:0:0:
300,160,97673,1,0,0:0:0:0:
300,160,97769,1,8,0:0:0:0:
300,160,97864,1,8,0:0:0:0:
300,160,97960,1,0,0:0:0:0:
300,160,98055,1,0,0:0:0:0:
300,160,98151,1,8,0:0:0:0:
400,220,98342,1,4,0:0:0:0:
400,220,98629,1,12,0:0:0:0:
400,220,98915,1,8,0:0:0:0:
380,184,99011,1,0,0:0:0:0:
376,192,99106,1,8,0:0:0:0:
376,192,99202,1,8,0:0:0:0:
376,192,99297,1,0,0:0:0:0:
376,192,99393,1,0,0:0:0:0:
376,192,99488,1,8,0:0:0:0:
376,192,99584,1,8,0:0:0:0:
376,192,99679,1,0,0:0:0:0:
296,180,99871,1,4,0:0:0:0:
220,160,100062,1,8,0:0:0:0:
260,152,100157,1,8,0:0:0:0:
220,160,100253,1,0,0:0:0:0:
252,164,100444,1,8,0:0:0:0:
252,164,100539,1,0,0:0:0:0:
252,164,100635,1,0,0:0:0:0:
252,164,100730,1,0,0:0:0:0:
252,164,100826,1,8,0:0:0:0:
176,136,101017,1,0,0:0:0:0:
252,164,101208,1,8,0:0:0:0:
252,164,101399,1,0,0:0:0:0:
248,124,101495,1,0,0:0:0:0:
320,220,101590,1,8,0:0:0:0:
300,188,101686,1,0,0:0:0:0:
288,196,101781,1,0,0:0:0:0:
256,156,101972,1,8,0:0:0:0:
276,180,102164,1,4,0:0:0:0:
368,40,102546,1,4,0:0:0:0:
308,196,102928,1,0,0:0:0:0:
324,160,103023,1,8,0:0:0:0:
324,160,103119,1,8,0:0:0:0:
324,160,103215,1,0,0:0:0:0:
324,160,103310,1,8,0:0:0:0:
324,160,103406,1,8,0:0:0:0:
324,160,103501,1,0,0:0:0:0:
324,160,103597,1,0,0:0:0:0:
324,160,103692,1,8,0:0:0:0:
324,160,103788,1,0,0:0:0:0:
324,160,103883,1,8,0:0:0:0:
324,160,103979,1,8,0:0:0:0:
324,160,104074,1,0,0:0:0:0:
324,160,104265,1,8,0:0:0:0:
324,160,104457,1,4,0:0:0:0:
324,160,104743,1,4,0:0:0:0:
324,160,105030,1,4,0:0:0:0:
324,160,105221,1,12,0:0:0:0:
324,160,105507,1,12,0:0:0:0:
324,160,105794,1,12,0:0:0:0:
324,160,105985,1,4,0:0:0:0:
208,104,106176,1,0,0:0:0:0:
208,104,106272,1,0,0:0:0:0:
208,104,106367,1,8,0:0:0:0:
264,144,106558,1,8,0:0:0:0:
264,144,106654,1,0,0:0:0:0:
264,144,106750,1,0,0:0:0:0:
264,144,106845,1,0,0:0:0:0:
264,144,106941,1,8,0:0:0:0:
224,144,107132,1,0,0:0:0:0:
224,144,107227,1,0,0:0:0:0:
224,144,107323,1,8,0:0:0:0:
224,144,107514,1,4,0:0:0:0:
224,144,107705,1,8,0:0:0:0:
224,144,107800,1,8,0:0:0:0:
224,144,107896,1,0,0:0:0:0:
224,144,108087,1,8,0:0:0:0:
224,144,108183,1,8,0:0:0:0:
224,144,108278,1,0,0:0:0:0:
224,144,108374,1,0,0:0:0:0:
224,144,108469,1,8,0:0:0:0:
244,152,108660,1,0,0:0:0:0:
300,176,108756,1,0,0:0:0:0:
336,192,108851,1,8,0:0:0:0:
272,136,109043,1,0,0:0:0:0:
300,160,109138,1,0,0:0:0:0:
300,160,109234,1,8,0:0:0:0:
300,160,109329,1,0,0:0:0:0:
300,160,109425,1,8,0:0:0:0:
300,160,109520,1,8,0:0:0:0:
300,160,109616,1,0,0:0:0:0:
300,160,109711,1,8,0:0:0:0:
300,160,109807,1,0,0:0:0:0:
300,160,109902,1,0,0:0:0:0:
300,160,109998,1,8,0:0:0:0:
300,160,110093,1,0,0:0:0:0:
300,160,110189,1,8,0:0:0:0:
300,160,110285,1,8,0:0:0:0:
300,160,110380,1,8,0:0:0:0:
400,220,110571,1,4,0:0:0:0:
400,220,110858,1,12,0:0:0:0:
400,220,111144,1,8,0:0:0:0:
380,184,111240,1,8,0:0:0:0:
376,192,111336,1,8,0:0:0:0:
376,192,111431,1,8,0:0:0:0:
376,192,111527,1,0,0:0:0:0:
376,192,111622,1,0,0:0:0:0:
376,192,111718,1,8,0:0:0:0:
376,192,111813,1,8,0:0:0:0:
376,192,111909,1,0,0:0:0:0:
296,180,112100,1,4,0:0:0:0:
220,160,112291,1,8,0:0:0:0:
260,152,112386,1,0,0:0:0:0:
220,160,112482,1,0,0:0:0:0:
252,164,112673,1,8,0:0:0:0:
252,164,112769,1,8,0:0:0:0:
252,164,112864,1,0,0:0:0:0:
252,164,112960,1,0,0:0:0:0:
252,164,113055,1,8,0:0:0:0:
176,136,113246,1,0,0:0:0:0:
252,164,113437,1,8,0:0:0:0:
252,164,113629,1,4,0:0:0:0:
288,196,114011,1,12,0:0:0:0:
276,180,114393,1,4,0:0:0:0:
268,140,114584,1,8,0:0:0:0:
268,140,114679,1,8,0:0:0:0:
368,40,114775,1,0,0:0:0:0:
268,140,114871,1,0,0:0:0:0:
268,140,114966,1,8,0:0:0:0:
308,196,115157,1,8,0:0:0:0:
324,160,115253,1,8,0:0:0:0:
324,160,115348,1,0,0:0:0:0:
324,160,115444,1,8,0:0:0:0:
324,160,115539,1,8,0:0:0:0:
324,160,115635,1,0,0:0:0:0:
324,160,115730,1,8,0:0:0:0:
324,160,115826,1,0,0:0:0:0:
324,160,115922,1,8,0:0:0:0:
324,160,116017,1,8,0:0:0:0:
324,160,116113,1,0,0:0:0:0:
324,160,116208,1,8,0:0:0:0:
324,160,116304,1,8,0:0:0:0:
184,176,116399,1,0,0:0:0:0:
324,160,116495,1,8,0:0:0:0:
240,144,116686,1,4,0:0:0:0:
264,148,117450,1,4,0:0:0:0:
264,148,117832,1,4,0:0:0:0:
264,148,118215,1,12,0:0:0:0:
348,192,118597,1,0,0:0:0:0:
348,192,119361,1,0,0:0:0:0:
348,192,120125,1,0,0:0:0:0:
348,192,120890,1,0,0:0:0:0:
348,192,121654,1,0,0:0:0:0:
348,192,122227,1,0,0:0:0:0:
348,192,122323,1,0,0:0:0:0:
348,192,122418,1,8,0:0:0:0:
348,192,122609,1,0,0:0:0:0:
284,208,122705,1,0,0:0:0:0:
348,192,122800,1,0,0:0:0:0:
284,208,123087,1,0,0:0:0:0:
284,208,123374,1,0,0:0:0:0:
284,208,123565,1,0,0:0:0:0:
284,208,123660,1,0,0:0:0:0:
312,184,123756,1,8,0:0:0:0:
312,184,123851,1,8,0:0:0:0:
312,184,123947,1,0,0:0:0:0:
236,204,124043,1,0,0:0:0:0:
236,204,124138,1,8,0:0:0:0:
380,172,124329,1,0,0:0:0:0:
304,212,125093,1,8,0:0:0:0:
376,204,125858,1,0,0:0:0:0:
376,200,126622,1,8,0:0:0:0:
376,200,127004,1,0,0:0:0:0:
376,200,127386,1,12,0:0:0:0:
272,244,127673,1,0,0:0:0:0:
312,232,127960,1,0,0:0:0:0:
312,232,128151,1,8,0:0:0:0:
324,232,128533,1,0,0:0:0:0:
324,232,128629,1,8,0:0:0:0:
324,232,128724,1,8,0:0:0:0:
324,232,128820,1,8,0:0:0:0:
324,232,128915,1,0,0:0:0:0:
296,200,129202,1,0,0:0:0:0:
320,216,129488,1,8,0:0:0:0:
320,216,129679,1,0,0:0:0:0:
320,208,129871,1,8,0:0:0:0:
320,208,129966,1,8,0:0:0:0:
308,208,130062,1,8,0:0:0:0:
312,200,130444,1,8,0:0:0:0:
312,200,130539,1,0,0:0:0:0:
352,232,130635,1,0,0:0:0:0:
352,232,130730,1,0,0:0:0:0:
352,232,130826,1,8,0:0:0:0:
352,232,130922,1,0,0:0:0:0:
352,232,131017,1,0,0:0:0:0:
352,232,131113,1,0,0:0:0:0:
352,232,131208,1,8,0:0:0:0:
344,232,131304,1,0,0:0:0:0:
344,232,131399,1,0,0:0:0:0:
344,232,131495,1,0,0:0:0:0:
344,232,131590,1,8,0:0:0:0:
344,232,131686,1,0,0:0:0:0:
340,232,131781,1,8,0:0:0:0:
340,232,131877,1,0,0:0:0:0:
340,232,131972,1,8,0:0:0:0:
340,232,132068,1,0,0:0:0:0:
340,232,132164,1,0,0:0:0:0:
344,232,132259,1,0,0:0:0:0:
344,232,132355,1,8,0:0:0:0:
344,232,132450,1,0,0:0:0:0:
344,232,132546,1,0,0:0:0:0:
336,232,132641,1,0,0:0:0:0:
336,232,132737,1,8,0:0:0:0:
340,232,132832,1,0,0:0:0:0:
340,232,132928,1,0,0:0:0:0:
340,232,133023,1,0,0:0:0:0:
340,232,133119,1,8,0:0:0:0:
340,232,133215,1,0,0:0:0:0:
336,232,133310,1,8,0:0:0:0:
336,232,133406,1,0,0:0:0:0:
336,232,133501,1,8,0:0:0:0:
336,232,133597,1,0,0:0:0:0:
336,232,133692,1,0,0:0:0:0:
340,232,133788,1,8,0:0:0:0:
340,232,133883,1,0,0:0:0:0:
340,232,133979,1,0,0:0:0:0:
340,232,134074,1,8,0:0:0:0:
340,232,134170,1,0,0:0:0:0:
336,232,134265,1,8,0:0:0:0:
336,232,134361,1,8,0:0:0:0:
336,232,134457,1,0,0:0:0:0:
336,232,134552,1,8,0:0:0:0:
336,232,134648,1,8,0:0:0:0:
340,232,134743,1,0,0:0:0:0:
280,152,134839,1,8,0:0:0:0:
340,232,135030,1,4,0:0:0:0:
288,172,135316,1,12,0:0:0:0:
288,172,135603,1,4,0:0:0:0:
296,172,135794,1,8,0:0:0:0:
336,228,135890,1,0,0:0:0:0:
336,228,135985,1,8,0:0:0:0:
336,228,136081,1,8,0:0:0:0:
336,228,136176,1,0,0:0:0:0:
336,228,136272,1,0,0:0:0:0:
336,228,136367,1,0,0:0:0:0:
284,140,136463,1,0,0:0:0:0:
336,228,136558,1,8,0:0:0:0:
356,220,137132,1,0,0:0:0:0:
356,220,137323,1,8,0:0:0:0:
356,220,137705,1,0,0:0:0:0:
356,220,138087,1,8,0:0:0:0:
356,220,138660,1,0,0:0:0:0:
356,220,138851,1,8,0:0:0:0:
356,220,139043,1,0,0:0:0:0:
352,220,139138,1,0,0:0:0:0:
356,220,139234,1,0,0:0:0:0:
396,252,139425,1,8,0:0:0:0:
400,252,139616,1,0,0:0:0:0:
256,284,139998,1,8,0:0:0:0:
420,240,140189,1,0,0:0:0:0:
420,240,140380,1,8,0:0:0:0:
420,240,140762,1,8,0:0:0:0:
420,240,141144,1,0,0:0:0:0:
396,252,141431,1,0,0:0:0:0:
396,252,141718,1,0,0:0:0:0:
396,252,141909,1,8,0:0:0:0:
320,260,142100,1,0,0:0:0:0:
320,260,142195,1,0,0:0:0:0:
396,252,142291,1,0,0:0:0:0:
396,252,142482,1,0,0:0:0:0:
380,244,142578,1,0,0:0:0:0:
396,252,142673,1,8,0:0:0:0:
404,252,143246,1,0,0:0:0:0:
404,252,143437,1,8,0:0:0:0:
404,252,143820,1,0,0:0:0:0:
212,240,144202,1,8,0:0:0:0:
228,240,144775,1,0,0:0:0:0:
228,240,144966,1,8,0:0:0:0:
416,236,145157,1,0,0:0:0:0:
416,236,145253,1,0,0:0:0:0:
416,236,145348,1,8,0:0:0:0:
472,296,145444,1,0,0:0:0:0:
416,236,145539,1,0,0:0:0:0:
308,232,145635,1,0,0:0:0:0:
416,236,145730,1,8,0:0:0:0:
424,232,146017,1,8,0:0:0:0:
416,216,146304,1,0,0:0:0:0:
416,216,146495,1,8,0:0:0:0:
416,216,146877,1,0,0:0:0:0:
400,216,147259,1,8,0:0:0:0:
400,216,147546,1,0,0:0:0:0:
400,216,147832,1,0,0:0:0:0:
400,216,148023,1,8,0:0:0:0:
400,216,148215,1,0,0:0:0:0:
400,216,148310,1,0,0:0:0:0:
400,216,148406,1,0,0:0:0:0:
420,220,148597,1,8,0:0:0:0:
420,224,148788,1,4,0:0:0:0:
364,224,149074,1,4,0:0:0:0:
364,224,149361,1,12,0:0:0:0:
364,224,149743,1,0,0:0:0:0:
344,232,149839,1,0,0:0:0:0:
364,224,149934,1,8,0:0:0:0:
344,232,150030,1,8,0:0:0:0:
364,224,150125,1,8,0:0:0:0:
364,224,150316,1,4,0:0:0:0:
376,208,150507,1,8,0:0:0:0:
384,272,150603,1,8,0:0:0:0:
384,272,150699,1,0,0:0:0:0:
364,224,151081,1,8,0:0:0:0:
364,224,151272,1,8,0:0:0:0:
364,224,151367,1,8,0:0:0:0:
364,224,151463,1,0,0:0:0:0:
364,224,151558,1,0,0:0:0:0:
272,168,151654,1,0,0:0:0:0:
480,296,151845,1,4,0:0:0:0:
404,248,152036,1,8,0:0:0:0:
224,248,152227,1,0,0:0:0:0:
472,296,152323,1,0,0:0:0:0:
472,296,152418,1,8,0:0:0:0:
472,296,152514,1,8,0:0:0:0:
284,200,152609,1,0,0:0:0:0:
472,296,152800,1,8,0:0:0:0:
412,276,152992,1,0,0:0:0:0:
472,296,153087,1,0,0:0:0:0:
264,208,153374,5,12,0:0:0:0:
288,148,153660,1,8,0:0:0:0:
288,148,153756,1,0,0:0:0:0:
204,184,153947,1,8,0:0:0:0:
288,148,154043,1,8,0:0:0:0:
288,148,154138,1,8,0:0:0:0:
304,172,154329,1,8,0:0:0:0:
288,148,154425,1,8,0:0:0:0:
288,148,154520,1,0,0:0:0:0:
252,176,154616,1,0,0:0:0:0:
304,172,154711,1,8,0:0:0:0:
288,148,154902,1,4,0:0:0:0:
208,104,155093,1,0,0:0:0:0:
208,104,155189,1,0,0:0:0:0:
208,104,155285,1,8,0:0:0:0:
264,144,155476,1,8,0:0:0:0:
264,144,155571,1,8,0:0:0:0:
264,144,155667,1,0,0:0:0:0:
264,144,155762,1,0,0:0:0:0:
264,144,155858,1,8,0:0:0:0:
248,144,155953,1,8,0:0:0:0:
224,144,156049,1,0,0:0:0:0:
224,144,156144,1,0,0:0:0:0:
224,144,156240,1,8,0:0:0:0:
224,144,156431,1,4,0:0:0:0:
224,144,156622,1,8,0:0:0:0:
224,144,156718,1,8,0:0:0:0:
224,144,156813,1,0,0:0:0:0:
224,144,157004,1,8,0:0:0:0:
224,144,157100,1,0,0:0:0:0:
224,144,157195,1,0,0:0:0:0:
224,144,157291,1,0,0:0:0:0:
224,144,157386,1,8,0:0:0:0:
264,128,157482,1,8,0:0:0:0:
244,152,157578,1,0,0:0:0:0:
300,176,157673,1,0,0:0:0:0:
336,192,157769,1,8,0:0:0:0:
272,136,157960,1,0,0:0:0:0:
300,160,158055,1,0,0:0:0:0:
300,160,158151,1,8,0:0:0:0:
300,160,158246,1,0,0:0:0:0:
300,160,158342,1,0,0:0:0:0:
300,160,158437,1,0,0:0:0:0:
300,160,158533,1,8,0:0:0:0:
300,160,158629,1,8,0:0:0:0:
300,160,158724,1,0,0:0:0:0:
300,160,158820,1,0,0:0:0:0:
300,160,158915,1,8,0:0:0:0:
300,160,159011,1,8,0:0:0:0:
300,160,159106,1,0,0:0:0:0:
300,160,159202,1,0,0:0:0:0:
300,160,159297,1,8,0:0:0:0:
400,220,159488,1,0,0:0:0:0:
192,200,159584,1,0,0:0:0:0:
400,220,159775,1,8,0:0:0:0:
340,204,159871,1,0,0:0:0:0:
400,220,160062,1,8,0:0:0:0:
380,184,160157,1,0,0:0:0:0:
376,192,160253,1,8,0:0:0:0:
376,192,160348,1,8,0:0:0:0:
376,192,160444,1,0,0:0:0:0:
376,192,160539,1,0,0:0:0:0:
376,192,160635,1,8,0:0:0:0:
376,192,160730,1,8,0:0:0:0:
376,192,160826,1,0,0:0:0:0:
296,180,161017,1,4,0:0:0:0:
220,160,161208,1,8,0:0:0:0:
260,152,161304,1,0,0:0:0:0:
220,160,161399,1,0,0:0:0:0:
252,164,161590,1,8,0:0:0:0:
252,164,161686,1,8,0:0:0:0:
252,164,161781,1,0,0:0:0:0:
252,164,161877,1,0,0:0:0:0:
252,164,161972,1,8,0:0:0:0:
176,136,162164,1,0,0:0:0:0:
252,164,162355,1,8,0:0:0:0:
252,164,162546,1,0,0:0:0:0:
248,124,162641,1,0,0:0:0:0:
320,220,162737,1,8,0:0:0:0:
300,188,162832,1,0,0:0:0:0:
288,196,162928,1,0,0:0:0:0:
300,176,163023,1,0,0:0:0:0:
256,156,163119,1,8,0:0:0:0:
276,180,163310,1,4,0:0:0:0:
272,164,163501,1,8,0:0:0:0:
368,40,163692,1,4,0:0:0:0:
272,184,163883,1,8,0:0:0:0:
308,196,164074,1,0,0:0:0:0:
324,160,164170,1,0,0:0:0:0:
324,160,164265,1,8,0:0:0:0:
324,160,164361,1,0,0:0:0:0:
324,160,164457,1,8,0:0:0:0:
324,160,164552,1,8,0:0:0:0:
324,160,164648,1,0,0:0:0:0:
324,160,164743,1,0,0:0:0:0:
324,160,164839,1,8,0:0:0:0:
324,160,164934,1,0,0:0:0:0:
324,160,165030,1,8,0:0:0:0:
324,160,165125,1,8,0:0:0:0:
324,160,165221,1,0,0:0:0:0:
324,160,165412,1,8,0:0:0:0:
324,160,165603,1,4,0:0:0:0:
324,160,165890,1,4,0:0:0:0:
324,160,166176,1,4,0:0:0:0:
324,160,166367,1,12,0:0:0:0:
324,160,166654,1,12,0:0:0:0:
324,160,166941,1,12,0:0:0:0:
324,160,167132,1,4,0:0:0:0:
208,104,167323,1,0,0:0:0:0:
208,104,167418,1,0,0:0:0:0:
208,104,167514,1,8,0:0:0:0:
264,144,167705,1,8,0:0:0:0:
264,144,167800,1,0,0:0:0:0:
264,144,167896,1,0,0:0:0:0:
264,144,167992,1,0,0:0:0:0:
264,144,168087,1,8,0:0:0:0:
264,192,168183,1,8,0:0:0:0:
224,144,168278,1,0,0:0:0:0:
224,144,168374,1,0,0:0:0:0:
224,144,168469,1,8,0:0:0:0:
224,144,168660,1,4,0:0:0:0:
224,144,168851,1,8,0:0:0:0:
224,144,168947,1,8,0:0:0:0:
224,144,169043,1,0,0:0:0:0:
224,144,169234,1,8,0:0:0:0:
224,144,169329,1,8,0:0:0:0:
224,144,169425,1,0,0:0:0:0:
224,144,169520,1,0,0:0:0:0:
224,144,169616,1,8,0:0:0:0:
232,132,169711,1,0,0:0:0:0:
244,152,169807,1,8,0:0:0:0:
300,176,169902,1,8,0:0:0:0:
336,192,169998,1,8,0:0:0:0:
272,136,170189,1,0,0:0:0:0:
300,160,170285,1,0,0:0:0:0:
300,160,170380,1,8,0:0:0:0:
300,160,170476,1,0,0:0:0:0:
300,160,170571,1,8,0:0:0:0:
300,160,170667,1,8,0:0:0:0:
300,160,170762,1,8,0:0:0:0:
300,160,170858,1,0,0:0:0:0:
300,160,170953,1,0,0:0:0:0:
300,160,171049,1,0,0:0:0:0:
300,160,171144,1,8,0:0:0:0:
300,160,171240,1,0,0:0:0:0:
300,160,171336,1,8,0:0:0:0:
300,160,171431,1,8,0:0:0:0:
300,160,171527,1,8,0:0:0:0:
400,220,171718,1,0,0:0:0:0:
296,164,171813,1,0,0:0:0:0:
400,220,172004,1,8,0:0:0:0:
304,152,172100,1,0,0:0:0:0:
400,220,172291,1,8,0:0:0:0:
380,184,172386,1,8,0:0:0:0:
376,192,172482,1,8,0:0:0:0:
376,192,172578,1,8,0:0:0:0:
376,192,172673,1,0,0:0:0:0:
376,192,172769,1,0,0:0:0:0:
376,192,172864,1,8,0:0:0:0:
376,192,172960,1,8,0:0:0:0:
376,192,173055,1,0,0:0:0:0:
296,180,173246,1,4,0:0:0:0:
220,160,173437,1,8,0:0:0:0:
260,152,173533,1,8,0:0:0:0:
220,160,173629,1,0,0:0:0:0:
252,164,173820,1,8,0:0:0:0:
252,164,173915,1,0,0:0:0:0:
252,164,174011,1,0,0:0:0:0:
260,188,174106,1,0,0:0:0:0:
252,164,174202,1,8,0:0:0:0:
252,164,174297,1,8,0:0:0:0:
176,136,174393,1,0,0:0:0:0:
252,164,174584,1,8,0:0:0:0:
252,164,174775,1,4,0:0:0:0:
240,144,174966,1,0,0:0:0:0:
288,196,175157,1,12,0:0:0:0:
224,152,175348,1,8,0:0:0:0:
276,180,175539,1,4,0:0:0:0:
268,140,175730,1,8,0:0:0:0:
268,140,175826,1,8,0:0:0:0:
368,40,175922,1,0,0:0:0:0:
268,140,176017,1,0,0:0:0:0:
268,140,176113,1,8,0:0:0:0:
308,196,176304,1,8,0:0:0:0:
324,160,176399,1,8,0:0:0:0:
324,160,176495,1,0,0:0:0:0:
324,160,176590,1,8,0:0:0:0:
324,160,176686,1,8,0:0:0:0:
324,160,176781,1,0,0:0:0:0:
324,160,176877,1,8,0:0:0:0:
324,160,176972,1,0,0:0:0:0:
324,160,177068,1,8,0:0:0:0:
324,160,177164,1,8,0:0:0:0:
324,160,177259,1,0,0:0:0:0:
324,160,177355,1,8,0:0:0:0:
324,160,177450,1,8,0:0:0:0:
200,100,177546,1,0,0:0:0:0:
188,88,177641,1,8,0:0:0:0:
240,144,177832,1,4,0:0:0:0:
260,192,178597,1,4,0:0:0:0:
260,192,178979,1,4,0:0:0:0:
264,196,179361,1,12,0:0:0:0:
232,180,179552,1,8,0:0:0:0:
464,276,179743,1,0,0:0:0:0:
232,180,179839,1,0,0:0:0:0:
232,180,179934,1,8,0:0:0:0:
232,180,180125,1,0,0:0:0:0:
232,180,180316,1,8,0:0:0:0:
232,180,180412,1,0,0:0:0:0:
232,180,180603,1,0,0:0:0:0:
232,180,180699,1,8,0:0:0:0:
240,144,180794,1,0,0:0:0:0:
232,180,180890,1,0,0:0:0:0:
232,180,181081,1,8,0:0:0:0:
240,144,181367,1,0,0:0:0:0:
240,144,181463,1,8,0:0:0:0:
240,144,181654,1,0,0:0:0:0:
240,144,181845,1,8,0:0:0:0:
240,144,181941,1,0,0:0:0:0:
240,144,182132,1,0,0:0:0:0:
240,144,182227,1,8,0:0:0:0:
240,144,182418,1,0,0:0:0:0:
240,144,182609,1,8,0:0:0:0:
272,204,182800,1,0,0:0:0:0:
240,144,182896,1,0,0:0:0:0:
240,144,182992,1,8,0:0:0:0:
240,144,183183,1,0,0:0:0:0:
240,144,183374,1,8,0:0:0:0:
240,144,183469,1,0,0:0:0:0:
240,144,183660,1,0,0:0:0:0:
240,144,183756,1,8,0:0:0:0:
180,148,183851,1,8,0:0:0:0:
240,144,183947,1,0,0:0:0:0:
304,224,184138,1,8,0:0:0:0:
312,220,184425,1,0,0:0:0:0:
312,216,184520,1,8,0:0:0:0:
312,216,184711,1,0,0:0:0:0:
312,216,184902,1,8,0:0:0:0:
312,216,184998,1,8,0:0:0:0:
312,216,185093,1,0,0:0:0:0:
312,220,185189,1,0,0:0:0:0:
312,220,185285,1,8,0:0:0:0:
312,216,185476,1,4,0:0:0:0:
400,256,185667,1,8,0:0:0:0:
304,212,185858,1,0,0:0:0:0:
400,256,185953,1,0,0:0:0:0:
400,256,186049,1,8,0:0:0:0:
400,256,186240,1,0,0:0:0:0:
400,256,186431,1,8,0:0:0:0:
400,256,186527,1,0,0:0:0:0:
400,256,186718,1,0,0:0:0:0:
400,256,186813,1,8,0:0:0:0:
264,184,186909,1,0,0:0:0:0:
400,256,187004,1,0,0:0:0:0:
400,256,187195,1,8,0:0:0:0:
296,240,187482,1,0,0:0:0:0:
400,256,187578,1,8,0:0:0:0:
400,256,187769,1,0,0:0:0:0:
400,256,187960,1,8,0:0:0:0:
400,256,188055,1,0,0:0:0:0:
400,256,188246,1,0,0:0:0:0:
400,256,188342,1,8,0:0:0:0:
400,256,188533,1,0,0:0:0:0:
400,256,188724,1,8,0:0:0:0:
284,172,188915,1,0,0:0:0:0:
400,256,189011,1,0,0:0:0:0:
372,188,189106,1,8,0:0:0:0:
368,192,189297,1,0,0:0:0:0:
368,192,189488,1,8,0:0:0:0:
368,192,189584,1,0,0:0:0:0:
352,192,189775,1,0,0:0:0:0:
352,192,189871,1,8,0:0:0:0:
236,172,189966,1,8,0:0:0:0:
352,192,190062,1,0,0:0:0:0:
352,192,190253,1,8,0:0:0:0:
356,196,190348,1,8,0:0:0:0:
352,192,190444,1,0,0:0:0:0:
352,192,190539,1,0,0:0:0:0:
312,152,190635,1,0,0:0:0:0:
316,200,190826,1,12,0:0:0:0:
452,268,191208,1,12,0:0:0:0:
356,176,191590,1,4,0:0:0:0:
360,200,191781,1,8,0:0:0:0:
368,208,191972,1,0,0:0:0:0:
360,200,192068,1,0,0:0:0:0:
360,200,192164,1,8,0:0:0:0:
360,200,192355,1,0,0:0:0:0:
360,200,192546,1,8,0:0:0:0:
360,200,192641,1,0,0:0:0:0:
360,200,192832,1,0,0:0:0:0:
360,200,192928,1,8,0:0:0:0:
216,160,193023,1,0,0:0:0:0:
360,200,193119,1,0,0:0:0:0:
236,188,193310,1,8,0:0:0:0:
244,176,193406,1,8,0:0:0:0:
236,188,193597,1,0,0:0:0:0:
236,188,193692,1,8,0:0:0:0:
236,188,193883,1,0,0:0:0:0:
280,176,194074,1,8,0:0:0:0:
280,176,194170,1,0,0:0:0:0:
280,176,194361,1,0,0:0:0:0:
280,176,194457,1,8,0:0:0:0:
280,176,194648,1,0,0:0:0:0:
280,176,194839,1,8,0:0:0:0:
280,176,195030,1,0,0:0:0:0:
280,176,195125,1,0,0:0:0:0:
280,176,195221,1,8,0:0:0:0:
280,176,195412,1,0,0:0:0:0:
280,176,195603,1,8,0:0:0:0:
280,176,195699,1,0,0:0:0:0:
280,176,195890,1,0,0:0:0:0:
280,176,195985,1,8,0:0:0:0:
280,176,196081,1,8,0:0:0:0:
280,176,196176,1,0,0:0:0:0:
280,176,196367,1,8,0:0:0:0:
264,200,196463,1,8,0:0:0:0:
280,176,196654,1,0,0:0:0:0:
280,176,196750,1,8,0:0:0:0:
192,180,196941,1,0,0:0:0:0:
212,184,197132,1,8,0:0:0:0:
224,184,197227,1,8,0:0:0:0:
232,184,197323,1,0,0:0:0:0:
216,108,197418,1,0,0:0:0:0:
216,108,197514,1,8,0:0:0:0:
280,176,197705,1,4,0:0:0:0:
280,176,197896,1,8,0:0:0:0:
280,176,197992,1,8,0:0:0:0:
280,176,198183,1,0,0:0:0:0:
280,176,198278,1,8,0:0:0:0:
280,176,198469,1,4,0:0:0:0:
280,176,198660,1,8,0:0:0:0:
280,176,198756,1,0,0:0:0:0:
280,176,198947,1,0,0:0:0:0:
280,176,199043,1,8,0:0:0:0:
280,176,199234,1,4,0:0:0:0:
280,176,199425,1,8,0:0:0:0:
280,176,199520,1,8,0:0:0:0:
280,176,199711,1,0,0:0:0:0:
280,176,199807,1,8,0:0:0:0:
256,176,199998,1,4,0:0:0:0:
252,156,200189,1,8,0:0:0:0:
252,156,200285,1,0,0:0:0:0:
252,156,200476,1,0,0:0:0:0:
252,156,200571,1,8,0:0:0:0:
256,156,200762,1,4,0:0:0:0:
260,184,200953,1,8,0:0:0:0:
248,152,201049,1,8,0:0:0:0:
260,184,201144,1,0,0:0:0:0:
296,128,201240,1,0,0:0:0:0:
260,184,201336,1,8,0:0:0:0:
260,184,201527,1,0,0:0:0:0:
188,132,201622,1,8,0:0:0:0:
260,184,201813,1,8,0:0:0:0:
260,184,201909,5,0,0:0:0:0:
192,152,202100,1,8,0:0:0:0:
260,184,202291,1,4,0:0:0:0:
172,176,203055,5,8,0:0:0:0:
172,176,203151,1,8,0:0:0:0:
172,176,203246,1,8,0:0:0:0:
64,96,203342,1,8,0:0:0:0:
204,220,203437,1,8,0:0:0:0:
252,172,203533,1,8,0:0:0:0:
252,172,203629,1,8,0:0:0:0:
204,220,203820,1,4,0:0:0:0:
236,200,204011,1,8,0:0:0:0:
252,172,204297,1,0,0:0:0:0:
252,172,204393,1,8,0:0:0:0:
252,172,204584,1,0,0:0:0:0:
252,172,204775,1,8,0:0:0:0:
252,172,204871,1,0,0:0:0:0:
252,172,205062,1,0,0:0:0:0:
252,172,205157,1,8,0:0:0:0:
252,172,205348,1,0,0:0:0:0:
280,156,205539,1,8,0:0:0:0:
280,156,205730,1,0,0:0:0:0:
280,156,205826,1,0,0:0:0:0:
280,156,205922,1,8,0:0:0:0:
280,156,206113,1,0,0:0:0:0:
280,156,206304,1,8,0:0:0:0:
280,156,206399,1,0,0:0:0:0:
280,156,206590,1,0,0:0:0:0:
280,156,206686,1,8,0:0:0:0:
292,184,206781,1,0,0:0:0:0:
280,156,206877,1,0,0:0:0:0:
280,156,207068,1,8,0:0:0:0:
320,232,207259,1,0,0:0:0:0:
288,160,207355,1,0,0:0:0:0:
288,160,207450,1,8,0:0:0:0:
288,160,207641,1,0,0:0:0:0:
288,160,207832,1,8,0:0:0:0:
288,160,207928,1,0,0:0:0:0:
288,160,208119,1,0,0:0:0:0:
288,160,208215,1,8,0:0:0:0:
288,160,208406,1,0,0:0:0:0:
288,160,208597,1,8,0:0:0:0:
288,176,208692,1,8,0:0:0:0:
272,164,208788,1,0,0:0:0:0:
276,164,208883,1,0,0:0:0:0:
280,168,208979,1,8,0:0:0:0:
280,168,209170,1,0,0:0:0:0:
304,168,209361,1,8,0:0:0:0:
304,164,209457,1,0,0:0:0:0:
304,164,209648,1,0,0:0:0:0:
304,164,209743,1,8,0:0:0:0:
320,152,209839,1,8,0:0:0:0:
304,164,209934,1,0,0:0:0:0:
304,164,210125,1,8,0:0:0:0:
300,172,210412,1,0,0:0:0:0:
304,164,210507,1,8,0:0:0:0:
304,172,210699,1,0,0:0:0:0:
304,172,210890,1,8,0:0:0:0:
304,172,210985,1,0,0:0:0:0:
300,172,211176,1,0,0:0:0:0:
304,172,211272,1,8,0:0:0:0:
304,172,211463,1,0,0:0:0:0:
304,172,211654,1,8,0:0:0:0:
304,172,211845,1,0,0:0:0:0:
304,172,211941,1,0,0:0:0:0:
304,172,212036,1,8,0:0:0:0:
304,172,212227,1,0,0:0:0:0:
304,172,212418,1,8,0:0:0:0:
324,176,212514,1,0,0:0:0:0:
324,176,212705,1,0,0:0:0:0:
324,176,212800,1,8,0:0:0:0:
268,168,212896,1,0,0:0:0:0:
332,172,212992,1,0,0:0:0:0:
332,172,213183,1,8,0:0:0:0:
296,224,213374,1,0,0:0:0:0:
332,172,213469,1,0,0:0:0:0:
332,172,213565,1,8,0:0:0:0:
332,172,213756,1,0,0:0:0:0:
332,172,213947,1,8,0:0:0:0:
332,172,214043,1,0,0:0:0:0:
332,172,214234,1,0,0:0:0:0:
332,172,214329,1,8,0:0:0:0:
332,172,214520,1,0,0:0:0:0:
332,172,214711,1,8,0:0:0:0:
260,188,214807,1,0,0:0:0:0:
332,172,214902,1,0,0:0:0:0:
332,172,214998,1,0,0:0:0:0:
332,172,215093,1,0,0:0:0:0:
332,172,215285,1,12,0:0:0:0:
332,172,215476,1,12,0:0:0:0:
332,172,215858,1,8,0:0:0:0:
332,172,215953,1,8,0:0:0:0:
388,200,216049,1,0,0:0:0:0:
388,200,216240,1,8,0:0:0:0:
304,176,216336,1,8,0:0:0:0:
388,200,216527,1,0,0:0:0:0:
388,200,216622,1,8,0:0:0:0:
388,200,216813,1,0,0:0:0:0:
388,200,217004,1,8,0:0:0:0:
388,200,217100,1,0,0:0:0:0:
388,200,217291,1,0,0:0:0:0:
388,200,217386,1,8,0:0:0:0:
388,200,217578,1,0,0:0:0:0:
388,200,217769,1,8,0:0:0:0:
388,200,217960,1,0,0:0:0:0:
388,200,218055,1,0,0:0:0:0:
388,200,218151,1,8,0:0:0:0:
388,200,218342,1,0,0:0:0:0:
388,200,218533,1,8,0:0:0:0:
388,200,218629,1,0,0:0:0:0:
388,200,218820,1,0,0:0:0:0:
388,200,218915,1,8,0:0:0:0:
328,224,219011,1,0,0:0:0:0:
388,200,219106,1,0,0:0:0:0:
388,200,219297,1,8,0:0:0:0:
232,160,219393,1,8,0:0:0:0:
388,200,219584,1,0,0:0:0:0:
388,200,219679,1,8,0:0:0:0:
388,200,219871,1,0,0:0:0:0:
388,200,220062,1,8,0:0:0:0:
388,200,220157,1,0,0:0:0:0:
400,176,220348,1,0,0:0:0:0:
396,184,220444,1,8,0:0:0:0:
392,192,220635,1,0,0:0:0:0:
392,192,220826,1,8,0:0:0:0:
284,224,220922,1,8,0:0:0:0:
392,192,221017,5,0,0:0:0:0:
392,192,221113,1,0,0:0:0:0:
392,192,221208,1,8,0:0:0:0:
392,192,221399,1,0,0:0:0:0:
392,192,221590,1,8,0:0:0:0:
392,192,221686,1,0,0:0:0:0:
392,192,221877,1,0,0:0:0:0:
392,192,221972,1,8,0:0:0:0:
240,212,222164,5,0,0:0:0:0:
240,212,222259,1,0,0:0:0:0:
236,212,222355,1,8,0:0:0:0:
312,216,222450,1,0,0:0:0:0:
312,216,222546,1,8,0:0:0:0:
312,216,222641,1,0,0:0:0:0:
312,216,222737,1,8,0:0:0:0:
292,88,222832,1,8,0:0:0:0:
312,216,222928,1,0,0:0:0:0:
312,216,223023,1,0,0:0:0:0:
312,216,223119,1,8,0:0:0:0:
292,88,223215,1,0,0:0:0:0:
312,216,223310,1,8,0:0:0:0:
312,216,223406,1,0,0:0:0:0:
312,216,223501,1,8,0:0:0:0:
292,88,223597,1,8,0:0:0:0:
312,216,223692,1,0,0:0:0:0:
312,216,223756,1,0,0:0:0:0:
312,216,223820,1,0,0:0:0:0:
312,216,223883,1,8,0:0:0:0:
292,88,223979,1,8,0:0:0:0:
312,216,224074,1,0,0:0:0:0:
312,216,224138,1,0,0:0:0:0:
312,216,224202,1,0,0:0:0:0:
312,216,224265,1,8,0:0:0:0:
292,88,224361,1,8,0:0:0:0:
312,216,224457,1,0,0:0:0:0:
312,216,224520,1,0,0:0:0:0:
312,216,224584,1,0,0:0:0:0:
312,216,224648,1,8,0:0:0:0:
292,88,224743,1,8,0:0:0:0:
312,216,224839,1,0,0:0:0:0:
312,216,224902,1,0,0:0:0:0:
312,216,224966,1,0,0:0:0:0:
312,216,225030,1,8,0:0:0:0:
168,164,225125,1,8,0:0:0:0:
352,144,225221,5,0,0:0:0:0:
272,160,225316,1,0,0:0:0:0:
220,172,225412,1,8,0:0:0:0:
168,208,225507,1,0,0:0:0:0:
220,172,225603,1,0,0:0:0:0:
244,160,225699,1,8,0:0:0:0:
272,212,225794,1,0,0:0:0:0:
296,192,225985,1,8,0:0:0:0:
244,176,226081,1,8,0:0:0:0:
244,180,226176,1,0,0:0:0:0:
312,196,226272,1,8,0:0:0:0:
244,180,226367,1,8,0:0:0:0:
216,168,226463,1,0,0:0:0:0:
320,192,226558,1,8,0:0:0:0:
256,192,226750,12,0,227896,0:0:0:0:
344,232,228278,5,4,0:0:0:0:
288,208,228660,1,0,0:0:0:0:
288,208,229043,1,8,0:0:0:0:
392,228,229807,1,0,0:0:0:0:
376,224,230571,1,8,0:0:0:0:
224,188,231336,5,0,0:0:0:0:
224,188,231718,1,0,0:0:0:0:
224,188,232100,1,8,0:0:0:0:
224,188,232482,1,8,0:0:0:0:
380,232,232864,1,0,0:0:0:0:
380,232,233151,1,8,0:0:0:0:
380,232,233437,1,0,0:0:0:0:
380,232,233533,1,0,0:0:0:0:
380,232,233629,1,8,0:0:0:0:
448,256,234393,1,4,0:0:0:0:
448,256,234775,1,0,0:0:0:0:
448,248,235157,1,4,0:0:0:0:
448,244,235539,1,0,0:0:0:0:
448,248,235922,1,4,0:0:0:0:
448,244,236304,1,12,0:0:0:0:
448,248,236686,1,4,0:0:0:0:
388,248,237068,1,0,0:0:0:0:
396,256,237259,1,0,0:0:0:0:
396,256,237355,1,0,0:0:0:0:
396,256,237450,1,8,0:0:0:0:
320,272,237832,1,0,0:0:0:0:
320,272,238023,1,0,0:0:0:0:
320,272,238215,1,8,0:0:0:0:
320,272,238406,1,0,0:0:0:0:
320,272,238597,1,8,0:0:0:0:
320,272,238788,1,8,0:0:0:0:
320,272,238979,1,4,0:0:0:0:
372,248,239934,1,0,0:0:0:0:
372,248,240030,1,0,0:0:0:0:
372,248,240125,1,8,0:0:0:0:
312,192,240507,1,4,0:0:0:0:
320,220,241081,1,0,0:0:0:0:
320,208,241272,1,8,0:0:0:0:
336,248,242036,1,0,0:0:0:0:
336,248,242323,1,0,0:0:0:0:
336,248,242609,1,0,0:0:0:0:
336,248,242800,1,8,0:0:0:0:
336,248,243183,1,0,0:0:0:0:
336,248,243565,1,4,0:0:0:0:
336,248,244138,1,0,0:0:0:0:
336,248,244329,1,8,0:0:0:0:
336,248,244711,1,0,0:0:0:0:
336,304,245093,1,0,0:0:0:0:
336,304,245380,1,0,0:0:0:0:
336,304,245667,1,0,0:0:0:0:
336,304,245762,1,0,0:0:0:0:
336,304,245858,1,8,0:0:0:0:
336,304,246049,1,8,0:0:0:0:
336,304,246144,1,8,0:0:0:0:
336,304,246240,1,0,0:0:0:0:
336,304,246336,1,0,0:0:0:0:
336,304,246431,1,0,0:0:0:0:
336,304,246622,1,12,0:0:0:0:
288,276,247386,1,12,0:0:0:0:
288,276,247578,1,12,0:0:0:0:
320,224,247960,1,0,0:0:0:0:
320,224,248055,1,0,0:0:0:0:
320,224,248151,1,8,0:0:0:0:
336,228,248533,1,4,0:0:0:0:
336,228,248915,1,4,0:0:0:0:
352,264,249106,1,8,0:0:0:0:
352,252,249202,1,8,0:0:0:0:
352,252,249297,1,0,0:0:0:0:
156,168,249393,1,0,0:0:0:0:
352,252,249488,1,8,0:0:0:0:
356,252,249679,1,8,0:0:0:0:
216,168,249775,1,0,0:0:0:0:
312,232,249871,5,0,0:0:0:0:
316,232,249966,1,8,0:0:0:0:
316,232,250062,1,0,0:0:0:0:
312,232,250157,1,0,0:0:0:0:
312,232,250253,1,8,0:0:0:0:
316,232,250348,1,0,0:0:0:0:
312,232,250444,1,8,0:0:0:0:
316,232,250539,1,0,0:0:0:0:
312,232,250635,1,0,0:0:0:0:
312,232,250730,1,8,0:0:0:0:
316,232,250826,1,0,0:0:0:0:
256,212,250922,1,0,0:0:0:0:
364,252,251017,5,8,0:0:0:0:
364,252,251208,1,4,0:0:0:0:
296,228,252737,5,8,0:0:0:0:
296,228,252832,1,0,0:0:0:0:
296,228,252928,1,0,0:0:0:0:
296,228,253023,1,8,0:0:0:0:
296,228,253119,1,0,0:0:0:0:
296,228,253215,1,0,0:0:0:0:
296,228,253310,1,8,0:0:0:0:
296,228,253406,1,0,0:0:0:0:
296,228,253501,1,8,0:0:0:0:
68,160,253597,1,8,0:0:0:0:
296,228,253692,1,8,0:0:0:0:
248,180,253788,1,8,0:0:0:0:
296,228,253883,1,0,0:0:0:0:
276,168,254074,1,0,0:0:0:0:
260,236,254265,1,8,0:0:0:0:
288,160,254361,1,0,0:0:0:0:
208,104,254457,1,0,0:0:0:0:
208,104,254552,1,8,0:0:0:0:
208,104,254648,1,0,0:0:0:0:
288,160,254743,1,0,0:0:0:0:
264,144,254839,1,8,0:0:0:0:
264,144,254934,1,8,0:0:0:0:
264,144,255030,1,0,0:0:0:0:
264,144,255125,1,0,0:0:0:0:
264,144,255221,1,0,0:0:0:0:
296,152,255316,1,0,0:0:0:0:
224,144,255412,1,0,0:0:0:0:
224,144,255507,1,0,0:0:0:0:
224,144,255603,1,8,0:0:0:0:
296,152,255699,1,0,0:0:0:0:
224,144,255794,1,8,0:0:0:0:
296,152,255890,1,8,0:0:0:0:
224,144,255985,1,0,0:0:0:0:
224,144,256081,1,8,0:0:0:0:
224,144,256176,1,8,0:0:0:0:
296,152,256272,1,0,0:0:0:0:
224,144,256367,1,8,0:0:0:0:
224,144,256463,1,0,0:0:0:0:
224,144,256558,1,8,0:0:0:0:
224,144,256654,1,0,0:0:0:0:
224,144,256750,1,0,0:0:0:0:
296,152,256845,1,0,0:0:0:0:
244,152,256941,1,8,0:0:0:0:
300,176,257036,1,0,0:0:0:0:
336,192,257132,1,8,0:0:0:0:
296,152,257227,1,8,0:0:0:0:
272,136,257323,1,0,0:0:0:0:
300,160,257418,1,0,0:0:0:0:
300,160,257514,1,8,0:0:0:0:
300,160,257609,1,8,0:0:0:0:
300,160,257705,1,0,0:0:0:0:
300,160,257800,1,0,0:0:0:0:
300,160,257896,1,8,0:0:0:0:
300,160,257992,1,8,0:0:0:0:
300,160,258087,1,0,0:0:0:0:
300,160,258183,1,0,0:0:0:0:
300,160,258278,1,8,0:0:0:0:
300,160,258374,1,8,0:0:0:0:
300,160,258469,1,0,0:0:0:0:
300,160,258565,1,0,0:0:0:0:
300,160,258660,1,8,0:0:0:0:
296,152,258756,1,0,0:0:0:0:
400,220,258851,1,8,0:0:0:0:
296,152,258947,1,8,0:0:0:0:
200,132,259043,1,0,0:0:0:0:
400,220,259138,1,8,0:0:0:0:
288,184,259234,1,8,0:0:0:0:
184,152,259329,1,0,0:0:0:0:
400,220,259425,1,8,0:0:0:0:
380,184,259520,1,0,0:0:0:0:
376,192,259616,1,8,0:0:0:0:
376,192,259711,1,8,0:0:0:0:
376,192,259807,1,0,0:0:0:0:
376,192,259902,1,0,0:0:0:0:
376,192,259998,1,8,0:0:0:0:
376,192,260093,1,8,0:0:0:0:
376,192,260189,1,8,0:0:0:0:
312,164,260285,1,0,0:0:0:0:
296,180,260380,1,8,0:0:0:0:
220,160,260476,1,0,0:0:0:0:
220,160,260571,1,0,0:0:0:0:
236,160,260667,1,8,0:0:0:0:
220,160,260762,1,0,0:0:0:0:
260,152,260858,1,0,0:0:0:0:
252,164,260953,1,8,0:0:0:0:
252,164,261049,1,0,0:0:0:0:
252,164,261144,1,8,0:0:0:0:
216,144,261240,1,8,0:0:0:0:
252,164,261336,1,8,0:0:0:0:
252,164,261431,1,8,0:0:0:0:
176,136,261527,1,0,0:0:0:0:
212,144,261622,1,0,0:0:0:0:
252,164,261718,1,8,0:0:0:0:
216,144,261813,1,8,0:0:0:0:
252,164,261909,1,0,0:0:0:0:
248,124,262004,1,0,0:0:0:0:
320,220,262100,1,0,0:0:0:0:
300,188,262195,1,0,0:0:0:0:
288,196,262291,1,0,0:0:0:0:
260,200,262386,1,0,0:0:0:0:
256,156,262482,1,8,0:0:0:0:
272,188,262578,1,8,0:0:0:0:
276,180,262673,1,0,0:0:0:0:
244,152,262769,1,0,0:0:0:0:
220,164,262864,1,0,0:0:0:0:
248,152,262960,1,0,0:0:0:0:
368,40,263055,1,8,0:0:0:0:
236,164,263151,1,8,0:0:0:0:
220,164,263246,1,8,0:0:0:0:
264,164,263342,1,8,0:0:0:0:
308,196,263437,1,0,0:0:0:0:
324,160,263533,1,8,0:0:0:0:
324,160,263629,1,8,0:0:0:0:
324,160,263724,1,0,0:0:0:0:
324,160,263820,1,8,0:0:0:0:
324,160,263915,1,8,0:0:0:0:
324,160,264011,1,0,0:0:0:0:
324,160,264106,1,0,0:0:0:0:
324,160,264202,1,8,0:0:0:0:
324,160,264297,1,0,0:0:0:0:
324,160,264393,1,8,0:0:0:0:
324,160,264488,1,8,0:0:0:0:
324,160,264584,1,0,0:0:0:0:
324,160,264775,1,8,0:0:0:0:
324,160,264966,1,4,0:0:0:0:
324,160,265253,1,4,0:0:0:0:
324,160,265539,1,4,0:0:0:0:
324,160,265730,1,12,0:0:0:0:
324,160,266017,1,12,0:0:0:0:
324,160,266304,1,12,0:0:0:0:
324,160,266495,1,8,0:0:0:0:
328,112,266590,1,0,0:0:0:0:
208,104,266686,1,0,0:0:0:0:
208,104,266781,1,8,0:0:0:0:
208,104,266877,1,0,0:0:0:0:
324,116,266972,1,0,0:0:0:0:
264,144,267068,1,8,0:0:0:0:
264,144,267164,1,8,0:0:0:0:
264,144,267259,1,0,0:0:0:0:
264,144,267355,1,0,0:0:0:0:
264,144,267450,1,0,0:0:0:0:
324,116,267546,1,0,0:0:0:0:
224,144,267641,1,0,0:0:0:0:
224,144,267737,1,0,0:0:0:0:
224,144,267832,1,8,0:0:0:0:
324,116,267928,1,0,0:0:0:0:
224,144,268023,1,8,0:0:0:0:
324,116,268119,1,8,0:0:0:0:
224,144,268215,1,0,0:0:0:0:
224,144,268310,1,8,0:0:0:0:
224,144,268406,1,8,0:0:0:0:
324,116,268501,1,0,0:0:0:0:
224,144,268597,1,8,0:0:0:0:
224,144,268692,1,0,0:0:0:0:
224,144,268788,1,8,0:0:0:0:
224,144,268883,1,0,0:0:0:0:
224,144,268979,1,0,0:0:0:0:
324,116,269074,1,0,0:0:0:0:
244,152,269170,1,8,0:0:0:0:
300,176,269265,1,0,0:0:0:0:
336,192,269361,1,8,0:0:0:0:
324,116,269457,1,8,0:0:0:0:
272,136,269552,1,0,0:0:0:0:
300,160,269648,1,0,0:0:0:0:
300,160,269743,1,0,0:0:0:0:
300,160,269839,1,0,0:0:0:0:
300,160,269934,1,8,0:0:0:0:
300,160,270030,1,8,0:0:0:0:
300,160,270125,1,8,0:0:0:0:
300,160,270221,1,8,0:0:0:0:
300,160,270316,1,0,0:0:0:0:
300,160,270412,1,0,0:0:0:0:
300,160,270507,1,8,0:0:0:0:
300,160,270603,1,0,0:0:0:0:
300,160,270699,1,8,0:0:0:0:
300,160,270794,1,8,0:0:0:0:
300,160,270890,1,8,0:0:0:0:
240,80,270985,1,0,0:0:0:0:
400,220,271081,1,8,0:0:0:0:
264,132,271176,1,8,0:0:0:0:
300,160,271272,1,0,0:0:0:0:
400,220,271367,1,8,0:0:0:0:
248,96,271463,1,8,0:0:0:0:
216,176,271558,1,0,0:0:0:0:
400,220,271654,1,8,0:0:0:0:
380,184,271750,1,0,0:0:0:0:
376,192,271845,1,8,0:0:0:0:
376,192,271941,1,8,0:0:0:0:
376,192,272036,1,0,0:0:0:0:
376,192,272132,1,0,0:0:0:0:
376,192,272227,1,0,0:0:0:0:
376,192,272323,1,0,0:0:0:0:
376,192,272418,1,0,0:0:0:0:
236,144,272514,1,0,0:0:0:0:
296,180,272609,1,8,0:0:0:0:
224,168,272705,1,0,0:0:0:0:
220,160,272800,1,0,0:0:0:0:
224,168,272896,1,8,0:0:0:0:
220,160,272992,1,0,0:0:0:0:
260,152,273087,1,0,0:0:0:0:
252,164,273183,1,8,0:0:0:0:
252,164,273278,1,0,0:0:0:0:
252,164,273374,1,8,0:0:0:0:
224,168,273469,1,8,0:0:0:0:
252,164,273565,1,8,0:0:0:0:
252,164,273660,1,8,0:0:0:0:
176,136,273756,1,0,0:0:0:0:
224,168,273851,1,0,0:0:0:0:
252,164,273947,1,8,0:0:0:0:
224,168,274043,1,8,0:0:0:0:
252,164,274138,1,0,0:0:0:0:
268,120,274234,1,0,0:0:0:0:
268,120,274329,1,0,0:0:0:0:
268,120,274425,1,0,0:0:0:0:
288,196,274520,1,8,0:0:0:0:
268,120,274616,1,8,0:0:0:0:
268,120,274711,1,8,0:0:0:0:
268,120,274807,1,8,0:0:0:0:
276,180,274902,1,0,0:0:0:0:
280,148,274998,1,0,0:0:0:0:
268,140,275093,1,8,0:0:0:0:
268,140,275189,1,8,0:0:0:0:
368,40,275285,1,0,0:0:0:0:
268,140,275380,1,0,0:0:0:0:
268,140,275476,1,8,0:0:0:0:
352,220,275667,1,8,0:0:0:0:
352,220,275762,1,8,0:0:0:0:
352,220,275858,1,0,0:0:0:0:
352,220,275953,1,8,0:0:0:0:
352,220,276049,1,8,0:0:0:0:
352,220,276144,1,0,0:0:0:0:
352,220,276240,1,8,0:0:0:0:
352,220,276336,1,0,0:0:0:0:
352,220,276431,1,8,0:0:0:0:
352,220,276527,1,8,0:0:0:0:
352,220,276622,1,0,0:0:0:0:
352,220,276718,1,8,0:0:0:0:
352,220,276813,1,8,0:0:0:0:
352,220,276909,1,0,0:0:0:0:
352,220,277004,1,8,0:0:0:0:
352,220,277195,1,8,0:0:0:0:
352,220,277291,1,0,0:0:0:0:
352,220,277386,1,0,0:0:0:0:
352,220,277482,1,8,0:0:0:0:
352,220,277578,1,0,0:0:0:0:
352,220,277673,1,0,0:0:0:0:
352,220,277769,1,8,0:0:0:0:
352,220,277864,1,0,0:0:0:0:
352,220,277960,1,8,0:0:0:0:
352,220,278055,1,0,0:0:0:0:
352,220,278151,1,0,0:0:0:0:
352,220,278246,1,8,0:0:0:0:
352,220,278342,1,0,0:0:0:0:
352,220,278437,1,0,0:0:0:0:
352,220,278533,1,8,0:0:0:0:
352,220,278724,1,8,0:0:0:0:
352,220,278820,1,8,0:0:0:0:
352,220,278915,1,0,0:0:0:0:
352,220,279011,1,8,0:0:0:0:
352,220,279106,1,8,0:0:0:0:
352,220,279202,1,0,0:0:0:0:
352,220,279297,1,8,0:0:0:0:
352,220,279393,1,0,0:0:0:0:
352,220,279488,1,8,0:0:0:0:
352,220,279584,1,8,0:0:0:0:
352,220,279679,1,0,0:0:0:0:
352,220,279775,1,8,0:0:0:0:
352,220,279871,1,8,0:0:0:0:
352,220,279966,1,0,0:0:0:0:
352,220,280062,1,8,0:0:0:0:
352,220,280253,1,8,0:0:0:0:
352,220,280348,1,0,0:0:0:0:
352,220,280444,1,0,0:0:0:0:
352,220,280539,1,8,0:0:0:0:
352,220,280635,1,0,0:0:0:0:
352,220,280730,1,0,0:0:0:0:
352,220,280826,1,8,0:0:0:0:
352,220,280922,1,0,0:0:0:0:
352,220,281017,1,8,0:0:0:0:
352,220,281113,1,0,0:0:0:0:
352,220,281208,1,0,0:0:0:0:
352,220,281304,1,8,0:0:0:0:
352,220,281399,1,0,0:0:0:0:
352,220,281495,1,0,0:0:0:0:
352,220,281590,1,8,0:0:0:0:
352,220,281781,1,8,0:0:0:0:
352,220,281877,1,8,0:0:0:0:
352,220,281972,1,0,0:0:0:0:
352,220,282068,1,8,0:0:0:0:
352,220,282164,1,8,0:0:0:0:
352,220,282259,1,0,0:0:0:0:
352,220,282355,1,8,0:0:0:0:
352,220,282450,1,0,0:0:0:0:
352,220,282546,1,8,0:0:0:0:
352,220,282641,1,8,0:0:0:0:
352,220,282737,1,0,0:0:0:0:
352,220,282832,1,8,0:0:0:0:
352,220,282928,1,8,0:0:0:0:
196,160,283023,1,0,0:0:0:0:
352,220,283119,1,8,0:0:0:0:
352,220,283310,1,4,0:0:0:0:
240,232,284074,1,4,0:0:0:0:
240,232,284457,1,4,0:0:0:0:
240,232,284839,1,12,0:0:0:0:
268,228,285030,1,0,0:0:0:0:
292,252,285221,1,8,0:0:0:0:
292,252,285412,1,0,0:0:0:0:
292,252,285603,1,8,0:0:0:0:
292,252,285794,1,0,0:0:0:0:
292,252,285985,1,8,0:0:0:0:
292,252,286176,1,0,0:0:0:0:
292,252,286367,1,8,0:0:0:0:
292,252,286558,1,8,0:0:0:0:
292,252,286750,1,0,0:0:0:0:
292,252,286941,1,0,0:0:0:0:
292,252,287132,1,8,0:0:0:0:
292,252,287227,1,8,0:0:0:0:
292,252,287323,1,0,0:0:0:0:
292,252,287418,1,0,0:0:0:0:
292,252,287514,1,8,0:0:0:0:
292,252,287705,1,0,0:0:0:0:
292,252,287896,1,8,0:0:0:0:
396,264,287992,1,0,0:0:0:0:
396,264,288087,1,0,0:0:0:0:
396,264,288183,1,0,0:0:0:0:
396,264,288278,1,8,0:0:0:0:
396,264,288374,1,0,0:0:0:0:
396,264,288469,1,0,0:0:0:0:
396,264,288565,1,0,0:0:0:0:
396,264,288660,1,8,0:0:0:0:
396,264,288756,1,0,0:0:0:0:
396,264,288851,1,0,0:0:0:0:
396,264,288947,1,0,0:0:0:0:
400,256,289043,1,8,0:0:0:0:
400,256,289138,1,0,0:0:0:0:
400,256,289234,1,8,0:0:0:0:
400,256,289329,1,0,0:0:0:0:
400,256,289425,1,8,0:0:0:0:
400,256,289520,1,0,0:0:0:0:
400,256,289616,1,0,0:0:0:0:
400,256,289711,1,0,0:0:0:0:
400,256,289807,1,8,0:0:0:0:
400,256,289902,1,0,0:0:0:0:
400,256,289998,1,0,0:0:0:0:
400,256,290093,1,0,0:0:0:0:
400,256,290189,1,8,0:0:0:0:
400,256,290285,1,0,0:0:0:0:
400,256,290380,1,0,0:0:0:0:
400,256,290476,1,0,0:0:0:0:
400,256,290571,1,8,0:0:0:0:
400,256,290667,1,0,0:0:0:0:
400,256,290762,1,8,0:0:0:0:
400,256,290858,1,0,0:0:0:0:
400,256,290953,1,8,0:0:0:0:
400,256,291049,1,0,0:0:0:0:
400,256,291144,1,0,0:0:0:0:
400,256,291240,1,0,0:0:0:0:
400,256,291336,1,8,0:0:0:0:
400,256,291431,1,0,0:0:0:0:
300,196,291527,1,0,0:0:0:0:
400,256,291622,1,0,0:0:0:0:
400,256,291718,1,8,0:0:0:0:
400,256,291813,1,0,0:0:0:0:
400,256,291909,1,0,0:0:0:0:
400,256,292004,1,0,0:0:0:0:
400,256,292100,1,8,0:0:0:0:
400,256,292195,1,0,0:0:0:0:
400,256,292291,1,8,0:0:0:0:
360,264,292482,1,12,0:0:0:0:
300,196,292769,1,12,0:0:0:0:
300,196,293055,1,4,0:0:0:0:
300,196,293437,1,12,0:0:0:0:
300,196,293629,1,4,0:0:0:0:
300,196,293820,1,12,0:0:0:0:
300,196,294011,1,8,0:0:0:0:
300,196,294106,1,8,0:0:0:0:
300,196,294202,1,0,0:0:0:0:
300,196,294297,1,0,0:0:0:0:
300,196,294393,1,0,0:0:0:0:
300,196,294488,1,0,0:0:0:0:
300,196,294584,1,8,0:0:0:0:
300,196,294679,1,8,0:0:0:0:
300,196,294775,1,0,0:0:0:0:
300,196,294871,1,0,0:0:0:0:
300,196,294966,1,0,0:0:0:0:
300,196,295062,1,0,0:0:0:0:
300,196,295157,1,8,0:0:0:0:
300,196,295253,1,0,0:0:0:0:
300,196,295348,1,8,0:0:0:0:
300,196,295444,1,0,0:0:0:0:
300,196,295539,1,8,0:0:0:0:
300,196,295635,1,8,0:0:0:0:
300,196,295730,1,0,0:0:0:0:
300,196,295826,1,0,0:0:0:0:
300,196,295922,1,0,0:0:0:0:
300,196,296017,1,0,0:0:0:0:
300,196,296113,1,8,0:0:0:0:
300,196,296208,1,8,0:0:0:0:
300,196,296304,1,0,0:0:0:0:
300,196,296399,1,0,0:0:0:0:
300,196,296495,1,0,0:0:0:0:
300,196,296590,1,0,0:0:0:0:
300,196,296686,1,8,0:0:0:0:
300,196,296781,1,0,0:0:0:0:
300,196,296877,1,8,0:0:0:0:
300,196,296972,1,0,0:0:0:0:
300,196,297068,1,8,0:0:0:0:
300,196,297164,1,8,0:0:0:0:
300,196,297259,1,0,0:0:0:0:
300,196,297355,1,0,0:0:0:0:
300,196,297450,1,0,0:0:0:0:
300,196,297546,1,0,0:0:0:0:
300,196,297641,1,8,0:0:0:0:
300,196,297737,1,8,0:0:0:0:
300,196,297832,1,0,0:0:0:0:
300,196,297928,1,0,0:0:0:0:
300,196,298023,1,0,0:0:0:0:
300,196,298119,1,0,0:0:0:0:
300,196,298215,1,8,0:0:0:0:
300,196,298310,1,0,0:0:0:0:
300,196,298406,1,8,0:0:0:0:
300,196,298597,1,12,0:0:0:0:
304,196,298883,1,12,0:0:0:0:
280,192,299170,1,4,0:0:0:0:
308,176,299552,1,12,0:0:0:0:
308,176,299743,1,4,0:0:0:0:
308,176,299934,1,12,0:0:0:0:
308,176,300125,1,8,0:0:0:0:
308,176,300221,1,8,0:0:0:0:
308,176,300412,1,8,0:0:0:0:
308,176,300507,1,8,0:0:0:0:
308,176,300699,1,4,0:0:0:0:
312,208,301081,1,12,0:0:0:0:
312,208,301272,1,4,0:0:0:0:
312,208,301463,1,12,0:0:0:0:
312,208,301654,1,8,0:0:0:0:
312,208,301750,1,0,0:0:0:0:
292,192,301941,1,8,0:0:0:0:
292,192,302036,1,0,0:0:0:0:
292,192,302227,1,4,0:0:0:0:
292,192,302609,1,12,0:0:0:0:
292,192,302800,1,4,0:0:0:0:
292,192,302992,1,12,0:0:0:0:
292,192,303183,5,4,0:0:0:0:
320,236,304329,5,8,0:0:0:0:
320,236,304425,1,8,0:0:0:0:
184,168,304520,1,0,0:0:0:0:
228,176,304584,1,0,0:0:0:0:
228,176,304648,1,0,0:0:0:0:
228,176,304711,1,8,0:0:0:0:
112,160,304902,1,12,0:0:0:0:
256,192,305093,12,0,312482,0:0:0:0:
