osu file format v14

[General]
AudioFilename: audio.mp3
AudioLeadIn: 0
PreviewTime: -1
Countdown: 0
SampleSet: Normal
StackLeniency: 0.2
Mode: 0
LetterboxInBreaks: 0
WidescreenStoryboard: 0

[Editor]
Bookmarks: 7095,16695,23552,30409,38637,48238,50980,56467,61952,64695,72923,77038,83895
DistanceSpacing: 0.1
BeatDivisor: 4
GridSize: 4
TimelineZoom: 2

[Metadata]
Title:Hajimari no Asa (u's LoveLive! Kaien Fu DnB Remix)
TitleUnicode:始まりの朝(μ's LoveLive!開演風 D'n'B REMIX)
Artist:u's
ArtistUnicode:μ's
Creator:Cxk224
Version:Asa dayo! LoveLive dayo!
Source:
Tags:
BeatmapID:2047713
BeatmapSetID:978511

[Difficulty]
HPDrainRate:6
CircleSize:3.8
OverallDifficulty:8.5
ApproachRate:9.5
SliderMultiplier:2
SliderTickRate:1

[Events]
//Background and Video events
0,0,"ll (183).jpg",0,0
//Break Periods
//Storyboard Layer 0 (Background)
//Storyboard Layer 1 (Fail)
//Storyboard Layer 2 (Pass)
//Storyboard Layer 3 (Foreground)
//Storyboard Sound Samples

[TimingPoints]
-1133,342.857142857143,4,1,76,100,1,0
67,-100,4,1,76,15,0,0
752,-80,4,1,76,15,0,0
2124,-100,4,1,76,15,0,0
2981,-133.333333333333,4,1,76,15,0,0
3667,-66.6666666666667,4,1,76,15,0,0
5724,-50,4,1,76,45,0,0
6067,-133.333333333333,4,1,76,45,0,0
6238,-66.6666666666667,4,1,76,45,0,0
6752,-44.6428571428571,4,1,76,75,0,0
7438,-66.6666666666667,4,1,76,75,0,0
7609,-50,4,1,76,75,0,0
8467,-44.6428571428571,4,1,76,75,0,0
8809,-66.6666666666667,4,1,76,75,0,0
8981,-50,4,1,76,75,0,0
9838,-44.6428571428571,4,1,76,75,0,0
10181,-66.6666666666667,4,1,76,75,0,0
10352,-50,4,1,76,75,0,0
12238,-66.6666666666667,4,1,76,75,0,0
12581,-44.6428571428571,4,1,76,75,0,0
12924,-50,4,1,76,75,0,0
13609,-44.6428571428571,4,1,76,75,0,0
13952,-46.5116279069767,4,1,76,75,0,0
14295,-50,4,1,76,75,0,0
14809,-66.6666666666667,4,1,76,75,0,0
14981,-50,4,1,76,75,0,0
15324,-44.6428571428571,4,1,76,75,0,0
15667,-50,4,1,76,75,0,0
16352,-44.6428571428571,4,1,76,75,0,0
17038,-50,4,1,76,75,0,0
18067,-40,4,1,76,75,0,0
18409,-50,4,1,76,75,0,0
18581,-44.6428571428571,4,1,76,75,0,0
19095,-40,4,1,76,75,0,0
19438,-40,4,1,76,75,0,0
19781,-44.6428571428571,4,1,76,75,0,0
19952,-50,4,1,76,75,0,0
20295,-57.1428571428571,4,1,76,75,0,0
20467,-44.6428571428571,4,1,76,75,0,0
20809,-40,4,1,76,75,0,0
21152,-50,4,1,76,75,0,0
21324,-44.6428571428571,4,1,76,75,0,0
21667,-50,4,1,76,75,0,0
21838,-44.6428571428571,4,1,76,75,0,0
22181,-40,4,1,76,75,0,0
23209,-57.1428571428571,4,1,76,75,0,0
23552,-44.6428571428571,4,1,76,75,0,0
23895,-66.6666666666667,4,1,76,75,0,0
24067,-50,4,1,76,75,0,0
24581,-44.6428571428571,4,1,76,75,0,0
25267,-66.6666666666667,4,1,76,75,0,0
25438,-50,4,1,76,75,0,0
38638,-44.6428571428571,4,1,76,75,0,1
48238,-44.6428571428571,4,1,76,75,0,0

[HitObjects]
156,160,67,5,0,0:0:0:0:
151,168,152,1,0,0:0:0:0:
166,206,238,5,0,0:0:0:0:
316,83,409,1,0,0:0:0:0:
320,80,495,1,0,0:0:0:0:
324,77,581,6,0,L|318:150,1,50
353,301,752,6,0,B|353:264|389:233|389:233|328:230|303:284|292:306|292:306|261:363|195:355|178:319,1,312.5
176,367,1267,1,0,0:0:0:0:
224,272,1438,1,0,0:0:0:0:
71,261,1609,5,0,0:0:0:0:
151,103,1781,1,0,0:0:0:0:
157,113,1867,1,0,0:0:0:0:
165,171,1952,5,0,0:0:0:0:
436,183,2124,6,0,B|373:172|373:172|362:141|362:141|313:189|313:189|306:160|306:160|215:144,1,250
236,123,2638,1,0,0:0:0:0:
357,251,2809,1,0,0:0:0:0:
449,66,2981,6,0,B|454:92|438:116|438:116|493:90|490:3|368:-17|333:56,1,262.500010013581
170,208,3667,6,0,B|139:219|103:191|93:143|129:98|201:99|261:161|247:207,1,225.000008583069
264,331,4009,6,0,L|246:82,1,225.000008583069
218,29,4352,5,0,0:0:0:0:
256,192,4438,12,0,5381,0:0:0:0:
115,327,5724,6,0,B|60:366|13:264|93:232|133:268|133:268|156:333|260:330,1,300
330,302,6067,6,0,L|357:291,1,18.7500007152558
322,294,6152,2,0,L|345:276,1,18.7500007152558
311,288,6238,2,0,B|333:324|333:324|300:361,1,75.0000028610231
209,248,6409,2,0,B|222:208|222:208|264:191,1,75.0000028610231
439,206,6581,5,0,0:0:0:0:
457,179,6667,1,0,0:0:0:0:
448,107,6752,6,0,B|412:99|412:99|394:172,1,112.000001367188
364,291,6924,2,0,B|354:329|354:329|444:341,1,112.000001367188
109,225,7095,6,0,B|56:226|24:318|156:411|254:191,1,336.000004101563
186,25,7438,2,0,P|127:33|108:70,1,75.0000028610231
102,138,7609,2,0,P|7:109|119:42,1,300
190,213,7952,6,0,B|194:236|210:258|210:258|205:233|192:212,1,100
305,51,8124,2,0,P|442:67|477:225,1,300
320,344,8467,6,0,P|269:238|421:268,1,336.000004101563
315,351,8809,2,0,P|270:318|258:282,1,75.0000028610231
148,189,8981,2,0,P|197:251|247:106,1,300
179,29,9324,6,0,P|201:0|189:36,1,100
39,258,9495,2,0,P|130:332|185:201,1,300
31,106,9838,6,0,P|133:193|319:115,1,336.000004101563
370,0,10181,2,0,P|323:27|309:66,1,75.0000028610231
229,239,10352,2,0,P|168:163|309:162,1,300
373,306,10695,6,0,B|395:301|417:285|417:285|392:290|371:304,1,100
92,364,10867,2,0,P|199:233|361:337,1,300
373,306,11209,5,2,0:0:0:0:
373,306,11552,1,0,0:0:0:0:
379,280,11637,1,0,0:0:0:0:
385,255,11723,1,0,0:0:0:0:
392,230,11809,1,0,0:0:0:0:
400,205,11895,5,0,0:0:0:0:
325,209,11980,1,0,0:0:0:0:
250,212,12066,1,0,0:0:0:0:
175,219,12152,1,0,0:0:0:0:
100,224,12238,6,0,P|91:230|111:198,1,225.000008583069
396,353,12581,6,0,B|443:380|515:314|448:180|252:318,1,336.000004101563
88,355,12924,2,0,P|95:317|106:349,1,100
98,164,13095,2,0,P|36:253|181:248,1,300.000011444092
249,120,13438,6,0,B|272:116|294:100|294:100|269:105|248:118,1,100
105,73,13609,2,0,P|199:22|206:195,1,336.000004101563
147,344,13952,6,0,P|211:204|366:126,1,322.50000492096
473,267,14295,2,0,B|479:289|497:309|497:309|490:285|474:265,1,100
302,236,14467,2,0,P|289:359|405:278,1,300
397,35,14809,6,0,P|344:54|324:89,1,75.0000028610231
180,311,14981,2,0,P|125:173|255:121,1,300
491,140,15324,6,0,P|322:158|259:335,1,336.000004101563
364,340,15667,2,0,P|372:377|349:352,1,100
180,311,15838,2,0,P|315:225|321:306,1,300
118,355,16181,6,0,B|99:368|88:392|88:392|107:377|120:355,1,100
178,80,16352,2,0,P|321:109|320:285,1,336.000004101563
118,355,16695,6,0,B|69:345|31:299|43:242|43:242|31:238|31:238|43:242|43:242|59:174|127:147|192:179,1,336.000004101563
212,247,17038,2,0,B|222:271|222:271|222:295|222:295|227:272|227:272|244:250,1,100
283,97,17209,2,0,B|293:69|293:69|314:50|314:50|343:35|343:35|377:35|377:35|401:45|401:45|430:62|430:62|445:88|445:88|448:110|448:110|448:136|448:136|440:156|440:156|423:177,1,300
291,307,17552,6,0,B|237:299|237:299|228:304|228:304|180:295,1,100
145,93,17724,2,0,B|136:140|136:140|141:157|141:157|136:188|136:188|123:215|123:215|111:282|111:282|113:294|113:294|104:345|104:345|96:344|96:344|104:345|104:345|97:385,1,300
413,262,18067,6,0,B|452:268|452:268|488:315|488:315|382:297|382:297|358:272|358:272|307:263|307:263|297:270|297:270|226:257,1,375
101,104,18409,2,0,B|65:97|65:97|33:120|33:120|24:150,1,100
23,288,18581,2,0,B|17:315|17:315|62:351|62:351|57:383|57:383|100:345|100:345|107:304|107:304|114:300|114:300|133:189,1,336.000004101563
184,4,18924,6,0,B|174:55|174:55|170:58|170:58|178:59|178:59|220:95,1,112.000001367188
387,131,19095,2,0,B|401:96|401:96|428:81|428:81|430:69|430:69|402:64|402:64|394:59|394:59|386:61|386:61|347:54|347:54|337:106|337:106|333:109|333:109|336:114|336:114|326:173|326:173|320:180|320:180|303:278,1,375
109,355,19438,6,0,B|74:344|74:344|64:334|64:334|27:332|27:332|118:313|118:313|135:318|135:318|245:298|245:298|187:292|187:292|181:281|181:281|142:267,1,375
371,357,19781,2,0,B|331:363|331:363|320:360|320:360|322:351|322:351|320:360|320:360|303:359|303:359|260:366,1,112.000001367188
52,238,19952,2,0,B|87:127|87:127|85:130|85:130|184:113|184:113|203:130|203:130|292:114,1,300
440,132,20295,6,0,B|396:139|396:139|396:136|396:136|396:139|396:139|358:146,1,87.500000834465
148,256,20467,2,0,B|117:289|117:289|138:245|138:245|139:229|139:229|217:215|217:215|266:239|266:239|361:222,1,336.000004101563
228,58,20809,6,0,B|198:33|198:33|183:30|183:30|156:-2|156:-2|143:72|143:72|154:102|154:102|151:108|151:108|154:102|154:102|164:133|164:133|153:196|153:196|157:200|157:200|146:263,1,375
324,352,21152,2,0,B|363:358|363:358|378:317|378:317|335:309,1,100
125,338,21324,2,0,B|65:327|65:327|76:268|76:268|39:201|39:201|30:248|30:248|33:258|33:258|17:344,1,336.000004101563
293,259,21667,6,0,B|340:267|340:267|373:333,1,100
119,134,21838,2,0,B|93:141|93:141|29:131|29:131|34:131|34:131|79:102|79:102|158:116|158:116|165:121|165:121|260:138,1,336.000004101563
445,370,22181,6,0,B|455:305|455:305|449:312|449:312|441:360|441:360|419:323|419:323|430:264|430:264|426:264|426:264|430:264|430:264|443:179|443:179|467:243,1,375
455,88,22524,1,0,0:0:0:0:
455,88,22867,5,0,0:0:0:0:
408,145,22952,1,0,0:0:0:0:
334,150,23038,1,0,0:0:0:0:
280,100,23124,1,0,0:0:0:0:
255,30,23209,6,0,B|316:60|318:136|318:136|241:138|208:77,1,262.500002503395
0,247,23552,6,0,B|13:155|142:123|182:250|182:250|109:240,1,336.000004101563
123,58,23895,2,0,L|138:160,1,75.0000028610231
161,369,24067,2,0,B|175:293|248:293|248:293|309:338|365:306|365:306|329:261,1,300
267,149,24409,6,0,P|249:108|293:73,1,100
443,254,24581,2,0,B|465:283|455:320|455:320|382:349|331:314|331:314|313:231|379:164,1,336.000004101563
484,43,24924,6,0,B|512:91|512:91|448:124|381:67|381:67|322:20|252:68,1,336.000004101563
214,147,25267,2,0,P|232:192|271:231,1,75.0000028610231
432,322,25438,2,0,B|452:273|418:217|418:217|341:218|292:262|271:331,1,300
211,357,25781,6,0,L|113:335,1,100
280,184,25952,2,0,B|333:137|304:79|304:79|242:51|176:94|176:94|204:98|234:120,1,300
