osu file format v14

[General]
AudioFilename: audio.mp3
AudioLeadIn: 0
PreviewTime: 51216
Countdown: 0
SampleSet: Soft
StackLeniency: 0.7
Mode: 3
LetterboxInBreaks: 0
SpecialStyle: 0
WidescreenStoryboard: 0

[Editor]
DistanceSpacing: 1.1
BeatDivisor: 4
GridSize: 4
TimelineZoom: 1.499999

[Metadata]
Title:Bokura wa Ima no Naka de(TV Size)
TitleUnicode:僕らは今のなかで(TVサイズ)
Artist:u's
ArtistUnicode:μ's
Creator:arcwinolivirus
Version:7K Expert
Source:ラブライブ! School idol project
Tags:love live muse hata aki mori shintarou sunrise opening
BeatmapID:1207645
BeatmapSetID:569665

[Difficulty]
HPDrainRate:8
CircleSize:7
OverallDifficulty:8
ApproachRate:5
SliderMultiplier:1.4
SliderTickRate:1

[Events]
//Background and Video events
0,0,"bokurawaimanonakadeBG.jpg",0,0
//Break Periods
//Storyboard Layer 0 (Background)
//Storyboard Layer 1 (Fail)
//Storyboard Layer 2 (Pass)
//Storyboard Layer 3 (Foreground)
//Storyboard Sound Samples

[TimingPoints]
706,306.122448979592,4,2,1,50,1,0
52134,-100,4,2,1,50,0,1
71726,-100,4,2,1,50,0,0

[HitObjects]
402,192,399,5,0,0:0:0:0:
329,192,476,1,0,0:0:0:0:
256,192,552,1,0,0:0:0:0:
182,192,629,1,0,0:0:0:0:
402,192,706,1,4,0:0:0:0:
109,192,706,1,2,0:0:0:0:
36,192,706,1,0,0:0:0:0:
475,192,706,1,0,0:0:0:0:
182,192,1318,1,0,0:0:0:0:
256,192,1471,1,0,0:0:0:0:
329,192,1624,1,0,0:0:0:0:
36,192,1777,1,4,0:0:0:0:
402,192,1777,1,2,0:0:0:0:
475,192,1777,1,0,0:0:0:0:
109,192,1777,1,0,0:0:0:0:
256,192,2236,1,0,0:0:0:0:
182,192,2542,1,0,0:0:0:0:
109,192,2848,1,0,0:0:0:0:
402,192,3001,1,4,0:0:0:0:
329,192,3001,1,2,0:0:0:0:
256,192,3001,1,0,0:0:0:0:
475,192,3001,1,0,0:0:0:0:
182,192,3920,1,0,0:0:0:0:
402,192,4073,1,0,0:0:0:0:
256,192,4226,1,4,0:0:0:0:
182,192,4226,1,2,0:0:0:0:
109,192,4226,1,0,0:0:0:0:
36,192,4226,1,0,0:0:0:0:
402,192,5144,1,2,0:0:0:0:
475,192,5144,1,0,0:0:0:0:
256,192,5221,1,2,0:0:0:0:
329,192,5221,1,0,0:0:0:0:
182,192,5297,1,2,0:0:0:0:
109,192,5297,1,8,0:0:0:0:
36,192,5297,1,0,0:0:0:0:
475,192,5603,1,4,0:0:0:0:
402,192,5603,1,2,0:0:0:0:
36,192,5603,1,0,0:0:0:0:
109,192,5603,1,0,0:0:0:0:
475,192,5910,1,8,0:0:0:0:
329,192,5910,1,0,0:0:0:0:
182,192,5910,1,0,0:0:0:0:
256,192,6063,1,0,0:0:0:0:
402,192,6216,1,2,0:0:0:0:
109,192,6216,1,0,0:0:0:0:
182,192,6369,1,2,0:0:0:0:
329,192,6369,1,0,0:0:0:0:
475,192,6522,1,8,0:0:0:0:
36,192,6522,1,0,0:0:0:0:
256,192,6522,1,0,0:0:0:0:
402,192,6675,1,2,0:0:0:0:
109,192,6675,1,4,0:0:0:0:
182,192,6675,1,0,0:0:0:0:
329,192,6675,1,0,0:0:0:0:
475,192,6981,1,2,0:0:0:0:
36,192,6981,1,0,0:0:0:0:
402,192,7134,1,8,0:0:0:0:
109,192,7134,1,0,0:0:0:0:
329,192,7134,1,0,0:0:0:0:
256,192,7287,1,0,0:0:0:0:
475,192,7440,1,2,0:0:0:0:
182,192,7440,1,0,0:0:0:0:
329,192,7593,1,2,0:0:0:0:
36,192,7593,1,0,0:0:0:0:
402,192,7746,1,8,0:0:0:0:
109,192,7746,1,0,0:0:0:0:
256,192,7746,1,0,0:0:0:0:
182,192,8052,1,4,0:0:0:0:
36,192,8052,1,2,0:0:0:0:
475,192,8052,1,0,0:0:0:0:
329,192,8052,1,0,0:0:0:0:
256,192,8359,1,8,0:0:0:0:
109,192,8359,1,0,0:0:0:0:
402,192,8359,1,0,0:0:0:0:
329,192,8512,1,0,0:0:0:0:
475,192,8665,1,2,0:0:0:0:
36,192,8665,1,0,0:0:0:0:
402,192,8818,1,2,0:0:0:0:
109,192,8818,1,0,0:0:0:0:
329,192,8971,1,8,0:0:0:0:
256,192,8971,1,0,0:0:0:0:
182,192,8971,1,0,0:0:0:0:
109,192,9124,1,4,0:0:0:0:
36,192,9124,1,2,0:0:0:0:
475,192,9124,1,0,0:0:0:0:
402,192,9124,1,0,0:0:0:0:
402,192,9430,1,2,0:0:0:0:
182,192,9430,1,0,0:0:0:0:
475,192,9583,1,8,0:0:0:0:
256,192,9583,1,0,0:0:0:0:
36,192,9583,1,0,0:0:0:0:
109,192,9736,1,2,0:0:0:0:
182,192,9736,1,0,0:0:0:0:
402,192,9889,1,0,0:0:0:0:
329,192,9889,1,0,0:0:0:0:
36,192,10042,1,2,0:0:0:0:
109,192,10042,1,0,0:0:0:0:
256,192,10195,1,8,0:0:0:0:
402,192,10195,1,0,0:0:0:0:
475,192,10195,1,0,0:0:0:0:
329,192,10501,1,4,0:0:0:0:
109,192,10501,1,2,0:0:0:0:
36,192,10501,1,0,0:0:0:0:
182,192,10501,1,0,0:0:0:0:
256,192,10808,1,8,0:0:0:0:
109,192,10808,1,0,0:0:0:0:
402,192,10808,1,0,0:0:0:0:
329,192,11114,1,8,0:0:0:0:
256,192,11114,1,0,0:0:0:0:
182,192,11114,1,0,0:0:0:0:
475,192,11114,1,0,0:0:0:0:
402,192,11267,1,2,0:0:0:0:
109,192,11267,1,0,0:0:0:0:
329,192,11420,1,2,0:0:0:0:
36,192,11420,1,0,0:0:0:0:
256,192,11573,1,8,0:0:0:0:
182,192,11573,1,2,0:0:0:0:
109,192,11573,1,0,0:0:0:0:
475,192,11573,1,0,0:0:0:0:
402,192,11879,1,8,0:0:0:0:
329,192,11879,1,2,0:0:0:0:
109,192,11879,1,0,0:0:0:0:
36,192,11879,1,0,0:0:0:0:
182,192,12185,1,2,0:0:0:0:
109,192,12185,1,8,0:0:0:0:
475,192,12185,1,0,0:0:0:0:
402,192,12185,1,0,0:0:0:0:
182,192,12491,1,2,0:0:0:0:
402,192,12491,1,0,0:0:0:0:
329,192,12644,1,8,0:0:0:0:
109,192,12644,1,0,0:0:0:0:
36,192,12644,1,0,0:0:0:0:
475,192,12950,1,4,0:0:0:0:
402,192,12950,1,2,0:0:0:0:
182,192,12950,1,0,0:0:0:0:
256,192,12950,1,0,0:0:0:0:
109,192,13257,1,8,0:0:0:0:
329,192,13257,1,0,0:0:0:0:
36,192,13257,1,0,0:0:0:0:
475,192,13410,1,0,0:0:0:0:
402,192,13563,1,2,0:0:0:0:
256,192,13563,1,0,0:0:0:0:
182,192,13716,1,2,0:0:0:0:
36,192,13716,1,0,0:0:0:0:
329,192,13869,1,8,0:0:0:0:
475,192,13869,1,0,0:0:0:0:
256,192,13869,1,0,0:0:0:0:
109,192,14022,1,0,0:0:0:0:
402,192,14175,1,2,0:0:0:0:
182,192,14175,1,0,0:0:0:0:
329,192,14328,1,2,0:0:0:0:
256,192,14328,1,0,0:0:0:0:
475,192,14481,1,8,0:0:0:0:
109,192,14481,1,0,0:0:0:0:
36,192,14481,1,0,0:0:0:0:
182,192,14634,1,2,0:0:0:0:
256,192,14634,1,0,0:0:0:0:
402,192,14787,1,0,0:0:0:0:
329,192,14940,1,2,0:0:0:0:
109,192,14940,1,0,0:0:0:0:
182,192,15093,1,8,0:0:0:0:
475,192,15093,1,0,0:0:0:0:
402,192,15093,1,0,0:0:0:0:
256,192,15246,1,0,0:0:0:0:
329,192,15399,1,2,0:0:0:0:
36,192,15399,1,0,0:0:0:0:
182,192,15552,1,0,0:0:0:0:
256,192,15706,1,8,0:0:0:0:
475,192,15706,1,0,0:0:0:0:
402,192,15706,1,0,0:0:0:0:
109,192,15859,1,0,0:0:0:0:
182,192,16012,1,2,0:0:0:0:
329,192,16012,1,0,0:0:0:0:
475,192,16165,1,2,0:0:0:0:
402,192,16165,1,0,0:0:0:0:
256,192,16318,1,8,0:0:0:0:
109,192,16318,1,0,0:0:0:0:
36,192,16318,1,0,0:0:0:0:
329,192,16471,1,0,0:0:0:0:
182,192,16624,1,2,0:0:0:0:
109,192,16624,1,0,0:0:0:0:
402,192,16777,1,2,0:0:0:0:
475,192,16777,1,0,0:0:0:0:
329,192,16930,1,8,0:0:0:0:
256,192,16930,1,0,0:0:0:0:
36,192,16930,1,0,0:0:0:0:
109,192,17083,1,2,0:0:0:0:
182,192,17083,1,0,0:0:0:0:
475,192,17236,1,0,0:0:0:0:
329,192,17389,1,2,0:0:0:0:
256,192,17389,1,0,0:0:0:0:
36,192,17542,1,8,0:0:0:0:
402,192,17542,1,0,0:0:0:0:
109,192,17542,1,0,0:0:0:0:
256,192,17848,1,2,0:0:0:0:
475,192,17848,1,0,0:0:0:0:
109,192,18001,1,0,0:0:0:0:
329,192,18154,1,8,0:0:0:0:
182,192,18154,1,0,0:0:0:0:
402,192,18154,1,0,0:0:0:0:
36,192,18308,1,0,0:0:0:0:
109,192,18461,1,2,0:0:0:0:
256,192,18461,1,0,0:0:0:0:
329,192,18614,1,2,0:0:0:0:
475,192,18614,1,0,0:0:0:0:
182,192,18767,1,8,0:0:0:0:
36,192,18767,1,0,0:0:0:0:
256,192,18767,1,0,0:0:0:0:
402,192,18920,1,0,0:0:0:0:
109,192,19073,1,2,0:0:0:0:
329,192,19073,1,0,0:0:0:0:
182,192,19226,1,2,0:0:0:0:
256,192,19226,1,0,0:0:0:0:
36,192,19379,1,8,0:0:0:0:
402,192,19379,1,0,0:0:0:0:
475,192,19379,1,0,0:0:0:0:
329,192,19532,1,2,0:0:0:0:
182,192,19532,1,0,0:0:0:0:
109,192,19685,1,0,0:0:0:0:
475,192,19838,1,2,0:0:0:0:
402,192,19838,1,0,0:0:0:0:
36,192,19991,1,8,0:0:0:0:
256,192,19991,1,0,0:0:0:0:
109,192,19991,1,0,0:0:0:0:
402,192,20144,1,0,0:0:0:0:
36,192,20297,1,2,0:0:0:0:
182,192,20297,1,0,0:0:0:0:
329,192,20450,1,0,0:0:0:0:
256,192,20603,1,8,0:0:0:0:
475,192,20603,1,0,0:0:0:0:
109,192,20603,1,0,0:0:0:0:
402,192,20757,1,0,0:0:0:0:
329,192,20910,1,2,0:0:0:0:
182,192,20910,1,0,0:0:0:0:
36,192,21063,1,2,0:0:0:0:
109,192,21063,1,0,0:0:0:0:
256,192,21216,1,8,0:0:0:0:
402,192,21216,1,0,0:0:0:0:
475,192,21216,1,0,0:0:0:0:
329,192,21369,1,2,0:0:0:0:
182,192,21369,1,0,0:0:0:0:
109,192,21369,1,0,0:0:0:0:
36,192,21369,1,0,0:0:0:0:
475,192,21675,1,2,0:0:0:0:
402,192,21675,1,0,0:0:0:0:
182,192,21675,1,0,0:0:0:0:
329,192,21675,1,0,0:0:0:0:
109,192,21828,1,8,0:0:0:0:
256,192,21828,1,0,0:0:0:0:
329,192,21981,1,2,0:0:0:0:
475,192,21981,1,4,0:0:0:0:
182,192,21981,1,0,0:0:0:0:
36,192,21981,1,0,0:0:0:0:
256,192,22287,1,2,0:0:0:0:
402,192,22287,1,0,0:0:0:0:
36,192,22440,1,8,0:0:0:0:
182,192,22440,1,0,0:0:0:0:
329,192,22440,1,0,0:0:0:0:
475,192,22517,1,8,0:0:0:0:
109,192,22593,1,8,0:0:0:0:
256,192,22670,1,8,0:0:0:0:
36,192,22746,1,4,0:0:0:0:
402,192,22746,1,2,0:0:0:0:
182,192,22746,1,0,0:0:0:0:
329,192,22746,1,0,0:0:0:0:
256,192,23052,1,8,0:0:0:0:
36,192,23052,1,0,0:0:0:0:
475,192,23052,1,0,0:0:0:0:
182,192,23206,1,0,0:0:0:0:
402,192,23359,1,2,0:0:0:0:
329,192,23359,1,0,0:0:0:0:
109,192,23512,1,2,0:0:0:0:
36,192,23512,1,0,0:0:0:0:
182,192,23665,1,8,0:0:0:0:
256,192,23665,1,0,0:0:0:0:
475,192,23665,1,0,0:0:0:0:
329,192,23818,1,0,0:0:0:0:
402,192,23971,1,2,0:0:0:0:
109,192,23971,1,0,0:0:0:0:
182,192,24124,1,2,0:0:0:0:
256,192,24124,1,0,0:0:0:0:
36,192,24277,1,8,0:0:0:0:
475,192,24277,1,0,0:0:0:0:
329,192,24277,1,0,0:0:0:0:
109,192,24430,1,2,0:0:0:0:
182,192,24430,1,0,0:0:0:0:
256,192,24583,1,0,0:0:0:0:
329,192,24736,1,2,0:0:0:0:
402,192,24736,1,0,0:0:0:0:
109,192,24889,1,8,0:0:0:0:
36,192,24889,1,0,0:0:0:0:
475,192,24889,1,0,0:0:0:0:
182,192,25042,1,0,0:0:0:0:
329,192,25195,1,2,0:0:0:0:
402,192,25195,1,0,0:0:0:0:
109,192,25195,1,0,0:0:0:0:
256,192,25348,1,0,0:0:0:0:
36,192,25501,1,8,0:0:0:0:
182,192,25501,1,0,0:0:0:0:
475,192,25501,1,0,0:0:0:0:
329,192,25654,1,0,0:0:0:0:
256,192,25808,1,2,0:0:0:0:
109,192,25808,1,0,0:0:0:0:
402,192,25961,1,2,0:0:0:0:
475,192,25961,1,0,0:0:0:0:
329,192,26114,1,8,0:0:0:0:
182,192,26114,1,0,0:0:0:0:
36,192,26114,1,0,0:0:0:0:
256,192,26267,1,0,0:0:0:0:
475,192,26420,1,2,0:0:0:0:
402,192,26420,1,0,0:0:0:0:
109,192,26573,1,2,0:0:0:0:
36,192,26573,1,0,0:0:0:0:
182,192,26726,1,8,0:0:0:0:
256,192,26726,1,0,0:0:0:0:
329,192,26726,1,0,0:0:0:0:
475,192,26879,1,2,0:0:0:0:
402,192,26879,1,0,0:0:0:0:
109,192,27032,1,0,0:0:0:0:
256,192,27185,1,2,0:0:0:0:
329,192,27185,1,0,0:0:0:0:
182,192,27338,1,8,0:0:0:0:
36,192,27338,1,0,0:0:0:0:
475,192,27338,1,0,0:0:0:0:
329,192,27491,1,0,0:0:0:0:
402,192,27644,1,4,0:0:0:0:
475,192,27644,1,2,0:0:0:0:
109,192,27644,1,0,0:0:0:0:
36,192,27644,1,0,0:0:0:0:
256,192,27797,1,0,0:0:0:0:
402,192,27950,1,8,0:0:0:0:
182,192,27950,1,0,0:0:0:0:
109,192,27950,1,0,0:0:0:0:
329,192,28103,1,0,0:0:0:0:
256,192,28257,1,2,0:0:0:0:
36,192,28257,1,0,0:0:0:0:
402,192,28410,1,2,0:0:0:0:
475,192,28410,1,0,0:0:0:0:
329,192,28563,1,8,0:0:0:0:
182,192,28563,1,0,0:0:0:0:
109,192,28563,1,0,0:0:0:0:
402,192,28716,1,0,0:0:0:0:
36,192,28716,1,2,0:0:0:0:
475,192,28716,1,4,0:0:0:0:
256,192,28716,1,0,0:0:0:0:
182,192,29022,1,2,0:0:0:0:
109,192,29022,1,0,0:0:0:0:
256,192,29175,1,8,0:0:0:0:
475,192,29175,1,0,0:0:0:0:
402,192,29175,1,0,0:0:0:0:
36,192,29328,1,0,0:0:0:0:
182,192,29481,1,2,0:0:0:0:
329,192,29481,1,0,0:0:0:0:
402,192,29634,1,2,0:0:0:0:
475,192,29634,1,0,0:0:0:0:
256,192,29787,1,8,0:0:0:0:
109,192,29787,1,0,0:0:0:0:
36,192,29787,1,0,0:0:0:0:
329,192,29940,1,0,0:0:0:0:
182,192,30093,1,4,0:0:0:0:
402,192,30093,1,2,0:0:0:0:
475,192,30093,1,0,0:0:0:0:
36,192,30093,1,0,0:0:0:0:
329,192,30399,1,8,0:0:0:0:
256,192,30399,1,0,0:0:0:0:
109,192,30399,1,0,0:0:0:0:
182,192,30552,1,2,0:0:0:0:
402,192,30552,1,0,0:0:0:0:
36,192,30706,1,8,0:0:0:0:
475,192,30706,1,0,0:0:0:0:
256,192,30706,1,0,0:0:0:0:
329,192,30859,1,2,0:0:0:0:
182,192,30859,1,0,0:0:0:0:
402,192,31012,1,8,0:0:0:0:
36,192,31012,1,0,0:0:0:0:
475,192,31012,1,0,0:0:0:0:
329,192,31165,1,2,0:0:0:0:
256,192,31165,1,4,0:0:0:0:
109,192,31165,1,0,0:0:0:0:
256,192,31471,1,2,0:0:0:0:
402,192,31471,1,0,0:0:0:0:
182,192,31471,1,0,0:0:0:0:
109,192,31624,1,2,0:0:0:0:
329,192,31624,1,0,0:0:0:0:
402,192,31777,1,2,0:0:0:0:
182,192,31777,1,4,0:0:0:0:
256,192,31777,1,0,0:0:0:0:
475,192,31777,1,0,0:0:0:0:
109,192,31930,1,2,0:0:0:0:
36,192,31930,1,0,0:0:0:0:
329,192,32007,1,2,0:0:0:0:
182,192,32007,1,0,0:0:0:0:
475,192,32083,1,2,0:0:0:0:
402,192,32083,1,0,0:0:0:0:
256,192,32236,1,2,0:0:0:0:
36,192,32236,1,0,0:0:0:0:
182,192,32389,1,2,0:0:0:0:
329,192,32389,1,0,0:0:0:0:
475,192,32542,1,2,0:0:0:0:
36,192,32542,1,4,0:0:0:0:
109,192,32542,1,0,0:0:0:0:
402,192,32542,1,0,0:0:0:0:
182,192,32848,1,0,0:0:0:0:
329,192,33001,1,0,0:0:0:0:
109,192,33154,1,8,0:0:0:0:
36,192,33154,1,0,0:0:0:0:
256,192,33154,1,0,0:0:0:0:
402,192,33308,1,0,0:0:0:0:
182,192,33461,1,0,0:0:0:0:
329,192,33614,1,2,0:0:0:0:
475,192,33614,1,0,0:0:0:0:
109,192,33920,1,0,0:0:0:0:
256,192,34073,1,2,0:0:0:0:
402,192,34073,1,0,0:0:0:0:
182,192,34226,1,0,0:0:0:0:
329,192,34379,1,8,0:0:0:0:
475,192,34379,1,0,0:0:0:0:
36,192,34379,1,0,0:0:0:0:
256,192,34685,1,0,0:0:0:0:
402,192,34991,1,2,0:0:0:0:
109,192,34991,1,0,0:0:0:0:
182,192,35144,1,0,0:0:0:0:
329,192,35297,1,0,0:0:0:0:
36,192,35450,1,0,0:0:0:0:
402,192,35603,1,8,0:0:0:0:
475,192,35603,1,0,0:0:0:0:
256,192,35603,1,0,0:0:0:0:
109,192,35757,1,0,0:0:0:0:
329,192,35910,1,0,0:0:0:0:
182,192,36063,1,2,0:0:0:0:
36,192,36063,1,0,0:0:0:0:
475,192,36216,1,0,0:0:0:0:
329,192,36369,1,0,0:0:0:0:
256,192,36522,1,2,0:0:0:0:
109,192,36522,1,0,0:0:0:0:
402,192,36675,1,0,0:0:0:0:
182,192,36828,1,8,0:0:0:0:
36,192,36828,1,0,0:0:0:0:
329,192,36828,1,0,0:0:0:0:
475,192,36981,1,0,0:0:0:0:
256,192,37134,1,0,0:0:0:0:
36,192,37287,1,0,0:0:0:0:
402,192,37440,1,4,0:0:0:0:
329,192,37440,1,2,0:0:0:0:
182,192,37440,1,0,0:0:0:0:
475,192,37440,1,0,0:0:0:0:
256,192,37746,1,0,0:0:0:0:
475,192,37899,1,0,0:0:0:0:
109,192,38052,1,8,0:0:0:0:
36,192,38052,1,0,0:0:0:0:
329,192,38052,1,0,0:0:0:0:
182,192,38206,1,0,0:0:0:0:
402,192,38359,1,0,0:0:0:0:
256,192,38512,1,2,0:0:0:0:
109,192,38512,1,0,0:0:0:0:
475,192,38665,1,0,0:0:0:0:
36,192,38818,1,0,0:0:0:0:
402,192,38971,1,2,0:0:0:0:
182,192,38971,1,0,0:0:0:0:
256,192,39124,1,0,0:0:0:0:
109,192,39277,1,8,0:0:0:0:
475,192,39277,1,0,0:0:0:0:
329,192,39277,1,0,0:0:0:0:
256,192,39583,1,0,0:0:0:0:
109,192,39736,1,4,0:0:0:0:
36,192,39736,1,2,0:0:0:0:
402,192,39736,1,0,0:0:0:0:
475,192,39736,1,0,0:0:0:0:
182,192,39889,1,0,0:0:0:0:
329,192,40042,1,0,0:0:0:0:
109,192,40195,1,2,0:0:0:0:
475,192,40195,1,0,0:0:0:0:
256,192,40348,1,0,0:0:0:0:
36,192,40501,1,8,0:0:0:0:
402,192,40501,1,0,0:0:0:0:
182,192,40654,1,0,0:0:0:0:
329,192,40808,1,0,0:0:0:0:
109,192,40961,1,2,0:0:0:0:
475,192,40961,1,0,0:0:0:0:
256,192,41114,1,0,0:0:0:0:
402,192,41267,1,2,0:0:0:0:
36,192,41267,1,0,0:0:0:0:
182,192,41420,1,8,0:0:0:0:
109,192,41420,1,0,0:0:0:0:
329,192,41573,1,2,0:0:0:0:
475,192,41573,1,0,0:0:0:0:
109,192,41726,1,8,0:0:0:0:
36,192,41726,1,0,0:0:0:0:
475,192,41802,1,8,0:0:0:0:
402,192,41802,1,0,0:0:0:0:
182,192,41879,1,2,0:0:0:0:
256,192,41879,1,0,0:0:0:0:
329,192,42032,1,8,0:0:0:0:
36,192,42032,1,0,0:0:0:0:
475,192,42185,1,8,0:0:0:0:
402,192,42185,1,0,0:0:0:0:
182,192,42262,1,8,0:0:0:0:
256,192,42262,1,0,0:0:0:0:
109,192,42338,1,4,0:0:0:0:
36,192,42338,1,2,0:0:0:0:
475,192,42338,1,0,0:0:0:0:
402,192,42338,1,0,0:0:0:0:
329,192,42491,1,0,0:0:0:0:
182,192,42644,1,8,0:0:0:0:
36,192,42644,1,0,0:0:0:0:
256,192,42644,1,0,0:0:0:0:
475,192,42797,1,0,0:0:0:0:
256,192,42950,1,2,0:0:0:0:
109,192,42950,1,0,0:0:0:0:
402,192,43103,1,2,0:0:0:0:
329,192,43103,1,0,0:0:0:0:
109,192,43257,1,8,0:0:0:0:
475,192,43257,1,0,0:0:0:0:
36,192,43257,1,0,0:0:0:0:
256,192,43410,1,4,0:0:0:0:
402,192,43410,1,2,0:0:0:0:
329,192,43410,1,0,0:0:0:0:
182,192,43410,1,0,0:0:0:0:
36,192,43716,1,2,0:0:0:0:
109,192,43716,1,0,0:0:0:0:
475,192,43869,1,8,0:0:0:0:
402,192,43869,1,0,0:0:0:0:
256,192,43869,1,0,0:0:0:0:
182,192,44175,1,2,0:0:0:0:
109,192,44175,1,0,0:0:0:0:
329,192,44328,1,2,0:0:0:0:
402,192,44328,1,0,0:0:0:0:
256,192,44481,1,8,0:0:0:0:
109,192,44481,1,0,0:0:0:0:
36,192,44481,1,0,0:0:0:0:
475,192,44787,1,2,0:0:0:0:
256,192,44787,1,0,0:0:0:0:
182,192,44940,1,0,0:0:0:0:
329,192,45093,1,8,0:0:0:0:
475,192,45093,1,0,0:0:0:0:
36,192,45093,1,0,0:0:0:0:
109,192,45246,1,0,0:0:0:0:
256,192,45399,1,2,0:0:0:0:
402,192,45399,1,0,0:0:0:0:
36,192,45552,1,2,0:0:0:0:
182,192,45552,1,0,0:0:0:0:
402,192,45706,1,8,0:0:0:0:
256,192,45706,1,0,0:0:0:0:
475,192,45706,1,0,0:0:0:0:
36,192,45859,1,2,0:0:0:0:
109,192,45859,1,4,0:0:0:0:
182,192,45859,1,0,0:0:0:0:
329,192,45859,1,0,0:0:0:0:
475,192,46165,1,2,0:0:0:0:
402,192,46165,1,0,0:0:0:0:
36,192,46318,1,8,0:0:0:0:
109,192,46318,1,0,0:0:0:0:
256,192,46318,1,0,0:0:0:0:
329,192,46471,1,0,0:0:0:0:
182,192,46624,1,2,0:0:0:0:
109,192,46624,1,0,0:0:0:0:
475,192,46777,1,2,0:0:0:0:
402,192,46777,1,0,0:0:0:0:
256,192,46930,1,8,0:0:0:0:
329,192,46930,1,0,0:0:0:0:
36,192,46930,1,0,0:0:0:0:
109,192,47236,1,4,0:0:0:0:
402,192,47236,1,2,0:0:0:0:
329,192,47236,1,0,0:0:0:0:
182,192,47236,1,0,0:0:0:0:
475,192,47389,1,0,0:0:0:0:
402,192,47542,1,8,0:0:0:0:
256,192,47542,1,0,0:0:0:0:
36,192,47542,1,0,0:0:0:0:
182,192,47695,1,0,0:0:0:0:
329,192,47848,1,2,0:0:0:0:
109,192,47848,1,0,0:0:0:0:
256,192,48001,1,2,0:0:0:0:
36,192,48001,1,0,0:0:0:0:
402,192,48154,1,8,0:0:0:0:
182,192,48154,1,0,0:0:0:0:
475,192,48154,1,0,0:0:0:0:
329,192,48308,1,0,0:0:0:0:
109,192,48461,1,2,0:0:0:0:
36,192,48461,1,0,0:0:0:0:
402,192,48614,1,2,0:0:0:0:
475,192,48614,1,0,0:0:0:0:
329,192,48767,1,8,0:0:0:0:
256,192,48767,1,0,0:0:0:0:
182,192,48767,1,0,0:0:0:0:
36,192,48920,1,2,0:0:0:0:
109,192,48920,1,0,0:0:0:0:
402,192,49073,1,0,0:0:0:0:
329,192,49226,1,2,0:0:0:0:
256,192,49226,1,0,0:0:0:0:
182,192,49379,1,8,0:0:0:0:
109,192,49379,1,0,0:0:0:0:
475,192,49379,1,0,0:0:0:0:
402,192,49532,1,4,0:0:0:0:
329,192,49532,1,2,0:0:0:0:
256,192,49532,1,0,0:0:0:0:
36,192,49532,1,0,0:0:0:0:
475,192,49838,1,8,0:0:0:0:
256,192,49838,1,0,0:0:0:0:
36,192,49838,1,0,0:0:0:0:
475,192,49991,1,8,0:0:0:0:
36,192,49991,1,0,0:0:0:0:
256,192,49991,1,0,0:0:0:0:
182,192,50144,1,2,0:0:0:0:
109,192,50144,1,0,0:0:0:0:
329,192,50144,1,0,0:0:0:0:
256,192,50297,1,8,0:0:0:0:
402,192,50297,1,0,0:0:0:0:
475,192,50297,1,0,0:0:0:0:
109,192,50374,1,8,0:0:0:0:
36,192,50374,1,0,0:0:0:0:
402,192,50450,1,2,0:0:0:0:
475,192,50450,1,0,0:0:0:0:
329,192,50450,1,0,0:0:0:0:
109,192,50603,1,8,0:0:0:0:
182,192,50603,1,0,0:0:0:0:
36,192,50603,1,0,0:0:0:0:
329,192,50757,1,4,0:0:0:0:
402,192,50757,1,2,0:0:0:0:
475,192,50757,1,0,0:0:0:0:
256,192,50757,1,0,0:0:0:0:
182,192,51063,1,2,0:0:0:0:
109,192,51063,1,4,0:0:0:0:
329,192,51063,1,0,0:0:0:0:
402,192,51063,1,0,0:0:0:0:
256,192,51063,1,0,0:0:0:0:
475,192,51369,1,0,0:0:0:0:
36,192,51369,1,2,0:0:0:0:
402,192,51445,1,2,0:0:0:0:
109,192,51445,1,0,0:0:0:0:
256,192,51522,1,8,0:0:0:0:
329,192,51522,1,0,0:0:0:0:
182,192,51522,1,0,0:0:0:0:
475,192,51675,1,2,0:0:0:0:
36,192,51675,1,0,0:0:0:0:
402,192,51751,1,2,0:0:0:0:
109,192,51751,1,0,0:0:0:0:
256,192,51828,1,8,0:0:0:0:
329,192,51828,1,0,0:0:0:0:
182,192,51828,1,0,0:0:0:0:
475,192,51981,1,0,0:0:0:0:
329,192,52134,1,4,0:0:0:0:
36,192,52134,1,2,0:0:0:0:
109,192,52134,1,0,0:0:0:0:
402,192,52134,1,0,0:0:0:0:
182,192,52440,1,8,0:0:0:0:
36,192,52440,1,0,0:0:0:0:
256,192,52440,1,0,0:0:0:0:
402,192,52746,1,2,0:0:0:0:
329,192,52746,1,0,0:0:0:0:
182,192,52899,1,2,0:0:0:0:
109,192,52899,1,0,0:0:0:0:
475,192,53052,1,8,0:0:0:0:
402,192,53052,1,0,0:0:0:0:
256,192,53052,1,0,0:0:0:0:
36,192,53206,1,0,0:0:0:0:
329,192,53359,1,2,0:0:0:0:
182,192,53359,1,0,0:0:0:0:
475,192,53512,1,2,0:0:0:0:
402,192,53512,1,0,0:0:0:0:
256,192,53665,1,8,0:0:0:0:
109,192,53665,1,0,0:0:0:0:
36,192,53665,1,0,0:0:0:0:
402,192,53818,1,2,0:0:0:0:
329,192,53818,1,0,0:0:0:0:
182,192,53971,1,0,0:0:0:0:
256,192,54124,1,2,0:0:0:0:
329,192,54124,1,0,0:0:0:0:
475,192,54277,1,8,0:0:0:0:
36,192,54277,1,0,0:0:0:0:
109,192,54277,1,0,0:0:0:0:
475,192,54583,1,4,0:0:0:0:
402,192,54583,1,2,0:0:0:0:
182,192,54583,1,0,0:0:0:0:
256,192,54583,1,0,0:0:0:0:
182,192,54889,1,8,0:0:0:0:
402,192,54889,1,0,0:0:0:0:
256,192,55042,1,2,0:0:0:0:
109,192,55042,1,4,0:0:0:0:
36,192,55042,1,0,0:0:0:0:
329,192,55042,1,0,0:0:0:0:
402,192,55348,1,2,0:0:0:0:
475,192,55348,1,0,0:0:0:0:
182,192,55501,1,8,0:0:0:0:
109,192,55501,1,0,0:0:0:0:
256,192,55501,1,0,0:0:0:0:
475,192,55654,1,4,0:0:0:0:
402,192,55654,1,2,0:0:0:0:
329,192,55654,1,0,0:0:0:0:
36,192,55654,1,0,0:0:0:0:
256,192,55961,1,2,0:0:0:0:
182,192,55961,1,0,0:0:0:0:
329,192,56114,1,8,0:0:0:0:
402,192,56114,1,0,0:0:0:0:
109,192,56114,1,0,0:0:0:0:
256,192,56420,1,2,0:0:0:0:
36,192,56420,1,0,0:0:0:0:
475,192,56573,1,2,0:0:0:0:
402,192,56573,1,0,0:0:0:0:
109,192,56726,1,8,0:0:0:0:
329,192,56726,1,0,0:0:0:0:
36,192,56726,1,0,0:0:0:0:
402,192,56879,1,2,0:0:0:0:
256,192,56879,1,4,0:0:0:0:
182,192,56879,1,0,0:0:0:0:
475,192,56879,1,0,0:0:0:0:
329,192,57185,1,2,0:0:0:0:
109,192,57185,1,0,0:0:0:0:
182,192,57338,1,8,0:0:0:0:
402,192,57338,1,0,0:0:0:0:
475,192,57338,1,0,0:0:0:0:
36,192,57644,1,2,0:0:0:0:
109,192,57644,1,0,0:0:0:0:
475,192,57797,1,2,0:0:0:0:
402,192,57797,1,0,0:0:0:0:
182,192,57950,1,8,0:0:0:0:
329,192,57950,1,0,0:0:0:0:
256,192,57950,1,0,0:0:0:0:
109,192,58103,1,2,0:0:0:0:
36,192,58103,1,4,0:0:0:0:
402,192,58103,1,0,0:0:0:0:
475,192,58103,1,0,0:0:0:0:
329,192,58410,1,2,0:0:0:0:
256,192,58410,1,0,0:0:0:0:
36,192,58563,1,8,0:0:0:0:
109,192,58563,1,0,0:0:0:0:
475,192,58563,1,0,0:0:0:0:
256,192,58869,1,2,0:0:0:0:
402,192,58869,1,0,0:0:0:0:
182,192,59022,1,2,0:0:0:0:
109,192,59022,1,0,0:0:0:0:
36,192,59175,1,8,0:0:0:0:
402,192,59175,1,0,0:0:0:0:
475,192,59175,1,0,0:0:0:0:
329,192,59328,1,2,0:0:0:0:
182,192,59328,1,0,0:0:0:0:
256,192,59328,1,0,0:0:0:0:
109,192,59634,1,2,0:0:0:0:
329,192,59634,1,0,0:0:0:0:
256,192,59787,1,8,0:0:0:0:
36,192,59787,1,0,0:0:0:0:
475,192,59787,1,0,0:0:0:0:
402,192,59940,1,2,0:0:0:0:
182,192,59940,1,0,0:0:0:0:
256,192,60093,1,8,0:0:0:0:
475,192,60093,1,0,0:0:0:0:
36,192,60093,1,0,0:0:0:0:
329,192,60246,1,2,0:0:0:0:
109,192,60246,1,0,0:0:0:0:
256,192,60399,1,8,0:0:0:0:
182,192,60399,1,0,0:0:0:0:
475,192,60399,1,0,0:0:0:0:
402,192,60552,1,2,0:0:0:0:
36,192,60552,1,4,0:0:0:0:
109,192,60552,1,0,0:0:0:0:
329,192,60552,1,0,0:0:0:0:
109,192,60859,1,2,0:0:0:0:
402,192,60859,1,0,0:0:0:0:
182,192,61012,1,8,0:0:0:0:
329,192,61012,1,0,0:0:0:0:
256,192,61012,1,0,0:0:0:0:
36,192,61165,1,2,0:0:0:0:
475,192,61165,1,0,0:0:0:0:
402,192,61241,1,2,0:0:0:0:
109,192,61241,1,0,0:0:0:0:
182,192,61318,1,8,0:0:0:0:
329,192,61318,1,0,0:0:0:0:
256,192,61318,1,0,0:0:0:0:
109,192,61471,1,2,0:0:0:0:
36,192,61471,1,0,0:0:0:0:
182,192,61547,1,2,0:0:0:0:
256,192,61547,1,0,0:0:0:0:
402,192,61624,1,8,0:0:0:0:
329,192,61624,1,0,0:0:0:0:
475,192,61624,1,0,0:0:0:0:
36,192,61777,1,0,0:0:0:0:
402,192,61930,1,4,0:0:0:0:
475,192,61930,1,2,0:0:0:0:
109,192,61930,1,0,0:0:0:0:
182,192,61930,1,0,0:0:0:0:
329,192,62236,1,8,0:0:0:0:
256,192,62236,1,0,0:0:0:0:
36,192,62236,1,0,0:0:0:0:
475,192,62542,1,2,0:0:0:0:
402,192,62542,1,0,0:0:0:0:
109,192,62695,1,2,0:0:0:0:
36,192,62695,1,0,0:0:0:0:
329,192,62848,1,8,0:0:0:0:
256,192,62848,1,0,0:0:0:0:
475,192,62848,1,0,0:0:0:0:
182,192,63001,1,0,0:0:0:0:
402,192,63154,1,2,0:0:0:0:
109,192,63154,1,0,0:0:0:0:
329,192,63154,1,0,0:0:0:0:
182,192,63308,1,2,0:0:0:0:
256,192,63308,1,0,0:0:0:0:
36,192,63461,1,8,0:0:0:0:
109,192,63461,1,0,0:0:0:0:
475,192,63461,1,0,0:0:0:0:
402,192,63614,1,2,0:0:0:0:
329,192,63614,1,0,0:0:0:0:
256,192,63767,1,0,0:0:0:0:
36,192,63767,1,0,0:0:0:0:
182,192,63767,1,0,0:0:0:0:
475,192,63920,1,2,0:0:0:0:
402,192,63920,1,0,0:0:0:0:
329,192,64073,1,8,0:0:0:0:
109,192,64073,1,0,0:0:0:0:
182,192,64073,1,0,0:0:0:0:
475,192,64379,1,4,0:0:0:0:
402,192,64379,1,2,0:0:0:0:
256,192,64379,1,0,0:0:0:0:
36,192,64379,1,0,0:0:0:0:
329,192,64685,1,8,0:0:0:0:
182,192,64685,1,0,0:0:0:0:
256,192,64838,1,4,0:0:0:0:
36,192,64838,1,2,0:0:0:0:
109,192,64838,1,0,0:0:0:0:
475,192,64838,1,0,0:0:0:0:
402,192,65144,1,0,0:0:0:0:
256,192,65297,1,8,0:0:0:0:
182,192,65297,1,0,0:0:0:0:
475,192,65450,1,4,0:0:0:0:
329,192,65450,1,2,0:0:0:0:
109,192,65450,1,0,0:0:0:0:
36,192,65450,1,0,0:0:0:0:
402,192,65757,1,2,0:0:0:0:
182,192,65757,1,0,0:0:0:0:
475,192,65910,1,8,0:0:0:0:
256,192,65910,1,0,0:0:0:0:
36,192,65910,1,0,0:0:0:0:
329,192,66063,1,2,0:0:0:0:
109,192,66063,1,0,0:0:0:0:
182,192,66216,1,8,0:0:0:0:
475,192,66216,1,0,0:0:0:0:
402,192,66216,1,0,0:0:0:0:
329,192,66292,1,8,0:0:0:0:
109,192,66292,1,0,0:0:0:0:
256,192,66369,1,2,0:0:0:0:
36,192,66369,1,0,0:0:0:0:
475,192,66522,1,8,0:0:0:0:
329,192,66522,1,0,0:0:0:0:
182,192,66522,1,0,0:0:0:0:
256,192,66675,1,2,0:0:0:0:
109,192,66675,1,4,0:0:0:0:
402,192,66675,1,0,0:0:0:0:
36,192,66675,1,0,0:0:0:0:
329,192,66981,1,2,0:0:0:0:
182,192,66981,1,0,0:0:0:0:
109,192,67134,1,8,0:0:0:0:
36,192,67134,1,0,0:0:0:0:
402,192,67134,1,0,0:0:0:0:
329,192,67440,1,2,0:0:0:0:
256,192,67440,1,0,0:0:0:0:
182,192,67593,1,2,0:0:0:0:
109,192,67593,1,0,0:0:0:0:
475,192,67746,1,8,0:0:0:0:
402,192,67746,1,0,0:0:0:0:
36,192,67746,1,0,0:0:0:0:
329,192,67899,1,4,0:0:0:0:
256,192,67899,1,2,0:0:0:0:
182,192,67899,1,0,0:0:0:0:
109,192,67899,1,0,0:0:0:0:
402,192,68206,1,2,0:0:0:0:
475,192,68206,1,0,0:0:0:0:
256,192,68359,1,8,0:0:0:0:
36,192,68359,1,0,0:0:0:0:
109,192,68359,1,0,0:0:0:0:
329,192,68665,1,2,0:0:0:0:
402,192,68665,1,0,0:0:0:0:
36,192,68818,1,2,0:0:0:0:
109,192,68818,1,0,0:0:0:0:
256,192,68894,1,2,0:0:0:0:
182,192,68894,1,0,0:0:0:0:
475,192,68971,1,8,0:0:0:0:
402,192,68971,1,0,0:0:0:0:
329,192,68971,1,0,0:0:0:0:
256,192,69277,1,8,0:0:0:0:
36,192,69277,1,4,0:0:0:0:
475,192,69277,1,0,0:0:0:0:
109,192,69277,1,0,0:0:0:0:
182,192,69430,1,2,0:0:0:0:
329,192,69430,1,0,0:0:0:0:
109,192,69583,1,8,0:0:0:0:
475,192,69583,1,0,0:0:0:0:
402,192,69583,1,0,0:0:0:0:
256,192,69736,1,2,0:0:0:0:
36,192,69736,1,0,0:0:0:0:
402,192,69889,1,8,0:0:0:0:
329,192,69889,1,0,0:0:0:0:
475,192,69889,1,0,0:0:0:0:
109,192,69966,1,8,0:0:0:0:
182,192,69966,1,0,0:0:0:0:
475,192,70042,1,2,0:0:0:0:
402,192,70042,1,0,0:0:0:0:
256,192,70195,1,8,0:0:0:0:
109,192,70195,1,0,0:0:0:0:
36,192,70195,1,0,0:0:0:0:
182,192,70348,1,4,0:0:0:0:
329,192,70348,1,2,0:0:0:0:
402,192,70348,1,0,0:0:0:0:
475,192,70348,1,0,0:0:0:0:
475,192,70654,1,8,0:0:0:0:
256,192,70654,1,0,0:0:0:0:
36,192,70654,1,0,0:0:0:0:
475,192,70808,1,8,0:0:0:0:
256,192,70808,1,0,0:0:0:0:
36,192,70808,1,0,0:0:0:0:
36,192,70961,1,8,0:0:0:0:
256,192,70961,1,0,0:0:0:0:
475,192,70961,1,0,0:0:0:0:
182,192,71114,1,8,0:0:0:0:
109,192,71114,1,0,0:0:0:0:
329,192,71190,1,8,0:0:0:0:
402,192,71190,1,0,0:0:0:0:
182,192,71267,1,8,0:0:0:0:
109,192,71267,1,0,0:0:0:0:
329,192,71343,1,8,0:0:0:0:
402,192,71343,1,0,0:0:0:0:
182,192,71420,1,8,0:0:0:0:
109,192,71420,1,0,0:0:0:0:
329,192,71496,1,8,0:0:0:0:
402,192,71496,1,0,0:0:0:0:
182,192,71573,1,8,0:0:0:0:
109,192,71573,1,0,0:0:0:0:
329,192,71649,1,8,0:0:0:0:
402,192,71649,1,0,0:0:0:0:
475,192,71726,1,4,0:0:0:0:
109,192,71726,1,2,0:0:0:0:
256,192,71726,1,0,0:0:0:0:
36,192,71726,1,0,0:0:0:0:
329,192,71879,1,0,0:0:0:0:
182,192,72032,1,8,0:0:0:0:
475,192,72032,1,0,0:0:0:0:
36,192,72032,1,0,0:0:0:0:
256,192,72185,1,0,0:0:0:0:
329,192,72338,1,2,0:0:0:0:
109,192,72338,1,0,0:0:0:0:
182,192,72491,1,2,0:0:0:0:
402,192,72491,1,0,0:0:0:0:
475,192,72644,1,8,0:0:0:0:
256,192,72644,1,0,0:0:0:0:
36,192,72644,1,0,0:0:0:0:
329,192,72797,1,0,0:0:0:0:
182,192,72950,1,2,0:0:0:0:
402,192,72950,1,0,0:0:0:0:
256,192,73103,1,2,0:0:0:0:
36,192,73103,1,0,0:0:0:0:
109,192,73257,1,8,0:0:0:0:
475,192,73257,1,0,0:0:0:0:
329,192,73257,1,0,0:0:0:0:
402,192,73410,1,2,0:0:0:0:
182,192,73410,1,0,0:0:0:0:
256,192,73563,1,0,0:0:0:0:
329,192,73716,1,2,0:0:0:0:
109,192,73716,1,0,0:0:0:0:
182,192,73869,1,8,0:0:0:0:
475,192,73869,1,0,0:0:0:0:
402,192,73869,1,0,0:0:0:0:
256,192,74022,1,0,0:0:0:0:
36,192,74175,1,2,0:0:0:0:
109,192,74175,1,0,0:0:0:0:
329,192,74328,1,0,0:0:0:0:
475,192,74481,1,8,0:0:0:0:
402,192,74481,1,0,0:0:0:0:
182,192,74481,1,0,0:0:0:0:
256,192,74634,1,2,0:0:0:0:
36,192,74634,1,0,0:0:0:0:
329,192,74787,1,0,0:0:0:0:
402,192,74940,1,2,0:0:0:0:
109,192,74940,1,0,0:0:0:0:
182,192,75093,1,8,0:0:0:0:
256,192,75093,1,0,0:0:0:0:
475,192,75093,1,0,0:0:0:0:
329,192,75246,1,0,0:0:0:0:
109,192,75399,1,2,0:0:0:0:
36,192,75399,1,0,0:0:0:0:
402,192,75552,1,2,0:0:0:0:
475,192,75552,1,0,0:0:0:0:
329,192,75706,1,8,0:0:0:0:
182,192,75706,1,0,0:0:0:0:
256,192,75706,1,0,0:0:0:0:
109,192,75859,1,2,0:0:0:0:
36,192,75859,1,0,0:0:0:0:
475,192,76012,1,0,0:0:0:0:
329,192,76165,1,2,0:0:0:0:
256,192,76165,1,0,0:0:0:0:
182,192,76318,1,8,0:0:0:0:
402,192,76318,1,0,0:0:0:0:
109,192,76318,1,0,0:0:0:0:
329,192,76471,1,0,0:0:0:0:
36,192,76624,1,2,0:0:0:0:
256,192,76624,1,4,0:0:0:0:
475,192,76624,1,0,0:0:0:0:
182,192,76624,1,0,0:0:0:0:
402,192,76777,1,0,0:0:0:0:
109,192,76930,1,8,0:0:0:0:
36,192,76930,1,0,0:0:0:0:
329,192,76930,1,0,0:0:0:0:
256,192,77083,1,0,0:0:0:0:
182,192,77236,1,2,0:0:0:0:
402,192,77236,1,0,0:0:0:0:
329,192,77389,1,2,0:0:0:0:
109,192,77389,1,0,0:0:0:0:
36,192,77542,1,8,0:0:0:0:
256,192,77542,1,0,0:0:0:0:
475,192,77542,1,0,0:0:0:0:
182,192,77695,1,0,0:0:0:0:
329,192,77848,1,2,0:0:0:0:
109,192,77848,1,0,0:0:0:0:
256,192,78001,1,2,0:0:0:0:
475,192,78001,1,0,0:0:0:0:
402,192,78154,1,8,0:0:0:0:
36,192,78154,1,0,0:0:0:0:
182,192,78154,1,0,0:0:0:0:
109,192,78308,1,2,0:0:0:0:
329,192,78308,1,0,0:0:0:0:
256,192,78461,1,0,0:0:0:0:
182,192,78614,1,2,0:0:0:0:
402,192,78614,1,0,0:0:0:0:
329,192,78767,1,8,0:0:0:0:
36,192,78767,1,0,0:0:0:0:
109,192,78767,1,0,0:0:0:0:
256,192,78920,1,0,0:0:0:0:
475,192,79073,1,4,0:0:0:0:
402,192,79073,1,2,0:0:0:0:
329,192,79073,1,0,0:0:0:0:
182,192,79073,1,0,0:0:0:0:
256,192,79226,1,0,0:0:0:0:
36,192,79379,1,8,0:0:0:0:
109,192,79379,1,0,0:0:0:0:
182,192,79379,1,0,0:0:0:0:
256,192,79532,1,4,0:0:0:0:
475,192,79532,1,2,0:0:0:0:
329,192,79532,1,0,0:0:0:0:
402,192,79532,1,0,0:0:0:0:
182,192,79685,1,0,0:0:0:0:
109,192,79838,1,2,0:0:0:0:
402,192,79838,1,0,0:0:0:0:
329,192,79991,1,8,0:0:0:0:
256,192,79991,1,0,0:0:0:0:
36,192,79991,1,0,0:0:0:0:
182,192,80144,1,4,0:0:0:0:
109,192,80144,1,2,0:0:0:0:
475,192,80144,1,0,0:0:0:0:
402,192,80144,1,0,0:0:0:0:
109,192,80450,1,2,0:0:0:0:
36,192,80450,1,0,0:0:0:0:
182,192,80603,1,8,0:0:0:0:
329,192,80603,1,0,0:0:0:0:
256,192,80603,1,0,0:0:0:0:
402,192,80757,1,2,0:0:0:0:
475,192,80757,1,0,0:0:0:0:
109,192,80833,1,2,0:0:0:0:
36,192,80833,1,0,0:0:0:0:
475,192,80910,1,8,0:0:0:0:
402,192,80910,1,0,0:0:0:0:
329,192,80910,1,0,0:0:0:0:
109,192,81063,1,2,0:0:0:0:
182,192,81063,1,0,0:0:0:0:
329,192,81139,1,2,0:0:0:0:
402,192,81139,1,0,0:0:0:0:
182,192,81216,1,8,0:0:0:0:
109,192,81216,1,0,0:0:0:0:
36,192,81216,1,0,0:0:0:0:
475,192,81522,1,4,0:0:0:0:
36,192,81522,1,2,0:0:0:0:
329,192,81522,1,0,0:0:0:0:
182,192,81522,1,0,0:0:0:0:
475,192,81981,1,2,0:0:0:0:
402,192,81981,1,0,0:0:0:0:
36,192,82058,1,2,0:0:0:0:
109,192,82058,1,0,0:0:0:0:
256,192,82134,1,8,0:0:0:0:
475,192,82134,1,0,0:0:0:0:
402,192,82134,1,0,0:0:0:0:
329,192,82287,1,2,0:0:0:0:
182,192,82287,1,0,0:0:0:0:
109,192,82440,1,2,0:0:0:0:
36,192,82440,1,0,0:0:0:0:
475,192,82593,1,4,0:0:0:0:
256,192,82593,1,2,0:0:0:0:
402,192,82593,1,0,0:0:0:0:
182,192,82593,1,0,0:0:0:0:
182,192,83052,1,0,0:0:0:0:
475,192,83206,1,2,0:0:0:0:
402,192,83206,1,0,0:0:0:0:
256,192,83359,1,8,0:0:0:0:
109,192,83359,1,0,0:0:0:0:
36,192,83359,1,0,0:0:0:0:
329,192,83512,1,2,0:0:0:0:
182,192,83512,1,0,0:0:0:0:
475,192,83665,1,2,0:0:0:0:
402,192,83665,1,0,0:0:0:0:
36,192,83818,1,4,0:0:0:0:
256,192,83818,1,2,0:0:0:0:
109,192,83818,1,0,0:0:0:0:
329,192,83818,1,0,0:0:0:0:
256,192,84277,1,0,0:0:0:0:
475,192,84430,1,2,0:0:0:0:
402,192,84430,1,0,0:0:0:0:
36,192,84507,1,2,0:0:0:0:
109,192,84507,1,0,0:0:0:0:
475,192,84583,1,8,0:0:0:0:
329,192,84583,1,0,0:0:0:0:
402,192,84583,1,0,0:0:0:0:
256,192,84736,1,2,0:0:0:0:
182,192,84736,1,0,0:0:0:0:
475,192,84889,1,2,0:0:0:0:
36,192,84889,1,0,0:0:0:0:
402,192,85042,1,4,0:0:0:0:
256,192,85042,1,2,0:0:0:0:
109,192,85042,1,0,0:0:0:0:
329,192,85042,1,0,0:0:0:0:
402,192,85348,1,8,0:0:0:0:
475,192,85348,1,0,0:0:0:0:
182,192,85348,1,0,0:0:0:0:
182,192,85501,1,8,0:0:0:0:
475,192,85501,1,0,0:0:0:0:
402,192,85501,1,0,0:0:0:0:
109,192,85654,1,8,0:0:0:0:
329,192,85654,1,0,0:0:0:0:
36,192,85654,1,0,0:0:0:0:
329,192,85808,1,8,0:0:0:0:
36,192,85808,1,0,0:0:0:0:
109,192,85808,1,0,0:0:0:0:
475,192,85961,1,2,0:0:0:0:
182,192,85961,1,0,0:0:0:0:
109,192,86114,1,2,0:0:0:0:
402,192,86114,1,0,0:0:0:0:
329,192,86267,1,2,0:0:0:0:
36,192,86267,1,0,0:0:0:0:
475,192,86420,1,2,0:0:0:0:
182,192,86420,1,4,0:0:0:0:
402,192,86420,1,0,0:0:0:0:
109,192,86420,1,0,0:0:0:0:
256,192,86420,1,0,0:0:0:0:
