osu file format v14

[General]
AudioFilename: audio.mp3
AudioLeadIn: 0
PreviewTime: 100625
Countdown: 0
SampleSet: Soft
StackLeniency: 0.7
Mode: 0
LetterboxInBreaks: 0
WidescreenStoryboard: 1

[Editor]
DistanceSpacing: 0.8
BeatDivisor: 4
GridSize: 32
TimelineZoom: 2.3

[Metadata]
Title:A song for You! You? You!!
TitleUnicode:A song for You! You? You!!
Artist:u's
ArtistUnicode:μ's
Creator:Bokamin
Version:New courage! New song!!
Source:ラブライブ! School idol project
Tags:live! lovelive! anime japanese pop j-pop jpop スクールアイドルフェスティバル school idol festival 高坂穂乃果 honoka kousaka 新田恵海 emi nitta 絢瀬絵里 eli ayase 南條愛乃 yoshino nanjou 南ことり kotori minami 内田彩 aya uchida 園田海未 umi sonoda 三森すずこ suzuko mimori 星空凛 rin hoshizora 飯田里穂 riho iida 西木野真姫 maki nishikino 堀絵梨子 eriko hori pile 東條希 nozomi toujou 楠田亜衣奈 aina kusuda 小泉花陽 hanayo koizumi 久保ユリカ yurika kubo 矢澤にこ nico yazawa 徳井青空 sora tokui 畑亜貴 aki hata 山田高弘 takahiro yamada
BeatmapID:4049111
BeatmapSetID:1936120

[Difficulty]
HPDrainRate:6
CircleSize:4
OverallDifficulty:9
ApproachRate:9.7
SliderMultiplier:1.8
SliderTickRate:1

[Events]
//Background and Video events
0,0,"love BG.jpg",0,0
//Break Periods
2,267814,274123
//Storyboard Layer 0 (Background)
//Storyboard Layer 1 (Fail)
//Storyboard Layer 2 (Pass)
//Storyboard Layer 3 (Foreground)
//Storyboard Layer 4 (Overlay)
//Storyboard Sound Samples

[TimingPoints]
1012,283.018867924528,4,2,1,30,1,0
1012,-500.000000000005,4,2,1,30,0,0
1578,283.018867924528,4,2,1,30,1,0
1578,-250.000000000001,4,2,1,30,0,0
2427,314.13612565445,4,2,1,30,1,0
2741,251.046025104603,4,2,1,30,1,0
2741,-250,4,2,1,30,0,0
2992,272.727272727273,4,2,1,30,1,0
3838,283.018867924528,4,2,1,30,1,0
3838,-250,4,2,1,30,0,0
4687,303.030303030303,4,2,1,30,1,0
4990,264.31718061674,4,2,1,30,1,0
5254,283.018867924528,4,2,1,30,1,0
6115,272.727272727273,4,2,1,30,1,0
6115,-250,4,2,1,30,0,0
6524,283.018867924528,4,2,1,30,1,0
7231,272.727272727273,4,2,1,30,1,0
7231,-250,4,2,1,30,0,0
8371,283.018867924528,4,2,1,30,1,0
8371,-250.000000000001,4,2,1,20,0,0
8937,-250.000000000001,4,2,1,25,0,0
9503,-250.000000000001,4,2,1,30,0,0
10069,-250.000000000001,4,2,1,35,0,0
10626,283.018867924528,4,2,1,45,1,0
10626,-250.000000000001,4,2,1,45,0,0
20814,-250.000000000001,4,2,1,20,0,0
21380,-250.000000000001,4,2,1,70,0,0
21663,-250.000000000001,4,2,1,80,0,0
21946,-100,4,2,1,80,0,0
29870,-83.3333333333333,4,2,1,80,0,0
31286,-100,4,2,1,80,0,0
40342,-100,4,2,1,60,0,0
40767,-166.666666666667,4,2,1,60,0,0
41333,-166.666666666667,4,2,1,55,0,0
42182,-166.666666666667,4,2,1,50,0,0
43597,-100,4,2,1,80,0,0
43880,-166.666666666667,4,2,1,80,0,0
44304,-166.666666666667,4,2,1,50,0,0
44587,-125,4,2,1,60,0,0
54493,-125,4,2,1,80,0,0
54776,-111.111111111111,4,2,1,80,0,0
55908,-125,4,2,1,60,0,0
56757,-125,4,2,1,80,0,0
57040,-111.111111111111,4,2,1,80,0,0
58172,-125,4,2,1,60,0,0
60578,-83.3333333333333,4,2,1,80,0,0
62701,-111.111111111111,4,2,1,70,0,0
72606,-111.111111111111,4,2,1,85,0,0
72889,-99.9999999999999,4,2,1,85,0,0
74021,-111.111111111111,4,2,1,70,0,0
74870,-111.111111111111,4,2,1,85,0,0
75153,-99.9999999999999,4,2,1,85,0,0
76286,-111.111111111111,4,2,1,70,0,0
79116,-142.857142857143,4,2,1,60,0,0
79399,-200,4,2,1,50,0,0
80248,-333.333333333333,4,2,1,50,0,0
80814,-200,4,2,1,70,0,0
80885,-200,4,2,1,50,0,0
88738,-142.857142857143,4,2,1,70,0,0
89021,-142.857142857143,4,2,1,60,0,0
89446,-142.857142857143,4,2,1,55,0,0
89587,-142.857142857143,4,2,1,50,0,0
89729,-142.857142857143,4,2,1,45,0,0
89870,-142.857142857143,4,2,1,40,0,0
90295,-142.857142857143,4,2,1,45,0,0
90578,-142.857142857143,4,2,1,50,0,0
90861,-111.111111111111,4,2,1,65,0,0
91144,-111.111111111111,4,2,1,70,0,0
91427,-111.111111111111,4,2,1,75,0,0
91710,-111.111111111111,4,2,1,70,0,0
91852,-111.111111111111,4,2,1,65,0,0
91993,-111.111111111111,4,2,1,60,0,0
92418,-111.111111111111,4,2,1,50,0,0
93125,-90.9090909090908,4,2,1,70,0,0
93550,-90.9090909090908,4,2,1,80,0,0
94257,-100,4,2,1,65,0,0
95248,-100,4,2,1,85,0,0
95389,-100,4,2,1,70,0,0
96380,-100,4,2,1,85,0,0
96451,-100,4,2,1,58,0,0
96521,-100,4,2,1,56,0,0
96592,-100,4,2,1,54,0,0
96663,-100,4,2,1,52,0,0
96946,-100,4,2,1,50,0,0
97229,-100,4,2,1,55,0,0
97512,-100,4,2,1,60,0,0
97795,-100,4,2,1,70,0,0
98078,-100,4,2,1,75,0,0
98361,-100,4,2,1,80,0,0
98644,-100,4,2,1,85,0,0
99069,-83.3333333333333,4,2,1,90,0,0
100625,-83.3333333333333,4,2,1,60,0,0
101191,-90.9090909090909,4,2,1,90,0,0
108833,-200,4,2,1,90,0,0
109116,-83.3333333333333,4,2,1,90,0,0
109823,-90.9090909090909,4,2,1,90,0,0
117889,-200,4,2,1,90,0,0
118172,-83.3333333333333,4,2,1,90,0,0
119304,-100,4,2,1,80,0,0
123833,-100,4,2,1,90,0,0
127512,-100,4,2,1,80,0,0
127795,-100,4,2,1,70,0,0
128078,-100,4,2,1,90,0,0
130484,-100,4,2,1,30,0,0
131616,-100,4,2,1,40,0,0
131899,-166.666666666667,4,2,1,50,0,0
132323,-100,4,2,1,70,0,0
132606,-83.3333333333333,4,2,1,80,0,0
132889,-100,4,2,1,80,0,0
140814,-83.3333333333333,4,2,1,80,0,0
142229,-100,4,2,1,80,0,0
151710,-166.666666666667,4,2,1,70,0,0
152276,-166.666666666667,4,2,1,60,0,0
152842,-250.000000000001,4,2,1,50,0,0
153833,-166.666666666667,4,2,1,50,0,0
154540,-100,4,2,1,80,0,0
154823,-166.666666666667,4,2,1,80,0,0
155248,-166.666666666667,4,2,1,60,0,0
155531,-111.111111111111,4,2,1,70,0,0
165436,-111.111111111111,4,2,1,85,0,0
165720,-99.9999999999999,4,2,1,85,0,0
166851,-111.111111111111,4,2,1,70,0,0
167701,-111.111111111111,4,2,1,85,0,0
167984,-100,4,2,1,85,0,0
169116,-111.111111111111,4,2,1,70,0,0
171380,-166.666666666667,4,2,1,60,0,0
171804,-100,4,2,1,70,0,0
172229,-125,4,2,1,55,0,0
172936,-125,4,2,1,60,0,0
173220,-125,4,2,1,55,0,0
173503,-125,4,2,1,50,0,0
173644,-166.666666666667,4,2,1,60,0,0
173715,-166.666666666667,4,2,1,50,0,0
181569,-166.666666666667,4,2,1,70,0,0
181852,-166.666666666667,4,2,1,60,0,0
182135,-166.666666666667,4,2,1,55,0,0
182418,-166.666666666667,4,2,1,50,0,0
182701,-166.666666666667,4,2,1,50,0,0
182842,-166.666666666667,4,2,1,45,0,0
184965,-166.666666666667,4,2,1,50,0,0
185955,-111.111111111111,4,2,1,70,0,0
186380,-100,4,2,1,80,0,0
187370,-100,4,2,1,50,0,0
187512,-166.666666666667,4,2,1,50,0,0
187795,-166.666666666667,4,2,1,55,0,0
188078,-166.666666666667,4,2,1,60,0,0
188361,-125,4,2,1,70,0,0
188644,-125,4,2,1,75,0,0
188927,-125,4,2,1,80,0,0
189210,-125,4,2,1,85,0,0
189493,-111.111111111111,4,2,1,70,0,0
189776,-100,4,2,1,50,0,0
190059,-100,4,2,1,55,0,0
190342,-100,4,2,1,60,0,0
190625,-100,4,2,1,70,0,0
190908,-100,4,2,1,75,0,0
191191,-100,4,2,1,80,0,0
191474,-100,4,2,1,85,0,0
191757,-83.3333333333333,4,2,1,90,0,0
193455,-83.3333333333333,4,2,1,60,0,0
194021,-90.9090909090909,4,2,1,90,0,0
201663,-200,4,2,1,90,0,0
201946,-83.3333333333333,4,2,1,90,0,0
202653,-90.9090909090909,4,2,1,90,0,0
210720,-200,4,2,1,90,0,0
211003,-83.3333333333333,4,2,1,90,0,0
212135,-100,4,2,1,80,0,0
216663,-100,4,2,1,90,0,0
220342,-100,4,2,1,80,0,0
220625,-100,4,2,1,70,0,0
220908,-100,4,2,1,90,0,0
223172,-100,4,2,1,30,0,0
224304,-100,4,2,1,50,0,0
224729,-100,4,2,1,60,0,0
225153,-100,4,2,1,70,0,0
225578,-142.857142857143,4,2,1,70,0,0
225649,-142.857142857143,4,2,1,50,0,0
226286,-142.857142857143,4,2,1,55,0,0
226852,-142.857142857143,4,2,1,60,0,0
227559,-111.111111111111,4,2,1,70,0,0
230106,-142.857142857143,4,2,1,70,0,0
230389,-142.857142857143,4,2,1,60,0,0
234635,-142.857142857143,4,2,1,70,0,0
234918,-142.857142857143,4,2,1,60,0,0
238738,-142.857142857143,4,2,1,65,0,0
238880,-142.857142857143,4,2,1,60,0,0
239021,-142.857142857143,4,2,1,55,0,0
239163,-142.857142857143,4,2,1,70,0,0
239446,-142.857142857143,4,2,1,60,0,0
239870,-142.857142857143,4,2,1,65,0,0
240295,-142.857142857143,4,2,1,65,0,0
240578,-142.857142857143,4,2,1,50,0,0
241003,-142.857142857143,4,2,1,65,0,0
241427,-100,4,2,1,70,0,0
241710,-100,4,2,1,60,0,0
241993,-100,4,2,1,70,0,0
242276,-100,4,2,1,60,0,0
242418,-100,4,2,1,55,0,0
242559,-100,4,2,1,65,0,0
242842,-100,4,2,1,55,0,0
243125,-125,4,2,1,60,0,0
243408,-125,4,2,1,50,0,0
243691,-166.666666666667,4,2,1,60,0,0
243974,-166.666666666667,4,2,1,70,0,0
244682,295.566502463054,4,2,1,70,1,0
244977,283.018867924528,4,2,1,70,1,0
245277,272.727272727272,4,2,1,75,1,0
245413,295.566502463054,4,2,1,75,1,0
245560,303.030303030303,4,2,1,80,1,0
245711,253.164556962025,4,2,1,80,1,0
245837,297.029702970297,4,2,1,80,1,0
245985,270.27027027027,4,2,1,90,1,0
245985,-90.9090909090909,4,2,1,90,0,0
246255,266.666666666667,4,2,1,90,1,0
246388,283.018867924528,4,2,1,90,1,0
246388,-90.9090909090909,4,2,1,90,0,0
247237,283.018867924528,4,2,1,90,1,0
247237,-90.9090909090909,4,2,1,90,0,0
254737,-83.3333333333333,4,2,1,85,0,0
255020,-90.9090909090909,4,2,1,85,0,0
262237,-90.9090909090909,4,2,1,70,0,0
262520,-90.9090909090909,4,2,1,80,0,0
262803,-90.9090909090909,4,2,1,85,0,0
263086,-90.9090909090909,4,2,1,90,0,0
263369,-90.9090909090909,4,2,1,70,0,0
263652,-90.9090909090909,4,2,1,60,0,0
263793,-90.9090909090909,4,2,1,70,0,0
263935,-90.9090909090909,4,2,1,90,0,0
264218,-125,4,2,1,90,0,0
266199,-125,4,2,1,50,0,0
266482,-333.333333333334,4,2,1,50,0,0
274972,-250.000000000001,4,2,1,50,0,0
275538,-166.666666666667,4,2,1,50,0,0
282331,-166.666666666667,4,2,1,30,0,0
282897,-166.666666666667,4,2,1,35,0,0
283463,-166.666666666667,4,2,1,40,0,0
284029,-166.666666666667,4,2,1,45,0,0
284595,-200,4,2,1,50,0,0
284666,-200,4,2,1,30,0,0
284878,-200,4,2,1,40,0,0
284949,-200,4,2,1,45,0,0
285020,-200,4,2,1,50,0,0
285090,-200,4,2,1,55,0,0
285161,-200,4,2,1,60,0,0
285232,-200,4,2,1,65,0,0
285303,-200,4,2,1,70,0,0
285373,-200,4,2,1,75,0,0
285444,-200,4,2,1,80,0,0
285515,-200,4,2,1,85,0,0
285586,-200,4,2,1,90,0,0
285727,-166.666666666667,4,2,1,5,0,0
286293,-166.666666666667,4,2,1,70,0,0
286859,-83.3333333333334,4,2,1,90,0,0
287708,-71.4285714285714,4,2,1,90,0,0
287991,-71.4285714285714,4,2,1,90,0,0
288840,-55.5555555555556,4,2,1,80,0,0
288982,-76.9230769230769,4,2,1,70,0,0
289123,-250.000000000001,4,2,1,60,0,0
289406,-83.3333333333333,4,2,1,90,0,0
290255,-71.4285714285714,4,2,1,90,0,0
291388,-90.9090909090909,4,2,1,90,0,0
293086,-125,4,2,1,90,0,0
293369,-142.857142857143,4,2,1,90,0,0
293510,-200,4,2,1,40,0,0
293652,-200,4,2,1,50,0,0
293793,-200,4,2,1,55,0,0
293935,-90.9090909090909,4,2,1,65,0,0
294076,-90.9090909090909,4,2,1,70,0,0
294218,-90.9090909090909,4,2,1,75,0,0
294359,-90.9090909090909,4,2,1,80,0,0
294501,-90.9090909090909,4,2,1,85,0,0
294642,-90.9090909090909,4,2,1,90,0,0
294784,-71.4285714285714,4,2,1,95,0,0
295491,-71.4285714285714,4,2,1,60,0,0
295562,-71.4285714285714,4,2,1,65,0,0
295633,-71.4285714285714,4,2,1,70,0,0
295704,-71.4285714285714,4,2,1,75,0,0
295774,-71.4285714285714,4,2,1,80,0,0
295845,-71.4285714285714,4,2,1,85,0,0
295916,-83.3333333333333,4,2,1,95,0,0
303557,-142.857142857143,4,2,1,95,0,0
303840,-76.9230769230769,4,2,1,95,0,0
304972,-83.3333333333333,4,2,1,85,0,0
305538,-90.9090909090909,4,2,1,85,0,0
309501,-90.9090909090909,4,2,1,95,0,0
312189,-83.3333333333333,4,2,1,95,0,0
313180,-83.3333333333333,4,2,1,85,0,0
313463,-83.3333333333333,4,2,1,75,0,0
313746,-83.3333333333333,4,2,1,95,0,0
316152,-83.3333333333333,4,2,1,30,0,0
317284,-83.3333333333333,4,2,1,40,0,0
317567,-100,4,2,1,50,0,0
317991,-83.3333333333333,4,2,1,70,0,0
318274,-83.3333333333333,4,2,1,80,0,0
318557,-90.9090909090909,4,2,1,80,0,0
326482,-80,4,2,1,80,0,0
327897,-90.9090909090909,4,2,1,80,0,0
336671,-83.3333333333333,4,2,1,85,0,0
337803,-83.3333333333333,4,2,1,90,0,0
338935,-83.3333333333333,4,2,1,95,0,0
341199,-83.3333333333333,4,2,1,70,0,0
342331,-83.3333333333333,4,2,1,60,0,0
343463,-83.3333333333333,4,2,1,50,0,0
344029,-83.3333333333333,4,2,1,45,0,0
344595,-83.3333333333333,4,2,1,40,0,0
345161,-83.3333333333333,4,2,1,35,0,0
345444,-83.3333333333333,4,2,1,30,0,0
345727,-83.3333333333333,4,2,1,5,0,0

[Colours]
Combo1 : 255,222,68
Combo2 : 102,255,102
Combo3 : 98,169,255

[HitObjects]
449,277,1012,6,0,P|457:252|465:240,1,36,2|2,0:2|0:2,0:2:0:0:
354,344,1578,5,2,0:0:0:0:
365,348,1648,2,0,P|352:300|334:260,1,90,2|2,0:2|0:2,0:2:0:0:
326,149,2427,1,2,0:0:0:0:
154,230,2741,2,0,P|143:270|128:309,1,72,2|2,0:2|0:2,0:2:0:0:
233,288,3128,1,2,0:2:0:0:
130,41,3838,6,0,P|84:16|20:-3,2,108,2|2|2,0:2|0:2|0:2,0:2:0:0:
223,29,4990,1,2,0:2:0:0:
88,168,5254,1,2,0:2:0:0:
163,229,5395,1,2,0:2:0:0:
308,83,6115,5,2,0:2:0:0:
324,86,6183,2,0,B|368:68|355:52|402:39,1,90,2|2,0:2|0:2,0:2:0:0:
512,112,6948,1,2,0:2:0:0:
384,217,7231,2,0,P|397:242|407:288,1,72,2|2,0:2|0:2,0:2:0:0:
492,335,7640,1,2,0:2:0:0:
256,192,8371,12,0,10626,0:0:0:0:
80,384,11050,6,0,P|82:350|94:314,1,72,2|0,0:2|0:2,0:2:0:0:
169,263,11474,1,2,0:2:0:0:
12,153,11757,1,2,0:2:0:0:
5,251,12040,1,2,0:2:0:0:
5,251,12182,2,0,B|76:239|61:192|137:178,1,144,2|0,0:2|0:2,0:2:0:0:
293,252,12889,6,0,P|277:205|262:143,2,108,2|2|2,0:2|0:2|0:2,0:2:0:0:
259,348,14021,1,2,0:2:0:0:
396,260,14304,1,2,0:2:0:0:
396,260,14445,1,2,0:2:0:0:
205,66,15012,5,2,0:2:0:0:
205,66,15083,1,2,0:2:0:0:
205,66,15153,2,0,P|163:150|97:340,1,288,2|0,0:2|0:2,0:2:0:0:
26,231,16569,1,2,0:2:0:0:
248,167,16852,1,2,0:2:0:0:
392,368,17418,5,2,0:2:0:0:
256,192,17559,12,0,20814,0:2:0:0:
199,333,21380,5,2,0:2:0:0:
279,384,21521,1,2,0:2:0:0:
367,297,21663,1,2,0:0:0:0:
383,303,21734,1,2,0:0:0:0:
393,318,21804,1,2,0:0:0:0:
392,337,21875,1,2,0:0:0:0:
380,348,21946,6,0,B|283:328|341:260|203:247,1,180,6|8,1:2|0:2,0:2:0:0:
63,225,22370,1,0,1:0:0:0:
63,225,22441,1,0,1:0:0:0:
63,225,22512,1,0,1:2:0:0:
198,117,22653,1,0,1:2:0:0:
69,32,22795,2,0,P|26:41|0:77,1,90,10|2,0:2|0:2,0:2:0:0:
270,189,23078,6,0,P|241:103|214:4,1,180,0|8,1:2|0:2,0:2:0:0:
135,202,23503,1,0,1:2:0:0:
135,202,23573,1,0,1:2:0:0:
135,202,23644,1,2,1:2:0:0:
234,320,23786,1,0,1:2:0:0:
411,211,23927,2,0,L|493:253,1,90,10|0,0:2|0:2,0:2:0:0:
335,47,24210,6,0,P|380:12|458:37,1,135,2|0,1:2|0:2,0:2:0:0:
480,54,24493,2,0,P|458:110|448:165,1,90,10|0,0:2|0:2,0:2:0:0:
343,268,24776,1,2,1:2:0:0:
451,138,24918,1,0,1:2:0:0:
439,349,25059,1,10,0:2:0:0:
250,171,25201,1,2,0:2:0:0:
511,206,25342,6,0,P|437:229|331:273,1,180,0|8,1:2|0:2,0:2:0:0:
181,384,25767,1,0,1:2:0:0:
181,384,25837,1,0,1:2:0:0:
181,384,25908,1,2,1:2:0:0:
89,254,26050,1,2,1:2:0:0:
315,111,26191,1,10,0:2:0:0:
267,260,26333,1,2,1:2:0:0:
89,149,26474,6,0,P|115:93|148:-10,1,135,0|0,1:2|0:2,0:2:0:0:
184,0,26757,2,0,P|230:30|237:94,1,90,10|0,0:2|0:2,0:2:0:0:
96,245,27040,1,2,1:2:0:0:
10,147,27182,1,2,1:2:0:0:
221,267,27323,1,10,0:2:0:0:
66,371,27465,1,2,0:2:0:0:
225,147,27606,6,0,B|340:149|296:231|410:228,1,180,0|10,1:2|0:2,0:2:0:0:
486,109,28031,1,2,1:2:0:0:
486,109,28102,1,0,1:2:0:0:
486,109,28172,1,0,1:2:0:0:
390,350,28314,1,0,1:2:0:0:
367,113,28455,1,8,0:2:0:0:
501,220,28597,1,0,1:2:0:0:
501,220,28668,1,0,1:2:0:0:
501,220,28738,5,10,2:2:0:0:
229,347,28880,1,10,0:2:0:0:
297,217,29021,5,2,1:2:0:0:
383,383,29163,1,0,1:2:0:0:
383,383,29234,1,0,1:2:0:0:
383,383,29304,5,10,0:2:0:0:
117,253,29446,2,0,P|133:214|146:160,1,90,10|0,1:2|0:2,0:0:0:0:
322,69,29729,1,0,1:2:0:0:
506,338,29870,6,0,B|425:350|392:292|422:242|304:242,1,215.999993408203,12|0,0:2|1:2,0:2:0:0:
135,56,30295,2,0,P|151:112|166:183,1,107.999996704102,12|2,0:2|1:2,0:2:0:0:
264,354,30578,1,2,1:2:0:0:
111,279,30720,1,10,0:2:0:0:
266,155,30861,1,10,0:2:0:0:
12,288,31003,5,0,1:2:0:0:
23,298,31073,1,0,1:2:0:0:
33,313,31144,1,0,1:2:0:0:
36,330,31215,1,0,1:2:0:0:
90,378,31286,6,0,P|135:386|184:348,1,90,12|0,0:2|0:2,0:2:0:0:
345,205,31569,1,0,1:2:0:0:
196,277,31710,1,0,1:2:0:0:
358,384,31852,2,0,P|343:344|328:284,1,90,10|2,0:2|0:2,0:2:0:0:
162,187,32135,6,0,P|185:123|229:-6,1,180,0|8,1:2|0:2,0:2:0:0:
57,126,32559,1,0,1:2:0:0:
57,126,32630,1,0,1:2:0:0:
57,126,32701,1,2,1:2:0:0:
163,294,32842,1,0,1:2:0:0:
333,191,32984,2,0,P|382:211|439:225,1,90,10|0,0:2|0:2,0:2:0:0:
199,66,33267,6,0,B|301:46|249:4|384:-8,1,180,2|10,1:2|0:2,0:2:0:0:
493,22,33691,1,0,1:2:0:0:
493,22,33762,1,0,1:2:0:0:
493,22,33833,1,2,1:2:0:0:
318,114,33974,1,0,1:2:0:0:
511,260,34116,1,10,0:2:0:0:
281,364,34257,6,0,B|317:372|350:385|350:385|366:330|395:267,1,180,2|0,1:2|0:0,0:0:0:0:
204,192,34682,2,0,B|153:212|176:229|123:252,1,90,10|0,0:2|0:2,0:2:0:0:
73,145,34965,1,2,1:2:0:0:
246,277,35106,1,2,1:2:0:0:
328,57,35248,1,10,0:2:0:0:
204,192,35389,1,2,1:2:0:0:
28,0,35531,6,0,P|94:31|181:45,1,135,0|0,1:2|0:2,0:2:0:0:
189,34,35814,2,0,P|225:79|220:125,1,90,10|0,0:2|0:2,0:2:0:0:
3,239,36097,1,2,1:2:0:0:
126,131,36238,1,2,1:2:0:0:
235,326,36380,1,10,0:2:0:0:
104,222,36521,1,2,0:2:0:0:
297,243,36663,6,0,P|372:217|497:182,1,180,0|10,1:2|0:2,0:2:0:0:
291,131,37087,1,2,1:2:0:0:
291,131,37158,1,0,1:2:0:0:
291,131,37229,1,0,1:2:0:0:
386,360,37370,1,0,1:2:0:0:
203,296,37512,2,0,L|170:387,1,90,8|0,0:2|0:2,0:2:0:0:
0,132,37795,6,0,P|27:207|42:265,1,135,2|0,1:2|0:2,0:2:0:0:
77,285,38078,2,0,P|130:252|118:201,1,90,10|0,0:2|0:2,0:2:0:0:
45,42,38361,1,2,1:2:0:0:
203,103,38503,1,0,1:2:0:0:
395,0,38644,2,0,P|381:47|373:96,1,90,10|0,0:2|0:2,0:2:0:0:
290,322,38927,6,0,P|265:256|237:196,1,135,6|0,1:2|0:2,0:2:0:0:
265,153,39210,2,0,P|320:151|347:176,1,90,10|0,0:2|0:2,0:2:0:0:
390,384,39493,1,2,1:2:0:0:
203,332,39635,1,0,1:2:0:0:
428,245,39776,2,0,P|470:265|533:284,1,90,10|0,0:2|0:2,0:2:0:0:
434,96,40059,1,4,1:2:0:0:
434,96,40342,5,8,0:3:0:0:
294,230,40484,1,8,0:3:0:0:
294,230,40767,6,0,L|318:306,1,53.9999983520508,8|4,0:3|0:3,0:2:0:0:
188,199,41050,1,0,1:2:0:0:
188,199,41333,5,0,1:2:0:0:
130,281,41475,1,0,1:2:0:0:
36,256,41616,1,0,1:2:0:0:
165,383,41899,5,8,0:2:0:0:
165,383,42182,2,0,L|125:268,1,107.999996704102,4|0,0:2|1:2,0:2:0:0:
77,151,42606,1,8,0:2:0:0:
296,185,42889,2,0,P|311:142|321:115,1,53.9999983520508,8|0,0:2|0:2,0:2:0:0:
352,39,43172,1,0,1:2:0:0:
179,85,43314,1,8,0:2:0:0:
179,85,43597,6,0,L|165:23,1,45,8|0,0:2|0:2,0:2:0:0:
381,237,43738,6,0,L|400:187,1,45,8|0,0:2|0:2,0:2:0:0:
62,319,43880,6,0,L|28:202,1,107.999996704102,8|0,0:2|1:2,0:2:0:0:
125,165,44304,1,2,1:2:0:0:
125,165,44587,6,0,B|212:170|188:216|269:227,1,144,4|8,1:2|0:0,0:0:0:0:
353,266,45012,1,2,0:2:0:0:
292,384,45153,2,0,P|283:352|267:305,1,72,0|0,1:2|1:2,0:2:0:0:
443,326,45436,2,0,P|449:289|463:250,1,72,10|2,0:2|0:2,0:2:0:0:
321,166,45720,6,0,P|362:121|452:137,1,144,0|8,1:2|0:2,0:2:0:0:
399,205,46144,1,0,0:2:0:0:
244,147,46286,2,0,L|203:58,1,72,0|0,1:2|1:2,0:2:0:0:
354,87,46569,1,10,0:2:0:0:
294,243,46710,1,2,0:2:0:0:
484,181,46852,6,0,P|495:124|514:23,2,144,2|8|2,1:2|0:2|1:2,0:2:0:0:
512,286,47559,1,0,1:2:0:0:
433,358,47701,2,0,P|393:347|368:308,1,72,10|2,0:2|0:2,0:2:0:0:
225,247,47984,6,0,P|250:319|268:387,1,144,0|8,1:2|0:2,0:2:0:0:
337,207,48408,1,0,0:2:0:0:
168,172,48550,2,0,P|143:189|100:205,1,72,0|0,1:2|1:2,0:2:0:0:
0,346,48833,1,10,0:2:0:0:
140,373,48974,1,2,0:2:0:0:
4,217,49116,6,0,L|49:61,1,144,2|8,1:2|0:2,0:2:0:0:
112,1,49540,1,2,0:2:0:0:
158,129,49682,1,0,1:2:0:0:
158,129,49823,1,0,1:2:0:0:
269,43,49965,2,0,L|347:14,1,72,10|0,0:2|0:2,0:2:0:0:
331,192,50248,6,0,P|397:211|468:247,1,144,2|8,1:2|0:2,0:2:0:0:
512,144,50672,1,2,0:2:0:0:
393,87,50814,1,0,1:2:0:0:
393,87,50955,1,0,1:2:0:0:
510,1,51097,2,0,P|487:37|465:81,1,72,10|0,0:2|0:2,0:2:0:0:
311,178,51380,6,0,P|270:141|261:78,1,108,2|0,1:2|0:2,0:2:0:0:
226,70,51663,2,0,P|238:47|251:-1,1,72,10|0,0:2|0:2,0:2:0:0:
174,178,51946,1,2,1:2:0:0:
341,96,52087,1,0,1:2:0:0:
159,12,52229,2,0,L|86:41,1,72,10|0,0:2|0:2,0:2:0:0:
200,180,52512,5,2,1:2:0:0:
22,93,52653,1,0,1:2:0:0:
14,287,52795,1,8,0:2:0:0:
14,287,53078,5,2,1:2:0:0:
117,207,53220,1,2,1:2:0:0:
225,358,53361,1,10,0:2:0:0:
112,301,53503,1,2,1:2:0:0:
306,178,53644,6,0,L|465:243,1,144,6|8,1:2|0:2,0:2:0:0:
409,114,54069,1,0,1:2:0:0:
409,114,54139,1,0,1:2:0:0:
409,114,54210,1,2,1:2:0:0:
309,287,54352,1,2,1:2:0:0:
509,301,54493,1,10,0:2:0:0:
509,301,54776,6,2,P|490:339|473:388,1,80.9999975280763,10|0,2:2|0:2,0:1:0:0:
194,234,55059,6,2,P|209:268|226:315,1,80.9999975280763,10|0,0:2|1:2,0:1:0:0:
408,95,55342,6,2,P|379:164|347:262,1,161.999995056153,8|2,0:2|1:2,0:1:0:0:
199,96,55767,1,2,1:2:0:0:
289,2,55908,2,0,L|322:92,1,72,6|0,1:2|0:2,0:2:0:0:
88,29,56191,2,0,P|137:10|176:-16,1,72,10|0,0:2|0:2,0:2:0:0:
107,224,56474,1,2,1:2:0:0:
14,81,56616,1,2,1:2:0:0:
206,85,56757,1,10,0:2:0:0:
206,85,57040,6,2,P|239:108|276:128,1,80.9999975280763,10|0,2:2|0:2,0:1:0:0:
149,354,57323,6,2,P|185:336|232:323,1,80.9999975280763,10|0,0:2|1:2,0:1:0:0:
5,175,57606,6,2,P|65:195|130:214,1,121.499996292114,10|0,0:2|0:2,0:1:0:0:
148,238,57889,1,8,0:2:0:0:
37,308,58031,1,8,0:2:0:0:
108,107,58172,6,0,P|139:86|196:93,1,72,6|0,1:2|0:2,0:2:0:0:
292,206,58455,2,0,P|258:189|235:136,1,72,10|0,0:2|0:2,0:2:0:0:
238,5,58738,1,2,1:2:0:0:
313,119,58880,1,0,1:2:0:0:
433,42,59021,2,0,P|444:77|461:114,1,72,10|0,0:2|0:2,0:2:0:0:
361,313,59304,6,0,P|375:259|388:193,1,108,2|0,1:2|0:2,0:2:0:0:
417,188,59587,2,0,P|453:193|487:230,1,72,10|0,0:2|1:2,0:2:0:0:
460,344,59870,1,10,0:2:0:0:
303,248,60012,1,8,1:3:0:0:
293,220,60083,1,8,1:3:0:0:
284,192,60153,1,0,1:2:0:0:
275,164,60224,1,0,1:2:0:0:
265,136,60295,2,0,P|276:113|280:87,1,36,0|0,1:2|1:2,0:2:0:0:
342,46,60436,1,0,1:2:0:0:
167,197,60578,6,0,B|116:145|53:125|53:125|102:126|142:100,1,215.999993408203,8|0,0:2|1:2,0:2:0:0:
412,154,61003,2,0,B|463:206|526:226|526:226|477:225|437:251,1,215.999993408203,8|0,0:2|1:2,0:2:0:0:
258,315,61427,5,10,0:2:0:0:
325,11,61710,1,10,0:2:0:0:
258,315,61993,2,0,L|302:98,1,215.999993408203,14|8,0:2|0:2,0:2:0:0:
367,263,62418,1,10,0:2:0:0:
207,128,62559,1,8,0:2:0:0:
422,64,62701,6,0,P|477:94|486:178,1,121.499996292114,6|0,1:2|0:2,0:2:0:0:
508,184,62984,2,0,P|488:226|470:282,1,80.9999975280763,8|2,0:2|0:2,0:2:0:0:
269,217,63267,1,0,1:2:0:0:
406,153,63408,1,0,1:2:0:0:
322,321,63550,2,0,L|220:288,1,80.9999975280763,10|2,0:2|0:2,0:2:0:0:
89,171,63833,6,0,P|68:106|32:30,1,121.499996292114,0|0,1:2|0:2,0:2:0:0:
64,18,64116,1,8,0:2:0:0:
187,137,64257,1,0,1:2:0:0:
0,179,64399,1,0,1:2:0:0:
148,46,64540,1,0,1:2:0:0:
236,230,64682,2,0,P|216:276|200:329,1,80.9999975280763,10|2,0:2|0:2,0:2:0:0:
335,128,64965,6,0,B|406:113|372:65|457:58,1,121.499996292114,2|0,1:2|0:2,0:2:0:0:
475,73,65248,2,0,P|494:100|474:162,1,80.9999975280763,8|2,0:2|0:2,0:2:0:0:
274,187,65531,1,0,1:2:0:0:
321,52,65672,1,0,1:2:0:0:
442,212,65814,2,0,L|475:303,1,80.9999975280763,10|2,0:2|0:2,0:2:0:0:
274,187,66097,6,0,L|235:333,1,121.499996292114,0|0,1:2|0:2,0:2:0:0:
275,351,66380,1,8,0:2:0:0:
182,219,66521,1,0,1:2:0:0:
18,260,66663,1,0,1:2:0:0:
158,144,66804,1,0,1:2:0:0:
152,360,66946,2,0,P|136:319|113:276,1,80.9999975280763,10|2,0:2|0:2,0:2:0:0:
263,108,67229,6,0,P|226:45|113:51,1,161.999995056153,2|8,1:2|0:2,0:2:0:0:
39,161,67653,1,2,0:2:0:0:
217,248,67795,1,0,1:2:0:0:
217,248,67936,1,0,1:2:0:0:
173,112,68078,2,0,P|149:163|135:208,1,80.9999975280763,10|0,0:2|0:2,0:2:0:0:
39,384,68361,6,0,P|-1:340|3:298,1,80.9999975280763,2|0,1:2|0:2,0:2:0:0:
229,271,68644,2,0,P|223:314|189:344,1,80.9999975280763,8|2,0:2|0:2,0:2:0:0:
123,213,68927,1,0,1:2:0:0:
263,126,69069,1,0,1:2:0:0:
407,254,69210,2,0,L|446:165,1,80.9999975280763,10|0,0:2|0:2,0:2:0:0:
291,384,69493,6,0,L|237:209,2,161.999995056153,2|8|0,1:2|0:2|1:2,0:2:0:0:
174,292,70201,1,0,1:2:0:0:
311,170,70342,1,10,0:2:0:0:
166,39,70484,2,0,P|121:30|76:16,1,80.9999975280763,2|0,0:2|1:2,0:2:0:0:
17,215,70767,1,0,1:2:0:0:
156,134,70908,1,8,0:2:0:0:
156,134,71191,5,2,1:2:0:0:
46,113,71333,1,2,1:2:0:0:
146,226,71474,1,10,0:2:0:0:
281,125,71616,1,2,1:2:0:0:
424,207,71757,6,0,B|409:293|368:242|353:345,1,121.499996292114,6|0,1:2|0:2,0:2:0:0:
364,344,72040,1,10,0:2:0:0:
304,224,72182,1,0,1:2:0:0:
304,224,72253,1,0,1:2:0:0:
304,224,72323,1,2,1:2:0:0:
461,315,72465,1,2,1:2:0:0:
248,384,72606,1,10,0:2:0:0:
248,384,72889,6,2,P|215:357|157:361,1,90,10|0,2:2|0:2,0:1:0:0:
429,196,73172,6,2,P|462:169|520:173,1,90,10|0,0:2|1:2,0:1:0:0:
394,376,73455,6,2,B|370:281|324:325|302:215,1,180,10|2,0:2|1:2,0:1:0:0:
460,78,73880,1,2,1:2:0:0:
460,78,74021,6,0,P|441:142|425:216,1,121.499996292114,6|0,1:2|0:2,0:2:0:0:
453,226,74304,2,0,P|499:216|511:158,1,80.9999975280763,8|2,0:2|0:2,0:2:0:0:
340,45,74587,1,2,1:2:0:0:
352,171,74729,1,2,1:2:0:0:
507,52,74870,1,10,0:2:0:0:
507,52,75153,6,2,P|459:35|418:10,1,90,10|0,2:2|0:2,0:1:0:0:
184,173,75436,6,2,P|232:156|273:131,1,90,10|0,0:2|1:2,0:1:0:0:
465,319,75720,6,2,P|397:303|379:207,1,135,10|0,0:2|0:2,0:1:0:0:
392,212,76003,1,8,0:2:0:0:
512,241,76144,1,8,0:2:0:0:
349,384,76286,6,0,P|308:369|268:358,1,80.9999975280763,6|0,1:2|0:2,0:2:0:0:
82,250,76569,2,0,B|44:275|1:289,1,80.9999975280763,10|0,0:2|0:2,0:2:0:0:
166,383,76852,1,2,1:2:0:0:
255,251,76993,1,0,1:2:0:0:
114,166,77135,1,10,0:2:0:0:
353,55,77418,6,0,P|312:71|279:90,1,80.9999975280763,2|0,1:2|0:2,0:2:0:0:
123,15,77701,2,0,P|87:46|79:89,1,80.9999975280763,10|0,0:2|0:2,0:2:0:0:
231,219,77984,2,0,P|207:156|178:85,1,121.499996292114,2|0,1:2|0:2,0:2:0:0:
195,68,78267,1,10,0:2:0:0:
83,240,78408,1,2,1:2:0:0:
288,373,78550,5,0,1:2:0:0:
231,219,78691,1,8,0:3:0:0:
231,219,78762,1,8,0:3:0:0:
231,219,78833,1,8,0:3:0:0:
356,292,78974,1,0,1:2:0:0:
179,371,79116,6,0,P|203:341|214:310,1,62.9999980773926,4|0,0:3|0:2,0:2:0:0:
314,160,79399,6,0,P|329:198|339:209,1,45,4|0,0:3|0:2,0:2:0:0:
454,282,79682,5,0,1:2:0:0:
454,282,80248,6,0,P|488:253|493:212,1,80.9999975280763,0|0,1:2|0:2,0:2:0:0:
499,211,80814,6,0,P|476:139|423:35,1,180,4|2,1:2|0:2,0:2:0:0:
512,0,81663,1,2,1:2:0:0:
386,151,81946,2,0,B|334:140|359:122|294:108,1,90,10|2,0:2|0:2,0:2:0:0:
36,42,82512,5,2,0:2:0:0:
152,0,82795,1,2,0:2:0:0:
219,106,83078,2,0,P|191:180|174:244,2,135,2|2|2,1:2|1:2|1:2,0:2:0:0:
62,232,84210,2,0,P|85:277|100:323,1,90,10|2,0:2|0:2,0:2:0:0:
372,378,84776,5,2,0:2:0:0:
286,342,85059,1,2,0:2:0:0:
201,310,85342,2,0,B|93:311|138:370|24:385,1,180,2|0,1:2|0:2,0:2:0:0:
286,342,86191,5,2,1:2:0:0:
286,342,86333,1,2,0:2:0:0:
230,213,86474,2,0,L|285:30,1,180,10|0,0:2|0:2,0:2:0:0:
173,74,87323,5,2,1:2:0:0:
173,74,87465,1,2,0:2:0:0:
338,168,87606,2,0,B|429:150|376:81|488:65,1,180,6|0,1:2|0:2,0:2:0:0:
477,66,88738,6,0,P|436:7|366:-1,1,125.999996154785,12|0,1:2|1:2,0:2:0:0:
211,39,89163,5,8,3:2:0:0:
185,179,89304,5,8,3:2:0:0:
286,251,89446,5,4,2:3:0:0:
374,266,89587,5,4,2:3:0:0:
395,344,89729,5,4,2:3:0:0:
338,384,89870,5,4,2:3:0:0:
338,384,90012,6,0,P|330:373|322:341,2,31.4999990386963,2|2|2,2:3|2:3|1:3,0:2:0:0:
247,357,90295,2,0,P|245:343|254:311,2,31.4999990386963,2|2|2,0:3|0:3|1:3,0:2:0:0:
167,286,90578,2,0,P|172:273|196:250,2,31.4999990386963,2|2|2,0:3|0:3|1:3,0:2:0:0:
127,170,90861,6,0,P|138:161|197:152,2,40.4999987640381,2|2|2,0:3|0:3|1:3,0:2:0:0:
294,247,91144,2,0,P|295:260|274:316,2,40.4999987640381,2|2|2,0:3|0:3|1:3,0:2:0:0:
139,366,91427,2,0,P|126:360|88:314,2,40.4999987640381,2|2|2,0:3|0:3|1:3,0:2:0:0:
229,198,91710,5,8,0:3:0:0:
221,329,91852,1,4,1:3:0:0:
113,258,91993,1,0,1:2:0:0:
344,132,92135,6,0,P|310:120|268:96,1,80.9999975280763,4|0,1:2|0:2,0:2:0:0:
158,5,92418,1,0,1:2:0:0:
158,5,92701,2,0,P|124:37|117:86,1,80.9999975280763,8|0,0:3|0:2,0:2:0:0:
205,209,92984,1,0,1:2:0:0:
1,214,93125,6,0,P|62:180|169:140,1,148.50000453186,8|0,0:2|0:2,0:2:0:0:
192,95,93408,1,0,1:2:0:0:
6,7,93550,6,0,P|34:68|47:116,1,99.0000030212403,10|0,2:2|1:2,0:2:0:0:
322,238,93833,6,0,P|334:197|371:127,1,99.0000030212403,10|0,0:2|0:2,0:2:0:0:
238,0,94116,5,2,1:2:0:0:
122,262,94257,6,0,B|198:274|171:321|236:345,1,135,14|0,0:2|0:2,0:2:0:0:
261,335,94540,1,0,1:2:0:0:
104,378,94682,1,10,0:2:0:0:
235,224,94823,1,0,1:2:0:0:
426,344,94965,2,0,P|374:322|316:309,1,90,10|0,0:2|1:2,0:2:0:0:
14,229,95248,2,0,P|44:213|79:203,1,45,10|0,0:2|0:2,0:2:0:0:
188,48,95389,6,0,L|142:198,1,135,6|0,1:2|0:2,0:2:0:0:
170,210,95672,1,2,1:2:0:0:
20,116,95814,1,10,0:2:0:0:
129,292,95955,1,0,1:2:0:0:
275,86,96097,1,10,0:2:0:0:
56,214,96238,5,0,1:2:0:0:
95,202,96309,1,0,1:2:0:0:
135,206,96380,1,12,2:2:0:0:
174,217,96451,1,0,1:2:0:0:
209,236,96521,1,0,1:2:0:0:
239,261,96592,1,0,1:2:0:0:
260,297,96663,1,0,1:2:0:0:
436,127,96946,5,2,1:2:0:0:
487,216,97087,1,2,0:2:0:0:
452,114,97229,5,0,1:2:0:0:
384,227,97370,1,2,0:2:0:0:
470,102,97512,5,2,1:2:0:0:
309,164,97653,1,0,0:2:0:0:
501,238,97795,5,10,1:2:0:0:
282,87,97936,1,0,1:2:0:0:
252,295,98078,5,10,1:2:0:0:
404,28,98220,1,2,1:2:0:0:
120,104,98361,5,8,1:2:0:0:
376,356,98503,1,2,1:2:0:0:
258,0,98644,5,10,1:2:0:0:
51,340,98786,1,0,1:2:0:0:
51,340,99069,6,0,P|80:324|111:312,1,53.9999983520508,10|0,0:0|0:0,0:0:0:0:
374,138,99210,2,0,B|437:145|416:183|481:192,1,107.999996704102,10|0,0:2|0:2,0:2:0:0:
343,361,99493,6,0,P|310:355|283:340,1,53.9999983520508,10|0,0:0|0:0,0:0:0:0:
101,121,99635,2,0,P|64:141|65:212,1,107.999996704102,10|0,0:2|0:2,0:2:0:0:
414,295,99918,6,0,P|398:258|390:216,1,53.9999983520508,10|0,0:0|0:0,0:0:0:0:
272,48,100059,2,0,P|235:220|190:382,1,323.999990112305,14|0,0:2|0:2,0:2:0:0:
58,201,100625,5,2,0:2:0:0:
58,201,100908,1,2,0:2:0:0:
459,4,101191,6,0,P|453:84|338:117,1,198.000006042481,4|8,1:1|0:2,0:2:0:0:
491,287,101616,2,0,P|500:238|520:168,1,99.0000030212403,2|0,0:2|1:2,0:2:0:0:
213,252,101899,1,0,1:2:0:0:
363,384,102040,2,0,P|349:338|326:274,1,99.0000030212403,10|0,0:2|0:2,0:2:0:0:
177,150,102323,6,0,B|254:123|218:77|299:57,1,148.50000453186,2|0,1:2|0:2,0:2:0:0:
351,108,102606,1,10,0:2:0:0:
158,0,102748,1,2,1:2:0:0:
165,23,102819,1,0,1:2:0:0:
172,46,102889,1,0,1:2:0:0:
68,162,103031,1,0,1:0:0:0:
6,14,103172,1,10,0:2:0:0:
238,143,103314,1,2,0:2:0:0:
18,287,103455,6,0,P|47:341|74:401,1,99.0000030212403,2|0,1:2|0:2,0:2:0:0:
310,309,103738,1,8,0:2:0:0:
199,158,103880,2,0,P|180:257|157:341,1,148.50000453186,2|0,1:2|2:2,0:2:0:0:
224,376,104163,1,0,1:2:0:0:
449,277,104304,2,0,B|391:254|429:236|345:211,1,99.0000030212403,10|0,0:2|0:2,0:2:0:0:
246,75,104587,6,0,P|284:17|325:11,1,99.0000030212403,2|0,1:2|0:2,0:2:0:0:
434,114,104870,1,10,0:2:0:0:
283,169,105012,1,2,1:2:0:0:
258,168,105083,1,0,1:2:0:0:
235,176,105153,1,0,1:2:0:0:
91,87,105295,1,0,1:2:0:0:
229,0,105436,1,10,0:2:0:0:
192,257,105578,1,10,0:2:0:0:
383,125,105720,6,0,P|422:197|458:293,1,148.50000453186,6|0,1:2|0:2,0:2:0:0:
498,312,106003,1,8,0:2:0:0:
318,384,106144,2,0,P|305:332|334:289,1,99.0000030212403,2|0,0:2|1:2,0:2:0:0:
512,141,106427,1,0,1:2:0:0:
400,20,106569,2,0,P|379:73|359:138,1,99.0000030212403,10|0,0:2|0:2,0:2:0:0:
121,204,106852,6,0,P|152:284|179:370,1,148.50000453186,2|0,1:2|0:2,0:2:0:0:
78,305,107135,1,10,0:2:0:0:
267,154,107276,2,0,B|216:146|238:113|163:108,1,99.0000030212403,2|0,1:2|0:2,0:2:0:0:
264,280,107559,1,0,1:0:0:0:
418,151,107701,2,0,P|472:171|524:187,1,99.0000030212403,10|2,0:2|0:2,0:2:0:0:
258,6,107984,6,0,P|168:31|83:67,1,148.50000453186,2|0,1:2|0:2,0:2:0:0:
39,41,108267,1,8,0:2:0:0:
4,244,108408,2,0,P|33:285|99:290,1,99.0000030212403,2|0,0:2|1:2,0:2:0:0:
251,208,108691,1,0,1:2:0:0:
58,151,108833,6,0,P|72:187|80:225,1,67.5,10|0,0:2|0:2,0:2:0:0:
356,191,109116,6,0,P|319:254|277:351,1,161.999995056153,12|0,2:2|0:0,0:0:0:0:
378,301,109399,1,2,1:2:0:0:
161,65,109540,2,0,B|187:160|243:106|265:211,1,161.999995056153,14|0,0:2|0:2,0:2:0:0:
207,253,109823,6,0,P|183:258|148:272,1,49.5000015106202,8|0,2:3|0:2,0:2:0:0:
389,162,109965,2,0,P|398:139|409:117,1,49.5000015106202,8|0,0:2|0:2,0:2:0:0:
502,361,110106,2,0,P|482:347|446:331,1,49.5000015106202,8|0,0:2|0:2,0:2:0:0:
295,371,110248,6,0,P|318:274|413:257,1,198.000006042481,6|8,1:2|0:2,0:2:0:0:
273,74,110672,2,0,P|256:116|236:179,1,99.0000030212403,2|0,0:2|1:2,0:2:0:0:
21,156,110955,1,0,1:2:0:0:
85,0,111097,2,0,P|102:51|119:92,1,99.0000030212403,10|0,0:2|0:2,0:2:0:0:
191,281,111380,6,0,B|112:294|138:349|49:355,1,148.50000453186,2|0,1:2|0:2,0:2:0:0:
4,306,111663,1,10,0:2:0:0:
213,197,111804,1,2,1:2:0:0:
236,205,111875,1,0,1:2:0:0:
259,212,111946,1,0,1:2:0:0:
188,383,112087,1,0,1:2:0:0:
101,208,112229,1,10,0:2:0:0:
321,329,112370,1,2,0:2:0:0:
426,91,112512,6,0,P|367:99|286:152,1,148.50000453186,2|0,1:2|0:2,0:2:0:0:
227,112,112795,1,8,0:2:0:0:
356,216,112936,1,2,0:2:0:0:
142,142,113078,1,0,1:2:0:0:
267,2,113220,1,0,1:2:0:0:
40,112,113361,2,0,P|17:167|4:212,1,99.0000030212403,10|0,0:2|0:2,0:2:0:0:
287,324,113644,6,0,P|250:255|157:270,1,148.50000453186,2|0,1:2|0:2,0:2:0:0:
147,320,113927,1,10,0:2:0:0:
313,207,114069,1,2,1:2:0:0:
336,198,114139,1,0,1:2:0:0:
359,190,114210,1,0,1:2:0:0:
216,384,114352,1,0,1:2:0:0:
60,177,114493,1,10,0:2:0:0:
211,223,114635,1,2,0:2:0:0:
16,384,114776,6,0,P|41:290|74:192,1,198.000006042481,6|8,1:2|0:2,0:2:0:0:
204,51,115201,2,0,P|151:37|108:11,1,99.0000030212403,2|0,0:2|1:2,0:2:0:0:
0,127,115484,1,0,1:2:0:0:
176,222,115625,2,0,P|223:188|269:167,1,99.0000030212403,10|0,0:2|0:2,0:2:0:0:
408,20,115908,6,0,P|485:65|480:159,1,148.50000453186,2|0,1:2|0:2,0:2:0:0:
445,177,116191,1,10,0:2:0:0:
308,2,116333,2,0,P|288:54|278:109,1,99.0000030212403,2|0,1:2|0:2,0:2:0:0:
368,238,116616,1,0,1:2:0:0:
203,303,116757,5,10,0:2:0:0:
357,158,116899,1,2,0:2:0:0:
512,298,117040,2,0,B|410:288|453:375|334:387,1,198.000006042481,6|8,1:2|0:2,0:2:0:0:
160,156,117465,2,0,P|231:145|281:186,1,99.0000030212403,2|0,0:2|1:2,0:2:0:0:
344,291,117748,1,0,1:2:0:0:
210,228,117889,6,0,P|196:263|188:302,1,67.5,10|0,0:2|0:2,0:2:0:0:
432,138,118172,6,0,B|441:104|441:104|376:27,1,107.999996704102,6|0,1:2|2:2,2:2:0:0:
106,0,118455,2,0,B|59:54|59:54|71:102,1,107.999996704102,10|4,0:2|1:2,0:2:0:0:
291,211,118738,5,8,0:3:0:0:
145,76,118880,1,8,0:3:0:0:
18,255,119021,5,4,0:3:0:0:
141,178,119163,1,4,0:3:0:0:
257,372,119304,6,0,P|175:348|74:325,2,180,6|8|0,1:2|0:2|1:2,0:2:0:0:
455,305,120012,1,2,1:2:0:0:
378,383,120153,2,0,P|367:340|348:296,1,90,10|2,0:2|0:2,0:2:0:0:
475,52,120436,6,0,P|495:87|478:148,1,90,2|0,1:2|0:2,0:2:0:0:
217,224,120720,2,0,B|267:209|243:185|311:172,1,90,10|8,0:2|0:2,0:2:0:0:
450,333,121003,1,2,1:2:0:0:
279,359,121144,1,0,1:2:0:0:
418,217,121286,2,0,P|460:237|513:251,1,90,10|0,0:2|0:2,0:2:0:0:
465,30,121569,6,0,P|424:102|321:94,2,180,2|8|2,1:2|0:2|1:2,0:2:0:0:
294,0,122276,1,0,1:2:0:0:
208,110,122418,2,0,P|163:130|117:158,1,90,10|0,0:2|0:2,0:2:0:0:
14,1,122701,6,0,P|57:8|95:44,1,90,2|0,1:2|0:2,0:2:0:0:
39,233,122984,1,8,0:2:0:0:
39,233,123125,1,8,0:2:0:0:
2,101,123267,1,0,1:2:0:0:
197,215,123408,1,0,1:2:0:0:
96,338,123550,2,0,L|-3:382,1,90,8|0,0:2|0:2,0:2:0:0:
261,385,123833,6,0,P|307:336|281:264,1,135,4|0,1:2|0:2,0:2:0:0:
263,250,124116,2,0,P|251:193|282:145,1,90,10|0,0:2|0:2,0:2:0:0:
308,1,124399,1,2,1:2:0:0:
186,101,124540,1,0,1:2:0:0:
353,146,124682,2,0,L|444:114,1,90,10|0,0:2|0:2,0:2:0:0:
153,17,124965,6,0,P|171:57|193:129,1,90,2|0,1:2|0:2,0:2:0:0:
149,291,125248,1,10,0:2:0:0:
4,235,125389,2,0,B|93:250|73:173|180:196,1,180,0|0,1:2|1:2,0:2:0:0:
286,269,125814,2,0,L|327:171,1,90,10|0,0:2|0:2,0:2:0:0:
110,384,126097,1,4,1:2:0:0:
365,319,126380,5,10,0:2:0:0:
203,198,126521,2,0,L|172:99,1,90,0|2,1:2|0:2,0:2:0:0:
375,85,126804,1,8,0:2:0:0:
184,309,126946,1,10,0:2:0:0:
441,220,127087,1,8,0:2:0:0:
208,33,127229,5,4,1:2:0:0:
281,287,127370,1,0,1:2:0:0:
202,24,127512,5,8,0:3:0:0:
95,251,127653,1,8,0:3:0:0:
197,13,127795,5,0,1:2:0:0:
346,186,127936,1,0,1:2:0:0:
105,137,128078,6,0,P|92:114|85:81,1,45,8|0,0:2|0:2,0:2:0:0:
324,10,128220,6,0,P|336:32|340:52,1,45,8|0,0:2|0:2,0:2:0:0:
256,192,128361,5,4,1:2:0:0:
256,192,128432,12,0,130484,0:2:0:0:
80,307,131616,5,0,1:0:0:0:
212,119,131899,6,0,L|203:93,1,26.9999991760254,8|0,0:3|0:2,0:2:0:0:
290,155,132040,2,0,L|283:205,1,26.9999991760254,4|0,0:3|0:2,0:2:0:0:
324,76,132182,2,0,L|315:50,1,26.9999991760254,0|0,1:2|0:2,0:2:0:0:
420,198,132323,6,0,P|442:207|486:201,1,45,10|0,0:2|0:2,0:2:0:0:
461,132,132465,2,0,P|487:121|511:90,1,45,10|0,0:2|0:2,0:2:0:0:
178,216,132606,6,0,P|157:233|144:257,1,53.9999983520508,10|0,0:2|0:2,0:2:0:0:
251,291,132748,2,0,P|245:318|254:343,1,53.9999983520508,10|0,0:2|0:2,0:2:0:0:
324,76,132889,6,0,B|231:66|272:5|157:2,1,180,6|8,1:2|2:2,0:2:0:0:
53,147,133314,1,0,1:2:0:0:
7,27,133455,1,0,1:2:0:0:
169,110,133597,1,0,1:2:0:0:
20,230,133738,2,0,P|38:192|56:138,1,90,10|2,0:2|0:2,0:2:0:0:
217,283,134021,6,0,P|196:203|164:96,1,180,0|8,1:2|0:2,0:2:0:0:
309,157,134446,1,0,1:2:0:0:
309,157,134517,1,0,1:2:0:0:
309,157,134587,1,2,1:2:0:0:
157,225,134729,1,0,1:2:0:0:
270,347,134870,2,0,L|364:369,1,90,10|0,0:2|0:2,0:2:0:0:
512,221,135153,6,0,P|479:163|398:170,1,135,2|0,1:2|0:2,0:2:0:0:
392,186,135436,2,0,P|414:243|426:292,1,90,10|0,0:2|0:2,0:2:0:0:
481,82,135720,1,2,1:2:0:0:
313,225,135861,1,0,1:2:0:0:
506,305,136003,1,10,0:2:0:0:
363,163,136144,1,2,0:0:0:0:
189,324,136286,6,0,P|129:302|134:222,1,135,0|0,1:2|2:2,0:2:0:0:
154,220,136569,2,0,B|203:203|174:177|250:161,1,90,8|0,0:2|0:2,0:2:0:0:
409,344,136852,1,2,1:2:0:0:
272,256,136993,1,2,1:2:0:0:
431,202,137135,1,10,0:2:0:0:
323,378,137276,1,2,0:2:0:0:
147,243,137418,6,0,P|131:201|101:133,1,90,0|0,1:2|0:2,0:2:0:0:
82,352,137701,1,10,0:2:0:0:
264,210,137842,1,0,1:2:0:0:
264,210,137913,1,0,1:2:0:0:
264,210,137984,1,2,1:2:0:0:
187,384,138125,1,2,1:2:0:0:
2,301,138267,2,0,P|15:243|36:198,1,90,10|2,0:2|0:2,0:2:0:0:
239,122,138550,6,0,B|160:111|204:60|89:48,1,135,0|0,1:2|0:2,0:2:0:0:
87,28,138833,2,0,P|43:52|-15:60,1,90,10|2,0:2|0:2,0:2:0:0:
135,199,139116,1,0,1:2:0:0:
291,35,139257,1,0,1:2:0:0:
379,241,139399,1,8,0:2:0:0:
272,141,139540,1,0,1:2:0:0:
272,141,139611,1,0,1:2:0:0:
272,141,139682,5,10,2:2:0:0:
512,242,139823,1,10,0:2:0:0:
347,97,139965,5,2,1:2:0:0:
272,259,140106,1,0,1:2:0:0:
272,259,140177,1,0,1:2:0:0:
272,259,140248,5,10,0:2:0:0:
488,110,140389,2,0,P|499:65|523:-2,1,90,10|0,0:2|1:2,0:0:0:0:
317,0,140672,1,2,1:2:0:0:
144,162,140814,6,0,P|191:262|218:373,1,215.999993408203,14|0,0:2|1:2,0:2:0:0:
403,121,141238,2,0,P|380:169|365:227,1,107.999996704102,12|2,2:2|0:2,0:2:0:0:
235,87,141521,1,2,1:2:0:0:
398,18,141663,1,10,0:2:0:0:
512,187,141804,1,10,0:2:0:0:
345,355,141946,5,0,1:2:0:0:
330,360,142016,1,0,1:2:0:0:
314,357,142087,1,0,1:2:0:0:
302,348,142158,1,0,1:2:0:0:
274,273,142229,6,0,P|235:301|184:312,1,90,12|0,0:0|0:0,0:0:0:0:
7,384,142512,1,0,1:2:0:0:
119,274,142653,1,0,1:2:0:0:
13,147,142795,2,0,P|7:95|-5:41,1,90,10|2,0:2|0:2,0:2:0:0:
137,15,143078,6,0,B|227:28|187:74|268:93,1,135,0|0,1:2|0:2,0:2:0:0:
281,95,143361,1,8,0:2:0:0:
164,159,143503,1,0,1:2:0:0:
164,159,143573,1,0,1:2:0:0:
164,159,143644,1,2,1:2:0:0:
282,6,143786,1,0,1:2:0:0:
425,78,143927,2,0,L|456:178,1,90,10|0,0:2|0:2,0:2:0:0:
282,307,144210,6,0,P|300:352|402:352,1,135,2|0,1:2|0:2,0:2:0:0:
402,341,144493,2,0,P|392:299|339:282,1,90,10|0,0:2|0:2,0:2:0:0:
191,380,144776,1,2,1:2:0:0:
99,221,144918,1,0,1:2:0:0:
191,380,145059,1,10,0:2:0:0:
385,180,145201,6,0,P|319:142|209:100,1,180,2|0,1:2|1:2,0:2:0:0:
88,312,145625,2,0,P|142:303|176:252,1,90,10|0,0:2|0:2,0:2:0:0:
0,119,145908,1,2,1:2:0:0:
6,261,146050,1,2,1:2:0:0:
129,139,146191,2,0,L|96:23,1,90,10|2,0:2|0:2,0:2:0:0:
267,277,146474,6,0,P|292:210|342:124,1,135,0|0,1:2|0:2,0:2:0:0:
348,132,146757,2,0,P|316:68|265:72,1,90,10|0,0:2|0:2,0:2:0:0:
164,156,147040,1,2,1:2:0:0:
358,295,147182,1,2,1:2:0:0:
182,384,147323,2,0,L|84:332,1,90,10|2,0:2|0:2,0:2:0:0:
1,179,147606,6,0,B|106:158|44:91|165:67,1,180,0|10,1:2|0:2,0:2:0:0:
265,143,148031,1,2,1:2:0:0:
265,143,148102,1,0,1:2:0:0:
265,143,148172,1,0,1:2:0:0:
122,246,148314,1,0,1:2:0:0:
0,96,148455,2,0,P|9:48|14:-18,1,90,8|0,0:2|1:2,0:2:0:0:
222,11,148738,6,0,P|293:32|358:57,1,135,6|0,1:2|0:2,0:2:0:0:
382,50,149021,2,0,P|411:82|402:132,1,90,10|0,0:2|0:2,0:2:0:0:
258,278,149304,1,2,1:2:0:0:
297,156,149446,1,0,1:2:0:0:
474,208,149587,2,0,B|416:222|449:242|370:266,1,90,10|0,0:2|0:2,0:2:0:0:
133,201,149870,6,0,P|217:188|268:98,2,180,6|10|2,1:2|0:2|1:2,0:2:0:0:
28,124,150578,1,0,1:2:0:0:
0,257,150720,2,0,P|16:307|26:344,1,90,10|0,0:2|0:2,0:2:0:0:
133,201,151003,5,6,1:2:0:0:
297,330,151144,1,8,0:3:0:0:
297,330,151215,1,8,0:3:0:0:
297,330,151286,1,8,0:3:0:0:
192,376,151427,5,4,2:3:0:0:
258,204,151569,1,0,1:2:0:0:
403,304,151710,2,0,P|412:334|419:369,1,53.9999983520508,8|0,2:3|0:3,0:2:0:0:
490,152,151993,5,8,0:3:0:0:
490,275,152135,1,0,1:2:0:0:
380,214,152276,2,0,P|368:188|358:142,1,53.9999983520508,4|0,2:3|0:2,0:2:0:0:
183,62,152559,5,4,2:3:0:0:
199,134,152701,1,0,1:2:0:0:
264,94,152842,2,0,P|277:64|288:22,1,72,4|4,0:3|1:2,0:2:0:0:
287,26,153550,1,0,1:2:0:0:
357,224,153833,6,0,L|377:280,1,53.9999983520508,8|0,0:2|0:2,0:2:0:0:
259,233,154116,1,0,1:2:0:0:
362,137,154257,1,8,0:2:0:0:
362,137,154540,6,0,P|391:147|421:154,1,45,8|0,0:2|0:2,0:2:0:0:
124,282,154682,6,0,P|95:288|65:299,1,45,8|0,0:2|0:2,0:2:0:0:
384,370,154823,6,0,P|425:352|495:330,1,107.999996704102,8|0,0:2|0:2,0:2:0:0:
485,332,155248,1,2,1:2:0:0:
126,198,155531,6,0,B|211:210|185:267|266:286,1,161.999995056153,6|8,1:2|0:2,0:2:0:0:
356,284,155956,1,2,0:2:0:0:
269,180,156097,1,0,1:2:0:0:
269,180,156238,1,0,1:2:0:0:
127,282,156380,2,0,P|138:323|145:379,1,80.9999975280763,10|2,0:2|0:2,0:2:0:0:
23,196,156663,6,0,P|53:133|152:126,1,161.999995056153,0|8,1:2|0:2,0:2:0:0:
176,209,157088,1,0,1:2:0:0:
31,110,157229,2,0,L|2:18,1,80.9999975280763,0|0,1:2|1:2,0:2:0:0:
174,0,157512,1,10,0:2:0:0:
120,116,157654,1,2,0:2:0:0:
281,130,157795,6,0,P|347:90|434:56,2,161.999995056153,2|8|2,1:2|0:2|1:2,0:2:0:0:
288,29,158503,1,0,1:2:0:0:
443,145,158644,2,0,P|430:182|373:214,1,80.9999975280763,10|2,0:2|0:2,0:2:0:0:
236,220,158927,6,0,B|330:240|273:295|377:317,1,161.999995056153,0|8,1:2|0:2,0:2:0:0:
503,326,159352,1,0,1:2:0:0:
399,208,159493,1,0,1:2:0:0:
399,208,159635,1,0,1:2:0:0:
269,355,159776,2,0,P|225:368|175:392,1,80.9999975280763,10|2,0:2|0:2,0:2:0:0:
162,227,160059,6,0,P|87:201|-7:177,1,161.999995056153,2|8,1:2|0:2,0:2:0:0:
198,136,160484,1,2,0:2:0:0:
68,103,160626,1,0,1:2:0:0:
171,260,160766,1,0,1:2:0:0:
324,148,160908,2,0,P|309:114|288:43,1,80.9999975280763,10|0,0:2|0:2,0:2:0:0:
161,0,161191,6,0,P|153:37|135:96,1,80.9999975280763,2|0,1:2|0:2,0:2:0:0:
7,180,161474,1,8,0:2:0:0:
7,180,161757,1,2,1:2:0:0:
52,23,161899,1,0,1:2:0:0:
216,118,162040,2,0,P|192:169|181:208,1,80.9999975280763,10|0,0:2|0:2,0:2:0:0:
43,264,162323,6,0,B|111:276|88:312|156:329,1,121.499996292114,2|0,1:2|0:2,0:2:0:0:
165,348,162606,2,0,L|252:313,1,80.9999975280763,10|0,0:2|0:2,0:2:0:0:
339,384,162890,1,2,1:2:0:0:
179,245,163031,1,0,1:2:0:0:
365,215,163172,2,0,P|343:258|322:317,1,80.9999975280763,10|0,0:2|0:2,0:2:0:0:
264,147,163455,5,2,1:2:0:0:
425,328,163597,1,0,1:2:0:0:
481,105,163739,1,8,0:2:0:0:
481,105,164022,5,2,1:2:0:0:
350,14,164164,1,2,1:2:0:0:
264,147,164304,1,10,2:2:0:0:
395,238,164446,1,2,1:2:0:0:
258,40,164587,6,0,B|166:57|188:108|86:124,1,161.999995056153,6|8,1:2|0:2,0:2:0:0:
48,36,165013,1,0,1:2:0:0:
48,36,165083,1,0,1:2:0:0:
48,36,165154,1,2,1:2:0:0:
207,198,165296,1,2,1:2:0:0:
27,228,165437,1,10,0:2:0:0:
27,228,165720,6,2,P|-2:187|-6:128,1,90,10|0,2:2|0:2,0:1:0:0:
182,170,166003,6,2,P|187:127|210:84,1,90,10|0,0:2|1:2,0:1:0:0:
312,299,166286,6,2,P|352:224|430:159,1,180,10|2,0:2|1:2,0:1:0:0:
469,9,166711,1,2,1:2:0:0:
319,33,166852,6,0,P|321:77|353:119,1,80.9999975280763,6|0,1:2|0:2,0:2:0:0:
512,222,167135,2,0,P|495:266|480:316,1,80.9999975280763,10|0,0:2|0:2,0:2:0:0:
307,259,167418,1,2,1:2:0:0:
442,160,167560,1,2,1:2:0:0:
495,376,167700,1,10,0:2:0:0:
495,376,167984,6,2,P|447:368|411:307,1,90,10|0,0:2|0:2,0:1:0:0:
235,295,168267,6,2,P|225:245|252:202,1,90,10|0,0:2|1:2,0:1:0:0:
512,62,168550,6,2,P|471:129|386:112,1,135,10|0,0:2|0:2,0:1:0:0:
391,104,168833,1,8,0:2:0:0:
456,0,168975,1,8,0:2:0:0:
263,0,169116,6,0,L|170:55,1,80.9999975280763,6|0,1:2|0:2,0:2:0:0:
123,181,169399,2,0,P|75:153|12:129,1,121.499996292114,10|0,0:2|0:2,0:2:0:0:
0,101,169682,1,2,1:2:0:0:
94,2,169824,1,0,1:2:0:0:
216,142,169965,2,0,L|245:238,1,80.9999975280763,10|0,0:2|0:2,0:2:0:0:
390,61,170248,6,0,L|360:178,1,121.499996292114,2|0,1:2|0:2,0:2:0:0:
384,214,170531,2,0,P|409:221|465:191,1,80.9999975280763,10|0,0:2|0:2,0:2:0:0:
305,27,170814,2,0,P|286:45|284:108,1,80.9999975280763,2|0,1:2|1:2,0:2:0:0:
512,145,171097,1,10,0:2:0:0:
413,49,171238,1,10,0:2:0:0:
266,215,171380,6,0,L|305:323,1,107.999996704102,4|8,1:3|0:2,0:2:0:0:
127,156,171804,6,0,L|52:334,1,180,4|0,1:2|0:2,0:2:0:0:
180,243,172229,1,4,0:3:0:0:
40,137,172370,1,0,1:2:0:0:
200,72,172512,1,0,1:2:0:0:
200,72,172936,5,8,2:3:0:0:
56,1,173078,1,4,2:3:0:0:
158,155,173220,1,4,2:3:0:0:
283,53,173361,1,0,1:2:0:0:
283,53,173503,1,0,1:2:0:0:
412,208,173644,6,0,P|439:142|481:51,2,161.999995056153,4|2|2,0:2|1:2|1:2,0:2:0:0:
291,358,174776,2,0,P|243:333|228:268,1,107.999996704102,10|2,0:2|0:2,0:2:0:0:
115,160,175342,5,2,0:2:0:0:
0,233,175625,1,2,0:2:0:0:
115,160,175908,2,0,P|85:244|65:327,2,161.999995056153,2|2|2,1:2|1:2|1:2,0:2:0:0:
16,40,177040,1,10,0:2:0:0:
259,3,177323,5,2,0:2:0:0:
229,99,177606,1,2,0:2:0:0:
196,200,177889,1,2,0:2:0:0:
370,133,178172,6,0,B|457:106|400:49|506:27,2,161.999995056153,2|0|2,1:2|1:2|1:2,0:2:0:0:
349,123,179163,1,2,1:2:0:0:
456,195,179304,2,0,L|497:313,1,107.999996704102,10|0,0:2|0:2,0:2:0:0:
512,122,179870,1,2,0:2:0:0:
369,242,180153,5,2,1:2:0:0:
474,317,180295,1,2,1:2:0:0:
362,376,180436,2,0,P|297:327|196:302,1,161.999995056153,4|2,1:2|0:2,0:2:0:0:
136,360,181003,1,0,1:0:0:0:
220,303,181286,2,0,P|215:275|231:236,1,53.9999983520508,2|0,1:2|0:2,0:2:0:0:
318,157,181569,1,8,0:2:0:0:
86,26,181852,5,8,0:3:0:0:
131,216,181993,1,8,0:3:0:0:
100,19,182135,5,4,0:3:0:0:
16,166,182276,1,4,0:3:0:0:
114,9,182418,5,0,1:2:0:0:
211,108,182559,1,0,1:2:0:0:
47,246,182701,6,0,P|40:279|24:316,1,53.9999983520508,4|0,1:2|0:2,0:2:0:0:
133,384,182984,5,0,1:2:0:0:
151,290,183125,1,2,2:3:0:0:
230,348,183267,1,0,1:2:0:0:
355,255,183550,5,0,1:2:0:0:
368,351,183691,1,2,0:3:0:0:
454,304,183833,1,0,1:2:0:0:
246,196,184116,5,0,1:2:0:0:
315,129,184257,1,10,2:3:0:0:
226,97,184399,1,0,1:2:0:0:
293,42,184540,5,6,0:3:0:0:
337,217,184682,1,0,1:2:0:0:
157,153,184823,1,10,0:3:0:0:
220,341,184965,6,0,L|341:377,1,107.999996704102,4|0,1:2|1:2,0:2:0:0:
410,277,185389,1,2,0:3:0:0:
512,351,185531,1,8,0:3:0:0:
272,62,185814,5,0,1:2:0:0:
389,177,185955,2,0,B|288:181|334:232|238:256,1,161.999995056153,12|0,2:2|1:2,0:2:0:0:
97,272,186380,6,0,P|64:225|67:189,1,90,10|0,0:2|0:2,0:2:0:0:
374,290,186663,6,0,P|371:334|343:367,1,90,10|0,0:2|0:2,0:2:0:0:
162,142,186946,5,2,1:2:0:0:
199,384,187087,6,0,P|217:293|250:184,1,180,6|2,1:2|0:3,0:2:0:0:
426,97,187512,2,0,P|414:74|407:35,1,53.9999983520508,10|2,1:2|0:3,0:2:0:0:
369,189,187795,2,0,P|394:190|431:203,1,53.9999983520508,2|2,1:2|0:3,0:2:0:0:
311,93,188078,2,0,P|297:113|266:140,1,53.9999983520508,10|2,1:2|0:3,0:2:0:0:
431,224,188361,6,0,P|463:204|480:166,1,72,2|2,1:2|0:3,0:2:0:0:
250,142,188644,2,0,P|251:180|274:214,1,72,8|2,1:2|0:3,0:2:0:0:
400,23,188927,2,0,P|366:4|325:8,1,72,2|2,1:2|0:3,0:2:0:0:
354,130,189210,5,10,1:2:0:0:
362,141,189281,1,2,1:2:0:0:
375,137,189351,1,2,1:2:0:0:
376,122,189422,1,2,1:2:0:0:
361,117,189493,2,0,P|375:170|381:203,1,80.9999975280763,0|0,1:2|0:0,0:0:0:0:
159,371,189776,5,2,1:2:0:0:
99,298,189918,1,2,2:2:0:0:
212,351,190059,5,2,1:2:0:0:
190,212,190201,1,2,2:2:0:0:
267,370,190342,5,2,1:2:0:0:
328,206,190484,1,2,2:2:0:0:
117,180,190625,5,10,1:2:0:0:
328,298,190767,1,0,1:2:0:0:
82,265,190908,5,10,1:2:0:0:
290,108,191050,1,2,1:2:0:0:
432,290,191191,5,8,1:2:0:0:
154,83,191333,1,2,1:2:0:0:
478,197,191474,5,10,1:2:0:0:
133,384,191616,1,0,1:2:0:0:
133,384,191899,6,0,P|117:351|123:309,1,53.9999983520508,10|0,0:2|0:0,0:0:0:0:
239,170,192040,2,0,B|253:243|284:197|297:290,1,107.999996704102,10|0,0:2|0:2,0:2:0:0:
400,320,192323,6,0,P|422:293|428:268,1,53.9999983520508,10|0,0:2|0:0,0:0:0:0:
165,84,192465,2,0,P|150:127|115:189,1,107.999996704102,10|0,0:2|0:2,0:2:0:0:
28,229,192748,6,0,P|8:206|0:166,1,53.9999983520508,10|0,0:2|0:0,0:0:0:0:
280,21,192889,2,0,P|333:116|406:356,1,323.999990112305,14|0,2:2|0:2,0:2:0:0:
512,384,193455,5,2,0:2:0:0:
512,384,193738,1,2,0:2:0:0:
178,162,194021,6,0,B|283:147|258:231|387:226,1,198.000006042481,4|8,1:1|0:2,0:2:0:0:
185,15,194446,2,0,P|153:58|92:78,1,99.0000030212403,2|0,0:2|1:2,0:2:0:0:
9,243,194729,1,0,1:2:0:0:
191,338,194870,2,0,B|166:302|166:302|209:215,1,99.0000030212403,10|0,0:2|0:2,0:2:0:0:
29,37,195153,6,0,P|26:117|97:167,1,148.50000453186,2|0,1:2|0:2,0:2:0:0:
151,168,195436,1,10,0:2:0:0:
294,71,195578,1,2,1:2:0:0:
286,94,195649,1,0,1:2:0:0:
278,117,195720,1,0,1:2:0:0:
122,2,195861,1,0,1:2:0:0:
228,209,196003,2,0,P|284:226|328:244,1,99.0000030212403,10|2,0:2|0:2,0:2:0:0:
440,22,196286,6,0,B|400:65|400:65|435:122|477:206,1,198.000006042481,2|8,1:2|0:2,0:2:0:0:
320,384,196710,2,0,P|363:311|428:315,1,148.50000453186,2|0,1:2|0:2,0:2:0:0:
495,288,196993,1,0,1:2:0:0:
352,161,197135,1,10,0:2:0:0:
216,292,197276,1,0,0:2:0:0:
240,31,197418,6,0,P|253:84|274:148,1,99.0000030212403,2|0,1:2|0:2,0:2:0:0:
504,131,197700,1,10,0:2:0:0:
390,265,197842,1,2,1:2:0:0:
367,250,197913,1,0,1:2:0:0:
340,249,197984,1,0,1:2:0:0:
246,148,198125,1,0,1:2:0:0:
50,257,198267,5,8,2:2:0:0:
86,296,198337,1,8,2:2:0:0:
140,298,198408,1,0,1:2:0:0:
182,264,198479,1,0,1:2:0:0:
185,212,198550,6,0,P|204:141|238:33,1,148.50000453186,6|0,1:2|0:2,0:2:0:0:
292,0,198833,1,8,0:2:0:0:
58,230,198974,2,0,P|77:278|87:330,1,99.0000030212403,2|0,0:2|1:2,0:2:0:0:
280,180,199257,1,0,1:2:0:0:
113,60,199399,2,0,P|51:69|14:106,1,99.0000030212403,10|0,0:2|0:2,0:2:0:0:
0,353,199682,6,0,P|31:273|58:187,1,148.50000453186,2|0,1:2|0:2,0:2:0:0:
115,155,199965,1,10,0:2:0:0:
285,342,200106,2,0,B|230:348|247:376|190:386,1,99.0000030212403,2|0,1:2|0:2,0:2:0:0:
76,297,200389,1,0,1:2:0:0:
266,160,200531,2,0,P|308:185|355:200,1,99.0000030212403,10|2,0:2|0:2,0:2:0:0:
512,344,200814,6,0,P|423:376|375:338,1,148.50000453186,2|0,1:2|0:2,0:2:0:0:
342,282,201097,1,8,0:2:0:0:
483,150,201238,2,0,P|495:200|515:251,1,99.0000030212403,2|0,2:2|1:2,0:2:0:0:
246,196,201521,1,0,1:2:0:0:
434,38,201663,6,0,P|472:26|508:28,1,67.5,10|0,1:2|2:2,2:2:0:0:
283,125,201946,6,0,P|203:94|116:71,1,161.999995056153,14|0,2:2|0:2,0:2:0:0:
78,18,202229,1,0,1:2:0:0:
0,286,202370,2,0,P|66:252|48:142,1,161.999995056153,14|0,0:2|0:2,0:2:0:0:
13,127,202653,6,0,P|-1:89|5:52,1,49.5000015106202,8|0,0:3|0:2,0:2:0:0:
193,7,202795,2,0,P|181:29|172:52,1,49.5000015106202,10|0,0:2|0:2,0:2:0:0:
255,195,202936,2,0,P|280:173|311:156,1,49.5000015106202,10|0,0:2|0:2,0:2:0:0:
511,139,203078,6,0,B|402:105|470:50|345:12,1,198.000006042481,6|8,1:2|0:2,0:2:0:0:
396,284,203502,2,0,P|418:230|443:189,1,99.0000030212403,2|0,0:2|1:2,0:2:0:0:
307,150,203785,1,0,1:2:0:0:
469,334,203927,2,0,P|436:365|371:363,1,99.0000030212403,10|0,0:2|0:2,0:2:0:0:
169,244,204210,6,0,P|258:262|276:343,1,148.50000453186,2|0,1:2|0:2,0:2:0:0:
227,384,204493,1,10,0:2:0:0:
67,204,204634,1,2,1:2:0:0:
43,212,204705,1,0,1:2:0:0:
19,219,204776,1,0,1:2:0:0:
147,342,204917,1,0,1:2:0:0:
247,148,205059,2,0,L|206:30,1,99.0000030212403,10|2,0:2|0:2,0:2:0:0:
383,283,205342,6,0,L|469:126,1,148.50000453186,2|0,1:2|0:2,0:2:0:0:
390,113,205625,1,8,0:2:0:0:
446,363,205766,1,2,0:2:0:0:
285,179,205908,1,0,1:2:0:0:
512,235,206050,1,0,1:2:0:0:
284,330,206191,2,0,P|227:309|182:299,1,99.0000030212403,10|0,0:2|0:2,0:2:0:0:
38,191,206474,6,0,P|9:271|2:349,1,148.50000453186,2|0,1:2|0:2,0:2:0:0:
81,384,206757,1,10,0:2:0:0:
189,167,206899,1,2,1:2:0:0:
180,143,206970,1,0,1:2:0:0:
172,119,207040,1,0,1:2:0:0:
7,218,207182,1,0,1:2:0:0:
258,360,207323,5,8,0:2:0:0:
210,333,207394,1,8,0:2:0:0:
199,279,207465,1,0,1:2:0:0:
227,232,207536,1,0,1:2:0:0:
278,214,207606,6,0,B|313:211|340:215|340:215|355:190|372:173|372:173|414:161|470:131,1,198.000006042481,6|8,1:2|0:2,0:2:0:0:
485,359,208031,2,0,P|436:353|399:319,1,99.0000030212403,2|0,1:2|0:2,0:2:0:0:
411,76,208314,1,0,1:2:0:0:
511,189,208455,2,0,P|488:235|470:283,1,99.0000030212403,10|0,0:2|0:2,0:2:0:0:
236,381,208738,6,0,B|159:357|209:312|118:281,1,148.50000453186,2|0,1:2|0:2,0:2:0:0:
34,305,209021,1,10,0:2:0:0:
248,163,209163,2,0,B|268:195|268:195|235:271,1,99.0000030212403,2|0,1:2|0:2,0:2:0:0:
74,113,209446,1,0,1:2:0:0:
227,19,209587,5,10,0:2:0:0:
163,200,209729,1,10,0:2:0:0:
392,119,209870,2,0,L|452:325,1,198.000006042481,6|8,1:2|0:2,0:2:0:0:
512,74,210295,2,0,B|462:66|493:37|396:16,1,99.0000030212403,2|0,1:2|0:2,0:2:0:0:
279,194,210578,1,0,1:2:0:0:
185,45,210720,6,0,P|206:93|212:122,1,67.5,10|0,0:2|0:2,0:2:0:0:
367,289,211003,6,0,P|400:260|409:193,1,107.999996704102,6|0,1:2|0:2,0:2:0:0:
56,296,211286,2,0,P|64:343|110:382,1,107.999996704102,8|4,2:2|1:2,0:2:0:0:
342,373,211568,5,8,2:3:0:0:
123,236,211710,1,8,0:3:0:0:
351,162,211852,5,4,0:3:0:0:
214,299,211993,1,4,0:3:0:0:
43,196,212135,6,0,P|18:110|0:17,2,180,4|8|0,1:2|0:2|1:2,0:2:0:0:
166,384,212842,1,2,1:2:0:0:
150,216,212984,1,10,0:2:0:0:
12,322,213125,1,2,0:2:0:0:
211,278,213267,6,0,P|235:225|226:180,1,90,2|0,1:2|0:2,0:2:0:0:
27,53,213550,2,8,P|60:100|104:114,1,90,10|8,0:2|0:2,0:2:0:0:
270,26,213833,1,2,1:2:0:0:
129,12,213974,1,0,1:2:0:0:
295,159,214116,2,0,P|338:133|392:117,1,90,10|0,0:2|0:2,0:2:0:0:
460,0,214399,6,0,L|514:176,1,180,2|8,1:2|0:2,0:2:0:0:
398,331,214823,1,2,1:2:0:0:
512,383,214965,1,0,0:2:0:0:
414,207,215106,1,0,1:2:0:0:
274,298,215248,2,0,L|245:396,1,90,10|0,0:2|0:2,0:2:0:0:
143,186,215531,6,0,P|195:122|261:153,1,135,2|0,1:2|0:2,0:2:0:0:
272,142,215814,2,0,B|323:131|308:97|360:88,1,90,8|8,0:2|0:2,0:2:0:0:
195,34,216097,1,0,1:2:0:0:
233,229,216238,1,0,1:2:0:0:
47,163,216380,2,0,L|8:72,1,90,8|0,0:2|0:2,0:2:0:0:
10,316,216663,6,0,B|89:300|71:366|139:368,1,135,4|0,1:2|0:2,0:2:0:0:
164,383,216946,2,0,P|201:369|261:355,1,90,10|0,0:2|0:0,0:2:0:0:
194,159,217229,1,2,1:2:0:0:
156,291,217370,1,0,1:2:0:0:
308,214,217512,2,0,P|354:229|406:250,1,90,10|0,0:2|0:2,0:2:0:0:
468,355,217795,6,0,P|499:330|494:261,1,90,2|0,1:2|0:2,0:2:0:0:
325,127,218078,2,0,P|329:83|362:54,1,90,10|0,0:2|1:2,0:2:0:0:
512,183,218361,1,0,0:2:0:0:
405,284,218503,1,2,1:2:0:0:
512,183,218644,2,0,P|498:130|488:78,1,90,10|0,0:2|0:2,0:2:0:0:
244,18,218927,5,4,1:2:0:0:
244,18,219210,1,10,0:2:0:0:
391,128,219352,2,0,P|443:100|484:89,1,90,0|2,1:2|0:2,0:2:0:0:
229,187,219635,1,8,1:2:0:0:
333,46,219776,1,10,0:2:0:0:
459,222,219918,1,8,0:2:0:0:
512,0,220059,5,4,1:2:0:0:
383,265,220201,1,0,1:2:0:0:
296,51,220342,5,8,0:3:0:0:
507,294,220484,1,8,0:3:0:0:
397,27,220625,5,0,1:2:0:0:
258,237,220767,1,0,1:2:0:0:
156,78,220908,6,0,P|177:87|198:95,1,45,8|0,0:2|0:2,0:2:0:0:
426,181,221050,6,0,P|404:171|383:163,1,45,8|0,0:2|0:2,0:2:0:0:
289,129,221191,5,4,1:2:0:0:
256,192,221262,12,0,223172,0:2:0:0:
403,284,224304,5,0,1:2:0:0:
443,203,224446,1,0,1:2:0:0:
205,23,224729,5,8,0:3:0:0:
282,115,224870,1,0,1:2:0:0:
383,37,225012,1,0,1:2:0:0:
383,37,225083,1,0,1:2:0:0:
383,37,225153,5,10,2:2:0:0:
271,228,225295,1,10,0:2:0:0:
75,126,225436,1,10,0:2:0:0:
235,348,225578,6,0,L|273:219,1,125.999996154785,4|0,0:2|1:2,0:2:0:0:
20,222,226003,1,10,2:2:0:0:
98,345,226144,1,0,3:2:0:0:
98,345,226215,1,0,3:2:0:0:
98,345,226286,1,0,3:2:0:0:
219,275,226427,1,0,3:2:0:0:
141,152,226569,1,10,3:2:0:0:
0,319,226710,5,0,1:2:0:0:
0,319,226781,1,0,1:2:0:0:
0,319,226852,1,0,1:2:0:0:
192,367,226993,1,8,0:2:0:0:
236,179,227135,1,10,0:2:0:0:
44,131,227276,2,0,L|69:184,1,31.4999990386963,8|8,0:3|0:3,0:2:0:0:
108,250,227418,1,4,0:3:0:0:
304,42,227559,6,0,L|254:68,1,40.4999987640381,8|0,0:2|0:2,0:2:0:0:
148,123,227701,2,0,L|183:104,1,40.4999987640381,8|0,0:2|0:2,0:2:0:0:
386,163,227842,6,0,B|303:137|346:91|265:59,1,161.999995056153,14|0,0:2|1:2,0:2:0:0:
396,5,228267,2,0,P|417:45|399:89,1,80.9999975280763,10|0,0:2|1:2,0:2:0:0:
242,232,228550,1,10,0:2:0:0:
376,332,228691,2,0,L|351:245,1,80.9999975280763,8|0,0:3|1:2,0:2:0:0:
92,345,228974,6,0,B|186:319|161:387|253:384,1,161.999995056153,6|2,1:2|1:2,0:2:0:0:
316,172,229399,1,10,0:2:0:0:
171,269,229540,1,2,1:2:0:0:
10,68,229682,5,2,1:2:0:0:
201,164,229823,1,10,0:2:0:0:
153,0,229965,1,10,0:2:0:0:
2,192,230106,6,0,L|39:327,1,125.999996154785,6|0,0:2|1:2,0:2:0:0:
219,280,230531,1,10,0:2:0:0:
213,145,230672,1,0,1:2:0:0:
93,193,230814,2,0,L|112:257,1,62.9999980773926,10|0,0:2|1:2,0:2:0:0:
110,253,231026,1,0,1:2:0:0:
110,253,231097,1,0,1:2:0:0:
24,350,231238,6,0,B|94:343|88:381|148:384,1,125.999996154785,2|0,1:2|1:2,0:2:0:0:
203,308,231663,1,2,1:2:0:0:
294,276,231804,1,2,0:2:0:0:
386,384,231946,1,10,0:2:0:0:
470,342,232087,2,0,L|496:267,1,62.9999980773926,2|0,1:2|0:2,0:2:0:0:
341,188,232370,6,0,P|396:165|482:151,1,125.999996154785,2|0,1:2|1:2,0:2:0:0:
512,11,232795,1,10,0:2:0:0:
443,79,232936,1,10,0:2:0:0:
325,34,233078,1,2,1:2:0:0:
270,107,233220,2,0,P|253:77|222:28,1,62.9999980773926,10|0,0:2|0:2,0:2:0:0:
112,233,233503,6,0,P|153:231|213:170,1,125.999996154785,2|0,1:2|1:2,0:2:0:0:
45,117,233927,2,0,P|32:86|10:45,1,62.9999980773926,10|0,0:2|0:2,0:2:0:0:
130,151,234210,1,10,0:2:0:0:
214,14,234352,2,0,P|202:47|194:86,1,62.9999980773926,10|0,0:2|0:2,0:2:0:0:
340,88,234635,6,0,P|360:131|384:219,1,125.999996154785,6|0,1:2|0:2,0:2:0:0:
319,297,235059,2,0,P|289:279|278:235,1,62.9999980773926,2|0,1:2|0:2,0:2:0:0:
401,215,235342,1,10,0:2:0:0:
253,384,235625,5,10,0:2:0:0:
165,328,235767,2,0,B|122:335|140:353|82:374,1,94.499997116089,2|0,1:2|0:2,0:2:0:0:
63,367,236050,1,8,0:2:0:0:
1,291,236191,2,0,L|36:209,1,62.9999980773926,2|0,1:2|0:2,0:2:0:0:
79,112,236474,1,10,0:2:0:0:
206,217,236616,1,10,0:2:0:0:
206,217,236686,1,10,0:2:0:0:
206,217,236757,2,0,L|216:165,1,31.4999990386963,10|0,0:2|0:2,0:2:0:0:
292,133,236899,6,0,L|239:9,1,125.999996154785,6|0,1:2|1:2,0:2:0:0:
337,48,237323,1,10,0:2:0:0:
209,165,237465,1,2,1:2:0:0:
366,222,237606,2,0,L|425:201,1,62.9999980773926,10|0,0:2|0:2,0:2:0:0:
479,126,237889,1,2,1:2:0:0:
343,312,238031,6,0,B|265:284|314:253|226:227,1,125.999996154785,6|2,1:2|1:2,0:2:0:0:
158,290,238455,1,10,0:2:0:0:
205,383,238597,1,10,0:2:0:0:
45,339,238738,5,8,0:3:0:0:
198,165,238880,1,4,0:3:0:0:
368,317,239021,1,4,0:3:0:0:
508,185,239163,6,0,P|456:195|363:227,2,125.999996154785,6|0|0,1:2|1:2|1:2,0:2:0:0:
360,141,239870,1,10,0:2:0:0:
495,278,240012,1,0,1:2:0:0:
512,81,240153,1,10,2:2:0:0:
302,197,240295,6,0,B|242:178|273:136|187:125,2,125.999996154785,6|8|0,1:2|0:2|1:2,0:2:0:0:
297,59,241003,1,10,0:2:0:0:
137,179,241144,1,10,0:2:0:0:
258,325,241286,1,10,0:2:0:0:
36,223,241427,6,0,P|23:179|5:136,1,90,6|0,0:2|0:2,0:2:0:0:
130,24,241710,1,0,1:2:0:0:
130,24,241781,1,0,1:2:0:0:
130,24,241852,1,8,2:2:0:0:
313,169,241993,6,0,B|241:168|261:221|172:230,1,135,6|0,1:2|0:2,0:2:0:0:
129,182,242276,1,8,0:3:0:0:
283,71,242418,1,4,0:3:0:0:
324,266,242559,6,0,P|304:315|288:371,1,90,6|0,1:2|0:2,0:2:0:0:
463,265,242842,1,0,1:2:0:0:
463,265,242913,1,0,1:2:0:0:
463,265,242984,1,8,2:2:0:0:
367,88,243125,6,0,P|398:47|506:54,1,144,14|0,0:2|1:2,0:2:0:0:
485,39,243550,1,10,0:2:0:0:
469,168,243691,2,0,P|454:122|442:107,1,53.9999983520508,6|0,1:2|0:2,0:2:0:0:
376,172,243974,1,2,1:2:0:0:
461,353,244116,5,10,0:2:0:0:
512,224,244257,1,2,1:2:0:0:
322,272,244399,1,10,0:2:0:0:
296,261,244470,1,10,0:2:0:0:
271,251,244540,1,10,0:2:0:0:
245,241,244611,1,10,0:2:0:0:
218,231,244682,2,0,L|187:161,1,45,10|0,0:2|0:2,0:2:0:0:
252,113,244829,5,10,0:2:0:0:
465,274,244977,2,0,P|440:325|428:368,1,90,10|0,0:2|1:2,0:2:0:0:
169,348,245277,5,10,0:2:0:0:
318,174,245413,1,0,1:2:0:0:
330,332,245560,5,10,0:2:0:0:
119,88,245711,1,0,1:2:0:0:
11,216,245837,5,10,0:2:0:0:
330,76,245985,2,0,B|447:99|391:164|484:193,1,198.000006042481,4|0,0:1|1:2,0:2:0:0:
296,256,246388,2,0,L|250:143,1,99.0000030212403,10|0,0:2|0:2,0:2:0:0:
451,12,246671,5,0,1:2:0:0:
282,128,246812,1,2,1:2:0:0:
493,235,246954,1,10,0:2:0:0:
414,125,247095,1,2,2:2:0:0:
269,329,247237,6,0,P|230:323|181:214,1,148.50000453186,2|0,1:2|0:2,0:2:0:0:
223,178,247520,1,8,0:2:0:0:
96,352,247661,2,0,P|47:366|-9:390,1,99.0000030212403,2|0,1:2|0:2,0:2:0:0:
303,202,247944,2,0,P|351:222|414:237,1,99.0000030212403,2|8,1:2|0:2,0:2:0:0:
278,370,248227,1,0,0:2:0:0:
77,220,248369,6,0,B|72:109|164:155|152:16,2,198.000006042481,2|8|2,1:2|0:2|1:2,0:2:0:0:
199,189,249076,1,2,1:2:0:0:
3,59,249218,2,0,P|35:10|78:4,1,99.0000030212403,10|0,0:2|0:2,0:2:0:0:
217,100,249501,5,2,1:2:0:0:
364,27,249642,1,10,0:2:0:0:
364,27,249713,1,10,0:2:0:0:
364,27,249784,2,8,P|389:41|407:63,1,49.5000015106202,10|8,0:2|0:2,0:2:0:0:
497,145,249925,2,0,P|479:192|459:259,1,99.0000030212403,2|0,1:2|0:2,0:2:0:0:
258,236,250208,1,2,1:2:0:0:
392,346,250350,2,0,P|375:300|353:254,1,99.0000030212403,8|0,0:2|0:2,0:2:0:0:
114,144,250633,6,0,P|168:92|250:122,1,148.50000453186,6|0,1:2|0:2,0:2:0:0:
264,133,250916,1,10,0:2:0:0:
99,297,251057,2,0,P|77:238|54:195,1,99.0000030212403,2|0,0:2|1:2,0:2:0:0:
198,224,251340,1,2,1:2:0:0:
156,384,251482,1,8,0:2:0:0:
4,319,251623,1,2,0:2:0:0:
268,289,251765,6,0,B|366:302|319:343|441:367,1,148.50000453186,0|0,1:2|0:2,0:2:0:0:
416,384,252048,2,0,L|516:329,1,99.0000030212403,10|0,0:2|1:2,0:2:0:0:
507,319,252260,1,0,1:2:0:0:
510,304,252331,1,2,1:2:0:0:
348,171,252472,1,0,1:2:0:0:
512,82,252614,2,0,L|467:194,1,99.0000030212403,10|0,0:2|0:2,0:2:0:0:
278,66,252897,6,0,L|359:290,1,198.000006042481,2|8,1:2|0:2,0:2:0:0:
370,57,253321,1,2,0:2:0:0:
239,200,253463,1,0,1:2:0:0:
399,158,253605,1,0,1:2:0:0:
190,42,253746,1,8,0:2:0:0:
49,319,253888,5,2,1:2:0:0:
49,319,253958,1,2,1:2:0:0:
49,319,254029,1,6,1:2:0:0:
21,161,254171,1,2,1:2:0:0:
164,238,254312,1,10,0:2:0:0:
321,32,254454,5,6,1:2:0:0:
321,32,254524,1,2,1:2:0:0:
321,32,254595,1,2,1:2:0:0:
227,118,254737,2,0,P|237:158|246:218,1,53.9999983520508,8|0,0:3|0:2,0:2:0:0:
446,343,254878,2,0,P|456:317|467:293,1,53.9999983520508,4|0,0:3|0:2,0:2:0:0:
483,182,255020,6,0,P|377:217|372:335,1,198.000006042481,6|0,1:2|1:2,0:2:0:0:
170,375,255444,2,0,B|231:356|202:336|275:323,1,99.0000030212403,10|2,0:2|0:3,0:2:0:0:
454,273,255727,1,0,1:2:0:0:
293,214,255869,1,2,1:3:0:0:
349,373,256010,2,0,P|356:344|370:311,1,49.5000015106202,10|0,0:2|0:2,0:2:0:0:
483,182,256152,1,2,0:3:0:0:
314,41,256293,6,0,B|202:53|251:122|119:143,1,198.000006042481,2|8,1:2|0:2,0:2:0:0:
28,78,256718,1,2,0:3:0:0:
226,195,256859,1,0,1:2:0:0:
145,32,257001,1,2,1:3:0:0:
22,182,257142,2,0,P|43:226|69:299,1,99.0000030212403,8|2,0:2|0:3,0:2:0:0:
229,248,257425,5,2,1:2:0:0:
266,181,257520,5,2,0:2:0:0:
216,121,257614,5,2,0:2:0:0:
144,138,257708,6,0,P|129:165|130:189,3,49.5000015106202,10|2|2|2,0:2|0:2|0:3|0:2,0:2:0:0:
78,263,257991,5,2,1:2:0:0:
106,255,258062,1,2,0:2:0:0:
135,260,258133,1,2,1:3:0:0:
157,279,258203,1,2,0:2:0:0:
170,305,258274,5,10,0:2:0:0:
219,338,258345,1,2,0:2:0:0:
277,325,258416,1,2,0:3:0:0:
315,279,258487,1,2,0:2:0:0:
318,220,258557,5,2,1:2:0:0:
309,171,258628,1,2,0:2:0:0:
330,126,258699,1,2,0:3:0:0:
375,106,258770,1,2,0:2:0:0:
422,116,258840,2,0,L|446:173,1,49.5000015106202,10|0,0:2|0:0,0:0:0:0:
512,198,258982,6,0,P|468:301|446:398,1,198.000006042481,2|0,1:2|1:2,0:2:0:0:
318,220,259406,1,10,0:2:0:0:
511,114,259548,1,2,0:2:0:0:
287,8,259689,6,0,B|205:21|253:77|151:103,1,148.50000453186,6|0,1:2|0:2,0:2:0:0:
131,94,259972,2,0,P|90:61|102:-5,1,99.0000030212403,10|0,0:2|0:2,0:2:0:0:
327,110,260255,1,2,1:2:0:0:
163,0,260397,1,2,1:2:0:0:
115,226,260538,1,10,0:2:0:0:
217,120,260680,1,2,1:2:0:0:
7,164,260821,6,0,P|34:240|54:311,1,148.50000453186,2|0,1:2|0:2,0:2:0:0:
49,347,261105,1,10,0:2:0:0:
243,233,261246,1,2,1:2:0:0:
155,84,261388,5,2,1:2:0:0:
360,181,261529,1,2,1:2:0:0:
136,209,261671,1,8,0:2:0:0:
288,90,261812,1,2,1:2:0:0:
485,350,261954,6,0,P|416:338|411:213,1,198.000006042481,6|0,1:2|1:2,0:2:0:0:
287,335,262378,1,0,1:2:0:0:
234,127,262520,5,10,1:2:0:0:
466,271,262661,1,0,1:2:0:0:
187,220,262803,5,10,1:2:0:0:
477,65,262944,1,0,1:2:0:0:
202,0,263086,6,0,P|189:28|169:61,1,49.5000015106202,10|0,1:2|0:0,0:0:0:0:
398,226,263227,2,0,P|379:184|347:102,1,99.0000030212403,8|0,2:3|0:2,0:2:0:0:
223,324,263510,1,2,1:2:0:0:
13,184,263652,5,10,0:2:0:0:
308,29,263793,1,10,0:2:0:0:
67,7,263935,5,10,0:2:0:0:
385,151,264076,1,10,0:2:0:0:
38,283,264218,6,0,B|13:286|-13:308|-13:308|63:199|111:87|111:87|95:80|64:89|64:89|96:77|122:80|122:80|69:191|66:200|92:240|119:243|167:230|228:173|265:106|265:106|212:191|192:245|234:280|267:283|293:256,1,1008,6|2,1:2|0:2,0:2:0:0:
334,172,266340,2,0,P|343:195|345:224,1,36,2|0,0:0|0:0,0:0:0:0:
418,316,266482,2,0,B|442:289|401:258|362:286|386:337|392:335|399:333|419:397|362:436|310:375|341:336|376:350,1,215.999993408203,2|0,0:2|0:2,0:2:0:0:
461,106,274689,5,2,0:2:0:0:
461,106,274972,2,0,P|469:77|477:64,1,36,2|0,1:2|0:2,0:2:0:0:
375,123,275255,2,0,P|387:157|389:169,1,36,2|0,1:2|0:2,0:2:0:0:
473,197,275538,6,0,P|404:188|324:232,2,161.999995056153,6|2|2,0:2|0:2|0:2,0:2:0:0:
353,94,276671,1,2,0:2:0:0:
177,275,276954,5,2,0:2:0:0:
269,313,277095,2,0,P|232:194|197:96,1,215.999993408203,2|0,0:2|0:2,0:2:0:0:
201,107,277803,6,0,B|110:93|166:32|70:12,2,161.999995056153,2|2|2,0:2|0:2|0:2,0:2:0:0:
268,19,278935,1,2,0:2:0:0:
54,99,279218,1,2,0:2:0:0:
138,305,279501,5,2,0:2:0:0:
0,227,279784,1,2,0:2:0:0:
0,227,279925,2,0,P|216:167|485:108,1,485.999985168458,2|0,0:2|0:2,0:2:0:0:
256,192,282331,12,4,284595,0:2:0:0:
256,192,284666,12,0,285727,0:0:0:0:
256,192,286293,5,2,0:2:0:0:
256,192,286576,1,2,0:2:0:0:
512,161,286859,6,0,B|409:140|449:56|332:41,1,215.999993408203,4|10,1:1|0:0,0:2:0:0:
146,218,287284,1,2,1:2:0:0:
4,48,287425,6,0,P|10:16|28:-4,1,53.9999983520508,10|0,0:2|0:2,0:2:0:0:
115,44,287567,2,0,P|108:75|90:96,1,53.9999983520508,10|0,0:2|0:2,0:2:0:0:
228,291,287708,6,0,P|236:321|273:360,1,62.9999980773926,10|0,0:2|0:2,0:2:0:0:
372,279,287850,2,0,P|364:249|327:210,1,62.9999980773926,10|0,0:2|0:2,0:2:0:0:
13,220,287991,6,0,P|74:200|271:160,1,251.999992309571,6|10,1:2|0:2,0:2:0:0:
445,29,288416,2,0,B|442:-49|329:-47|306:58|420:135,1,251.999992309571,6|0,1:2|1:2,0:2:0:0:
512,264,288840,6,0,P|501:234|436:200,1,80.9999975280763,8|0,2:3|0:0,0:0:0:0:
336,235,288982,6,0,P|305:223|263:237,1,58.4999973220826,8|0,2:3|0:0,0:0:0:0:
199,323,289123,6,0,P|183:346|183:383,1,54,8|0,2:3|0:0,0:0:0:0:
294,378,289406,6,0,P|277:295|243:196,1,161.999995056153,14|0,0:2|2:2,0:2:0:0:
184,199,289689,1,2,1:2:0:0:
394,15,289831,2,0,L|360:80,1,53.9999983520508,10|0,1:2|0:2,0:2:0:0:
319,165,289972,1,10,0:2:0:0:
319,165,290255,6,0,P|219:118|77:71,1,251.999992309571,6|10,1:2|0:2,0:2:0:0:
462,269,290680,2,0,B|313:261|384:378|191:399,1,251.999992309571,6|0,1:2|1:2,1:2:0:0:
85,227,291104,2,0,P|116:239|165:265,1,62.9999980773926,10|0,0:2|0:2,0:2:0:0:
383,115,291246,2,0,P|342:127|317:139,1,62.9999980773926,10|0,0:2|0:2,0:2:0:0:
69,0,291388,6,0,B|26:30|-10:44|-10:44|17:96|39:163,1,198.000006042481,2|8,1:2|0:2,0:2:0:0:
262,220,291812,2,0,P|223:160|182:151,1,99.0000030212403,2|0,1:2|0:2,0:2:0:0:
1,240,292095,1,2,1:2:0:0:
129,384,292237,2,0,P|147:326|171:267,1,99.0000030212403,10|0,0:2|0:2,0:2:0:0:
0,39,292520,6,0,P|40:98|122:98,1,148.50000453186,2|0,1:2|0:2,0:2:0:0:
135,77,292803,1,10,0:2:0:0:
262,220,292944,1,2,1:2:0:0:
262,220,293015,1,0,1:2:0:0:
262,220,293086,2,0,P|277:259|291:302,1,72,0|0,1:0|1:0,0:0:0:0:
412,145,293369,6,0,P|401:171|387:218,1,62.9999980773926,8|2,0:0|1:2,0:0:0:0:
438,374,293652,5,8,1:2:0:0:
505,265,293793,1,0,1:2:0:0:
286,99,293935,5,8,1:2:0:0:
383,250,294076,1,0,1:2:0:0:
152,384,294218,5,8,1:2:0:0:
279,203,294359,1,0,1:2:0:0:
0,49,294501,5,8,1:2:0:0:
167,256,294642,1,0,1:2:0:0:
391,49,294784,6,0,P|462:63|481:212,1,188.999994232178,6|0,1:2|0:2,0:2:0:0:
483,233,295067,2,0,P|441:242|402:270,1,62.9999980773926,8|0,2:2|0:0,0:0:0:0:
193,339,295208,6,0,B|226:344|257:356|257:356|271:287|298:214,1,188.999994232178,6|0,1:2|0:2,0:2:0:0:
412,145,295491,5,8,0:2:0:0:
390,170,295562,1,8,0:2:0:0:
344,182,295633,1,8,0:2:0:0:
283,148,295704,1,8,0:2:0:0:
240,87,295774,1,8,0:2:0:0:
163,62,295845,1,8,0:2:0:0:
91,119,295916,6,0,P|162:92|323:44,1,215.999993408203,4|8,1:1|0:2,0:2:0:0:
76,214,296340,2,0,P|26:196|-2:134,1,107.999996704102,2|0,1:2|0:2,0:2:0:0:
68,4,296623,1,0,1:2:0:0:
199,188,296765,2,0,P|181:232|163:291,1,107.999996704102,10|0,0:2|0:2,0:2:0:0:
372,35,297048,6,0,P|417:128|453:221,1,161.999995056153,2|0,1:2|0:2,0:2:0:0:
345,244,297331,1,10,0:2:0:0:
465,21,297472,1,2,1:2:0:0:
497,25,297543,1,0,1:2:0:0:
512,53,297614,1,0,1:2:0:0:
315,146,297755,1,0,1:2:0:0:
512,287,297897,2,0,B|449:306|474:334|404:355,1,107.999996704102,10|2,0:2|0:2,0:2:0:0:
151,206,298180,6,0,P|235:249|222:341,1,161.999995056153,2|0,1:2|0:2,0:2:0:0:
167,381,298463,1,8,0:2:0:0:
0,197,298604,2,0,L|54:86,1,107.999996704102,2|0,0:2|1:2,0:2:0:0:
250,201,298888,1,0,1:2:0:0:
98,328,299029,2,0,B|33:339|65:369|-11:391,1,107.999996704102,10|0,0:2|0:2,0:2:0:0:
327,384,299312,6,0,P|345:308|375:216,1,161.999995056153,2|0,1:2|0:2,0:2:0:0:
442,158,299595,1,10,0:2:0:0:
295,295,299737,1,2,1:2:0:0:
257,295,299807,1,0,1:2:0:0:
224,314,299878,1,0,1:2:0:0:
98,227,300020,1,0,1:2:0:0:
317,0,300161,5,8,2:0:0:0:
333,62,300232,1,8,2:0:0:0:
381,104,300303,1,0,1:0:0:0:
445,107,300373,1,0,1:0:0:0:
492,62,300444,6,0,P|418:83|267:148,1,215.999993408203,6|8,1:2|0:2,0:2:0:0:
70,17,300869,2,0,B|125:33|108:68|164:81,1,107.999996704102,2|0,0:2|1:2,0:2:0:0:
302,236,301152,1,0,1:2:0:0:
158,367,301293,2,0,P|145:311|101:231,1,107.999996704102,10|0,0:2|0:2,0:2:0:0:
442,298,301576,6,0,B|382:282|382:282|359:248|359:248|265:227,1,161.999995056153,2|0,1:2|0:2,0:2:0:0:
223,282,301859,1,10,0:2:0:0:
50,136,302001,1,2,1:2:0:0:
73,142,302071,1,0,1:2:0:0:
98,148,302142,1,0,1:2:0:0:
203,55,302284,1,0,1:2:0:0:
410,213,302425,5,8,0:2:0:0:
470,189,302496,1,8,0:2:0:0:
509,137,302567,1,0,1:2:0:0:
506,72,302637,1,0,1:2:0:0:
476,14,302708,6,0,P|459:148|437:245,1,215.999993408203,6|8,1:2|0:2,0:2:0:0:
512,354,303133,2,0,P|446:384|388:357,1,107.999996704102,2|0,0:2|1:2,0:2:0:0:
205,154,303416,1,0,1:2:0:0:
305,61,303557,6,0,P|330:120|339:165,1,94.499997116089,8|0,0:2|0:2,0:2:0:0:
190,314,303840,5,6,1:2:0:0:
451,125,303982,1,0,2:2:0:0:
135,215,304123,5,10,2:2:0:0:
393,342,304265,1,0,2:0:0:0:
97,86,304406,5,0,1:2:0:0:
126,89,304477,1,0,1:2:0:0:
160,116,304548,1,0,1:2:0:0:
170,166,304619,1,0,1:2:0:0:
135,215,304689,1,8,2:2:0:0:
67,230,304760,1,8,2:2:0:0:
17,287,304831,1,8,2:2:0:0:
36,363,304902,1,8,2:2:0:0:
117,384,304972,6,0,P|210:339|331:293,1,215.999993408203,6|8,1:2|0:2,0:2:0:0:
426,371,305397,1,0,0:2:0:0:
497,243,305538,1,0,1:2:0:0:
497,243,305680,1,2,1:2:0:0:
254,194,305821,6,0,P|273:244|292:314,1,99.0000030212403,10|2,0:2|0:2,0:2:0:0:
511,118,306104,2,0,P|492:168|473:238,1,99.0000030212403,2|0,1:2|0:2,0:2:0:0:
314,13,306388,2,0,P|333:63|352:133,1,99.0000030212403,10|8,0:2|1:2,0:2:0:0:
316,369,306671,5,2,1:2:0:0:
512,322,306812,1,0,1:2:0:0:
372,192,306954,2,0,P|315:190|258:128,1,99.0000030212403,10|0,0:2|0:2,0:2:0:0:
64,35,307237,6,0,P|156:46|182:150,2,198.000006042481,2|8|2,1:2|0:2|1:2,0:2:0:0:
0,166,307944,1,2,1:2:0:0:
124,209,308086,2,0,P|113:162|91:101,1,99.0000030212403,10|0,0:2|0:2,0:2:0:0:
289,11,308369,6,0,B|345:36|345:36|358:73|358:73|434:112,1,148.50000453186,2|0,1:2|0:2,0:2:0:0:
440,90,308652,1,8,0:2:0:0:
306,125,308793,1,8,0:2:0:0:
487,207,308935,1,0,1:2:0:0:
512,11,309076,1,0,1:2:0:0:
358,238,309218,2,0,L|395:354,1,99.0000030212403,8|0,0:2|0:2,0:2:0:0:
186,136,309501,6,0,P|98:177|80:259,1,148.50000453186,4|0,1:2|0:2,0:2:0:0:
52,248,309784,2,0,B|79:287|96:351,1,99.0000030212403,10|0,0:2|0:2,0:2:0:0:
330,282,310067,1,2,1:2:0:0:
232,368,310208,1,0,1:2:0:0:
183,241,310350,2,0,P|191:185|214:117,1,99.0000030212403,10|0,0:2|0:2,0:2:0:0:
342,108,310633,6,0,P|393:133|378:201,1,99.0000030212403,2|0,1:2|0:2,0:2:0:0:
37,145,310916,2,0,P|97:51|182:89,1,198.000006042481,10|0,0:2|0:2,0:2:0:0:
316,228,311340,1,0,1:2:0:0:
274,33,311482,2,0,P|250:83|233:130,1,99.0000030212403,10|0,0:2|0:2,0:2:0:0:
246,372,311765,1,4,1:2:0:0:
246,372,312048,5,10,0:2:0:0:
495,266,312189,2,0,B|436:248|468:226|389:209,1,107.999996704102,0|2,1:2|0:2,0:2:0:0:
133,262,312472,5,8,0:2:0:0:
370,110,312614,1,10,0:2:0:0:
404,376,312755,1,8,0:2:0:0:
512,154,312897,5,4,1:2:0:0:
257,384,313038,1,0,0:2:0:0:
156,126,313180,5,8,0:3:0:0:
382,216,313321,1,8,0:3:0:0:
440,20,313463,5,0,1:2:0:0:
297,114,313604,1,0,1:2:0:0:
99,1,313746,6,0,L|135:78,1,53.9999983520508,8|0,0:2|0:2,0:2:0:0:
194,199,313888,6,0,L|216:247,1,53.9999983520508,8|0,0:2|0:2,0:2:0:0:
156,126,314029,5,4,1:2:0:0:
256,192,314100,12,0,316152,0:2:0:0:
241,192,317284,5,4,0:2:0:0:
241,192,317567,1,8,0:3:0:0:
272,280,317708,1,4,0:3:0:0:
182,262,317850,1,0,1:2:0:0:
401,120,317991,6,0,P|436:128|462:154,1,53.9999983520508,10|0,0:2|0:2,0:2:0:0:
416,225,318133,2,0,P|381:217|355:191,1,53.9999983520508,10|0,0:2|0:2,0:2:0:0:
102,20,318274,6,0,P|67:28|41:54,1,53.9999983520508,10|0,0:2|0:2,0:2:0:0:
102,156,318416,2,0,P|137:148|163:122,1,53.9999983520508,10|0,0:2|0:2,0:2:0:0:
313,1,318557,6,0,P|280:100|250:221,1,198.000006042481,6|8,1:2|0:2,0:2:0:0:
292,357,318982,1,0,1:2:0:0:
180,382,319123,1,0,1:2:0:0:
292,258,319265,1,0,1:2:0:0:
460,348,319406,2,0,P|418:330|345:305,1,99.0000030212403,10|2,0:2|0:2,0:2:0:0:
140,249,319689,6,0,B|34:283|95:349|-24:390,1,198.000006042481,0|8,1:2|0:2,0:2:0:0:
36,224,320114,1,0,1:2:0:0:
36,224,320185,1,0,1:2:0:0:
36,224,320255,1,2,1:2:0:0:
146,343,320397,1,0,1:2:0:0:
234,240,320538,2,0,P|243:193|261:131,1,99.0000030212403,10|0,0:2|0:2,0:2:0:0:
444,306,320821,6,0,P|429:254|392:157,1,148.50000453186,2|0,1:2|0:2,0:2:0:0:
370,146,321104,2,0,P|381:99|431:78,1,99.0000030212403,10|0,0:2|0:2,0:2:0:0:
512,165,321388,1,2,1:2:0:0:
341,252,321529,1,0,1:2:0:0:
483,313,321671,1,10,0:2:0:0:
315,384,321812,1,2,0:0:0:0:
149,277,321953,6,0,P|137:188|187:102,1,148.50000453186,0|0,1:2|2:2,0:2:0:0:
195,124,322237,2,0,P|232:169|228:209,1,99.0000030212403,8|0,0:2|1:2,0:2:0:0:
221,219,322449,1,0,1:2:0:0:
209,227,322520,1,2,1:2:0:0:
49,270,322661,1,2,1:2:0:0:
80,98,322803,2,0,B|134:75|107:55|186:31,1,99.0000030212403,10|2,0:2|0:2,0:2:0:0:
384,179,323086,6,0,P|304:153|170:118,1,198.000006042481,2|10,1:2|0:2,0:2:0:0:
351,47,323510,1,0,1:2:0:0:
351,47,323581,1,0,1:2:0:0:
351,47,323652,1,2,1:2:0:0:
282,192,323793,1,2,1:2:0:0:
471,141,323935,2,0,L|519:247,1,99.0000030212403,10|2,0:2|0:2,0:2:0:0:
294,383,324218,6,0,P|337:313|415:314,1,148.50000453186,2|0,1:2|0:2,0:2:0:0:
444,331,324501,1,10,0:2:0:0:
314,237,324642,1,2,0:2:0:0:
314,237,324713,1,0,1:2:0:0:
314,237,324784,5,0,1:2:0:0:
509,122,324925,1,0,1:2:0:0:
322,0,325067,1,8,0:2:0:0:
396,124,325208,1,0,1:2:0:0:
396,124,325279,1,0,1:0:0:0:
396,124,325350,5,10,0:2:0:0:
180,272,325491,1,10,0:2:0:0:
272,117,325633,5,2,1:2:0:0:
475,242,325774,1,0,1:2:0:0:
475,242,325845,1,0,1:2:0:0:
475,242,325916,5,10,0:2:0:0:
398,11,326057,2,0,P|376:63|357:128,1,99.0000030212403,2|0,1:2|1:2,0:0:0:0:
369,303,326340,1,0,1:2:0:0:
105,375,326482,6,0,B|218:328|153:248|283:231,1,225,14|0,0:2|1:2,0:2:0:0:
6,168,326906,2,0,P|47:228|73:284,1,112.5,14|2,1:2|0:2,0:2:0:0:
247,78,327189,1,2,1:2:0:0:
96,0,327331,1,10,0:2:0:0:
0,145,327472,1,10,0:2:0:0:
197,219,327614,5,0,1:2:0:0:
214,217,327684,1,0,1:2:0:0:
231,225,327755,1,0,1:2:0:0:
242,239,327826,1,0,1:2:0:0:
304,192,327897,6,0,B|357:181|330:152|405:131,1,99.0000030212403,12|0,0:2|0:2,0:2:0:0:
498,363,328180,1,0,1:2:0:0:
337,356,328321,1,0,1:2:0:0:
411,219,328463,2,0,P|451:258|451:308,1,99.0000030212403,10|2,0:2|0:2,0:2:0:0:
143,189,328746,6,0,P|144:119|239:69,1,148.50000453186,2|0,1:2|0:2,0:2:0:0:
243,87,329029,1,8,0:2:0:0:
221,244,329171,1,0,1:2:0:0:
221,244,329241,1,0,1:2:0:0:
221,244,329312,1,2,1:2:0:0:
11,151,329454,1,0,1:2:0:0:
97,287,329595,2,0,P|125:333|148:376,1,99.0000030212403,10|0,0:2|0:2,0:2:0:0:
348,235,329878,6,0,P|366:158|391:85,1,148.50000453186,2|0,1:2|0:2,0:2:0:0:
364,59,330161,2,0,P|318:55|289:112,1,99.0000030212403,10|0,0:2|0:2,0:2:0:0:
433,305,330444,1,2,1:2:0:0:
500,180,330586,1,0,1:2:0:0:
333,259,330727,1,10,0:2:0:0:
182,110,330869,6,0,P|107:127|-12:189,1,198.000006042481,2|0,1:2|1:2,0:2:0:0:
211,297,331293,2,0,P|238:251|221:191,1,99.0000030212403,10|0,0:2|0:2,0:2:0:0:
48,117,331576,1,2,1:2:0:0:
144,235,331718,1,2,1:2:0:0:
279,138,331859,2,0,L|316:24,1,99.0000030212403,10|2,0:2|0:2,0:2:0:0:
436,279,332142,6,0,B|336:286|400:332|298:374,1,148.50000453186,2|0,1:2|0:2,0:2:0:0:
296,384,332425,2,0,L|196:356,1,99.0000030212403,10|0,0:2|0:2,0:2:0:0:
123,210,332708,1,2,1:2:0:0:
275,277,332850,1,2,1:2:0:0:
99,382,332991,2,0,P|58:343|64:272,1,99.0000030212403,10|2,0:2|0:2,0:2:0:0:
188,136,333274,6,0,L|-5:65,1,198.000006042481,2|10,1:2|0:2,0:2:0:0:
180,19,333699,1,2,1:2:0:0:
180,19,333770,1,0,1:2:0:0:
180,19,333840,1,0,1:2:0:0:
83,188,333982,1,0,1:2:0:0:
273,87,334123,2,0,L|374:118,1,99.0000030212403,8|0,0:2|0:2,0:2:0:0:
169,232,334406,6,0,P|206:308|234:371,1,148.50000453186,2|0,1:2|0:2,0:2:0:0:
272,380,334689,2,0,P|315:323|306:276,1,99.0000030212403,10|0,0:2|0:2,0:2:0:0:
238,189,334972,1,2,1:2:0:0:
176,316,335114,1,0,1:2:0:0:
364,237,335255,2,0,P|347:198|305:129,1,99.0000030212403,10|0,0:2|0:2,0:2:0:0:
91,28,335538,5,6,1:2:0:0:
91,28,335821,2,0,B|185:52|116:105|238:136,1,148.50000453186,10|0,0:2|0:2,0:2:0:0:
236,116,336104,1,2,1:2:0:0:
381,30,336246,1,0,1:2:0:0:
482,152,336388,2,0,P|507:208|513:245,1,99.0000030212403,10|0,0:2|1:2,0:2:0:0:
502,267,336600,1,0,1:2:0:0:
488,290,336671,6,0,P|429:313|356:275,1,107.999996704102,6|0,1:2|0:2,0:2:0:0:
183,194,336954,2,0,B|182:131|234:105|255:143|277:45,1,161.999995056153,10|0,0:2|0:2,0:2:0:0:
225,7,337237,1,2,1:2:0:0:
428,216,337378,1,0,1:2:0:0:
173,337,337520,2,0,L|70:387,1,107.999996704102,10|0,0:2|0:2,0:2:0:0:
309,173,337803,6,0,L|84:77,1,215.999993408203,6|10,1:2|0:2,0:2:0:0:
404,44,338227,1,0,1:2:0:0:
404,44,338298,1,0,1:2:0:0:
404,44,338369,1,2,1:2:0:0:
297,348,338510,1,0,1:2:0:0:
13,255,338652,2,0,P|42:312|61:362,1,107.999996704102,10|2,0:2|0:2,0:2:0:0:
219,117,338935,6,0,L|244:47,1,53.9999983520508,0|0,1:2|0:2,0:2:0:0:
112,10,339076,2,0,B|58:71|58:71|101:121|145:181,1,215.999993408203,10|0,0:2|1:2,0:2:0:0:
477,328,339501,6,0,P|488:295|506:259,1,53.9999983520508,10|0,0:2|0:2,0:2:0:0:
280,176,339642,2,0,P|289:194|307:250,1,53.9999983520508,10|0,0:2|0:2,0:2:0:0:
194,384,339784,2,0,P|163:354|141:338,1,53.9999983520508,10|0,0:0|0:0,0:0:0:0:
0,251,339925,6,0,B|64:236|35:201|103:186,1,107.999996704102,10|0,0:2|0:2,0:2:0:0:
470,99,340208,2,0,B|406:84|435:49|367:34,1,107.999996704102,10|0,0:2|0:2,0:2:0:0:
0,93,340491,5,10,0:2:0:0:
300,225,340774,1,10,0:2:0:0:
512,0,341057,1,14,0:2:0:0:
256,192,341199,12,0,345727,0:2:0:0:
