osu file format v14

[General]
AudioFilename: typeMARS - Triumph & Regret.mp3
AudioLeadIn: 0
PreviewTime: 131787
Countdown: 0
SampleSet: Normal
StackLeniency: 0.7
Mode: 1
LetterboxInBreaks: 0
WidescreenStoryboard: 0

[Editor]
Bookmarks: 2872,11101,22072,33044,44015,49501,54987,60472,65958,87901,109844,120815,152358,153730,175672,186644,197615,230530,252472,273043,274414,296357,307329
DistanceSpacing: 1.1
BeatDivisor: 4
GridSize: 32
TimelineZoom: 3.699999

[Metadata]
Title:Triumph & Regret
TitleUnicode:Triumph & Regret
Artist:typeMARS
ArtistUnicode:typeMARS
Creator:Fantazy
Version:Inner Oni
Source:Dynamix
Tags:Zyon 載音 Rhythm Game Marathon Lucky Lotus & Touitsu Recordings - Dawn of the Sol - Day
BeatmapID:1022288
BeatmapSetID:477096

[Difficulty]
HPDrainRate:5
CircleSize:5
OverallDifficulty:6
ApproachRate:5
SliderMultiplier:1.4
SliderTickRate:1

[Events]
//Background and Video events
0,0,"bg ye.jpg",0,0
//Break Periods
2,225244,229330
//Storyboard Layer 0 (Background)
//Storyboard Layer 1 (Fail)
//Storyboard Layer 2 (Pass)
//Storyboard Layer 3 (Foreground)
//Storyboard Sound Samples

[TimingPoints]
130,342.857142857143,4,1,0,100,1,0
130,-117.647058823529,4,1,0,100,0,0
215,-117.647058823529,4,1,0,75,0,0
2701,-116.279069767442,4,1,0,75,0,0
2787,-114.942528735632,4,1,0,75,0,0
2872,-113.636363636364,4,1,0,75,0,0
4244,-111.111111111111,4,1,0,75,0,0
5444,-108.695652173913,4,1,0,75,0,0
5530,-107.52688172043,4,1,0,75,0,0
5615,-106.382978723404,4,1,0,75,0,0
6987,-104.166666666667,4,1,0,75,0,0
8187,-102.040816326531,4,1,0,75,0,0
8272,-101.010101010101,4,1,0,75,0,0
8358,-100,4,1,0,75,0,0
9730,-50,4,1,0,100,0,0
11101,-111.111111111111,4,1,0,80,0,0
16244,-108.695652173913,4,1,0,80,0,0
16330,-106.382978723404,4,1,0,80,0,0
16415,-104.166666666667,4,1,0,80,0,0
16501,-102.040816326531,4,1,0,80,0,0
16587,-100,4,1,0,80,0,0
18987,-98.0392156862745,4,1,0,80,0,0
19072,-96.1538461538461,4,1,0,80,0,0
19158,-94.3396226415094,4,1,0,80,0,0
19244,-92.5925925925926,4,1,0,80,0,0
19330,-90.9090909090909,4,1,0,80,0,0
22072,-89.2857142857143,4,1,0,80,0,0
33044,-86.9565217391304,4,1,0,80,0,0
42644,-50,4,1,0,80,0,0
44015,-90.9090909090909,4,1,0,90,0,0
54644,-90.0900900900901,4,1,0,90,0,0
54730,-89.2857142857143,4,1,0,90,0,0
54815,-88.4955752212389,4,1,0,90,0,0
54901,-87.719298245614,4,1,0,90,0,0
54987,-86.9565217391304,4,1,0,90,0,0
66044,-105.263157894737,4,1,0,75,0,0
68358,-106.382978723404,4,1,0,75,0,0
68530,-108.695652173913,4,1,0,75,0,0
68701,-111.111111111111,4,1,0,75,0,0
71101,-112.359550561798,4,1,0,75,0,0
71272,-114.942528735632,4,1,0,75,0,0
71444,-117.647058823529,4,1,0,75,0,0
73844,-119.047619047619,4,1,0,75,0,0
74015,-121.951219512195,4,1,0,75,0,0
74187,-125,4,1,0,75,0,0
76587,-117.647058823529,4,1,0,75,0,0
76758,-111.111111111111,4,1,0,75,0,0
76929,-105.263157894737,4,1,0,75,0,0
79501,-108.695652173913,4,1,0,75,0,0
79672,-111.111111111111,4,1,0,75,0,0
82244,-114.942528735632,4,1,0,75,0,0
82415,-117.647058823529,4,1,0,75,0,0
84987,-121.951219512195,4,1,0,75,0,0
85158,-125,4,1,0,75,0,0
87215,-117.647058823529,4,1,0,75,0,0
87387,-111.111111111111,4,1,0,75,0,0
87558,-105.263157894737,4,1,0,75,0,0
87730,-103.092783505155,4,1,0,75,0,0
87815,-101.010101010101,4,1,0,75,0,0
87901,-100,4,1,0,90,0,0
98530,-98.0392156862745,4,1,0,90,0,0
98615,-96.1538461538461,4,1,0,90,0,0
98701,-94.3396226415094,4,1,0,90,0,0
98787,-92.5925925925926,4,1,0,90,0,0
98872,-90.9090909090909,4,1,0,90,0,0
107701,-91.743119266055,4,1,0,90,0,0
107787,-93.4579439252336,4,1,0,90,0,0
107872,-95.2380952380952,4,1,0,90,0,0
107958,-97.0873786407767,4,1,0,90,0,0
108044,-99.009900990099,4,1,0,90,0,0
108130,-101.010101010101,4,1,0,90,0,0
108301,-103.092783505155,4,1,0,80,0,0
108387,-105.263157894737,4,1,0,80,0,0
108472,-107.52688172043,4,1,0,80,0,0
108815,-111.111111111111,4,1,0,70,0,0
109158,-117.647058823529,4,1,0,60,0,0
109501,-125,4,1,0,50,0,0
109844,-133.333333333333,4,1,0,30,0,0
112587,-131.578947368421,4,1,0,30,0,0
115158,-129.87012987013,4,1,0,30,0,0
115329,-128.205128205128,4,1,0,40,0,0
117730,-125,4,1,0,40,0,0
117901,-121.951219512195,4,1,0,40,0,0
118072,-119.047619047619,4,1,0,50,0,0
120472,-116.279069767442,4,1,0,50,0,0
120644,-113.636363636364,4,1,0,50,0,0
120815,-111.111111111111,4,1,0,60,0,0
123130,-109.89010989011,4,1,0,60,0,0
123387,-107.52688172043,4,1,0,60,0,0
123472,-106.382978723404,4,1,0,60,0,0
123558,-105.263157894737,4,1,0,70,0,0
125958,-104.166666666667,4,1,0,70,0,0
126044,-103.092783505155,4,1,0,70,0,0
126130,-102.040816326531,4,1,0,70,0,0
126215,-101.010101010101,4,1,0,70,0,0
126301,-100,4,1,0,80,0,0
127330,-99.009900990099,4,1,0,80,0,0
127501,-97.0873786407767,4,1,0,80,0,0
127672,-94.3396226415094,4,1,0,80,0,0
128787,-93.4579439252336,4,1,0,80,0,0
128872,-92.5925925925926,4,1,0,80,0,0
128958,-91.743119266055,4,1,0,80,0,0
129044,-90.9090909090909,4,1,0,90,0,0
129130,-90.0900900900901,4,1,0,90,0,0
129215,-89.2857142857143,4,1,0,90,0,0
129301,-88.4955752212389,4,1,0,90,0,0
129387,-87.719298245614,4,1,0,90,0,0
129730,-86.9565217391304,4,1,0,90,0,0
129815,-86.2068965517241,4,1,0,90,0,0
129901,-85.4700854700855,4,1,0,90,0,0
129987,-84.7457627118644,4,1,0,90,0,0
130072,-84.0336134453781,4,1,0,90,0,0
130415,-83.3333333333333,4,1,0,90,0,0
131787,-83.3333333333333,4,1,0,100,0,1
152358,-83.3333333333333,4,1,0,100,0,0
153387,-82.6446280991736,4,1,0,100,0,0
153558,-81.3008130081301,4,1,0,100,0,0
153730,-80,4,1,0,100,0,1
164358,-79.3650793650794,4,1,0,100,0,1
164444,-78.7401574803149,4,1,0,100,0,1
164530,-78.125,4,1,0,100,0,1
164615,-77.5193798449612,4,1,0,100,0,1
164701,-76.9230769230769,4,1,0,100,0,1
174301,-78.125,4,1,0,100,0,0
174387,-79.3650793650794,4,1,0,100,0,0
174472,-80.6451612903226,4,1,0,100,0,0
174558,-81.9672131147541,4,1,0,100,0,0
174644,-83.3333333333333,4,1,0,100,0,0
175672,-90.9090909090909,4,1,0,100,0,0
186301,-90.0900900900901,4,1,0,100,0,0
186387,-89.2857142857143,4,1,0,100,0,0
186472,-88.4955752212389,4,1,0,100,0,0
186558,-87.719298245614,4,1,0,100,0,0
186644,-86.9565217391304,4,1,0,100,0,0
197958,-90.9090909090909,4,1,0,50,0,0
198301,-92.5925925925926,4,1,0,50,0,0
198472,-94.3396226415094,4,1,0,50,0,0
198644,-96.1538461538461,4,1,0,50,0,0
198815,-98.0392156862745,4,1,0,50,0,0
199158,-99.9999999999999,4,1,0,50,0,0
199501,-102.040816326531,4,1,0,50,0,0
199672,-104.166666666667,4,1,0,50,0,0
200015,-106.382978723404,4,1,0,50,0,0
200358,-108.695652173913,4,1,0,50,0,0
200701,-111.111111111111,4,1,0,50,0,0
201044,-113.636363636364,4,1,0,50,0,0
201215,-116.279069767442,4,1,0,50,0,0
201387,-119.047619047619,4,1,0,50,0,0
201558,-121.951219512195,4,1,0,50,0,0
201901,-125,4,1,0,50,0,0
202244,-128.205128205128,4,1,0,50,0,0
202415,-131.578947368421,4,1,0,50,0,0
202587,-135.135135135135,4,1,0,50,0,0
202758,-138.888888888889,4,1,0,50,0,0
202930,-142.857142857143,4,1,0,50,0,0
203101,-147.058823529412,4,1,0,50,0,0
203444,-151.515151515152,4,1,0,50,0,0
203787,-156.25,4,1,0,50,0,0
203958,-161.290322580645,4,1,0,50,0,0
204130,-166.666666666667,4,1,0,50,0,0
218187,-153.846153846154,4,1,0,50,0,0
218358,-142.857142857143,4,1,0,50,0,0
218530,-133.333333333333,4,1,0,50,0,0
218701,-125,4,1,0,50,0,0
218872,-117.647058823529,4,1,0,50,0,0
219044,-111.111111111111,4,1,0,50,0,0
219215,-105.263157894737,4,1,0,50,0,0
219387,-100,4,1,0,50,0,0
219558,-50,4,1,0,20,0,0
230530,-125,4,1,0,75,0,0
236015,-123.456790123457,4,1,0,75,0,0
237387,-121.951219512195,4,1,0,75,0,0
238758,-120.481927710843,4,1,0,75,0,0
240130,-119.047619047619,4,1,0,75,0,0
241072,-117.647058823529,4,1,0,75,0,0
241158,-116.279069767442,4,1,0,75,0,0
241244,-114.942528735632,4,1,0,75,0,0
241330,-113.636363636364,4,1,0,75,0,0
241415,-112.359550561798,4,1,0,75,0,0
241501,-111.111111111111,4,1,0,80,0,0
243987,-108.695652173913,4,1,0,80,0,0
244072,-107.52688172043,4,1,0,80,0,0
244158,-106.382978723404,4,1,0,80,0,0
244244,-105.263157894737,4,1,0,85,0,0
246644,-104.166666666667,4,1,0,85,0,0
246730,-103.092783505155,4,1,0,85,0,0
246815,-102.040816326531,4,1,0,85,0,0
246901,-101.010101010101,4,1,0,85,0,0
246987,-100,4,1,0,90,0,0
248101,-98.0392156862745,4,1,0,90,0,0
248272,-96.1538461538461,4,1,0,90,0,0
248358,-95.2380952380952,4,1,0,95,0,0
249558,-94.3396226415094,4,1,0,95,0,0
249644,-93.4579439252336,4,1,0,95,0,0
249730,-92.5925925925926,4,1,0,100,0,0
250415,-91.743119266055,4,1,0,100,0,0
251101,-90.9090909090909,4,1,0,100,0,0
252472,-90.9090909090909,4,1,0,100,0,1
262930,-90.0900900900901,4,1,0,100,0,1
263015,-89.2857142857143,4,1,0,100,0,1
263101,-88.4955752212389,4,1,0,100,0,1
263187,-87.719298245614,4,1,0,100,0,1
263272,-86.9565217391304,4,1,0,100,0,1
263358,-86.2068965517241,4,1,0,100,0,1
263444,-85.4700854700855,4,1,0,100,0,1
273044,-84.7457627118644,4,1,0,100,0,0
274415,-83.3333333333333,4,1,0,100,0,1
285300,-82.6446280991736,4,1,0,100,0,1
285386,-81.9672131147541,4,1,0,100,0,1
288043,-81.3008130081301,4,1,0,100,0,1
288130,-80.6451612903226,4,1,0,100,0,1
290787,-80,4,1,0,100,0,1
290872,-79.3650793650794,4,1,0,100,0,1
292158,-78.7401574803149,4,1,0,100,0,1
292244,-78.125,4,1,0,100,0,1
293530,-77.5193798449612,4,1,0,100,0,1
293615,-76.9230769230769,4,1,0,100,0,1
296358,-76.9230769230769,4,1,0,100,0,0
296701,-78.125,4,1,0,100,0,0
296872,-79.3650793650794,4,1,0,100,0,0
296958,-80.6451612903226,4,1,0,100,0,0
297044,-81.9672131147541,4,1,0,100,0,0
297130,-83.3333333333333,4,1,0,100,0,0
297301,-84.7457627118644,4,1,0,100,0,0
297387,-86.2068965517241,4,1,0,100,0,0
297558,-87.719298245614,4,1,0,100,0,0
297730,-89.2857142857143,4,1,0,100,0,0
297901,-90.9090909090909,4,1,0,100,0,0
298072,-92.5925925925926,4,1,0,100,0,0
298244,-94.3396226415094,4,1,0,100,0,0
298330,-96.1538461538461,4,1,0,100,0,0
298415,-98.0392156862745,4,1,0,100,0,0
298501,-100,4,1,0,100,0,0
298672,-102.040816326531,4,1,0,100,0,0
298758,-104.166666666667,4,1,0,100,0,0
298930,-106.382978723404,4,1,0,100,0,0
299015,-108.695652173913,4,1,0,100,0,0
299101,-111.111111111111,4,1,0,100,0,0
306987,-108.695652173913,4,1,0,100,0,0
307072,-106.382978723404,4,1,0,100,0,0
307158,-104.166666666667,4,1,0,100,0,0
307244,-102.040816326531,4,1,0,100,0,0
307330,-100,4,1,0,100,0,0
312472,-98.0392156862745,4,1,0,100,0,0
312558,-96.1538461538461,4,1,0,100,0,0
312644,-94.3396226415094,4,1,0,100,0,0
312730,-92.5925925925926,4,1,0,100,0,0
312815,-90.9090909090909,4,1,0,80,0,0

[HitObjects]
192,256,130,5,4,0:0:0:0:
192,256,301,1,2,0:0:0:0:
192,256,472,1,0,0:0:0:0:
192,256,644,1,2,0:0:0:0:
192,256,815,1,0,0:0:0:0:
192,256,901,1,2,0:0:0:0:
192,256,1072,1,2,0:0:0:0:
192,256,1158,1,0,0:0:0:0:
192,256,1330,1,2,0:0:0:0:
192,256,1501,1,0,0:0:0:0:
192,256,1672,1,2,0:0:0:0:
192,256,1844,1,0,0:0:0:0:
192,256,2015,1,2,0:0:0:0:
192,256,2187,1,0,0:0:0:0:
192,256,2272,1,2,0:0:0:0:
192,256,2444,1,2,0:0:0:0:
192,256,2530,1,0,0:0:0:0:
192,256,2701,1,2,0:0:0:0:
192,256,2787,1,2,0:0:0:0:
192,256,2872,1,0,0:0:0:0:
192,256,3044,1,2,0:0:0:0:
192,256,3215,1,0,0:0:0:0:
192,256,3387,1,2,0:0:0:0:
192,256,3558,1,0,0:0:0:0:
192,256,3644,1,2,0:0:0:0:
192,256,3815,1,2,0:0:0:0:
192,256,3901,1,0,0:0:0:0:
192,256,4072,1,2,0:0:0:0:
192,256,4244,1,0,0:0:0:0:
192,256,4415,1,2,0:0:0:0:
192,256,4587,1,0,0:0:0:0:
192,256,4758,1,2,0:0:0:0:
192,256,4930,1,0,0:0:0:0:
192,256,5015,1,2,0:0:0:0:
192,256,5187,1,2,0:0:0:0:
192,256,5272,1,0,0:0:0:0:
192,256,5444,1,2,0:0:0:0:
192,256,5530,1,2,0:0:0:0:
192,256,5615,1,0,0:0:0:0:
192,256,5787,1,2,0:0:0:0:
192,256,5958,1,0,0:0:0:0:
192,256,6130,1,2,0:0:0:0:
192,256,6215,1,0,0:0:0:0:
192,256,6301,1,0,0:0:0:0:
192,256,6387,1,2,0:0:0:0:
192,256,6558,1,2,0:0:0:0:
192,256,6644,1,0,0:0:0:0:
192,256,6815,1,2,0:0:0:0:
192,256,6987,1,0,0:0:0:0:
192,256,7158,1,2,0:0:0:0:
192,256,7330,1,0,0:0:0:0:
192,256,7501,1,2,0:0:0:0:
192,256,7587,1,0,0:0:0:0:
192,256,7672,1,0,0:0:0:0:
192,256,7758,1,2,0:0:0:0:
192,256,7930,1,2,0:0:0:0:
192,256,8015,1,0,0:0:0:0:
192,256,8187,1,2,0:0:0:0:
192,256,8272,1,2,0:0:0:0:
192,256,8358,1,0,0:0:0:0:
192,256,8530,1,2,0:0:0:0:
192,256,8701,1,0,0:0:0:0:
192,256,8872,1,2,0:0:0:0:
192,256,8958,1,0,0:0:0:0:
192,256,9044,1,0,0:0:0:0:
192,256,9130,1,2,0:0:0:0:
192,256,9301,1,2,0:0:0:0:
192,256,9387,1,0,0:0:0:0:
192,256,9558,1,2,0:0:0:0:
256,192,9730,12,0,10758,0:0:0:0:
192,256,11101,5,4,0:0:0:0:
192,256,11272,1,2,0:0:0:0:
192,256,11444,1,0,0:0:0:0:
192,256,11615,1,2,0:0:0:0:
192,256,11701,1,0,0:0:0:0:
192,256,11787,1,0,0:0:0:0:
192,256,11872,1,2,0:0:0:0:
192,256,12044,1,2,0:0:0:0:
192,256,12130,1,0,0:0:0:0:
192,256,12301,1,2,0:0:0:0:
192,256,12472,1,0,0:0:0:0:
192,256,12644,1,2,0:0:0:0:
192,256,12815,1,0,0:0:0:0:
192,256,12987,1,2,0:0:0:0:
192,256,13072,1,0,0:0:0:0:
192,256,13158,1,0,0:0:0:0:
192,256,13244,1,2,0:0:0:0:
192,256,13415,1,2,0:0:0:0:
192,256,13501,1,0,0:0:0:0:
192,256,13587,1,0,0:0:0:0:
192,256,13672,1,2,0:0:0:0:
192,256,13758,1,2,0:0:0:0:
192,256,13844,1,0,0:0:0:0:
192,256,14015,1,2,0:0:0:0:
192,256,14187,1,0,0:0:0:0:
192,256,14358,1,2,0:0:0:0:
192,256,14444,1,0,0:0:0:0:
192,256,14530,1,0,0:0:0:0:
192,256,14615,1,2,0:0:0:0:
192,256,14787,1,2,0:0:0:0:
192,256,14872,1,0,0:0:0:0:
192,256,15044,1,2,0:0:0:0:
192,256,15215,1,0,0:0:0:0:
192,256,15387,1,2,0:0:0:0:
192,256,15558,1,0,0:0:0:0:
192,256,15730,1,2,0:0:0:0:
192,256,15815,1,0,0:0:0:0:
192,256,15901,1,0,0:0:0:0:
192,256,15987,1,2,0:0:0:0:
192,256,16158,1,2,0:0:0:0:
192,256,16244,1,0,0:0:0:0:
192,256,16330,1,2,0:0:0:0:
192,256,16415,1,2,0:0:0:0:
192,256,16501,1,2,0:0:0:0:
192,256,16587,1,0,0:0:0:0:
192,256,16758,1,2,0:0:0:0:
192,256,16930,1,0,0:0:0:0:
192,256,17101,1,2,0:0:0:0:
192,256,17187,1,0,0:0:0:0:
192,256,17272,1,0,0:0:0:0:
192,256,17358,1,2,0:0:0:0:
192,256,17444,1,0,0:0:0:0:
192,256,17530,1,2,0:0:0:0:
192,256,17615,1,0,0:0:0:0:
192,256,17787,1,2,0:0:0:0:
192,256,17958,1,0,0:0:0:0:
192,256,18130,1,2,0:0:0:0:
192,256,18301,1,0,0:0:0:0:
192,256,18472,1,2,0:0:0:0:
192,256,18558,1,0,0:0:0:0:
192,256,18644,1,0,0:0:0:0:
192,256,18730,1,2,0:0:0:0:
192,256,18901,1,2,0:0:0:0:
192,256,18987,1,0,0:0:0:0:
192,256,19072,1,0,0:0:0:0:
192,256,19158,1,2,0:0:0:0:
192,256,19244,1,2,0:0:0:0:
192,256,19330,1,0,0:0:0:0:
192,256,19415,1,0,0:0:0:0:
192,256,19501,1,2,0:0:0:0:
192,256,19587,1,2,0:0:0:0:
192,256,19672,1,0,0:0:0:0:
192,256,19758,1,0,0:0:0:0:
192,256,19844,1,2,0:0:0:0:
192,256,19930,1,2,0:0:0:0:
192,256,20015,1,0,0:0:0:0:
192,256,20101,1,2,0:0:0:0:
192,256,20187,1,0,0:0:0:0:
192,256,20272,1,2,0:0:0:0:
192,256,20358,1,0,0:0:0:0:
192,256,20444,1,0,0:0:0:0:
192,256,20530,1,2,0:0:0:0:
192,256,20615,1,0,0:0:0:0:
192,256,20701,1,2,0:0:0:0:
192,256,20758,1,2,0:0:0:0:
192,256,20815,1,2,0:0:0:0:
192,256,20872,1,2,0:0:0:0:
192,256,20958,1,0,0:0:0:0:
192,256,21044,1,0,0:0:0:0:
192,256,21101,1,0,0:0:0:0:
192,256,21158,1,0,0:0:0:0:
192,256,21215,1,0,0:0:0:0:
192,256,21301,1,0,0:0:0:0:
192,256,21387,1,0,0:0:0:0:
192,256,21444,1,0,0:0:0:0:
192,256,21501,1,0,0:0:0:0:
192,256,21558,1,2,0:0:0:0:
192,256,21615,1,2,0:0:0:0:
192,256,21672,1,2,0:0:0:0:
192,256,21730,1,0,0:0:0:0:
192,256,21815,1,0,0:0:0:0:
192,256,21901,1,2,0:0:0:0:
192,256,21958,1,2,0:0:0:0:
192,256,22015,1,2,0:0:0:0:
192,256,22072,5,0,0:0:0:0:
192,256,22244,1,0,0:0:0:0:
192,256,22330,1,2,0:0:0:0:
192,256,22501,1,2,0:0:0:0:
192,256,22587,1,0,0:0:0:0:
192,256,22758,1,0,0:0:0:0:
192,256,22844,1,0,0:0:0:0:
192,256,23015,1,2,0:0:0:0:
192,256,23187,1,0,0:0:0:0:
192,256,23272,1,2,0:0:0:0:
192,256,23444,1,2,0:0:0:0:
192,256,23530,1,0,0:0:0:0:
192,256,23701,1,2,0:0:0:0:
192,256,23872,1,2,0:0:0:0:
192,256,23958,1,0,0:0:0:0:
192,256,24130,1,0,0:0:0:0:
192,256,24215,1,2,0:0:0:0:
192,256,24301,1,0,0:0:0:0:
192,256,24472,1,2,0:0:0:0:
192,256,24644,1,2,0:0:0:0:
192,256,24815,1,2,0:0:0:0:
192,256,24901,1,0,0:0:0:0:
192,256,25072,1,0,0:0:0:0:
192,256,25244,1,0,0:0:0:0:
192,256,25330,1,0,0:0:0:0:
192,256,25501,1,0,0:0:0:0:
192,256,25587,1,2,0:0:0:0:
192,256,25672,1,0,0:0:0:0:
192,256,25758,1,2,0:0:0:0:
192,256,25930,1,2,0:0:0:0:
192,256,26015,1,0,0:0:0:0:
192,256,26187,1,2,0:0:0:0:
192,256,26272,1,0,0:0:0:0:
192,256,26444,1,0,0:0:0:0:
192,256,26615,1,0,0:0:0:0:
192,256,26701,1,2,0:0:0:0:
192,256,26872,1,0,0:0:0:0:
192,256,26958,1,2,0:0:0:0:
192,256,27044,1,2,0:0:0:0:
192,256,27215,1,2,0:0:0:0:
192,256,27387,1,0,0:0:0:0:
192,256,27558,1,2,0:0:0:0:
192,256,27644,1,0,0:0:0:0:
192,256,27815,1,0,0:0:0:0:
192,256,27987,1,0,0:0:0:0:
192,256,28072,1,2,0:0:0:0:
192,256,28244,1,2,0:0:0:0:
192,256,28330,1,2,0:0:0:0:
192,256,28415,1,0,0:0:0:0:
192,256,28501,1,2,0:0:0:0:
192,256,28672,1,2,0:0:0:0:
192,256,28758,1,0,0:0:0:0:
192,256,28930,1,0,0:0:0:0:
192,256,29101,1,0,0:0:0:0:
192,256,29187,1,2,0:0:0:0:
192,256,29358,1,0,0:0:0:0:
192,256,29444,1,2,0:0:0:0:
192,256,29615,1,2,0:0:0:0:
192,256,29787,1,0,0:0:0:0:
192,256,29958,1,2,0:0:0:0:
192,256,30130,1,0,0:0:0:0:
192,256,30301,1,0,0:0:0:0:
192,256,30387,1,0,0:0:0:0:
192,256,30558,1,0,0:0:0:0:
192,256,30730,1,0,0:0:0:0:
192,256,30815,1,2,0:0:0:0:
192,256,30987,1,2,0:0:0:0:
192,256,31072,1,0,0:0:0:0:
192,256,31158,1,0,0:0:0:0:
192,256,31244,1,2,0:0:0:0:
192,256,31415,1,2,0:0:0:0:
192,256,31501,1,0,0:0:0:0:
192,256,31672,1,0,0:0:0:0:
192,256,31758,1,2,0:0:0:0:
192,256,31930,1,2,0:0:0:0:
192,256,32101,1,2,0:0:0:0:
192,256,32187,1,0,0:0:0:0:
192,256,32358,1,2,0:0:0:0:
192,256,32530,1,2,0:0:0:0:
192,256,32701,1,0,0:0:0:0:
192,256,32872,1,0,0:0:0:0:
192,256,33044,5,4,0:0:0:0:
192,256,33215,1,0,0:0:0:0:
192,256,33301,1,2,0:0:0:0:
192,256,33472,1,2,0:0:0:0:
192,256,33558,1,0,0:0:0:0:
192,256,33730,1,2,0:0:0:0:
192,256,33815,1,0,0:0:0:0:
192,256,33901,1,0,0:0:0:0:
192,256,33987,1,0,0:0:0:0:
192,256,34158,1,0,0:0:0:0:
192,256,34244,1,2,0:0:0:0:
192,256,34415,1,0,0:0:0:0:
192,256,34501,1,2,0:0:0:0:
192,256,34672,1,2,0:0:0:0:
192,256,34844,1,2,0:0:0:0:
192,256,34930,1,0,0:0:0:0:
192,256,35101,1,0,0:0:0:0:
192,256,35272,1,2,0:0:0:0:
192,256,35444,1,0,0:0:0:0:
192,256,35615,1,2,0:0:0:0:
192,256,35787,1,0,0:0:0:0:
192,256,35872,1,2,0:0:0:0:
192,256,36044,1,2,0:0:0:0:
192,256,36215,1,2,0:0:0:0:
192,256,36301,1,0,0:0:0:0:
192,256,36472,1,0,0:0:0:0:
192,256,36558,1,0,0:0:0:0:
192,256,36644,1,2,0:0:0:0:
192,256,36730,1,0,0:0:0:0:
192,256,36901,1,0,0:0:0:0:
192,256,36987,1,2,0:0:0:0:
192,256,37158,1,2,0:0:0:0:
192,256,37244,1,0,0:0:0:0:
256,192,37415,1,2,0:0:0:0:
256,192,37587,1,2,0:0:0:0:
256,192,37672,1,0,0:0:0:0:
256,192,37844,1,0,0:0:0:0:
256,192,37930,1,0,0:0:0:0:
256,192,38015,1,2,0:0:0:0:
256,192,38187,1,0,0:0:0:0:
256,192,38358,1,2,0:0:0:0:
256,192,38530,1,2,0:0:0:0:
256,192,38615,1,0,0:0:0:0:
256,192,38787,1,2,0:0:0:0:
256,192,38958,1,2,0:0:0:0:
256,192,39044,1,0,0:0:0:0:
256,192,39215,1,0,0:0:0:0:
256,192,39301,1,2,0:0:0:0:
256,192,39387,1,0,0:0:0:0:
256,192,39472,1,2,0:0:0:0:
256,192,39644,1,2,0:0:0:0:
256,192,39730,1,2,0:0:0:0:
256,192,39901,1,2,0:0:0:0:
256,192,39987,1,0,0:0:0:0:
256,192,40158,1,2,0:0:0:0:
256,192,40330,1,2,0:0:0:0:
256,192,40415,1,0,0:0:0:0:
256,192,40587,1,0,0:0:0:0:
256,192,40672,1,2,0:0:0:0:
256,192,40758,1,0,0:0:0:0:
256,192,40844,1,2,0:0:0:0:
256,192,40930,1,2,0:0:0:0:
256,192,41015,1,0,0:0:0:0:
256,192,41101,1,2,0:0:0:0:
256,192,41187,1,0,0:0:0:0:
256,192,41272,1,2,0:0:0:0:
256,192,41358,1,0,0:0:0:0:
256,192,41444,1,0,0:0:0:0:
256,192,41530,1,2,0:0:0:0:
256,192,41615,1,0,0:0:0:0:
256,192,41701,1,0,0:0:0:0:
256,192,41787,1,2,0:0:0:0:
256,192,41872,1,0,0:0:0:0:
256,192,41958,1,2,0:0:0:0:
256,192,42044,1,2,0:0:0:0:
256,192,42130,1,0,0:0:0:0:
256,192,42215,1,2,0:0:0:0:
256,192,42301,1,0,0:0:0:0:
256,192,42387,1,2,0:0:0:0:
256,192,42472,1,0,0:0:0:0:
256,192,42644,12,2,43501,0:0:0:0:
152,256,44015,5,0,0:0:0:0:
152,256,44101,1,0,0:0:0:0:
152,256,44187,1,0,0:0:0:0:
152,256,44272,1,2,0:0:0:0:
152,256,44358,1,0,0:0:0:0:
152,260,44444,1,2,0:0:0:0:
152,256,44530,1,0,0:0:0:0:
152,260,44615,1,0,0:0:0:0:
152,260,44701,1,2,0:0:0:0:
152,260,44787,1,2,0:0:0:0:
152,260,44872,1,0,0:0:0:0:
152,260,44958,1,2,0:0:0:0:
152,260,45044,1,0,0:0:0:0:
152,264,45130,1,2,0:0:0:0:
152,264,45215,1,0,0:0:0:0:
148,264,45301,1,0,0:0:0:0:
152,256,45387,5,2,0:0:0:0:
152,256,45472,1,0,0:0:0:0:
152,256,45558,1,0,0:0:0:0:
152,256,45644,1,2,0:0:0:0:
152,256,45730,1,0,0:0:0:0:
152,260,45815,1,2,0:0:0:0:
152,256,45901,1,2,0:0:0:0:
152,260,45987,1,0,0:0:0:0:
152,260,46072,1,2,0:0:0:0:
152,260,46158,1,0,0:0:0:0:
152,260,46244,1,2,0:0:0:0:
152,260,46330,1,0,0:0:0:0:
152,260,46415,1,2,0:0:0:0:
152,264,46501,1,2,0:0:0:0:
152,264,46587,1,0,0:0:0:0:
148,264,46672,1,0,0:0:0:0:
152,256,46758,5,2,0:0:0:0:
152,256,46844,1,0,0:0:0:0:
152,256,46930,1,0,0:0:0:0:
152,256,47015,1,2,0:0:0:0:
152,256,47101,1,0,0:0:0:0:
152,260,47187,1,2,0:0:0:0:
152,256,47272,1,2,0:0:0:0:
152,260,47358,1,0,0:0:0:0:
152,260,47444,1,2,0:0:0:0:
152,260,47530,1,0,0:0:0:0:
152,260,47615,1,0,0:0:0:0:
152,260,47701,1,2,0:0:0:0:
152,260,47787,1,0,0:0:0:0:
152,264,47872,1,2,0:0:0:0:
152,264,47958,1,0,0:0:0:0:
148,264,48044,1,0,0:0:0:0:
152,256,48130,5,2,0:0:0:0:
152,256,48215,1,0,0:0:0:0:
152,256,48301,1,0,0:0:0:0:
152,256,48387,1,2,0:0:0:0:
152,256,48472,1,0,0:0:0:0:
152,260,48558,1,2,0:0:0:0:
152,256,48644,1,2,0:0:0:0:
152,260,48730,1,0,0:0:0:0:
152,260,48815,1,2,0:0:0:0:
152,260,48901,1,0,0:0:0:0:
152,260,48987,1,0,0:0:0:0:
152,260,49158,1,2,0:0:0:0:
160,256,49244,1,2,0:0:0:0:
152,264,49330,1,0,0:0:0:0:
152,256,49501,5,2,0:0:0:0:
152,256,49587,1,2,0:0:0:0:
152,256,49672,1,0,0:0:0:0:
152,256,49758,1,2,0:0:0:0:
152,256,49844,1,0,0:0:0:0:
152,260,49930,1,2,0:0:0:0:
152,256,50015,1,2,0:0:0:0:
152,260,50101,1,0,0:0:0:0:
152,260,50187,1,2,0:0:0:0:
152,260,50272,1,0,0:0:0:0:
152,260,50358,1,0,0:0:0:0:
152,260,50444,1,2,0:0:0:0:
152,260,50530,1,0,0:0:0:0:
152,264,50615,1,2,0:0:0:0:
152,264,50701,1,0,0:0:0:0:
148,264,50787,1,0,0:0:0:0:
152,256,50872,5,2,0:0:0:0:
152,256,50958,1,2,0:0:0:0:
152,256,51044,1,0,0:0:0:0:
152,256,51130,1,2,0:0:0:0:
152,256,51215,1,0,0:0:0:0:
152,260,51301,1,2,0:0:0:0:
152,256,51387,1,2,0:0:0:0:
152,260,51472,1,0,0:0:0:0:
152,260,51558,1,2,0:0:0:0:
160,256,51644,1,2,0:0:0:0:
160,256,51730,1,0,0:0:0:0:
160,256,51815,1,0,0:0:0:0:
160,256,51901,1,2,0:0:0:0:
160,260,51987,1,0,0:0:0:0:
160,260,52072,1,2,0:0:0:0:
156,260,52158,1,0,0:0:0:0:
160,252,52244,5,2,0:0:0:0:
160,252,52330,1,2,0:0:0:0:
160,252,52415,1,0,0:0:0:0:
160,252,52501,1,2,0:0:0:0:
160,252,52587,1,0,0:0:0:0:
160,256,52672,1,2,0:0:0:0:
160,252,52758,1,0,0:0:0:0:
160,256,52844,1,0,0:0:0:0:
160,256,52930,1,2,0:0:0:0:
160,256,53015,1,0,0:0:0:0:
160,256,53101,1,0,0:0:0:0:
160,256,53187,1,2,0:0:0:0:
160,256,53272,1,0,0:0:0:0:
160,260,53358,1,2,0:0:0:0:
160,260,53444,1,2,0:0:0:0:
156,260,53530,1,0,0:0:0:0:
160,252,53615,5,2,0:0:0:0:
160,252,53701,1,2,0:0:0:0:
160,252,53787,1,0,0:0:0:0:
160,252,53872,1,2,0:0:0:0:
160,252,53958,1,0,0:0:0:0:
160,256,54044,1,2,0:0:0:0:
160,252,54130,1,0,0:0:0:0:
160,256,54215,1,0,0:0:0:0:
160,256,54301,1,2,0:0:0:0:
160,256,54387,1,0,0:0:0:0:
160,256,54472,1,2,0:0:0:0:
160,256,54558,1,0,0:0:0:0:
160,256,54644,1,2,0:0:0:0:
160,256,54730,1,2,0:0:0:0:
160,256,54815,1,2,0:0:0:0:
160,256,54901,1,2,0:0:0:0:
160,256,54987,5,4,0:0:0:0:
128,188,55158,1,0,0:0:0:0:
128,188,55244,1,2,0:0:0:0:
128,188,55330,1,0,0:0:0:0:
128,192,55415,1,2,0:0:0:0:
128,188,55501,1,0,0:0:0:0:
128,192,55587,1,0,0:0:0:0:
128,192,55672,1,2,0:0:0:0:
128,192,55758,1,2,0:0:0:0:
128,192,55844,1,0,0:0:0:0:
128,192,55930,1,2,0:0:0:0:
128,192,56015,1,0,0:0:0:0:
128,196,56101,1,2,0:0:0:0:
128,196,56187,1,2,0:0:0:0:
124,196,56272,1,0,0:0:0:0:
128,188,56358,5,2,0:0:0:0:
128,188,56444,1,0,0:0:0:0:
128,188,56530,1,0,0:0:0:0:
128,188,56615,1,2,0:0:0:0:
128,188,56701,1,0,0:0:0:0:
128,192,56787,1,2,0:0:0:0:
128,188,56872,1,0,0:0:0:0:
128,192,56958,1,0,0:0:0:0:
128,192,57044,1,2,0:0:0:0:
128,192,57130,1,0,0:0:0:0:
128,192,57215,1,2,0:0:0:0:
128,192,57301,1,0,0:0:0:0:
128,192,57387,1,2,0:0:0:0:
128,196,57472,1,2,0:0:0:0:
128,196,57558,1,0,0:0:0:0:
124,196,57644,1,0,0:0:0:0:
128,188,57730,5,2,0:0:0:0:
128,188,57815,1,0,0:0:0:0:
128,188,57901,1,0,0:0:0:0:
128,188,57987,1,2,0:0:0:0:
128,188,58072,1,0,0:0:0:0:
128,192,58158,1,2,0:0:0:0:
128,188,58244,1,0,0:0:0:0:
128,192,58330,1,0,0:0:0:0:
128,192,58415,1,2,0:0:0:0:
128,192,58501,1,2,0:0:0:0:
128,192,58587,1,0,0:0:0:0:
128,192,58672,1,2,0:0:0:0:
128,192,58758,1,0,0:0:0:0:
128,196,58844,1,2,0:0:0:0:
128,196,58930,1,2,0:0:0:0:
124,196,59015,1,0,0:0:0:0:
128,188,59101,5,2,0:0:0:0:
128,188,59187,1,0,0:0:0:0:
128,188,59272,1,0,0:0:0:0:
128,188,59358,1,2,0:0:0:0:
128,188,59444,1,0,0:0:0:0:
128,192,59530,1,2,0:0:0:0:
128,188,59615,1,2,0:0:0:0:
128,192,59701,1,0,0:0:0:0:
128,192,59787,1,2,0:0:0:0:
128,192,59872,1,2,0:0:0:0:
128,192,59958,1,2,0:0:0:0:
128,192,60130,1,2,0:0:0:0:
128,196,60215,1,0,0:0:0:0:
128,196,60301,1,0,0:0:0:0:
128,188,60472,5,0,0:0:0:0:
128,188,60558,1,0,0:0:0:0:
128,188,60644,1,0,0:0:0:0:
128,188,60730,1,2,0:0:0:0:
128,188,60815,1,0,0:0:0:0:
128,192,60901,1,2,0:0:0:0:
128,188,60987,1,2,0:0:0:0:
128,192,61072,1,0,0:0:0:0:
128,192,61158,1,2,0:0:0:0:
128,192,61244,1,2,0:0:0:0:
128,192,61330,1,0,0:0:0:0:
128,192,61415,1,2,0:0:0:0:
128,192,61501,1,0,0:0:0:0:
128,196,61587,1,2,0:0:0:0:
128,196,61672,1,0,0:0:0:0:
124,196,61758,1,0,0:0:0:0:
128,188,61844,5,2,0:0:0:0:
128,188,61930,1,0,0:0:0:0:
128,188,62015,1,0,0:0:0:0:
128,188,62101,1,2,0:0:0:0:
128,188,62187,1,0,0:0:0:0:
128,192,62272,1,2,0:0:0:0:
128,188,62358,1,2,0:0:0:0:
128,192,62444,1,0,0:0:0:0:
128,192,62530,1,2,0:0:0:0:
128,192,62615,1,0,0:0:0:0:
128,192,62701,1,2,0:0:0:0:
128,192,62787,1,0,0:0:0:0:
128,192,62872,1,2,0:0:0:0:
128,196,62958,1,2,0:0:0:0:
128,196,63044,1,0,0:0:0:0:
124,196,63130,1,0,0:0:0:0:
128,188,63215,5,2,0:0:0:0:
128,188,63301,1,0,0:0:0:0:
128,188,63387,1,0,0:0:0:0:
128,188,63472,1,2,0:0:0:0:
128,188,63558,1,0,0:0:0:0:
128,192,63644,1,2,0:0:0:0:
128,188,63730,1,2,0:0:0:0:
128,192,63815,1,0,0:0:0:0:
128,192,63901,1,2,0:0:0:0:
128,192,63987,1,0,0:0:0:0:
128,192,64072,1,0,0:0:0:0:
128,192,64158,1,2,0:0:0:0:
128,192,64244,1,0,0:0:0:0:
128,196,64330,1,2,0:0:0:0:
128,196,64415,1,0,0:0:0:0:
124,196,64501,1,0,0:0:0:0:
156,164,64587,1,2,0:0:0:0:
156,164,64644,1,2,0:0:0:0:
156,164,64701,1,2,0:0:0:0:
156,164,64758,1,0,0:0:0:0:
156,164,64844,1,0,0:0:0:0:
160,160,64930,1,2,0:0:0:0:
160,160,64987,1,2,0:0:0:0:
156,164,65044,1,2,0:0:0:0:
156,164,65101,1,0,0:0:0:0:
156,164,65187,1,0,0:0:0:0:
152,168,65272,1,0,0:0:0:0:
164,156,65330,1,0,0:0:0:0:
160,160,65387,1,0,0:0:0:0:
152,168,65444,1,2,0:0:0:0:
164,156,65501,1,2,0:0:0:0:
164,156,65558,1,2,0:0:0:0:
164,156,65615,1,0,0:0:0:0:
160,160,65701,1,0,0:0:0:0:
152,168,65787,1,2,0:0:0:0:
152,168,65844,1,2,0:0:0:0:
152,168,65901,1,2,0:0:0:0:
152,172,65958,5,0,0:0:0:0:
160,160,66301,1,2,0:0:0:0:
160,160,66644,1,0,0:0:0:0:
160,160,66987,1,2,0:0:0:0:
160,160,67158,1,0,0:0:0:0:
160,160,67330,1,0,0:0:0:0:
160,160,67672,1,2,0:0:0:0:
160,160,68015,1,0,0:0:0:0:
160,160,68358,1,2,0:0:0:0:
160,160,68530,1,0,0:0:0:0:
160,160,68701,1,0,0:0:0:0:
160,160,69044,1,2,0:0:0:0:
160,160,69215,1,2,0:0:0:0:
160,160,69387,1,0,0:0:0:0:
160,160,69730,1,2,0:0:0:0:
160,160,70072,1,0,0:0:0:0:
160,160,70244,1,0,0:0:0:0:
160,160,70415,1,2,0:0:0:0:
160,160,70587,1,2,0:0:0:0:
160,160,70758,1,0,0:0:0:0:
160,160,71101,1,2,0:0:0:0:
160,160,71272,1,0,0:0:0:0:
160,160,71444,1,2,0:0:0:0:
160,160,71787,1,0,0:0:0:0:
160,160,72130,1,2,0:0:0:0:
160,160,72472,1,0,0:0:0:0:
160,160,72644,1,0,0:0:0:0:
160,160,72815,1,2,0:0:0:0:
160,160,73158,1,0,0:0:0:0:
160,160,73501,1,2,0:0:0:0:
160,160,73844,1,0,0:0:0:0:
160,160,74015,1,2,0:0:0:0:
160,160,74187,1,0,0:0:0:0:
160,160,74530,1,2,0:0:0:0:
160,160,74701,1,0,0:0:0:0:
160,160,74872,1,0,0:0:0:0:
160,160,75215,1,2,0:0:0:0:
160,160,75558,1,0,0:0:0:0:
160,160,75730,1,0,0:0:0:0:
160,160,75901,1,2,0:0:0:0:
160,160,76072,1,0,0:0:0:0:
160,160,76244,1,0,0:0:0:0:
160,160,76587,1,2,0:0:0:0:
160,160,76758,1,0,0:0:0:0:
160,160,76930,5,0,0:0:0:0:
160,160,77101,1,2,0:0:0:0:
160,160,77444,1,2,0:0:0:0:
160,160,77615,1,0,0:0:0:0:
160,160,77787,1,2,0:0:0:0:
160,160,78130,1,2,0:0:0:0:
160,160,78301,1,0,0:0:0:0:
160,160,78472,1,2,0:0:0:0:
160,160,78815,1,2,0:0:0:0:
160,160,78987,1,0,0:0:0:0:
160,160,79158,1,2,0:0:0:0:
160,160,79501,1,0,0:0:0:0:
160,160,79672,1,0,0:0:0:0:
160,160,79844,1,2,0:0:0:0:
160,160,80187,1,0,0:0:0:0:
160,160,80358,1,0,0:0:0:0:
160,160,80530,1,2,0:0:0:0:
160,160,80872,1,0,0:0:0:0:
160,160,81044,1,0,0:0:0:0:
160,160,81215,1,2,0:0:0:0:
160,160,81558,1,0,0:0:0:0:
160,160,81730,1,0,0:0:0:0:
160,160,81901,1,2,0:0:0:0:
160,160,82244,1,0,0:0:0:0:
160,160,82415,1,2,0:0:0:0:
160,160,82587,1,0,0:0:0:0:
160,160,82930,1,0,0:0:0:0:
160,160,83101,1,2,0:0:0:0:
160,160,83272,1,0,0:0:0:0:
160,160,83615,1,0,0:0:0:0:
160,160,83787,1,2,0:0:0:0:
160,160,83958,1,0,0:0:0:0:
160,160,84301,1,0,0:0:0:0:
160,160,84472,1,2,0:0:0:0:
160,160,84644,1,0,0:0:0:0:
160,160,84987,1,2,0:0:0:0:
160,160,85158,1,0,0:0:0:0:
160,160,85330,1,2,0:0:0:0:
160,160,85672,1,2,0:0:0:0:
160,160,85844,1,0,0:0:0:0:
160,160,86015,1,2,0:0:0:0:
160,160,86358,1,2,0:0:0:0:
160,160,86530,1,0,0:0:0:0:
160,160,86701,1,2,0:0:0:0:
160,160,87044,1,2,0:0:0:0:
160,160,87215,1,0,0:0:0:0:
160,160,87387,1,0,0:0:0:0:
160,160,87558,1,2,0:0:0:0:
160,160,87730,1,2,0:0:0:0:
160,160,87815,1,2,0:0:0:0:
160,160,87901,5,4,0:0:0:0:
160,160,88072,1,0,0:0:0:0:
160,160,88244,1,2,0:0:0:0:
160,160,88415,1,0,0:0:0:0:
160,160,88501,1,2,0:0:0:0:
160,160,88587,1,0,0:0:0:0:
160,160,88672,1,0,0:0:0:0:
160,160,88758,1,0,0:0:0:0:
160,160,88930,1,2,0:0:0:0:
160,160,89101,1,0,0:0:0:0:
160,160,89187,1,2,0:0:0:0:
160,160,89272,1,0,0:0:0:0:
160,160,89358,1,0,0:0:0:0:
160,160,89444,1,0,0:0:0:0:
160,160,89615,1,2,0:0:0:0:
160,160,89787,1,0,0:0:0:0:
160,160,89872,1,2,0:0:0:0:
160,160,89958,1,0,0:0:0:0:
160,160,90044,1,2,0:0:0:0:
160,160,90130,1,0,0:0:0:0:
160,160,90301,1,2,0:0:0:0:
160,160,90472,1,2,0:0:0:0:
160,160,90558,1,0,0:0:0:0:
160,160,90644,1,0,0:0:0:0:
160,160,90815,1,0,0:0:0:0:
164,164,90987,1,2,0:0:0:0:
160,160,91158,1,0,0:0:0:0:
160,160,91244,1,0,0:0:0:0:
160,160,91330,1,2,0:0:0:0:
160,160,91415,1,0,0:0:0:0:
160,160,91501,1,0,0:0:0:0:
160,160,91672,1,2,0:0:0:0:
160,160,91844,1,0,0:0:0:0:
160,160,91930,1,2,0:0:0:0:
160,160,92015,1,2,0:0:0:0:
160,160,92101,1,0,0:0:0:0:
160,160,92187,1,0,0:0:0:0:
160,160,92358,1,2,0:0:0:0:
160,160,92530,1,0,0:0:0:0:
160,160,92615,1,0,0:0:0:0:
160,160,92701,1,2,0:0:0:0:
160,160,92787,1,2,0:0:0:0:
160,160,92872,1,0,0:0:0:0:
160,160,93044,1,2,0:0:0:0:
160,160,93215,1,2,0:0:0:0:
160,160,93301,1,0,0:0:0:0:
160,160,93387,1,2,0:0:0:0:
160,160,93558,1,0,0:0:0:0:
160,160,93730,1,2,0:0:0:0:
160,160,93901,1,2,0:0:0:0:
160,160,93987,1,0,0:0:0:0:
160,160,94072,1,2,0:0:0:0:
160,160,94158,1,2,0:0:0:0:
160,160,94244,1,0,0:0:0:0:
160,160,94415,1,2,0:0:0:0:
160,160,94587,1,0,0:0:0:0:
160,160,94672,1,2,0:0:0:0:
160,160,94758,1,2,0:0:0:0:
160,160,94844,1,2,0:0:0:0:
160,160,94930,1,0,0:0:0:0:
164,160,95101,1,2,0:0:0:0:
164,160,95272,1,2,0:0:0:0:
164,160,95358,1,2,0:0:0:0:
164,164,95444,1,2,0:0:0:0:
164,164,95530,1,0,0:0:0:0:
160,164,95615,1,0,0:0:0:0:
160,164,95787,1,2,0:0:0:0:
160,164,95958,1,2,0:0:0:0:
160,160,96044,1,2,0:0:0:0:
160,160,96130,1,0,0:0:0:0:
160,160,96301,1,0,0:0:0:0:
160,160,96472,1,2,0:0:0:0:
160,160,96644,1,0,0:0:0:0:
160,160,96730,1,2,0:0:0:0:
160,160,96815,1,0,0:0:0:0:
160,160,96901,1,2,0:0:0:0:
160,160,96987,1,0,0:0:0:0:
160,160,97158,1,2,0:0:0:0:
160,160,97330,1,0,0:0:0:0:
160,160,97415,1,0,0:0:0:0:
160,160,97501,1,0,0:0:0:0:
160,160,97587,1,2,0:0:0:0:
160,160,97672,1,0,0:0:0:0:
160,160,97844,1,2,0:0:0:0:
160,160,98015,1,0,0:0:0:0:
160,160,98187,1,0,0:0:0:0:
160,160,98272,1,0,0:0:0:0:
160,160,98358,1,2,0:0:0:0:
160,160,98530,1,0,0:0:0:0:
160,160,98615,1,0,0:0:0:0:
160,160,98701,1,0,0:0:0:0:
160,160,98787,1,0,0:0:0:0:
160,160,98872,1,6,0:0:0:0:
160,160,99044,1,0,0:0:0:0:
160,160,99130,1,0,0:0:0:0:
160,160,99215,1,2,0:0:0:0:
160,160,99387,1,2,0:0:0:0:
160,160,99472,1,0,0:0:0:0:
160,160,99558,1,2,0:0:0:0:
160,160,99644,1,0,0:0:0:0:
160,160,99730,1,0,0:0:0:0:
160,160,99815,1,0,0:0:0:0:
160,160,99901,1,2,0:0:0:0:
160,160,100072,1,2,0:0:0:0:
160,160,100158,1,0,0:0:0:0:
160,160,100244,1,0,0:0:0:0:
160,160,100330,1,2,0:0:0:0:
160,160,100415,1,0,0:0:0:0:
160,160,100501,1,0,0:0:0:0:
160,160,100587,1,2,0:0:0:0:
160,160,100758,1,0,0:0:0:0:
160,160,100844,1,2,0:0:0:0:
160,160,100930,1,0,0:0:0:0:
160,160,101015,1,0,0:0:0:0:
160,160,101101,1,2,0:0:0:0:
160,160,101187,1,0,0:0:0:0:
160,160,101272,1,2,0:0:0:0:
160,160,101444,1,2,0:0:0:0:
160,160,101530,1,2,0:0:0:0:
160,160,101615,1,0,0:0:0:0:
160,160,101787,1,0,0:0:0:0:
160,160,101872,1,0,0:0:0:0:
160,160,101958,1,2,0:0:0:0:
160,160,102130,1,0,0:0:0:0:
160,160,102215,1,2,0:0:0:0:
160,160,102301,1,0,0:0:0:0:
160,160,102387,1,2,0:0:0:0:
160,160,102472,1,0,0:0:0:0:
160,160,102558,1,0,0:0:0:0:
160,160,102644,1,2,0:0:0:0:
156,160,102815,1,0,0:0:0:0:
156,160,102901,1,2,0:0:0:0:
156,160,102987,1,2,0:0:0:0:
160,160,103072,1,0,0:0:0:0:
160,160,103158,1,0,0:0:0:0:
160,160,103244,1,0,0:0:0:0:
160,160,103330,1,2,0:0:0:0:
160,160,103501,1,0,0:0:0:0:
160,160,103587,1,0,0:0:0:0:
156,160,103672,1,2,0:0:0:0:
156,160,103758,1,2,0:0:0:0:
156,160,103844,1,0,0:0:0:0:
156,160,103930,1,0,0:0:0:0:
160,160,104015,1,2,0:0:0:0:
160,160,104187,1,2,0:0:0:0:
160,160,104272,1,0,0:0:0:0:
160,160,104358,1,2,0:0:0:0:
160,160,104530,1,0,0:0:0:0:
160,160,104615,1,0,0:0:0:0:
160,160,104701,1,2,0:0:0:0:
160,160,104872,1,2,0:0:0:0:
160,160,104958,1,0,0:0:0:0:
160,160,105044,1,2,0:0:0:0:
160,160,105130,1,2,0:0:0:0:
160,160,105215,1,0,0:0:0:0:
160,160,105301,1,0,0:0:0:0:
160,160,105387,1,2,0:0:0:0:
160,160,105558,1,2,0:0:0:0:
160,160,105644,1,2,0:0:0:0:
160,160,105730,1,2,0:0:0:0:
160,160,105815,1,0,0:0:0:0:
160,160,105901,1,0,0:0:0:0:
160,160,105987,1,0,0:0:0:0:
160,160,106072,1,2,0:0:0:0:
160,160,106244,1,0,0:0:0:0:
160,160,106330,1,2,0:0:0:0:
160,160,106415,1,2,0:0:0:0:
160,160,106501,1,2,0:0:0:0:
160,160,106587,1,0,0:0:0:0:
160,160,106672,1,0,0:0:0:0:
160,160,106758,1,2,0:0:0:0:
160,160,106930,1,2,0:0:0:0:
160,160,107015,1,2,0:0:0:0:
160,164,107101,1,0,0:0:0:0:
160,164,107272,1,0,0:0:0:0:
160,164,107358,1,0,0:0:0:0:
160,164,107444,1,2,0:0:0:0:
160,164,107615,1,2,0:0:0:0:
160,164,107701,1,2,0:0:0:0:
160,164,107787,1,0,0:0:0:0:
160,164,107872,1,0,0:0:0:0:
160,164,107958,1,2,0:0:0:0:
160,164,108044,1,0,0:0:0:0:
160,164,108130,1,2,0:0:0:0:
160,164,108301,1,2,0:0:0:0:
160,164,108387,1,2,0:0:0:0:
160,164,108472,1,4,0:0:0:0:
160,164,108815,1,2,0:0:0:0:
160,160,109158,1,0,0:0:0:0:
160,164,109501,1,2,0:0:0:0:
160,164,109844,5,4,0:0:0:0:
160,164,110101,1,0,0:0:0:0:
160,164,110358,1,0,0:0:0:0:
160,164,110615,1,0,0:0:0:0:
160,164,110872,1,2,0:0:0:0:
160,164,111044,1,0,0:0:0:0:
160,164,111215,1,0,0:0:0:0:
160,164,111472,1,0,0:0:0:0:
160,164,111730,1,0,0:0:0:0:
160,164,111987,1,0,0:0:0:0:
160,164,112244,1,2,0:0:0:0:
160,164,112415,1,0,0:0:0:0:
160,164,112587,1,2,0:0:0:0:
160,164,112844,1,2,0:0:0:0:
160,164,113101,1,0,0:0:0:0:
160,164,113358,1,0,0:0:0:0:
160,164,113615,1,2,0:0:0:0:
160,164,113787,1,0,0:0:0:0:
160,164,113958,1,2,0:0:0:0:
160,164,114215,1,2,0:0:0:0:
160,164,114472,1,0,0:0:0:0:
160,164,114730,1,0,0:0:0:0:
160,164,114987,1,0,0:0:0:0:
160,164,115158,1,0,0:0:0:0:
160,164,115330,1,2,0:0:0:0:
160,164,115587,1,2,0:0:0:0:
160,164,115844,1,0,0:0:0:0:
160,164,116101,1,2,0:0:0:0:
160,164,116358,1,2,0:0:0:0:
160,164,116530,1,0,0:0:0:0:
160,164,116701,1,2,0:0:0:0:
160,164,116958,1,2,0:0:0:0:
160,164,117215,1,0,0:0:0:0:
160,164,117472,1,2,0:0:0:0:
160,164,117730,1,2,0:0:0:0:
160,164,117901,1,2,0:0:0:0:
160,164,118072,1,0,0:0:0:0:
160,164,118330,1,0,0:0:0:0:
160,164,118587,1,0,0:0:0:0:
160,164,118844,1,2,0:0:0:0:
160,164,119101,1,2,0:0:0:0:
160,164,119272,1,2,0:0:0:0:
160,164,119444,1,0,0:0:0:0:
160,164,119701,1,0,0:0:0:0:
160,164,119958,1,0,0:0:0:0:
160,164,120215,1,2,0:0:0:0:
160,164,120472,1,0,0:0:0:0:
160,164,120644,1,2,0:0:0:0:
160,164,120815,5,4,0:0:0:0:
160,164,121072,1,2,0:0:0:0:
160,164,121158,1,0,0:0:0:0:
160,164,121330,1,0,0:0:0:0:
160,160,121501,1,0,0:0:0:0:
160,160,121587,1,2,0:0:0:0:
160,160,121758,1,2,0:0:0:0:
160,160,121844,1,0,0:0:0:0:
160,160,122015,1,2,0:0:0:0:
160,160,122187,1,0,0:0:0:0:
160,160,122444,1,2,0:0:0:0:
160,160,122530,1,0,0:0:0:0:
160,160,122701,1,0,0:0:0:0:
160,160,122872,1,0,0:0:0:0:
160,160,122958,1,2,0:0:0:0:
160,160,123130,1,2,0:0:0:0:
160,160,123215,1,0,0:0:0:0:
160,160,123387,1,2,0:0:0:0:
160,160,123472,1,2,0:0:0:0:
160,160,123558,1,4,0:0:0:0:
160,160,123815,1,2,0:0:0:0:
160,160,123901,1,0,0:0:0:0:
160,160,124072,1,2,0:0:0:0:
160,160,124244,1,0,0:0:0:0:
160,160,124330,1,2,0:0:0:0:
160,160,124415,1,0,0:0:0:0:
160,160,124587,1,2,0:0:0:0:
160,160,124758,1,0,0:0:0:0:
160,160,124930,1,0,0:0:0:0:
160,160,125187,1,2,0:0:0:0:
164,160,125272,1,0,0:0:0:0:
164,160,125444,1,2,0:0:0:0:
164,160,125615,1,0,0:0:0:0:
160,160,125701,1,2,0:0:0:0:
160,160,125787,1,0,0:0:0:0:
160,160,125872,1,0,0:0:0:0:
160,160,125958,1,2,0:0:0:0:
160,160,126044,1,2,0:0:0:0:
160,160,126130,1,0,0:0:0:0:
160,160,126215,1,0,0:0:0:0:
164,160,126301,1,6,0:0:0:0:
164,160,126472,1,0,0:0:0:0:
160,160,126558,1,2,0:0:0:0:
160,160,126644,1,0,0:0:0:0:
160,160,126815,1,2,0:0:0:0:
160,160,126987,1,0,0:0:0:0:
160,160,127072,1,2,0:0:0:0:
156,160,127158,1,2,0:0:0:0:
156,160,127330,1,2,0:0:0:0:
160,164,127501,1,0,0:0:0:0:
156,156,127672,1,6,0:0:0:0:
160,160,127844,1,0,0:0:0:0:
160,160,127930,1,2,0:0:0:0:
160,160,128015,1,0,0:0:0:0:
160,160,128187,1,2,0:0:0:0:
160,160,128358,1,0,0:0:0:0:
160,160,128444,1,2,0:0:0:0:
160,160,128530,1,2,0:0:0:0:
160,160,128701,1,2,0:0:0:0:
160,160,128787,1,0,0:0:0:0:
160,160,128872,1,2,0:0:0:0:
160,160,128958,1,0,0:0:0:0:
160,160,129044,1,2,0:0:0:0:
156,160,129130,1,2,0:0:0:0:
156,164,129215,1,0,0:0:0:0:
156,164,129301,1,2,0:0:0:0:
156,164,129387,1,0,0:0:0:0:
156,164,129472,1,0,0:0:0:0:
156,164,129558,1,2,0:0:0:0:
156,164,129644,1,2,0:0:0:0:
156,164,129730,1,0,0:0:0:0:
156,164,129815,1,2,0:0:0:0:
156,164,129901,1,0,0:0:0:0:
160,160,129987,1,0,0:0:0:0:
156,164,130072,1,2,0:0:0:0:
156,164,130158,1,0,0:0:0:0:
156,164,130244,1,2,0:0:0:0:
156,164,130330,1,0,0:0:0:0:
156,164,130415,1,2,0:0:0:0:
160,160,130472,1,2,0:0:0:0:
160,160,130530,1,2,0:0:0:0:
160,160,130587,1,0,0:0:0:0:
160,160,130672,1,2,0:0:0:0:
160,160,130758,1,0,0:0:0:0:
160,160,130844,1,0,0:0:0:0:
160,160,130930,1,2,0:0:0:0:
160,160,130987,1,2,0:0:0:0:
160,160,131044,1,2,0:0:0:0:
160,160,131101,1,0,0:0:0:0:
160,160,131187,1,2,0:0:0:0:
156,160,131272,1,0,0:0:0:0:
156,160,131358,1,0,0:0:0:0:
156,164,131444,1,2,0:0:0:0:
156,164,131501,1,0,0:0:0:0:
156,164,131558,1,0,0:0:0:0:
160,160,131615,1,2,0:0:0:0:
160,160,131672,1,0,0:0:0:0:
160,160,131730,1,0,0:0:0:0:
160,160,131787,5,2,0:0:0:0:
160,160,131958,1,0,0:0:0:0:
160,160,132044,1,2,0:0:0:0:
160,160,132215,1,2,0:0:0:0:
160,160,132301,1,0,0:0:0:0:
160,160,132472,1,0,0:0:0:0:
160,160,132558,1,2,0:0:0:0:
160,160,132644,1,0,0:0:0:0:
160,160,132815,1,2,0:0:0:0:
160,160,132901,1,0,0:0:0:0:
160,160,132987,1,2,0:0:0:0:
160,160,133158,1,0,0:0:0:0:
160,160,133330,1,0,0:0:0:0:
160,160,133415,1,2,0:0:0:0:
160,160,133587,1,2,0:0:0:0:
160,164,133672,1,0,0:0:0:0:
160,160,133844,1,0,0:0:0:0:
160,160,133930,1,2,0:0:0:0:
160,160,134015,1,0,0:0:0:0:
160,160,134101,1,0,0:0:0:0:
160,160,134187,1,2,0:0:0:0:
160,160,134358,1,2,0:0:0:0:
160,160,134530,1,0,0:0:0:0:
160,160,134701,1,2,0:0:0:0:
160,160,134787,1,0,0:0:0:0:
160,160,134958,1,2,0:0:0:0:
160,160,135044,1,0,0:0:0:0:
160,160,135215,1,0,0:0:0:0:
160,160,135301,1,2,0:0:0:0:
156,160,135387,1,0,0:0:0:0:
156,160,135558,1,2,0:0:0:0:
160,164,135644,1,0,0:0:0:0:
160,164,135730,1,0,0:0:0:0:
160,164,135901,1,0,0:0:0:0:
160,164,136072,1,2,0:0:0:0:
160,168,136158,1,0,0:0:0:0:
160,168,136330,1,2,0:0:0:0:
164,168,136415,1,0,0:0:0:0:
160,160,136587,1,0,0:0:0:0:
160,160,136672,1,2,0:0:0:0:
160,164,136758,1,0,0:0:0:0:
160,160,136844,1,0,0:0:0:0:
160,160,136930,1,2,0:0:0:0:
160,160,137015,1,2,0:0:0:0:
160,160,137101,1,0,0:0:0:0:
160,160,137187,1,0,0:0:0:0:
160,160,137272,1,2,0:0:0:0:
160,160,137444,1,2,0:0:0:0:
160,160,137530,1,2,0:0:0:0:
160,160,137701,1,2,0:0:0:0:
160,160,137787,1,0,0:0:0:0:
160,160,137958,1,0,0:0:0:0:
160,160,138044,1,2,0:0:0:0:
160,160,138130,1,0,0:0:0:0:
160,160,138301,1,2,0:0:0:0:
160,160,138387,1,2,0:0:0:0:
160,160,138472,1,0,0:0:0:0:
160,160,138644,1,2,0:0:0:0:
160,160,138815,1,2,0:0:0:0:
160,160,138901,1,2,0:0:0:0:
160,160,139072,1,2,0:0:0:0:
160,160,139158,1,0,0:0:0:0:
152,164,139330,1,0,0:0:0:0:
152,164,139415,1,2,0:0:0:0:
160,160,139501,1,0,0:0:0:0:
160,160,139587,1,0,0:0:0:0:
160,160,139672,1,2,0:0:0:0:
160,160,139758,1,2,0:0:0:0:
160,160,139844,1,0,0:0:0:0:
160,160,139930,1,2,0:0:0:0:
160,160,140015,1,0,0:0:0:0:
160,160,140187,1,0,0:0:0:0:
160,160,140272,1,2,0:0:0:0:
160,160,140444,1,0,0:0:0:0:
160,160,140530,1,0,0:0:0:0:
160,160,140701,1,0,0:0:0:0:
160,160,140787,1,2,0:0:0:0:
160,160,140872,1,0,0:0:0:0:
160,160,141044,1,2,0:0:0:0:
160,160,141130,1,0,0:0:0:0:
160,160,141215,1,0,0:0:0:0:
160,160,141387,1,0,0:0:0:0:
160,160,141558,1,0,0:0:0:0:
160,160,141644,1,2,0:0:0:0:
160,160,141815,1,0,0:0:0:0:
160,160,141901,1,0,0:0:0:0:
160,160,142158,1,0,0:0:0:0:
160,160,142244,1,0,0:0:0:0:
160,160,142330,1,0,0:0:0:0:
160,152,142415,1,2,0:0:0:0:
156,152,142501,1,2,0:0:0:0:
156,152,142587,1,0,0:0:0:0:
160,160,142672,1,0,0:0:0:0:
160,160,142758,5,6,0:0:0:0:
160,160,142930,1,0,0:0:0:0:
160,160,143015,1,2,0:0:0:0:
160,160,143187,1,0,0:0:0:0:
160,160,143272,1,2,0:0:0:0:
160,160,143444,1,0,0:0:0:0:
160,160,143530,1,2,0:0:0:0:
160,160,143615,1,2,0:0:0:0:
160,160,143701,1,0,0:0:0:0:
160,160,143787,1,2,0:0:0:0:
160,160,143958,1,2,0:0:0:0:
160,160,144130,1,0,0:0:0:0:
160,160,144301,1,0,0:0:0:0:
160,160,144387,1,2,0:0:0:0:
160,160,144472,1,2,0:0:0:0:
160,160,144558,1,0,0:0:0:0:
160,160,144644,1,2,0:0:0:0:
160,160,144815,1,0,0:0:0:0:
160,160,144901,1,2,0:0:0:0:
160,160,145072,1,0,0:0:0:0:
160,160,145158,1,2,0:0:0:0:
160,160,145330,1,2,0:0:0:0:
160,160,145501,1,0,0:0:0:0:
160,160,145672,1,2,0:0:0:0:
160,160,145758,1,0,0:0:0:0:
160,160,145930,1,2,0:0:0:0:
160,160,146015,1,0,0:0:0:0:
160,160,146187,1,0,0:0:0:0:
160,160,146272,1,2,0:0:0:0:
156,160,146358,1,0,0:0:0:0:
156,160,146444,1,0,0:0:0:0:
156,160,146530,1,2,0:0:0:0:
156,160,146701,1,0,0:0:0:0:
156,160,146872,1,0,0:0:0:0:
160,160,147044,1,0,0:0:0:0:
160,160,147130,1,2,0:0:0:0:
160,160,147215,1,0,0:0:0:0:
160,160,147301,1,0,0:0:0:0:
160,160,147387,1,2,0:0:0:0:
160,160,147558,1,0,0:0:0:0:
160,160,147644,1,2,0:0:0:0:
160,160,147815,1,0,0:0:0:0:
160,160,147901,1,2,0:0:0:0:
160,160,147987,1,2,0:0:0:0:
160,160,148072,1,0,0:0:0:0:
160,160,148158,1,0,0:0:0:0:
160,160,148244,1,2,0:0:0:0:
160,160,148415,1,0,0:0:0:0:
160,160,148501,1,2,0:0:0:0:
160,160,148672,1,2,0:0:0:0:
160,160,148758,1,0,0:0:0:0:
160,160,148930,1,0,0:0:0:0:
160,160,149015,1,2,0:0:0:0:
160,160,149101,1,2,0:0:0:0:
160,160,149187,1,0,0:0:0:0:
160,160,149272,1,2,0:0:0:0:
160,160,149444,1,2,0:0:0:0:
160,160,149615,1,2,0:0:0:0:
152,160,149787,1,0,0:0:0:0:
152,160,149872,1,2,0:0:0:0:
160,160,149958,1,2,0:0:0:0:
160,160,150044,1,0,0:0:0:0:
160,160,150130,1,2,0:0:0:0:
152,164,150301,1,0,0:0:0:0:
152,164,150387,1,2,0:0:0:0:
160,160,150558,1,0,0:0:0:0:
160,160,150644,1,2,0:0:0:0:
160,160,150730,1,2,0:0:0:0:
160,160,150815,1,0,0:0:0:0:
160,160,150901,1,2,0:0:0:0:
160,160,150987,1,0,0:0:0:0:
160,160,151158,1,0,0:0:0:0:
160,160,151244,1,2,0:0:0:0:
160,160,151415,1,0,0:0:0:0:
160,160,151501,1,0,0:0:0:0:
160,160,151672,1,0,0:0:0:0:
168,156,151758,1,2,0:0:0:0:
160,160,151844,1,0,0:0:0:0:
168,160,151930,1,0,0:0:0:0:
168,160,152015,1,2,0:0:0:0:
168,160,152101,1,2,0:0:0:0:
168,160,152187,1,0,0:0:0:0:
160,160,152358,1,6,0:0:0:0:
160,160,152615,1,6,0:0:0:0:
160,160,152872,1,4,0:0:0:0:
160,160,153130,1,6,0:0:0:0:
160,160,153387,1,6,0:0:0:0:
160,160,153558,1,4,0:0:0:0:
160,160,153730,5,6,0:0:0:0:
160,160,153901,1,0,0:0:0:0:
160,160,153987,1,2,0:0:0:0:
160,160,154072,1,2,0:0:0:0:
160,160,154244,1,2,0:0:0:0:
160,160,154330,1,0,0:0:0:0:
160,160,154501,1,2,0:0:0:0:
160,160,154587,1,0,0:0:0:0:
160,160,154758,1,2,0:0:0:0:
160,160,154844,1,2,0:0:0:0:
160,160,154930,1,0,0:0:0:0:
160,160,155015,1,2,0:0:0:0:
160,160,155101,1,0,0:0:0:0:
156,168,155272,1,0,0:0:0:0:
156,168,155358,1,2,0:0:0:0:
160,160,155444,1,2,0:0:0:0:
160,164,155615,1,0,0:0:0:0:
160,164,155701,1,2,0:0:0:0:
160,164,155787,1,0,0:0:0:0:
160,164,155872,1,2,0:0:0:0:
160,160,156044,1,0,0:0:0:0:
160,164,156130,1,2,0:0:0:0:
160,160,156215,1,2,0:0:0:0:
156,168,156301,1,2,0:0:0:0:
160,160,156387,1,0,0:0:0:0:
160,168,156472,1,0,0:0:0:0:
160,160,156644,1,2,0:0:0:0:
160,168,156730,1,0,0:0:0:0:
160,160,156815,1,2,0:0:0:0:
160,160,156987,1,0,0:0:0:0:
160,160,157072,1,0,0:0:0:0:
160,160,157244,1,2,0:0:0:0:
160,160,157330,1,0,0:0:0:0:
156,160,157501,1,2,0:0:0:0:
156,160,157587,1,0,0:0:0:0:
152,164,157672,1,0,0:0:0:0:
160,160,157758,1,2,0:0:0:0:
160,160,157844,1,0,0:0:0:0:
160,160,158015,1,0,0:0:0:0:
160,164,158101,1,0,0:0:0:0:
160,164,158187,1,2,0:0:0:0:
164,164,158358,1,0,0:0:0:0:
160,160,158444,1,2,0:0:0:0:
160,160,158530,1,0,0:0:0:0:
160,160,158615,1,2,0:0:0:0:
160,160,158701,1,0,0:0:0:0:
160,160,158787,1,0,0:0:0:0:
160,160,158872,1,2,0:0:0:0:
160,160,158958,1,2,0:0:0:0:
160,160,159044,1,0,0:0:0:0:
160,160,159130,1,0,0:0:0:0:
160,160,159215,1,2,0:0:0:0:
160,160,159387,1,2,0:0:0:0:
160,160,159472,1,0,0:0:0:0:
160,160,159558,1,2,0:0:0:0:
160,160,159730,1,2,0:0:0:0:
160,160,159815,1,2,0:0:0:0:
160,160,159987,1,2,0:0:0:0:
160,160,160072,1,0,0:0:0:0:
160,160,160244,1,2,0:0:0:0:
160,160,160330,1,2,0:0:0:0:
160,160,160415,1,0,0:0:0:0:
160,160,160501,1,0,0:0:0:0:
152,160,160587,1,2,0:0:0:0:
152,160,160758,1,0,0:0:0:0:
152,160,160844,1,2,0:0:0:0:
152,160,160930,1,2,0:0:0:0:
152,160,161101,1,2,0:0:0:0:
160,160,161187,1,2,0:0:0:0:
160,160,161272,1,0,0:0:0:0:
160,160,161358,1,2,0:0:0:0:
160,160,161530,1,0,0:0:0:0:
160,160,161615,1,2,0:0:0:0:
160,160,161701,1,2,0:0:0:0:
160,160,161787,1,0,0:0:0:0:
160,160,161872,1,2,0:0:0:0:
160,160,161958,1,0,0:0:0:0:
160,160,162130,1,0,0:0:0:0:
160,160,162215,1,0,0:0:0:0:
160,160,162301,1,2,0:0:0:0:
160,160,162472,1,0,0:0:0:0:
160,160,162558,1,0,0:0:0:0:
168,160,162730,1,0,0:0:0:0:
160,160,162815,1,2,0:0:0:0:
160,160,162987,1,2,0:0:0:0:
168,160,163072,1,2,0:0:0:0:
168,160,163158,1,0,0:0:0:0:
160,160,163244,1,0,0:0:0:0:
160,160,163330,1,0,0:0:0:0:
160,160,163501,1,0,0:0:0:0:
160,160,163587,1,2,0:0:0:0:
160,160,163672,1,2,0:0:0:0:
160,160,163844,1,0,0:0:0:0:
160,160,163930,1,0,0:0:0:0:
160,160,164015,1,6,0:0:0:0:
160,160,164187,1,0,0:0:0:0:
160,160,164358,1,2,0:0:0:0:
160,160,164444,1,0,0:0:0:0:
160,160,164530,1,0,0:0:0:0:
160,160,164615,1,0,0:0:0:0:
160,160,164701,5,6,0:0:0:0:
160,160,164872,1,0,0:0:0:0:
160,160,164958,1,2,0:0:0:0:
160,160,165130,1,0,0:0:0:0:
160,160,165215,1,2,0:0:0:0:
160,160,165387,1,0,0:0:0:0:
160,160,165472,1,2,0:0:0:0:
160,160,165558,1,2,0:0:0:0:
160,160,165644,1,0,0:0:0:0:
160,160,165730,1,2,0:0:0:0:
160,160,165815,1,0,0:0:0:0:
160,160,165901,1,2,0:0:0:0:
160,160,165987,1,2,0:0:0:0:
160,160,166072,1,0,0:0:0:0:
160,160,166244,1,0,0:0:0:0:
160,160,166330,1,2,0:0:0:0:
160,160,166415,1,0,0:0:0:0:
160,160,166587,1,2,0:0:0:0:
160,160,166672,1,0,0:0:0:0:
160,160,166844,1,0,0:0:0:0:
160,160,166930,1,2,0:0:0:0:
160,160,167015,1,2,0:0:0:0:
160,160,167101,1,0,0:0:0:0:
160,160,167187,1,2,0:0:0:0:
160,160,167272,1,0,0:0:0:0:
160,160,167358,1,2,0:0:0:0:
160,160,167444,1,0,0:0:0:0:
160,160,167615,1,2,0:0:0:0:
160,160,167701,1,0,0:0:0:0:
160,160,167872,1,2,0:0:0:0:
160,160,167958,1,0,0:0:0:0:
160,160,168130,1,0,0:0:0:0:
160,160,168215,1,2,0:0:0:0:
160,160,168301,1,0,0:0:0:0:
160,160,168387,1,0,0:0:0:0:
160,160,168472,1,2,0:0:0:0:
160,160,168558,1,2,0:0:0:0:
160,160,168644,1,0,0:0:0:0:
160,160,168730,1,2,0:0:0:0:
160,160,168815,1,0,0:0:0:0:
160,160,168987,1,2,0:0:0:0:
160,164,169072,1,0,0:0:0:0:
160,164,169158,1,2,0:0:0:0:
164,164,169330,1,2,0:0:0:0:
160,164,169415,1,0,0:0:0:0:
160,160,169587,1,0,0:0:0:0:
160,160,169672,1,2,0:0:0:0:
160,160,169758,1,0,0:0:0:0:
160,160,169844,1,2,0:0:0:0:
160,160,169930,1,2,0:0:0:0:
160,160,170015,1,2,0:0:0:0:
160,160,170101,1,0,0:0:0:0:
160,160,170187,1,6,0:0:0:0:
160,160,170358,1,0,0:0:0:0:
160,160,170444,1,2,0:0:0:0:
160,160,170530,1,2,0:0:0:0:
160,160,170615,1,0,0:0:0:0:
160,160,170701,1,2,0:0:0:0:
160,160,170787,1,0,0:0:0:0:
160,160,170872,1,0,0:0:0:0:
160,160,170958,1,2,0:0:0:0:
160,160,171044,1,2,0:0:0:0:
160,160,171130,1,0,0:0:0:0:
160,160,171215,1,2,0:0:0:0:
160,160,171301,1,0,0:0:0:0:
160,160,171387,1,2,0:0:0:0:
160,160,171472,1,0,0:0:0:0:
160,160,171558,1,2,0:0:0:0:
160,160,171644,1,2,0:0:0:0:
160,160,171730,1,0,0:0:0:0:
160,160,171815,1,2,0:0:0:0:
160,160,171901,1,2,0:0:0:0:
160,160,171987,1,0,0:0:0:0:
160,160,172072,1,2,0:0:0:0:
160,160,172158,1,0,0:0:0:0:
152,164,172244,1,0,0:0:0:0:
152,164,172330,1,2,0:0:0:0:
160,160,172415,1,2,0:0:0:0:
160,160,172501,1,0,0:0:0:0:
160,160,172587,1,2,0:0:0:0:
160,160,172672,1,0,0:0:0:0:
160,160,172758,1,2,0:0:0:0:
160,160,172844,1,0,0:0:0:0:
160,160,172930,1,2,0:0:0:0:
160,160,173015,1,0,0:0:0:0:
160,160,173101,1,0,0:0:0:0:
160,160,173187,1,2,0:0:0:0:
160,160,173272,1,0,0:0:0:0:
160,160,173358,1,0,0:0:0:0:
160,160,173444,1,2,0:0:0:0:
160,160,173530,1,0,0:0:0:0:
156,164,173615,1,0,0:0:0:0:
160,160,173701,1,2,0:0:0:0:
160,160,173787,1,0,0:0:0:0:
160,160,173872,1,0,0:0:0:0:
160,160,173958,1,2,0:0:0:0:
160,160,174044,1,0,0:0:0:0:
160,160,174130,1,2,0:0:0:0:
160,160,174215,1,0,0:0:0:0:
160,160,174301,1,2,0:0:0:0:
160,160,174387,1,2,0:0:0:0:
160,160,174472,1,2,0:0:0:0:
160,160,174558,1,2,0:0:0:0:
160,160,174644,1,0,0:0:0:0:
160,160,174730,1,0,0:0:0:0:
160,160,174815,1,0,0:0:0:0:
160,160,174901,1,0,0:0:0:0:
160,160,174987,1,2,0:0:0:0:
160,160,175044,1,0,0:0:0:0:
160,160,175101,1,0,0:0:0:0:
160,160,175158,1,2,0:0:0:0:
160,160,175244,1,2,0:0:0:0:
160,160,175330,1,0,0:0:0:0:
160,160,175672,5,0,0:0:0:0:
160,160,175758,1,2,0:0:0:0:
160,160,175930,1,2,0:0:0:0:
160,160,176101,1,2,0:0:0:0:
160,160,176187,1,0,0:0:0:0:
160,160,176358,1,0,0:0:0:0:
160,160,176444,1,0,0:0:0:0:
160,160,176530,1,0,0:0:0:0:
160,160,176615,1,2,0:0:0:0:
160,160,176787,1,0,0:0:0:0:
160,160,176872,1,2,0:0:0:0:
160,160,177044,1,2,0:0:0:0:
160,160,177130,1,2,0:0:0:0:
160,160,177215,1,0,0:0:0:0:
160,160,177301,1,2,0:0:0:0:
160,160,177472,1,2,0:0:0:0:
160,160,177558,1,0,0:0:0:0:
160,160,177730,1,0,0:0:0:0:
160,160,177815,1,2,0:0:0:0:
160,160,177901,1,0,0:0:0:0:
160,160,177987,1,0,0:0:0:0:
156,164,178072,1,2,0:0:0:0:
156,164,178158,1,0,0:0:0:0:
156,164,178244,1,2,0:0:0:0:
156,164,178330,1,2,0:0:0:0:
160,160,178415,1,2,0:0:0:0:
160,160,178501,1,0,0:0:0:0:
160,160,178672,1,2,0:0:0:0:
160,160,178844,1,2,0:0:0:0:
160,164,178930,1,0,0:0:0:0:
160,164,179101,1,2,0:0:0:0:
160,164,179187,1,0,0:0:0:0:
160,164,179272,1,0,0:0:0:0:
160,164,179358,1,2,0:0:0:0:
156,168,179530,1,2,0:0:0:0:
152,168,179615,1,2,0:0:0:0:
152,168,179787,1,2,0:0:0:0:
152,168,179872,1,2,0:0:0:0:
160,160,179958,1,0,0:0:0:0:
148,168,180044,1,0,0:0:0:0:
160,164,180215,1,2,0:0:0:0:
160,164,180301,1,0,0:0:0:0:
160,164,180472,1,0,0:0:0:0:
160,164,180558,1,0,0:0:0:0:
156,160,180644,1,2,0:0:0:0:
156,160,180815,1,2,0:0:0:0:
156,160,180987,1,0,0:0:0:0:
156,160,181072,1,2,0:0:0:0:
156,160,181158,1,2,0:0:0:0:
160,164,181244,1,0,0:0:0:0:
160,164,181415,1,0,0:0:0:0:
160,164,181587,1,0,0:0:0:0:
160,164,181672,1,2,0:0:0:0:
156,168,181844,1,0,0:0:0:0:
160,160,181930,1,2,0:0:0:0:
160,160,182015,1,0,0:0:0:0:
160,160,182101,1,2,0:0:0:0:
160,160,182272,1,2,0:0:0:0:
160,160,182358,1,0,0:0:0:0:
160,156,182530,1,2,0:0:0:0:
160,156,182615,1,0,0:0:0:0:
160,160,182701,1,0,0:0:0:0:
160,156,182787,1,2,0:0:0:0:
160,160,182958,1,0,0:0:0:0:
160,160,183044,1,2,0:0:0:0:
160,164,183215,1,2,0:0:0:0:
160,164,183301,1,0,0:0:0:0:
160,164,183387,1,2,0:0:0:0:
152,160,183558,1,2,0:0:0:0:
160,164,183644,1,2,0:0:0:0:
152,160,183730,1,0,0:0:0:0:
152,160,183815,1,2,0:0:0:0:
148,160,183901,1,0,0:0:0:0:
148,160,183987,1,0,0:0:0:0:
148,160,184158,1,0,0:0:0:0:
148,160,184330,1,0,0:0:0:0:
148,160,184415,1,2,0:0:0:0:
160,160,184587,1,2,0:0:0:0:
160,160,184672,1,2,0:0:0:0:
160,160,184758,1,0,0:0:0:0:
164,160,184844,1,2,0:0:0:0:
164,160,185015,1,2,0:0:0:0:
160,160,185101,1,0,0:0:0:0:
156,164,185272,1,0,0:0:0:0:
156,164,185358,1,0,0:0:0:0:
160,160,185444,1,2,0:0:0:0:
160,160,185530,1,0,0:0:0:0:
160,160,185701,1,0,0:0:0:0:
160,160,185787,1,2,0:0:0:0:
160,168,185958,1,2,0:0:0:0:
160,168,186044,1,0,0:0:0:0:
160,168,186130,1,2,0:0:0:0:
160,160,186301,1,2,0:0:0:0:
160,160,186387,1,2,0:0:0:0:
160,160,186472,1,0,0:0:0:0:
160,160,186558,1,2,0:0:0:0:
160,160,186644,5,4,0:0:0:0:
160,160,186815,1,0,0:0:0:0:
160,160,186901,1,2,0:0:0:0:
160,160,187072,1,2,0:0:0:0:
160,160,187158,1,2,0:0:0:0:
160,160,187330,1,2,0:0:0:0:
156,160,187415,1,0,0:0:0:0:
156,160,187501,1,0,0:0:0:0:
156,160,187587,1,2,0:0:0:0:
156,164,187758,1,2,0:0:0:0:
156,164,187844,1,0,0:0:0:0:
156,164,188015,1,0,0:0:0:0:
156,164,188101,1,2,0:0:0:0:
160,160,188187,1,0,0:0:0:0:
152,164,188272,1,2,0:0:0:0:
152,164,188444,1,2,0:0:0:0:
156,164,188530,1,0,0:0:0:0:
164,156,188701,1,2,0:0:0:0:
152,152,188787,1,2,0:0:0:0:
152,152,188872,1,0,0:0:0:0:
152,152,188958,1,2,0:0:0:0:
152,152,189044,1,0,0:0:0:0:
160,160,189130,1,0,0:0:0:0:
160,160,189215,1,2,0:0:0:0:
160,160,189387,1,0,0:0:0:0:
156,164,189472,1,2,0:0:0:0:
156,164,189644,1,2,0:0:0:0:
160,160,189730,1,0,0:0:0:0:
156,164,189815,1,2,0:0:0:0:
152,164,189901,1,2,0:0:0:0:
160,160,190072,1,2,0:0:0:0:
156,164,190158,1,0,0:0:0:0:
152,164,190330,1,0,0:0:0:0:
160,160,190415,1,2,0:0:0:0:
152,164,190501,1,0,0:0:0:0:
152,168,190587,1,2,0:0:0:0:
160,160,190758,1,2,0:0:0:0:
156,168,190844,1,2,0:0:0:0:
160,160,190930,1,0,0:0:0:0:
160,160,191015,1,2,0:0:0:0:
160,160,191187,1,2,0:0:0:0:
160,160,191272,1,0,0:0:0:0:
156,168,191444,1,2,0:0:0:0:
156,168,191530,1,0,0:0:0:0:
156,164,191615,1,0,0:0:0:0:
164,164,191787,1,0,0:0:0:0:
164,164,191958,1,0,0:0:0:0:
160,160,192044,1,2,0:0:0:0:
160,160,192130,1,2,0:0:0:0:
160,160,192215,1,2,0:0:0:0:
160,160,192301,1,0,0:0:0:0:
160,160,192387,1,2,0:0:0:0:
160,160,192558,1,2,0:0:0:0:
160,160,192644,1,0,0:0:0:0:
160,168,192815,1,0,0:0:0:0:
160,168,192901,1,0,0:0:0:0:
160,160,192987,1,0,0:0:0:0:
160,160,193072,1,2,0:0:0:0:
160,160,193244,1,0,0:0:0:0:
156,164,193330,1,2,0:0:0:0:
156,168,193501,1,2,0:0:0:0:
156,168,193587,1,0,0:0:0:0:
160,160,193672,1,0,0:0:0:0:
160,172,193758,1,2,0:0:0:0:
156,172,193930,1,2,0:0:0:0:
156,172,194015,1,0,0:0:0:0:
160,160,194187,1,0,0:0:0:0:
160,160,194272,1,0,0:0:0:0:
160,160,194358,1,2,0:0:0:0:
156,160,194444,1,0,0:0:0:0:
160,160,194530,1,2,0:0:0:0:
160,160,194615,1,2,0:0:0:0:
160,160,194701,1,0,0:0:0:0:
160,160,194787,1,2,0:0:0:0:
160,160,194872,1,2,0:0:0:0:
160,160,194958,1,0,0:0:0:0:
160,160,195044,1,0,0:0:0:0:
160,160,195130,1,2,0:0:0:0:
160,160,195215,1,0,0:0:0:0:
160,160,195301,1,2,0:0:0:0:
160,160,195387,1,0,0:0:0:0:
156,160,195472,1,0,0:0:0:0:
156,160,195558,1,2,0:0:0:0:
156,160,195644,1,0,0:0:0:0:
156,160,195730,1,2,0:0:0:0:
156,160,195815,1,2,0:0:0:0:
152,168,195901,1,0,0:0:0:0:
152,168,195987,1,2,0:0:0:0:
156,160,196072,1,0,0:0:0:0:
156,160,196158,1,0,0:0:0:0:
156,160,196244,1,2,0:0:0:0:
156,160,196301,1,0,0:0:0:0:
152,160,196358,1,0,0:0:0:0:
152,160,196415,1,2,0:0:0:0:
152,160,196501,1,0,0:0:0:0:
148,160,196587,1,2,0:0:0:0:
148,160,196644,1,2,0:0:0:0:
160,160,196701,1,0,0:0:0:0:
148,160,196758,1,0,0:0:0:0:
148,160,196844,1,0,0:0:0:0:
148,160,196930,1,2,0:0:0:0:
160,160,196987,1,2,0:0:0:0:
160,160,197044,1,2,0:0:0:0:
160,160,197101,1,0,0:0:0:0:
160,160,197158,1,0,0:0:0:0:
160,160,197215,1,0,0:0:0:0:
160,160,197272,1,2,0:0:0:0:
160,160,197358,1,0,0:0:0:0:
160,160,197444,1,2,0:0:0:0:
160,160,197501,1,2,0:0:0:0:
160,160,197558,1,2,0:0:0:0:
160,160,197615,5,0,0:0:0:0:
160,160,197958,1,0,0:0:0:0:
160,160,198301,1,0,0:0:0:0:
160,160,198472,1,2,0:0:0:0:
160,160,198644,1,0,0:0:0:0:
160,160,198815,1,2,0:0:0:0:
160,160,199158,1,0,0:0:0:0:
164,160,199501,1,2,0:0:0:0:
160,160,199672,1,0,0:0:0:0:
160,160,200015,1,0,0:0:0:0:
160,160,200358,1,2,0:0:0:0:
160,160,200701,1,0,0:0:0:0:
160,160,201044,1,0,0:0:0:0:
160,160,201215,1,2,0:0:0:0:
160,160,201387,1,0,0:0:0:0:
160,160,201558,1,2,0:0:0:0:
160,160,201901,1,0,0:0:0:0:
160,160,202244,1,0,0:0:0:0:
160,160,202415,1,2,0:0:0:0:
160,160,202587,1,0,0:0:0:0:
160,160,202758,1,2,0:0:0:0:
160,160,202930,1,2,0:0:0:0:
160,160,203101,1,2,0:0:0:0:
160,160,203444,1,0,0:0:0:0:
160,160,203787,1,2,0:0:0:0:
160,160,203958,1,2,0:0:0:0:
160,160,204130,1,0,0:0:0:0:
160,160,204472,1,2,0:0:0:0:
160,160,204644,1,0,0:0:0:0:
160,160,204815,1,2,0:0:0:0:
160,160,204987,1,0,0:0:0:0:
160,160,205158,1,2,0:0:0:0:
160,160,205330,1,2,0:0:0:0:
160,160,205501,1,2,0:0:0:0:
164,164,205672,1,0,0:0:0:0:
164,168,205844,1,2,0:0:0:0:
160,160,206187,1,0,0:0:0:0:
160,160,206530,1,0,0:0:0:0:
160,160,206701,1,2,0:0:0:0:
160,160,206872,1,0,0:0:0:0:
160,160,207044,1,2,0:0:0:0:
160,160,207215,1,0,0:0:0:0:
160,160,207387,1,0,0:0:0:0:
160,160,207558,1,2,0:0:0:0:
160,160,207730,1,2,0:0:0:0:
160,160,207901,1,0,0:0:0:0:
160,164,208072,1,2,0:0:0:0:
160,160,208244,1,2,0:0:0:0:
160,160,208415,1,0,0:0:0:0:
160,160,208587,5,2,0:0:0:0:
160,160,208930,1,0,0:0:0:0:
160,160,209272,1,0,0:0:0:0:
160,160,209444,1,2,0:0:0:0:
160,160,209615,1,0,0:0:0:0:
160,160,209787,1,2,0:0:0:0:
160,160,210130,1,0,0:0:0:0:
160,160,210472,1,2,0:0:0:0:
160,160,210644,1,0,0:0:0:0:
160,160,210987,1,0,0:0:0:0:
160,160,211330,1,2,0:0:0:0:
160,160,211672,1,0,0:0:0:0:
160,160,212015,1,0,0:0:0:0:
156,164,212187,1,2,0:0:0:0:
156,164,212358,1,0,0:0:0:0:
160,160,212530,1,2,0:0:0:0:
160,160,212872,1,0,0:0:0:0:
160,160,213215,1,0,0:0:0:0:
160,160,213387,1,2,0:0:0:0:
160,160,213558,1,2,0:0:0:0:
160,160,213730,1,0,0:0:0:0:
160,160,213901,1,2,0:0:0:0:
160,160,214072,1,2,0:0:0:0:
160,160,214415,1,0,0:0:0:0:
160,160,214758,1,2,0:0:0:0:
160,160,214930,1,2,0:0:0:0:
160,160,215101,1,0,0:0:0:0:
160,160,215444,1,2,0:0:0:0:
160,160,215615,1,0,0:0:0:0:
160,160,215787,1,2,0:0:0:0:
160,160,215958,1,0,0:0:0:0:
160,160,216130,1,0,0:0:0:0:
160,160,216301,1,2,0:0:0:0:
160,160,216472,1,2,0:0:0:0:
160,160,216644,1,0,0:0:0:0:
160,160,216815,1,2,0:0:0:0:
160,164,217158,1,0,0:0:0:0:
160,164,217501,1,0,0:0:0:0:
160,164,217672,1,2,0:0:0:0:
160,168,217844,1,0,0:0:0:0:
160,160,218015,1,2,0:0:0:0:
160,160,218187,1,0,0:0:0:0:
160,164,218358,1,0,0:0:0:0:
160,164,218530,1,2,0:0:0:0:
168,160,218701,1,2,0:0:0:0:
160,160,218872,1,0,0:0:0:0:
160,160,219044,1,0,0:0:0:0:
160,160,219215,1,2,0:0:0:0:
160,160,219387,1,2,0:0:0:0:
256,192,219558,12,0,225044,0:0:0:0:
224,88,230530,5,6,0:0:0:0:
224,88,230701,1,0,0:0:0:0:
224,88,230787,1,0,0:0:0:0:
224,88,230872,1,2,0:0:0:0:
224,92,231044,1,0,0:0:0:0:
224,92,231130,1,0,0:0:0:0:
224,92,231215,1,2,0:0:0:0:
224,92,231387,1,0,0:0:0:0:
224,96,231472,1,2,0:0:0:0:
224,96,231644,1,2,0:0:0:0:
224,96,231901,1,2,0:0:0:0:
224,96,232072,1,0,0:0:0:0:
224,96,232158,1,0,0:0:0:0:
224,96,232244,1,2,0:0:0:0:
224,96,232415,1,0,0:0:0:0:
224,96,232501,1,0,0:0:0:0:
224,96,232587,1,2,0:0:0:0:
224,96,232758,1,0,0:0:0:0:
224,96,232844,1,2,0:0:0:0:
224,96,233015,1,2,0:0:0:0:
224,96,233187,1,0,0:0:0:0:
224,96,233272,1,2,0:0:0:0:
224,96,233444,1,0,0:0:0:0:
224,96,233530,1,0,0:0:0:0:
224,96,233615,1,2,0:0:0:0:
224,96,233787,1,0,0:0:0:0:
224,96,233872,1,0,0:0:0:0:
224,96,233958,1,2,0:0:0:0:
224,96,234130,1,0,0:0:0:0:
224,96,234215,1,2,0:0:0:0:
224,96,234387,1,2,0:0:0:0:
224,96,234644,1,2,0:0:0:0:
224,96,234815,1,0,0:0:0:0:
224,96,234901,1,0,0:0:0:0:
224,96,234987,1,2,0:0:0:0:
224,96,235158,1,0,0:0:0:0:
224,96,235244,1,0,0:0:0:0:
224,96,235330,1,2,0:0:0:0:
224,96,235501,1,0,0:0:0:0:
224,96,235587,1,0,0:0:0:0:
224,96,235672,1,2,0:0:0:0:
224,96,235758,1,2,0:0:0:0:
224,96,235844,1,2,0:0:0:0:
224,96,235930,1,0,0:0:0:0:
224,96,236015,1,2,0:0:0:0:
224,96,236187,1,0,0:0:0:0:
224,96,236272,1,2,0:0:0:0:
224,96,236358,1,2,0:0:0:0:
224,96,236530,1,0,0:0:0:0:
224,96,236615,1,0,0:0:0:0:
224,96,236701,1,2,0:0:0:0:
224,96,236872,1,0,0:0:0:0:
224,96,236958,1,2,0:0:0:0:
224,96,237130,1,2,0:0:0:0:
224,96,237387,1,2,0:0:0:0:
224,96,237558,1,0,0:0:0:0:
224,96,237644,1,2,0:0:0:0:
224,96,237730,1,2,0:0:0:0:
224,96,237901,1,0,0:0:0:0:
224,96,237987,1,0,0:0:0:0:
224,96,238072,1,2,0:0:0:0:
224,96,238244,1,0,0:0:0:0:
224,96,238330,1,2,0:0:0:0:
224,96,238501,1,2,0:0:0:0:
220,100,238672,1,0,0:0:0:0:
224,96,238758,1,2,0:0:0:0:
224,88,238930,1,0,0:0:0:0:
224,88,239015,1,2,0:0:0:0:
224,88,239101,1,2,0:0:0:0:
224,88,239272,1,0,0:0:0:0:
224,88,239358,1,0,0:0:0:0:
224,88,239444,1,2,0:0:0:0:
224,88,239615,1,0,0:0:0:0:
224,88,239701,1,2,0:0:0:0:
224,88,239872,1,2,0:0:0:0:
224,88,240130,1,2,0:0:0:0:
224,88,240301,1,0,0:0:0:0:
224,92,240387,1,2,0:0:0:0:
224,92,240472,1,2,0:0:0:0:
224,92,240644,1,0,0:0:0:0:
224,92,240730,1,2,0:0:0:0:
224,92,240815,1,2,0:0:0:0:
224,92,240901,1,0,0:0:0:0:
224,92,240987,1,0,0:0:0:0:
224,92,241072,1,2,0:0:0:0:
224,92,241158,1,2,0:0:0:0:
224,92,241244,1,0,0:0:0:0:
224,92,241330,1,0,0:0:0:0:
224,92,241415,1,0,0:0:0:0:
224,88,241501,5,6,0:0:0:0:
224,88,241672,1,0,0:0:0:0:
224,88,241758,1,0,0:0:0:0:
224,88,241844,1,2,0:0:0:0:
224,92,242015,1,0,0:0:0:0:
224,92,242101,1,0,0:0:0:0:
224,92,242187,1,2,0:0:0:0:
224,92,242272,1,0,0:0:0:0:
224,96,242358,1,0,0:0:0:0:
224,96,242444,1,2,0:0:0:0:
224,96,242615,1,2,0:0:0:0:
224,96,242787,1,0,0:0:0:0:
224,92,242872,1,2,0:0:0:0:
224,92,243044,1,0,0:0:0:0:
224,92,243130,1,0,0:0:0:0:
224,92,243215,1,2,0:0:0:0:
224,92,243387,1,0,0:0:0:0:
224,92,243472,1,0,0:0:0:0:
224,92,243558,1,2,0:0:0:0:
224,92,243644,1,0,0:0:0:0:
224,92,243730,1,0,0:0:0:0:
224,92,243815,1,2,0:0:0:0:
224,92,243987,1,2,0:0:0:0:
224,92,244072,1,0,0:0:0:0:
224,92,244158,1,0,0:0:0:0:
224,92,244244,1,6,0:0:0:0:
224,92,244415,1,0,0:0:0:0:
224,92,244501,1,0,0:0:0:0:
224,92,244587,1,2,0:0:0:0:
224,92,244758,1,0,0:0:0:0:
224,92,244844,1,0,0:0:0:0:
224,92,244930,1,2,0:0:0:0:
224,92,245015,1,0,0:0:0:0:
224,92,245101,1,0,0:0:0:0:
224,92,245187,1,2,0:0:0:0:
224,92,245358,1,2,0:0:0:0:
224,92,245530,1,0,0:0:0:0:
224,92,245615,1,2,0:0:0:0:
224,92,245787,1,0,0:0:0:0:
224,92,245872,1,0,0:0:0:0:
224,92,245958,1,2,0:0:0:0:
224,92,246130,1,0,0:0:0:0:
224,92,246215,1,0,0:0:0:0:
224,92,246301,1,2,0:0:0:0:
224,92,246472,1,0,0:0:0:0:
224,92,246558,1,0,0:0:0:0:
224,92,246644,1,2,0:0:0:0:
224,96,246730,1,2,0:0:0:0:
224,96,246815,1,0,0:0:0:0:
224,96,246901,1,0,0:0:0:0:
232,88,246987,1,6,0:0:0:0:
224,96,247158,1,0,0:0:0:0:
224,96,247244,1,2,0:0:0:0:
224,96,247330,1,2,0:0:0:0:
224,96,247501,1,0,0:0:0:0:
224,96,247587,1,0,0:0:0:0:
224,96,247672,1,2,0:0:0:0:
224,96,247758,1,0,0:0:0:0:
224,96,247844,1,0,0:0:0:0:
224,96,247930,1,2,0:0:0:0:
224,96,248101,1,2,0:0:0:0:
224,96,248272,1,0,0:0:0:0:
224,96,248358,1,6,0:0:0:0:
224,96,248530,1,0,0:0:0:0:
224,96,248615,1,2,0:0:0:0:
224,96,248701,1,2,0:0:0:0:
224,96,248872,1,0,0:0:0:0:
224,96,248958,1,0,0:0:0:0:
224,96,249044,1,2,0:0:0:0:
224,96,249130,1,0,0:0:0:0:
224,96,249215,1,0,0:0:0:0:
224,96,249301,1,2,0:0:0:0:
224,96,249472,1,2,0:0:0:0:
224,96,249558,1,0,0:0:0:0:
224,96,249644,1,0,0:0:0:0:
224,96,249730,1,2,0:0:0:0:
224,96,249815,1,2,0:0:0:0:
224,88,249901,1,0,0:0:0:0:
224,88,249987,1,0,0:0:0:0:
224,88,250072,1,2,0:0:0:0:
224,88,250158,1,2,0:0:0:0:
224,88,250244,1,0,0:0:0:0:
224,88,250330,1,0,0:0:0:0:
224,88,250415,1,2,0:0:0:0:
224,96,250501,1,0,0:0:0:0:
224,96,250587,1,0,0:0:0:0:
224,88,250672,1,2,0:0:0:0:
224,88,250758,1,0,0:0:0:0:
224,96,250844,1,2,0:0:0:0:
224,96,250930,1,0,0:0:0:0:
224,96,251015,1,0,0:0:0:0:
224,96,251101,1,2,0:0:0:0:
224,96,251158,1,2,0:0:0:0:
224,96,251215,1,2,0:0:0:0:
224,96,251272,1,0,0:0:0:0:
224,96,251358,1,0,0:0:0:0:
224,96,251444,1,2,0:0:0:0:
224,96,251501,1,0,0:0:0:0:
224,96,251558,1,0,0:0:0:0:
224,96,251615,1,2,0:0:0:0:
224,96,251701,1,0,0:0:0:0:
224,96,251787,1,2,0:0:0:0:
224,96,251844,1,2,0:0:0:0:
224,96,251901,1,2,0:0:0:0:
224,96,251958,1,0,0:0:0:0:
224,96,252015,1,0,0:0:0:0:
224,96,252072,1,0,0:0:0:0:
224,96,252130,1,2,0:0:0:0:
224,96,252215,1,0,0:0:0:0:
224,96,252301,1,0,0:0:0:0:
224,96,252387,1,0,0:0:0:0:
224,88,252472,5,6,0:0:0:0:
224,88,252644,1,0,0:0:0:0:
224,88,252730,1,0,0:0:0:0:
224,88,252815,1,2,0:0:0:0:
224,92,252987,1,0,0:0:0:0:
224,92,253072,1,0,0:0:0:0:
224,92,253158,1,2,0:0:0:0:
224,96,253244,1,0,0:0:0:0:
224,96,253330,1,0,0:0:0:0:
224,96,253415,1,2,0:0:0:0:
224,96,253501,1,0,0:0:0:0:
224,96,253587,1,2,0:0:0:0:
224,96,253672,1,0,0:0:0:0:
224,96,253758,1,0,0:0:0:0:
224,96,253844,1,2,0:0:0:0:
224,96,254015,1,0,0:0:0:0:
224,96,254101,1,0,0:0:0:0:
224,96,254187,1,2,0:0:0:0:
224,96,254358,1,0,0:0:0:0:
224,96,254444,1,0,0:0:0:0:
224,96,254530,1,2,0:0:0:0:
224,96,254615,1,0,0:0:0:0:
224,96,254701,1,0,0:0:0:0:
224,96,254787,1,2,0:0:0:0:
224,96,254872,1,0,0:0:0:0:
224,96,254958,1,2,0:0:0:0:
224,96,255130,1,0,0:0:0:0:
224,96,255215,1,2,0:0:0:0:
224,96,255387,1,0,0:0:0:0:
224,96,255472,1,0,0:0:0:0:
224,96,255558,1,2,0:0:0:0:
224,96,255730,1,0,0:0:0:0:
224,96,255815,1,0,0:0:0:0:
224,96,255901,1,2,0:0:0:0:
224,96,255987,1,0,0:0:0:0:
224,96,256072,1,0,0:0:0:0:
224,96,256158,1,2,0:0:0:0:
224,96,256244,1,0,0:0:0:0:
224,96,256330,1,2,0:0:0:0:
224,96,256415,1,0,0:0:0:0:
224,96,256501,1,0,0:0:0:0:
224,96,256587,1,2,0:0:0:0:
224,96,256758,1,0,0:0:0:0:
224,96,256844,1,0,0:0:0:0:
224,96,256930,1,2,0:0:0:0:
224,96,257101,1,0,0:0:0:0:
224,96,257187,1,2,0:0:0:0:
224,96,257272,1,2,0:0:0:0:
224,96,257444,1,0,0:0:0:0:
224,96,257530,1,0,0:0:0:0:
224,96,257615,1,2,0:0:0:0:
224,96,257701,1,2,0:0:0:0:
224,96,257787,1,2,0:0:0:0:
224,96,257872,1,0,0:0:0:0:
224,96,257958,1,2,0:0:0:0:
224,96,258130,1,0,0:0:0:0:
224,96,258215,1,2,0:0:0:0:
224,96,258301,1,2,0:0:0:0:
224,96,258472,1,0,0:0:0:0:
224,96,258558,1,2,0:0:0:0:
224,96,258644,1,2,0:0:0:0:
224,96,258730,1,0,0:0:0:0:
224,96,258815,1,0,0:0:0:0:
224,96,258901,1,2,0:0:0:0:
224,96,258987,1,0,0:0:0:0:
224,96,259072,1,2,0:0:0:0:
224,96,259158,1,2,0:0:0:0:
224,96,259244,1,0,0:0:0:0:
224,96,259330,1,2,0:0:0:0:
224,96,259501,1,0,0:0:0:0:
224,96,259587,1,2,0:0:0:0:
224,96,259672,1,2,0:0:0:0:
224,96,259844,1,0,0:0:0:0:
224,96,259930,1,2,0:0:0:0:
224,96,260015,1,2,0:0:0:0:
224,96,260101,1,0,0:0:0:0:
224,96,260187,1,0,0:0:0:0:
224,96,260272,1,2,0:0:0:0:
224,96,260358,1,0,0:0:0:0:
224,96,260444,1,2,0:0:0:0:
224,96,260615,1,0,0:0:0:0:
224,96,260701,1,2,0:0:0:0:
224,88,260872,1,0,0:0:0:0:
224,88,260958,1,2,0:0:0:0:
224,88,261044,1,2,0:0:0:0:
224,88,261215,1,0,0:0:0:0:
224,88,261301,1,2,0:0:0:0:
224,88,261387,1,2,0:0:0:0:
224,96,261472,1,0,0:0:0:0:
224,88,261558,1,0,0:0:0:0:
224,88,261644,1,2,0:0:0:0:
224,88,261730,1,0,0:0:0:0:
224,88,261815,1,2,0:0:0:0:
224,96,261901,1,2,0:0:0:0:
224,88,261987,1,0,0:0:0:0:
224,88,262072,1,2,0:0:0:0:
224,88,262244,1,0,0:0:0:0:
224,92,262330,1,2,0:0:0:0:
224,92,262415,1,2,0:0:0:0:
224,92,262587,1,0,0:0:0:0:
224,92,262758,1,6,0:0:0:0:
224,92,262930,1,0,0:0:0:0:
224,92,263015,1,2,0:0:0:0:
224,92,263101,1,2,0:0:0:0:
224,92,263187,1,0,0:0:0:0:
224,92,263272,1,0,0:0:0:0:
224,92,263358,1,0,0:0:0:0:
224,92,263444,5,6,0:0:0:0:
224,88,263615,1,0,0:0:0:0:
224,88,263701,1,0,0:0:0:0:
224,88,263787,1,2,0:0:0:0:
224,92,263958,1,0,0:0:0:0:
224,92,264044,1,0,0:0:0:0:
224,92,264130,1,2,0:0:0:0:
224,96,264215,1,2,0:0:0:0:
224,96,264301,1,0,0:0:0:0:
224,96,264387,1,2,0:0:0:0:
224,96,264472,1,0,0:0:0:0:
224,96,264558,1,2,0:0:0:0:
224,96,264644,1,0,0:0:0:0:
224,96,264730,1,0,0:0:0:0:
224,96,264815,1,2,0:0:0:0:
224,96,264987,1,0,0:0:0:0:
224,96,265072,1,0,0:0:0:0:
224,96,265158,1,2,0:0:0:0:
224,96,265330,1,0,0:0:0:0:
224,96,265415,1,0,0:0:0:0:
224,96,265501,1,2,0:0:0:0:
224,96,265587,1,2,0:0:0:0:
224,96,265672,1,0,0:0:0:0:
224,96,265758,1,2,0:0:0:0:
224,96,265844,1,0,0:0:0:0:
224,96,265930,1,2,0:0:0:0:
224,96,266101,1,0,0:0:0:0:
224,96,266187,1,2,0:0:0:0:
224,96,266358,1,0,0:0:0:0:
224,96,266444,1,0,0:0:0:0:
224,96,266530,1,2,0:0:0:0:
224,96,266701,1,0,0:0:0:0:
224,96,266787,1,0,0:0:0:0:
224,96,266872,1,2,0:0:0:0:
224,96,266958,1,2,0:0:0:0:
224,96,267044,1,0,0:0:0:0:
224,96,267130,1,2,0:0:0:0:
224,96,267215,1,0,0:0:0:0:
224,96,267301,1,2,0:0:0:0:
224,96,267387,1,0,0:0:0:0:
224,96,267472,1,0,0:0:0:0:
224,96,267558,1,2,0:0:0:0:
224,96,267730,1,0,0:0:0:0:
224,96,267815,1,0,0:0:0:0:
224,96,267901,1,2,0:0:0:0:
224,96,268072,1,0,0:0:0:0:
224,96,268158,1,2,0:0:0:0:
224,96,268244,1,2,0:0:0:0:
224,96,268415,1,0,0:0:0:0:
224,96,268501,1,0,0:0:0:0:
224,96,268587,1,2,0:0:0:0:
224,96,268672,1,2,0:0:0:0:
224,96,268758,1,2,0:0:0:0:
224,96,268844,1,0,0:0:0:0:
224,96,268930,1,2,0:0:0:0:
224,96,269101,1,0,0:0:0:0:
224,96,269187,1,2,0:0:0:0:
224,96,269272,1,2,0:0:0:0:
224,96,269444,1,0,0:0:0:0:
224,96,269530,1,2,0:0:0:0:
224,96,269615,1,2,0:0:0:0:
224,96,269701,1,2,0:0:0:0:
224,96,269787,1,0,0:0:0:0:
224,96,269872,1,2,0:0:0:0:
224,96,269958,1,0,0:0:0:0:
224,96,270044,1,2,0:0:0:0:
224,96,270130,1,2,0:0:0:0:
224,96,270215,1,0,0:0:0:0:
224,96,270301,1,2,0:0:0:0:
224,96,270472,1,0,0:0:0:0:
224,96,270558,1,2,0:0:0:0:
224,96,270644,1,2,0:0:0:0:
224,96,270815,1,0,0:0:0:0:
224,96,270901,1,2,0:0:0:0:
224,96,270987,1,2,0:0:0:0:
224,96,271072,1,2,0:0:0:0:
224,96,271158,1,0,0:0:0:0:
224,96,271244,1,2,0:0:0:0:
224,96,271330,1,0,0:0:0:0:
224,96,271415,1,2,0:0:0:0:
224,96,271587,1,0,0:0:0:0:
220,100,271672,1,2,0:0:0:0:
224,96,271758,1,2,0:0:0:0:
224,88,271844,1,0,0:0:0:0:
224,88,271930,1,0,0:0:0:0:
224,88,272015,1,2,0:0:0:0:
224,96,272101,1,0,0:0:0:0:
224,96,272187,1,0,0:0:0:0:
224,88,272272,1,0,0:0:0:0:
224,88,272358,1,2,0:0:0:0:
224,96,272444,1,0,0:0:0:0:
224,88,272530,1,0,0:0:0:0:
224,88,272615,1,2,0:0:0:0:
224,96,272701,1,0,0:0:0:0:
224,88,272787,1,2,0:0:0:0:
224,96,272872,1,0,0:0:0:0:
224,96,272958,1,0,0:0:0:0:
224,96,273044,1,2,0:0:0:0:
224,96,273130,1,0,0:0:0:0:
224,96,273215,1,0,0:0:0:0:
224,96,273301,1,0,0:0:0:0:
224,96,273387,1,2,0:0:0:0:
224,96,273472,1,0,0:0:0:0:
224,96,273558,1,2,0:0:0:0:
224,96,273644,1,2,0:0:0:0:
224,96,273730,1,0,0:0:0:0:
224,96,273815,1,2,0:0:0:0:
224,96,273901,1,2,0:0:0:0:
224,96,273987,1,2,0:0:0:0:
224,96,274072,1,0,0:0:0:0:
224,96,274158,1,2,0:0:0:0:
224,96,274244,1,2,0:0:0:0:
224,96,274330,1,2,0:0:0:0:
224,96,274415,5,4,0:0:0:0:
224,96,274587,1,0,0:0:0:0:
224,96,274672,1,2,0:0:0:0:
224,96,274844,1,0,0:0:0:0:
224,96,274930,1,2,0:0:0:0:
224,96,275015,1,0,0:0:0:0:
224,96,275101,1,2,0:0:0:0:
224,96,275272,1,0,0:0:0:0:
224,96,275358,1,2,0:0:0:0:
224,96,275530,1,0,0:0:0:0:
224,96,275615,1,2,0:0:0:0:
224,96,275787,1,0,0:0:0:0:
224,96,275872,1,2,0:0:0:0:
224,96,275958,1,0,0:0:0:0:
224,96,276044,1,0,0:0:0:0:
224,96,276130,1,2,0:0:0:0:
224,96,276301,1,2,0:0:0:0:
224,96,276472,1,2,0:0:0:0:
224,96,276558,1,0,0:0:0:0:
224,96,276644,1,0,0:0:0:0:
216,96,276730,1,2,0:0:0:0:
216,96,276815,1,0,0:0:0:0:
216,96,276901,1,0,0:0:0:0:
224,96,276987,1,2,0:0:0:0:
224,96,277072,1,2,0:0:0:0:
224,96,277158,1,0,0:0:0:0:
220,96,277330,1,0,0:0:0:0:
220,96,277415,1,2,0:0:0:0:
220,96,277587,1,0,0:0:0:0:
220,96,277672,1,2,0:0:0:0:
224,96,277758,1,0,0:0:0:0:
220,96,277844,1,2,0:0:0:0:
220,96,278015,1,0,0:0:0:0:
220,96,278101,1,2,0:0:0:0:
220,96,278272,1,0,0:0:0:0:
220,96,278358,1,2,0:0:0:0:
220,96,278530,1,0,0:0:0:0:
224,96,278615,1,2,0:0:0:0:
224,96,278701,1,0,0:0:0:0:
220,96,278787,1,0,0:0:0:0:
220,96,278872,1,2,0:0:0:0:
212,96,279044,1,2,0:0:0:0:
224,96,279215,1,2,0:0:0:0:
220,96,279301,1,2,0:0:0:0:
220,96,279387,1,0,0:0:0:0:
220,96,279472,1,0,0:0:0:0:
220,96,279558,1,2,0:0:0:0:
220,96,279644,1,0,0:0:0:0:
220,96,279730,1,2,0:0:0:0:
220,96,279815,1,0,0:0:0:0:
220,96,279901,1,2,0:0:0:0:
224,96,280072,1,2,0:0:0:0:
224,96,280158,1,2,0:0:0:0:
224,96,280330,1,2,0:0:0:0:
224,96,280415,1,2,0:0:0:0:
224,96,280501,1,0,0:0:0:0:
224,96,280587,1,2,0:0:0:0:
224,96,280758,1,0,0:0:0:0:
224,96,280844,1,2,0:0:0:0:
224,96,281015,1,0,0:0:0:0:
224,96,281101,1,2,0:0:0:0:
224,96,281272,1,0,0:0:0:0:
224,100,281358,1,2,0:0:0:0:
224,100,281444,1,0,0:0:0:0:
224,100,281530,1,2,0:0:0:0:
224,100,281615,1,2,0:0:0:0:
224,100,281787,1,2,0:0:0:0:
224,96,281958,1,2,0:0:0:0:
224,96,282044,1,2,0:0:0:0:
224,96,282130,1,0,0:0:0:0:
224,96,282215,1,0,0:0:0:0:
224,96,282301,1,2,0:0:0:0:
224,96,282387,1,0,0:0:0:0:
224,96,282472,1,2,0:0:0:0:
224,96,282558,1,0,0:0:0:0:
224,96,282644,1,2,0:0:0:0:
224,96,282815,1,0,0:0:0:0:
224,96,282901,1,2,0:0:0:0:
224,96,283072,1,0,0:0:0:0:
224,96,283158,1,2,0:0:0:0:
224,96,283244,1,0,0:0:0:0:
224,96,283330,1,2,0:0:0:0:
224,96,283501,1,0,0:0:0:0:
224,96,283587,1,2,0:0:0:0:
224,96,283758,1,0,0:0:0:0:
224,96,283844,1,2,0:0:0:0:
228,96,284015,1,0,0:0:0:0:
228,100,284187,1,0,0:0:0:0:
228,100,284272,1,2,0:0:0:0:
224,96,284358,1,0,0:0:0:0:
228,100,284444,1,0,0:0:0:0:
224,96,284530,1,2,0:0:0:0:
224,96,284615,1,0,0:0:0:0:
224,96,284701,1,2,0:0:0:0:
224,96,284787,1,2,0:0:0:0:
224,96,284872,1,0,0:0:0:0:
224,96,284958,1,0,0:0:0:0:
224,96,285044,1,2,0:0:0:0:
224,96,285130,1,2,0:0:0:0:
224,96,285215,1,0,0:0:0:0:
224,96,285301,1,2,0:0:0:0:
228,100,285387,5,4,0:0:0:0:
224,96,285558,1,0,0:0:0:0:
224,96,285644,1,2,0:0:0:0:
224,96,285815,1,0,0:0:0:0:
224,96,285901,1,2,0:0:0:0:
224,96,285987,1,0,0:0:0:0:
224,96,286072,1,2,0:0:0:0:
224,96,286244,1,0,0:0:0:0:
224,96,286330,1,2,0:0:0:0:
224,96,286415,1,0,0:0:0:0:
224,96,286501,1,0,0:0:0:0:
216,96,286587,1,2,0:0:0:0:
224,96,286758,1,0,0:0:0:0:
224,96,286844,1,2,0:0:0:0:
224,96,286930,1,0,0:0:0:0:
216,96,287015,1,2,0:0:0:0:
216,96,287101,1,2,0:0:0:0:
224,92,287272,1,2,0:0:0:0:
224,92,287444,1,2,0:0:0:0:
224,92,287530,1,0,0:0:0:0:
224,92,287615,1,0,0:0:0:0:
220,92,287701,1,2,0:0:0:0:
220,92,287787,1,0,0:0:0:0:
220,92,287872,1,0,0:0:0:0:
220,92,287958,1,2,0:0:0:0:
224,92,288044,1,2,0:0:0:0:
224,92,288130,1,4,0:0:0:0:
224,96,288301,1,0,0:0:0:0:
224,96,288387,1,2,0:0:0:0:
224,96,288558,1,0,0:0:0:0:
224,96,288644,1,2,0:0:0:0:
224,96,288730,1,0,0:0:0:0:
224,96,288815,1,2,0:0:0:0:
228,100,288987,1,0,0:0:0:0:
224,100,289072,1,2,0:0:0:0:
224,100,289158,1,0,0:0:0:0:
220,100,289244,1,0,0:0:0:0:
220,100,289330,1,2,0:0:0:0:
220,100,289501,1,0,0:0:0:0:
220,100,289587,1,2,0:0:0:0:
224,96,289672,1,2,0:0:0:0:
220,100,289758,1,0,0:0:0:0:
220,100,289844,1,2,0:0:0:0:
220,100,290015,1,2,0:0:0:0:
220,100,290187,1,2,0:0:0:0:
220,100,290272,1,2,0:0:0:0:
224,100,290358,1,0,0:0:0:0:
224,100,290444,1,0,0:0:0:0:
224,100,290530,1,2,0:0:0:0:
224,100,290615,1,0,0:0:0:0:
224,100,290701,1,2,0:0:0:0:
224,100,290787,1,0,0:0:0:0:
224,100,290872,1,6,0:0:0:0:
224,96,291044,1,0,0:0:0:0:
224,96,291130,1,2,0:0:0:0:
224,96,291215,1,2,0:0:0:0:
224,96,291301,1,0,0:0:0:0:
224,96,291387,1,2,0:0:0:0:
224,96,291472,1,0,0:0:0:0:
224,96,291558,1,2,0:0:0:0:
224,96,291644,1,2,0:0:0:0:
224,100,291730,1,0,0:0:0:0:
224,100,291815,1,2,0:0:0:0:
224,100,291901,1,2,0:0:0:0:
224,96,291987,1,0,0:0:0:0:
224,96,292072,1,2,0:0:0:0:
224,96,292158,1,0,0:0:0:0:
224,96,292244,1,0,0:0:0:0:
224,96,292330,1,2,0:0:0:0:
224,96,292415,1,0,0:0:0:0:
224,96,292501,1,0,0:0:0:0:
224,96,292587,1,2,0:0:0:0:
224,96,292672,1,0,0:0:0:0:
224,96,292758,1,2,0:0:0:0:
224,100,292844,1,0,0:0:0:0:
224,96,292930,1,2,0:0:0:0:
224,96,293015,1,2,0:0:0:0:
224,96,293101,1,0,0:0:0:0:
224,96,293187,1,0,0:0:0:0:
224,96,293272,1,2,0:0:0:0:
224,96,293358,1,0,0:0:0:0:
224,96,293444,1,2,0:0:0:0:
224,96,293530,1,0,0:0:0:0:
224,96,293615,1,2,0:0:0:0:
224,96,293701,1,0,0:0:0:0:
224,96,293787,1,0,0:0:0:0:
224,96,293872,1,2,0:0:0:0:
224,96,293958,1,0,0:0:0:0:
224,96,294044,1,0,0:0:0:0:
224,96,294130,1,2,0:0:0:0:
224,96,294215,1,0,0:0:0:0:
224,96,294301,1,2,0:0:0:0:
224,96,294387,1,0,0:0:0:0:
224,96,294472,1,0,0:0:0:0:
224,96,294558,1,2,0:0:0:0:
224,100,294644,1,0,0:0:0:0:
220,104,294730,1,0,0:0:0:0:
224,96,294815,1,2,0:0:0:0:
224,96,294901,1,0,0:0:0:0:
224,96,294987,1,2,0:0:0:0:
224,96,295044,1,2,0:0:0:0:
224,96,295101,1,2,0:0:0:0:
224,96,295158,1,0,0:0:0:0:
224,96,295244,1,0,0:0:0:0:
224,96,295330,1,2,0:0:0:0:
224,96,295387,1,2,0:0:0:0:
224,96,295444,1,2,0:0:0:0:
228,92,295501,1,0,0:0:0:0:
228,96,295587,1,0,0:0:0:0:
228,100,295672,1,2,0:0:0:0:
228,96,295730,1,0,0:0:0:0:
224,96,295787,1,0,0:0:0:0:
228,96,295844,1,2,0:0:0:0:
228,100,295901,1,0,0:0:0:0:
224,96,295958,1,0,0:0:0:0:
224,104,296015,1,2,0:0:0:0:
228,104,296072,1,0,0:0:0:0:
228,104,296130,1,0,0:0:0:0:
228,104,296187,1,2,0:0:0:0:
224,96,296244,1,2,0:0:0:0:
224,96,296301,1,2,0:0:0:0:
224,96,296358,5,0,0:0:0:0:
224,96,296530,1,2,0:0:0:0:
224,96,296701,1,0,0:0:0:0:
224,96,296872,1,2,0:0:0:0:
224,96,296958,1,0,0:0:0:0:
224,96,297044,1,0,0:0:0:0:
224,96,297130,1,2,0:0:0:0:
224,96,297301,1,2,0:0:0:0:
224,96,297387,1,0,0:0:0:0:
224,96,297558,1,2,0:0:0:0:
224,96,297730,1,0,0:0:0:0:
224,96,297901,1,2,0:0:0:0:
224,96,298072,1,0,0:0:0:0:
224,96,298244,1,2,0:0:0:0:
224,96,298330,1,0,0:0:0:0:
224,96,298415,1,0,0:0:0:0:
224,96,298501,1,2,0:0:0:0:
224,96,298672,1,2,0:0:0:0:
224,96,298758,1,0,0:0:0:0:
224,96,298930,1,2,0:0:0:0:
224,96,299015,1,2,0:0:0:0:
224,96,299101,1,0,0:0:0:0:
224,96,299272,1,2,0:0:0:0:
224,96,299444,1,0,0:0:0:0:
224,96,299615,1,2,0:0:0:0:
224,96,299701,1,0,0:0:0:0:
224,96,299787,1,0,0:0:0:0:
224,96,299872,1,2,0:0:0:0:
224,96,300044,1,2,0:0:0:0:
224,96,300130,1,0,0:0:0:0:
224,96,300301,1,2,0:0:0:0:
224,96,300472,1,0,0:0:0:0:
224,96,300644,1,2,0:0:0:0:
224,96,300815,1,0,0:0:0:0:
224,96,300987,1,2,0:0:0:0:
224,96,301072,1,0,0:0:0:0:
224,96,301158,1,0,0:0:0:0:
224,96,301244,1,2,0:0:0:0:
224,96,301415,1,2,0:0:0:0:
224,96,301501,1,0,0:0:0:0:
224,96,301587,1,0,0:0:0:0:
224,96,301672,1,2,0:0:0:0:
224,96,301758,1,2,0:0:0:0:
224,96,301844,5,0,0:0:0:0:
224,96,302015,1,2,0:0:0:0:
224,96,302187,1,0,0:0:0:0:
224,96,302358,1,2,0:0:0:0:
224,96,302444,1,0,0:0:0:0:
224,96,302530,1,0,0:0:0:0:
224,96,302615,1,2,0:0:0:0:
224,96,302787,1,2,0:0:0:0:
224,96,302872,1,0,0:0:0:0:
224,96,303044,1,2,0:0:0:0:
224,96,303215,1,0,0:0:0:0:
224,96,303387,1,2,0:0:0:0:
224,96,303558,1,0,0:0:0:0:
224,96,303730,1,2,0:0:0:0:
224,96,303815,1,0,0:0:0:0:
224,96,303901,1,0,0:0:0:0:
224,96,303987,1,2,0:0:0:0:
224,96,304158,1,2,0:0:0:0:
224,96,304244,1,0,0:0:0:0:
228,96,304415,1,2,0:0:0:0:
224,96,304501,1,2,0:0:0:0:
224,96,304587,1,0,0:0:0:0:
224,96,304758,1,2,0:0:0:0:
224,96,304930,1,0,0:0:0:0:
224,96,305101,1,2,0:0:0:0:
224,96,305187,1,0,0:0:0:0:
224,96,305272,1,0,0:0:0:0:
224,96,305358,1,2,0:0:0:0:
224,96,305530,1,2,0:0:0:0:
224,96,305615,1,0,0:0:0:0:
224,96,305787,1,2,0:0:0:0:
224,96,305958,1,0,0:0:0:0:
224,96,306130,1,2,0:0:0:0:
224,96,306301,1,0,0:0:0:0:
224,96,306472,1,2,0:0:0:0:
224,96,306558,1,0,0:0:0:0:
224,96,306644,1,0,0:0:0:0:
224,96,306730,1,2,0:0:0:0:
224,96,306815,1,0,0:0:0:0:
224,96,306901,1,2,0:0:0:0:
224,96,306987,1,0,0:0:0:0:
224,96,307072,1,0,0:0:0:0:
224,96,307158,1,2,0:0:0:0:
224,96,307244,1,2,0:0:0:0:
224,96,307330,5,4,0:0:0:0:
224,96,307501,1,2,0:0:0:0:
224,96,307672,1,0,0:0:0:0:
224,96,307844,1,2,0:0:0:0:
224,96,307930,1,0,0:0:0:0:
224,96,308015,1,2,0:0:0:0:
224,96,308101,1,2,0:0:0:0:
224,96,308187,1,0,0:0:0:0:
224,96,308272,1,2,0:0:0:0:
224,96,308358,1,0,0:0:0:0:
224,96,308530,1,2,0:0:0:0:
224,96,308701,1,0,0:0:0:0:
224,96,308872,1,2,0:0:0:0:
224,96,309044,1,0,0:0:0:0:
224,96,309215,1,2,0:0:0:0:
224,96,309301,1,2,0:0:0:0:
224,96,309387,1,0,0:0:0:0:
224,96,309472,1,2,0:0:0:0:
224,96,309644,1,2,0:0:0:0:
224,96,309730,1,0,0:0:0:0:
224,96,309815,1,0,0:0:0:0:
224,96,309901,1,2,0:0:0:0:
224,96,309987,1,2,0:0:0:0:
224,96,310072,1,0,0:0:0:0:
224,96,310244,1,2,0:0:0:0:
224,96,310415,1,0,0:0:0:0:
224,96,310587,1,2,0:0:0:0:
224,96,310672,1,0,0:0:0:0:
224,96,310758,1,2,0:0:0:0:
224,96,310844,1,2,0:0:0:0:
224,96,310930,1,0,0:0:0:0:
224,96,311015,1,2,0:0:0:0:
224,96,311101,1,0,0:0:0:0:
224,96,311272,1,2,0:0:0:0:
224,96,311444,1,0,0:0:0:0:
224,96,311615,1,2,0:0:0:0:
224,96,311787,1,0,0:0:0:0:
224,96,311958,1,2,0:0:0:0:
224,96,312044,1,2,0:0:0:0:
224,96,312130,1,0,0:0:0:0:
224,96,312215,1,2,0:0:0:0:
224,96,312387,1,2,0:0:0:0:
224,96,312472,1,0,0:0:0:0:
224,96,312558,1,0,0:0:0:0:
224,96,312644,1,2,0:0:0:0:
224,96,312730,1,2,0:0:0:0:
224,96,312815,5,4,0:0:0:0:
224,96,312987,1,2,0:0:0:0:
224,96,313158,1,0,0:0:0:0:
224,96,313330,1,2,0:0:0:0:
224,96,313501,1,0,0:0:0:0:
224,96,313587,1,2,0:0:0:0:
224,96,313758,1,2,0:0:0:0:
224,96,313844,1,0,0:0:0:0:
224,96,314015,1,2,0:0:0:0:
224,96,314187,1,0,0:0:0:0:
224,96,314358,1,2,0:0:0:0:
224,96,314530,1,0,0:0:0:0:
224,96,314701,1,2,0:0:0:0:
224,96,314872,1,0,0:0:0:0:
224,96,314958,1,2,0:0:0:0:
224,96,315130,1,2,0:0:0:0:
224,96,315215,1,0,0:0:0:0:
224,96,315387,1,2,0:0:0:0:
224,96,315472,1,2,0:0:0:0:
224,96,315558,1,0,0:0:0:0:
224,96,315644,1,0,0:0:0:0:
224,96,315730,1,2,0:0:0:0:
224,96,315815,1,2,0:0:0:0:
224,96,315901,1,0,0:0:0:0:
224,96,315987,1,0,0:0:0:0:
224,96,316072,1,2,0:0:0:0:
228,96,316158,1,2,0:0:0:0:
232,96,316244,1,0,0:0:0:0:
232,96,316330,1,2,0:0:0:0:
232,96,316415,1,0,0:0:0:0:
232,96,316501,1,2,0:0:0:0:
232,96,316587,1,0,0:0:0:0:
232,96,316672,1,0,0:0:0:0:
232,96,316758,1,2,0:0:0:0:
232,96,316844,1,2,0:0:0:0:
224,96,316930,1,0,0:0:0:0:
224,96,316987,1,0,0:0:0:0:
224,96,317044,1,0,0:0:0:0:
220,100,317101,1,2,0:0:0:0:
216,100,317187,1,2,0:0:0:0:
216,100,317272,1,0,0:0:0:0:
216,100,317330,1,0,0:0:0:0:
216,100,317387,1,0,0:0:0:0:
224,96,317444,1,2,0:0:0:0:
224,96,317530,1,2,0:0:0:0:
224,96,317615,1,0,0:0:0:0:
224,96,317672,1,0,0:0:0:0:
224,100,317730,1,0,0:0:0:0:
224,100,317787,1,2,0:0:0:0:
224,100,317844,1,2,0:0:0:0:
220,100,317901,1,2,0:0:0:0:
224,104,317958,1,0,0:0:0:0:
224,104,318015,1,0,0:0:0:0:
224,104,318072,1,0,0:0:0:0:
224,104,318130,1,2,0:0:0:0:
224,104,318215,1,2,0:0:0:0:
224,96,318301,1,4,0:0:0:0:
