osu file format v14

[General]
AudioFilename: audio.mp3
AudioLeadIn: 0
PreviewTime: 131828
Countdown: 0
SampleSet: Soft
StackLeniency: 0.7
Mode: 3
LetterboxInBreaks: 0
EpilepsyWarning: 1
SpecialStyle: 0
WidescreenStoryboard: 1

[Editor]
DistanceSpacing: 0.9
BeatDivisor: 4
GridSize: 8
TimelineZoom: 2.4

[Metadata]
Title:Triumph & Regret
TitleUnicode:Triumph & Regret
Artist:typeMARS
ArtistUnicode:typeMARS
Creator:Devvi-
Version:4K Execution
Source:Dynamix
Tags:
BeatmapID:1831244
BeatmapSetID:876211

[Difficulty]
HPDrainRate:8.1
CircleSize:4
OverallDifficulty:8.6
ApproachRate:5
SliderMultiplier:1.4
SliderTickRate:1

[Events]
//Background and Video events
0,0,"s.png",0,0
//Break Periods
2,66199,75728
//Storyboard Layer 0 (Background)
//Storyboard Layer 1 (Fail)
//Storyboard Layer 2 (Pass)
//Storyboard Layer 3 (Foreground)
//Storyboard Sound Samples

[TimingPoints]
128,342.857142857143,4,2,1,100,1,0
128,-100,4,2,1,50,0,0
131785,-100,4,2,1,50,0,1
152356,-100,4,2,1,50,0,0
152399,-322.58064516129,4,2,1,50,0,0
152442,-10000,4,2,1,50,0,0
152528,-166.666666666667,4,2,1,50,0,0
152570,-125,4,2,1,50,0,0
152613,-100,4,2,1,50,0,0
152656,-333.333333333333,4,2,1,50,0,0
152699,-10000,4,2,1,50,0,0
152785,-125,4,2,1,50,0,0
152828,-100,4,2,1,50,0,0
152870,-83.3333333333333,4,2,1,50,0,0
152913,-333.333333333333,4,2,1,50,0,0
152956,-10000,4,2,1,50,0,0
153042,-166.666666666667,4,2,1,50,0,0
153085,-125,4,2,1,50,0,0
153128,-100,4,2,1,50,0,0
153728,-100,4,2,1,50,0,1
164013,-22.2222222222222,4,2,1,50,0,1
164099,-10000,4,2,1,50,0,1
164442,-2000,4,2,1,50,0,1
164470,-1000,4,2,1,50,0,1
164499,-666.666666666667,4,2,1,50,0,1
164528,-500,4,2,1,50,0,1
164556,-400,4,2,1,50,0,1
164585,-200,4,2,1,50,0,1
164613,-181.818181818182,4,2,1,50,0,1
164642,-133.333333333333,4,2,1,50,0,1
164670,-117.647058823529,4,2,1,50,0,1
164699,-100,4,2,1,50,0,1
175370,-125,4,2,1,50,0,1
175413,-250,4,2,1,50,0,1
175456,-10000,4,2,1,50,0,1
175585,-166.666666666667,4,2,1,50,0,1
175628,-125,4,2,1,50,0,1
175670,-100,4,2,1,50,0,0

[HitObjects]
192,192,128,5,0,0:0:0:0:
448,192,128,1,0,0:0:0:0:
320,192,299,128,0,470:0:0:0:0:
64,192,470,1,0,0:0:0:0:
448,192,470,1,0,0:0:0:0:
192,192,642,1,0,0:0:0:0:
448,192,813,1,0,0:0:0:0:
64,192,813,1,0,0:0:0:0:
320,192,899,1,0,0:0:0:0:
320,192,1070,1,0,0:0:0:0:
448,192,1156,1,0,0:0:0:0:
64,192,1156,1,0,0:0:0:0:
320,192,1328,1,0,0:0:0:0:
64,192,1328,1,0,0:0:0:0:
192,192,1499,1,0,0:0:0:0:
448,192,1670,1,0,0:0:0:0:
192,192,1670,1,0,0:0:0:0:
64,192,1842,1,0,0:0:0:0:
320,192,1842,1,0,0:0:0:0:
192,192,2013,1,0,0:0:0:0:
64,192,2185,1,0,0:0:0:0:
448,192,2185,1,0,0:0:0:0:
192,192,2270,1,0,0:0:0:0:
320,192,2442,1,0,0:0:0:0:
448,192,2528,1,0,0:0:0:0:
64,192,2528,1,0,0:0:0:0:
192,192,2699,1,0,0:0:0:0:
448,192,2699,1,0,0:0:0:0:
64,192,2785,1,0,0:0:0:0:
320,192,2785,1,0,0:0:0:0:
192,192,2870,1,0,0:0:0:0:
448,192,2870,1,0,0:0:0:0:
192,192,3042,1,0,0:0:0:0:
448,192,3042,1,0,0:0:0:0:
64,192,3042,1,0,0:0:0:0:
320,192,3213,1,0,0:0:0:0:
64,192,3385,1,0,0:0:0:0:
448,192,3385,1,0,0:0:0:0:
192,192,3556,1,0,0:0:0:0:
448,192,3642,1,0,0:0:0:0:
64,192,3642,1,0,0:0:0:0:
192,192,3813,1,0,0:0:0:0:
64,192,3899,1,0,0:0:0:0:
448,192,3899,1,0,0:0:0:0:
320,192,4070,1,0,0:0:0:0:
192,192,4070,1,0,0:0:0:0:
192,192,4242,1,0,0:0:0:0:
64,192,4242,1,0,0:0:0:0:
448,192,4242,1,0,0:0:0:0:
320,192,4413,1,0,0:0:0:0:
64,192,4585,1,0,0:0:0:0:
448,192,4585,1,0,0:0:0:0:
320,192,4756,1,0,0:0:0:0:
64,192,4928,1,0,0:0:0:0:
448,192,4928,1,0,0:0:0:0:
192,192,5013,1,0,0:0:0:0:
320,192,5185,1,0,0:0:0:0:
192,192,5270,1,0,0:0:0:0:
448,192,5270,1,0,0:0:0:0:
64,192,5442,1,0,0:0:0:0:
320,192,5442,1,0,0:0:0:0:
192,192,5528,1,0,0:0:0:0:
64,192,5613,1,0,0:0:0:0:
320,192,5613,1,0,0:0:0:0:
448,192,5613,1,0,0:0:0:0:
192,192,5785,1,0,0:0:0:0:
64,192,5956,1,0,0:0:0:0:
448,192,5956,1,0,0:0:0:0:
320,192,6128,1,0,0:0:0:0:
64,192,6299,1,0,0:0:0:0:
320,192,6299,1,0,0:0:0:0:
448,192,6299,1,0,0:0:0:0:
192,192,6385,1,0,0:0:0:0:
320,192,6556,1,0,0:0:0:0:
192,192,6642,1,0,0:0:0:0:
64,192,6642,1,0,0:0:0:0:
448,192,6642,1,0,0:0:0:0:
320,192,6813,1,0,0:0:0:0:
64,192,6813,1,0,0:0:0:0:
192,192,6985,1,0,0:0:0:0:
64,192,7156,1,0,0:0:0:0:
320,192,7156,1,0,0:0:0:0:
192,192,7242,1,0,0:0:0:0:
64,192,7328,1,0,0:0:0:0:
448,192,7328,1,0,0:0:0:0:
320,192,7328,1,0,0:0:0:0:
192,192,7499,1,0,0:0:0:0:
448,192,7499,1,0,0:0:0:0:
64,192,7670,1,0,0:0:0:0:
320,192,7670,1,0,0:0:0:0:
192,192,7756,1,0,0:0:0:0:
192,192,7928,1,0,0:0:0:0:
448,192,8013,1,0,0:0:0:0:
64,192,8013,1,0,0:0:0:0:
320,192,8185,1,0,0:0:0:0:
64,192,8185,1,0,0:0:0:0:
448,192,8270,1,0,0:0:0:0:
192,192,8270,1,0,0:0:0:0:
320,192,8356,1,0,0:0:0:0:
64,192,8528,1,0,0:0:0:0:
448,192,8699,1,0,0:0:0:0:
192,192,8699,1,0,0:0:0:0:
64,192,8870,1,0,0:0:0:0:
320,192,8870,1,0,0:0:0:0:
320,192,9042,1,0,0:0:0:0:
192,192,9128,1,0,0:0:0:0:
448,192,9128,1,0,0:0:0:0:
320,192,9299,1,0,0:0:0:0:
64,192,9385,1,0,0:0:0:0:
448,192,9385,1,0,0:0:0:0:
320,192,9556,1,0,0:0:0:0:
64,192,9728,128,0,11099:0:0:0:0:
448,192,9728,128,0,10070:0:0:0:0:
192,192,10070,128,0,11099:0:0:0:0:
320,192,10413,128,0,11099:0:0:0:0:
448,192,10756,1,0,0:0:0:0:
448,192,11099,1,0,0:0:0:0:
192,192,11270,1,0,0:0:0:0:
320,192,11356,1,0,0:0:0:0:
64,192,11442,1,0,0:0:0:0:
448,192,11442,1,0,0:0:0:0:
192,192,11442,1,0,0:0:0:0:
320,192,11528,1,0,0:0:0:0:
192,192,11613,1,0,0:0:0:0:
320,192,11699,1,0,0:0:0:0:
192,192,11785,1,0,0:0:0:0:
448,192,11785,1,0,0:0:0:0:
64,192,11785,1,0,0:0:0:0:
320,192,11956,1,0,0:0:0:0:
192,192,12042,1,0,0:0:0:0:
448,192,12128,1,0,0:0:0:0:
320,192,12128,1,0,0:0:0:0:
64,192,12128,1,0,0:0:0:0:
192,192,12299,1,0,0:0:0:0:
64,192,12385,1,0,0:0:0:0:
192,192,12470,1,0,0:0:0:0:
448,192,12470,1,0,0:0:0:0:
320,192,12470,1,0,0:0:0:0:
64,192,12642,1,0,0:0:0:0:
320,192,12728,1,0,0:0:0:0:
64,192,12813,1,0,0:0:0:0:
192,192,12813,1,0,0:0:0:0:
448,192,12813,1,0,0:0:0:0:
320,192,12985,1,0,0:0:0:0:
448,192,12985,1,0,0:0:0:0:
192,192,13070,1,0,0:0:0:0:
320,192,13156,1,0,0:0:0:0:
64,192,13156,1,0,0:0:0:0:
448,192,13156,1,0,0:0:0:0:
64,192,13328,1,0,0:0:0:0:
192,192,13328,1,0,0:0:0:0:
448,192,13413,1,0,0:0:0:0:
320,192,13413,1,0,0:0:0:0:
192,192,13499,1,0,0:0:0:0:
64,192,13499,1,0,0:0:0:0:
64,192,13670,1,0,0:0:0:0:
320,192,13670,1,0,0:0:0:0:
192,192,13756,1,0,0:0:0:0:
64,192,13842,1,0,0:0:0:0:
448,192,13842,1,0,0:0:0:0:
320,192,14013,1,0,0:0:0:0:
192,192,14099,1,0,0:0:0:0:
448,192,14099,1,0,0:0:0:0:
320,192,14185,1,0,0:0:0:0:
64,192,14356,1,0,0:0:0:0:
320,192,14356,1,0,0:0:0:0:
192,192,14442,1,0,0:0:0:0:
64,192,14528,1,0,0:0:0:0:
448,192,14528,1,0,0:0:0:0:
320,192,14613,1,0,0:0:0:0:
192,192,14699,1,0,0:0:0:0:
448,192,14699,1,0,0:0:0:0:
320,192,14785,1,0,0:0:0:0:
64,192,14870,1,0,0:0:0:0:
448,192,14870,1,0,0:0:0:0:
192,192,14870,1,0,0:0:0:0:
192,192,15042,1,0,0:0:0:0:
320,192,15128,1,0,0:0:0:0:
448,192,15128,1,0,0:0:0:0:
64,192,15213,1,0,0:0:0:0:
192,192,15213,1,0,0:0:0:0:
320,192,15385,1,0,0:0:0:0:
192,192,15470,1,0,0:0:0:0:
64,192,15556,1,0,0:0:0:0:
448,192,15556,1,0,0:0:0:0:
320,192,15556,1,0,0:0:0:0:
448,192,15728,1,0,0:0:0:0:
64,192,15813,1,0,0:0:0:0:
320,192,15813,1,0,0:0:0:0:
192,192,15899,1,0,0:0:0:0:
320,192,15985,1,0,0:0:0:0:
448,192,16070,1,0,0:0:0:0:
320,192,16156,1,0,0:0:0:0:
192,192,16242,1,0,0:0:0:0:
64,192,16328,1,0,0:0:0:0:
448,192,16413,1,0,0:0:0:0:
448,192,16499,1,0,0:0:0:0:
64,192,16585,1,0,0:0:0:0:
320,192,16585,1,0,0:0:0:0:
192,192,16585,1,0,0:0:0:0:
320,192,16756,1,0,0:0:0:0:
192,192,16756,1,0,0:0:0:0:
192,192,16928,1,0,0:0:0:0:
64,192,16928,1,0,0:0:0:0:
448,192,16928,1,0,0:0:0:0:
320,192,17099,1,0,0:0:0:0:
192,192,17099,1,0,0:0:0:0:
64,192,17270,1,0,0:0:0:0:
448,192,17270,1,0,0:0:0:0:
320,192,17270,1,0,0:0:0:0:
64,192,17442,1,0,0:0:0:0:
320,192,17442,1,0,0:0:0:0:
192,192,17613,1,0,0:0:0:0:
448,192,17613,1,0,0:0:0:0:
320,192,17613,1,0,0:0:0:0:
320,192,17785,1,0,0:0:0:0:
448,192,17785,1,0,0:0:0:0:
64,192,17956,1,0,0:0:0:0:
320,192,17956,1,0,0:0:0:0:
192,192,17956,1,0,0:0:0:0:
192,192,18128,1,0,0:0:0:0:
448,192,18128,1,0,0:0:0:0:
64,192,18299,1,0,0:0:0:0:
320,192,18299,1,0,0:0:0:0:
448,192,18299,1,0,0:0:0:0:
192,192,18470,1,0,0:0:0:0:
320,192,18470,1,0,0:0:0:0:
192,192,18642,1,0,0:0:0:0:
448,192,18642,1,0,0:0:0:0:
64,192,18642,1,0,0:0:0:0:
64,192,18813,1,0,0:0:0:0:
320,192,18813,1,0,0:0:0:0:
192,192,18985,1,0,0:0:0:0:
320,192,18985,1,0,0:0:0:0:
448,192,18985,1,0,0:0:0:0:
64,192,19156,1,0,0:0:0:0:
192,192,19156,1,0,0:0:0:0:
448,192,19328,1,0,0:0:0:0:
320,192,19328,1,0,0:0:0:0:
192,192,19413,1,0,0:0:0:0:
64,192,19499,1,0,0:0:0:0:
320,192,19499,1,0,0:0:0:0:
448,192,19585,1,0,0:0:0:0:
320,192,19670,1,0,0:0:0:0:
192,192,19670,1,0,0:0:0:0:
64,192,19756,1,0,0:0:0:0:
192,192,19842,1,0,0:0:0:0:
448,192,19842,1,0,0:0:0:0:
64,192,19928,1,0,0:0:0:0:
320,192,20013,1,0,0:0:0:0:
448,192,20013,1,0,0:0:0:0:
64,192,20099,1,0,0:0:0:0:
192,192,20185,1,0,0:0:0:0:
320,192,20185,1,0,0:0:0:0:
64,192,20270,1,0,0:0:0:0:
448,192,20270,1,0,0:0:0:0:
320,192,20356,1,0,0:0:0:0:
192,192,20356,1,0,0:0:0:0:
64,192,20442,1,0,0:0:0:0:
448,192,20528,1,0,0:0:0:0:
192,192,20528,1,0,0:0:0:0:
64,192,20613,1,0,0:0:0:0:
448,192,20699,1,8,0:0:0:0:
320,192,20742,1,8,0:0:0:0:
192,192,20785,1,8,0:0:0:0:
64,192,20828,1,8,0:0:0:0:
448,192,20870,1,8,0:0:0:0:
320,192,20913,1,8,0:0:0:0:
192,192,20956,1,8,0:0:0:0:
64,192,20999,1,8,0:0:0:0:
448,192,21042,1,8,0:0:0:0:
320,192,21085,1,8,0:0:0:0:
192,192,21128,1,8,0:0:0:0:
64,192,21170,1,8,0:0:0:0:
448,192,21213,1,8,0:0:0:0:
320,192,21256,1,8,0:0:0:0:
192,192,21299,1,8,0:0:0:0:
64,192,21342,1,8,0:0:0:0:
448,192,21385,1,8,0:0:0:0:
320,192,21428,1,8,0:0:0:0:
64,192,21470,1,8,0:0:0:0:
192,192,21513,1,8,0:0:0:0:
448,192,21556,1,8,0:0:0:0:
320,192,21599,1,8,0:0:0:0:
64,192,21642,1,8,0:0:0:0:
192,192,21685,1,8,0:0:0:0:
448,192,21728,1,8,0:0:0:0:
320,192,21770,1,8,0:0:0:0:
64,192,21813,1,8,0:0:0:0:
192,192,21856,1,8,0:0:0:0:
448,192,21899,1,8,0:0:0:0:
320,192,21942,1,8,0:0:0:0:
64,192,21985,1,8,0:0:0:0:
192,192,22028,1,8,0:0:0:0:
320,192,22070,1,0,0:0:0:0:
448,192,22070,1,0,0:0:0:0:
192,192,22242,1,0,0:0:0:0:
320,192,22328,1,0,0:0:0:0:
64,192,22413,1,0,0:0:0:0:
448,192,22413,1,0,0:0:0:0:
320,192,22585,1,0,0:0:0:0:
192,192,22670,1,0,0:0:0:0:
64,192,22756,1,0,0:0:0:0:
448,192,22756,1,0,0:0:0:0:
320,192,22842,1,0,0:0:0:0:
192,192,22928,1,0,0:0:0:0:
448,192,23013,1,0,0:0:0:0:
64,192,23013,1,0,0:0:0:0:
192,192,23099,1,0,0:0:0:0:
320,192,23185,1,0,0:0:0:0:
448,192,23185,1,0,0:0:0:0:
192,192,23270,1,0,0:0:0:0:
64,192,23356,1,0,0:0:0:0:
448,192,23442,1,0,0:0:0:0:
192,192,23442,1,0,0:0:0:0:
320,192,23613,1,0,0:0:0:0:
192,192,23699,1,0,0:0:0:0:
64,192,23785,1,0,0:0:0:0:
448,192,23785,1,0,0:0:0:0:
320,192,23956,1,0,0:0:0:0:
64,192,23956,1,0,0:0:0:0:
192,192,24042,1,0,0:0:0:0:
448,192,24042,1,0,0:0:0:0:
320,192,24128,1,0,0:0:0:0:
64,192,24213,1,0,0:0:0:0:
192,192,24299,1,0,0:0:0:0:
320,192,24299,1,0,0:0:0:0:
448,192,24385,1,0,0:0:0:0:
64,192,24470,1,0,0:0:0:0:
320,192,24556,1,0,0:0:0:0:
448,192,24642,1,0,0:0:0:0:
64,192,24728,1,0,0:0:0:0:
320,192,24728,1,0,0:0:0:0:
192,192,24813,1,0,0:0:0:0:
448,192,24985,1,0,0:0:0:0:
320,192,25070,1,0,0:0:0:0:
192,192,25070,1,0,0:0:0:0:
64,192,25156,1,0,0:0:0:0:
448,192,25328,1,0,0:0:0:0:
192,192,25328,1,0,0:0:0:0:
320,192,25413,1,0,0:0:0:0:
64,192,25499,1,0,0:0:0:0:
192,192,25499,1,0,0:0:0:0:
320,192,25585,1,0,0:0:0:0:
448,192,25585,1,0,0:0:0:0:
192,192,25670,1,0,0:0:0:0:
64,192,25756,1,0,0:0:0:0:
448,192,25756,1,0,0:0:0:0:
320,192,25842,1,0,0:0:0:0:
192,192,25928,1,0,0:0:0:0:
64,192,25928,1,0,0:0:0:0:
320,192,26013,1,0,0:0:0:0:
448,192,26013,1,0,0:0:0:0:
192,192,26099,1,0,0:0:0:0:
64,192,26185,1,0,0:0:0:0:
448,192,26185,1,0,0:0:0:0:
320,192,26356,1,0,0:0:0:0:
192,192,26442,1,0,0:0:0:0:
64,192,26528,1,0,0:0:0:0:
448,192,26528,1,0,0:0:0:0:
320,192,26699,1,0,0:0:0:0:
192,192,26785,1,0,0:0:0:0:
448,192,26870,1,0,0:0:0:0:
192,192,26956,1,0,0:0:0:0:
320,192,26956,1,0,0:0:0:0:
64,192,27042,1,0,0:0:0:0:
448,192,27128,1,0,0:0:0:0:
320,192,27128,1,0,0:0:0:0:
192,192,27213,1,0,0:0:0:0:
64,192,27299,1,0,0:0:0:0:
448,192,27299,1,0,0:0:0:0:
320,192,27385,1,0,0:0:0:0:
192,192,27470,1,0,0:0:0:0:
64,192,27470,1,0,0:0:0:0:
320,192,27556,1,0,0:0:0:0:
448,192,27556,1,0,0:0:0:0:
192,192,27728,1,0,0:0:0:0:
64,192,27813,1,0,0:0:0:0:
320,192,27899,1,0,0:0:0:0:
448,192,27899,1,0,0:0:0:0:
192,192,28070,1,0,0:0:0:0:
320,192,28156,1,0,0:0:0:0:
64,192,28242,1,0,0:0:0:0:
192,192,28328,1,0,0:0:0:0:
320,192,28413,1,0,0:0:0:0:
448,192,28413,1,0,0:0:0:0:
192,192,28499,1,0,0:0:0:0:
64,192,28585,1,0,0:0:0:0:
448,192,28585,1,0,0:0:0:0:
320,192,28670,1,0,0:0:0:0:
192,192,28756,1,0,0:0:0:0:
64,192,28756,1,0,0:0:0:0:
448,192,28842,1,0,0:0:0:0:
320,192,28842,1,0,0:0:0:0:
192,192,28928,1,0,0:0:0:0:
448,192,29099,1,0,0:0:0:0:
320,192,29185,1,0,0:0:0:0:
192,192,29185,1,0,0:0:0:0:
64,192,29270,1,0,0:0:0:0:
448,192,29442,1,0,0:0:0:0:
320,192,29528,1,0,0:0:0:0:
64,192,29613,1,0,0:0:0:0:
448,192,29613,1,0,0:0:0:0:
320,192,29699,1,0,0:0:0:0:
192,192,29785,1,0,0:0:0:0:
64,192,29785,1,0,0:0:0:0:
448,192,29870,1,0,0:0:0:0:
64,192,29956,1,0,0:0:0:0:
320,192,29956,1,0,0:0:0:0:
192,192,30042,1,0,0:0:0:0:
448,192,30128,1,0,0:0:0:0:
64,192,30213,1,0,0:0:0:0:
192,192,30299,1,0,0:0:0:0:
448,192,30299,1,0,0:0:0:0:
320,192,30470,1,0,0:0:0:0:
192,192,30556,1,0,0:0:0:0:
64,192,30642,1,0,0:0:0:0:
320,192,30642,1,0,0:0:0:0:
192,192,30813,1,0,0:0:0:0:
64,192,30899,1,0,0:0:0:0:
320,192,30899,1,0,0:0:0:0:
448,192,30985,1,0,0:0:0:0:
64,192,31070,1,0,0:0:0:0:
192,192,31156,1,0,0:0:0:0:
320,192,31156,1,0,0:0:0:0:
448,192,31242,1,0,0:0:0:0:
192,192,31328,1,0,0:0:0:0:
320,192,31413,1,0,0:0:0:0:
64,192,31413,1,0,0:0:0:0:
448,192,31499,1,0,0:0:0:0:
192,192,31499,1,0,0:0:0:0:
320,192,31585,1,0,0:0:0:0:
64,192,31670,1,0,0:0:0:0:
448,192,31670,1,0,0:0:0:0:
320,192,31842,1,0,0:0:0:0:
192,192,31928,1,0,0:0:0:0:
64,192,32013,1,0,0:0:0:0:
448,192,32013,1,0,0:0:0:0:
320,192,32185,1,0,0:0:0:0:
192,192,32270,1,0,0:0:0:0:
64,192,32356,1,0,0:0:0:0:
192,192,32442,1,0,0:0:0:0:
320,192,32528,1,0,0:0:0:0:
448,192,32528,1,0,0:0:0:0:
192,192,32613,1,0,0:0:0:0:
64,192,32699,1,0,0:0:0:0:
448,192,32699,1,0,0:0:0:0:
320,192,32785,1,0,0:0:0:0:
192,192,32870,1,0,0:0:0:0:
64,192,32870,1,0,0:0:0:0:
320,192,32956,1,0,0:0:0:0:
64,192,33042,1,0,0:0:0:0:
448,192,33042,1,0,0:0:0:0:
320,192,33213,1,0,0:0:0:0:
192,192,33299,1,0,0:0:0:0:
64,192,33385,1,0,0:0:0:0:
448,192,33385,1,0,0:0:0:0:
320,192,33556,1,0,0:0:0:0:
192,192,33556,1,0,0:0:0:0:
64,192,33642,1,0,0:0:0:0:
192,192,33728,1,0,0:0:0:0:
448,192,33728,1,0,0:0:0:0:
320,192,33813,1,0,0:0:0:0:
192,192,33899,1,0,0:0:0:0:
64,192,33899,1,0,0:0:0:0:
448,192,33985,1,0,0:0:0:0:
320,192,34070,1,0,0:0:0:0:
192,192,34070,1,0,0:0:0:0:
448,192,34156,1,0,0:0:0:0:
64,192,34156,1,0,0:0:0:0:
320,192,34242,1,0,0:0:0:0:
192,192,34328,1,0,0:0:0:0:
64,192,34413,1,0,0:0:0:0:
448,192,34413,1,0,0:0:0:0:
320,192,34585,1,0,0:0:0:0:
192,192,34670,1,0,0:0:0:0:
64,192,34756,1,0,0:0:0:0:
448,192,34756,1,0,0:0:0:0:
64,192,34928,1,0,0:0:0:0:
192,192,34928,1,0,0:0:0:0:
320,192,35013,1,0,0:0:0:0:
448,192,35013,1,0,0:0:0:0:
192,192,35099,1,0,0:0:0:0:
64,192,35185,1,0,0:0:0:0:
320,192,35185,1,0,0:0:0:0:
192,192,35270,1,0,0:0:0:0:
448,192,35270,1,0,0:0:0:0:
320,192,35356,1,0,0:0:0:0:
192,192,35442,1,0,0:0:0:0:
448,192,35528,1,0,0:0:0:0:
64,192,35528,1,0,0:0:0:0:
320,192,35613,1,0,0:0:0:0:
192,192,35699,1,0,0:0:0:0:
448,192,35785,1,0,0:0:0:0:
64,192,35785,1,0,0:0:0:0:
320,192,35956,1,0,0:0:0:0:
192,192,36042,1,0,0:0:0:0:
64,192,36128,1,0,0:0:0:0:
448,192,36128,1,0,0:0:0:0:
192,192,36299,1,0,0:0:0:0:
320,192,36385,1,0,0:0:0:0:
64,192,36385,1,0,0:0:0:0:
192,192,36470,1,0,0:0:0:0:
448,192,36556,1,0,0:0:0:0:
320,192,36556,1,0,0:0:0:0:
192,192,36642,1,0,0:0:0:0:
64,192,36728,1,0,0:0:0:0:
448,192,36728,1,0,0:0:0:0:
320,192,36813,1,0,0:0:0:0:
192,192,36899,1,0,0:0:0:0:
64,192,36899,1,0,0:0:0:0:
320,192,36985,1,0,0:0:0:0:
192,192,37070,1,0,0:0:0:0:
448,192,37070,1,0,0:0:0:0:
64,192,37156,1,0,0:0:0:0:
320,192,37156,1,0,0:0:0:0:
192,192,37328,1,0,0:0:0:0:
64,192,37413,1,0,0:0:0:0:
320,192,37413,1,0,0:0:0:0:
192,192,37499,1,0,0:0:0:0:
448,192,37670,1,0,0:0:0:0:
320,192,37756,1,0,0:0:0:0:
192,192,37756,1,0,0:0:0:0:
64,192,37842,1,0,0:0:0:0:
448,192,37928,1,0,0:0:0:0:
64,192,38013,1,0,0:0:0:0:
320,192,38013,1,0,0:0:0:0:
192,192,38099,1,0,0:0:0:0:
448,192,38185,1,0,0:0:0:0:
64,192,38185,1,0,0:0:0:0:
192,192,38270,1,0,0:0:0:0:
320,192,38356,1,0,0:0:0:0:
448,192,38356,1,0,0:0:0:0:
192,192,38442,1,0,0:0:0:0:
64,192,38528,1,0,0:0:0:0:
448,192,38528,1,0,0:0:0:0:
320,192,38699,1,0,0:0:0:0:
192,192,38785,1,0,0:0:0:0:
448,192,38870,1,0,0:0:0:0:
320,192,38870,1,0,0:0:0:0:
64,192,39042,1,0,0:0:0:0:
192,192,39128,1,0,0:0:0:0:
448,192,39213,1,0,0:0:0:0:
64,192,39213,1,0,0:0:0:0:
320,192,39299,1,0,0:0:0:0:
192,192,39385,1,0,0:0:0:0:
64,192,39470,1,0,0:0:0:0:
448,192,39556,1,0,0:0:0:0:
192,192,39556,1,0,0:0:0:0:
64,192,39642,1,0,0:0:0:0:
320,192,39642,1,0,0:0:0:0:
192,192,39728,1,0,0:0:0:0:
448,192,39728,1,0,0:0:0:0:
320,192,39813,1,0,0:0:0:0:
64,192,39813,1,0,0:0:0:0:
192,192,39899,1,0,0:0:0:0:
448,192,39899,1,0,0:0:0:0:
320,192,40070,1,0,0:0:0:0:
192,192,40156,1,0,0:0:0:0:
64,192,40242,1,0,0:0:0:0:
320,192,40242,1,0,0:0:0:0:
192,192,40413,1,0,0:0:0:0:
320,192,40499,1,0,0:0:0:0:
64,192,40585,1,0,0:0:0:0:
192,192,40585,1,0,0:0:0:0:
320,192,40670,1,0,0:0:0:0:
192,192,40756,1,0,0:0:0:0:
448,192,40756,1,0,0:0:0:0:
320,192,40842,1,0,0:0:0:0:
192,192,40928,1,0,0:0:0:0:
64,192,40928,1,0,0:0:0:0:
448,192,41013,1,0,0:0:0:0:
64,192,41099,1,0,0:0:0:0:
192,192,41185,1,0,0:0:0:0:
320,192,41270,1,0,0:0:0:0:
448,192,41270,1,0,0:0:0:0:
192,192,41442,1,0,0:0:0:0:
320,192,41528,1,0,0:0:0:0:
64,192,41613,1,0,0:0:0:0:
448,192,41613,1,0,0:0:0:0:
320,192,41785,1,0,0:0:0:0:
192,192,41870,1,0,0:0:0:0:
448,192,41956,1,0,0:0:0:0:
320,192,41956,1,0,0:0:0:0:
192,192,42042,1,0,0:0:0:0:
64,192,42128,1,0,0:0:0:0:
448,192,42213,1,0,0:0:0:0:
320,192,42299,1,0,0:0:0:0:
192,192,42299,1,0,0:0:0:0:
64,192,42385,1,0,0:0:0:0:
192,192,42470,1,0,0:0:0:0:
448,192,42556,1,0,0:0:0:0:
64,192,42556,1,0,0:0:0:0:
320,192,42642,1,0,0:0:0:0:
192,192,42728,1,0,0:0:0:0:
64,192,42813,1,0,0:0:0:0:
448,192,42899,1,0,0:0:0:0:
192,192,42985,1,0,0:0:0:0:
320,192,43070,1,0,0:0:0:0:
64,192,43156,1,0,0:0:0:0:
448,192,43242,1,0,0:0:0:0:
64,192,43328,128,0,43413:0:0:0:0:
192,192,43413,128,0,43499:0:0:0:0:
320,192,43499,128,0,43585:0:0:0:0:
64,192,43499,128,0,43585:0:0:0:0:
448,192,43585,128,0,43670:0:0:0:0:
192,192,43585,128,0,43670:0:0:0:0:
64,192,43670,128,0,43756:0:0:0:0:
320,192,43670,128,0,43756:0:0:0:0:
192,192,43756,128,0,43842:0:0:0:0:
448,192,43756,128,0,43842:0:0:0:0:
320,192,43842,128,0,43928:0:0:0:0:
448,192,43928,128,0,44013:0:0:0:0:
64,192,44013,1,0,0:0:0:0:
192,192,44099,1,0,0:0:0:0:
320,192,44185,1,0,0:0:0:0:
64,192,44270,1,0,0:0:0:0:
448,192,44356,1,0,0:0:0:0:
192,192,44442,1,0,0:0:0:0:
320,192,44528,1,0,0:0:0:0:
64,192,44613,1,0,0:0:0:0:
448,192,44699,1,0,0:0:0:0:
192,192,44785,1,0,0:0:0:0:
320,192,44870,1,0,0:0:0:0:
448,192,44956,1,0,0:0:0:0:
64,192,45042,1,0,0:0:0:0:
320,192,45128,1,0,0:0:0:0:
192,192,45213,1,0,0:0:0:0:
448,192,45299,1,0,0:0:0:0:
64,192,45385,1,0,0:0:0:0:
448,192,45470,1,0,0:0:0:0:
192,192,45556,1,0,0:0:0:0:
320,192,45642,1,0,0:0:0:0:
64,192,45728,1,0,0:0:0:0:
448,192,45813,1,0,0:0:0:0:
320,192,45899,1,0,0:0:0:0:
64,192,45985,1,0,0:0:0:0:
448,192,46070,1,0,0:0:0:0:
192,192,46156,1,0,0:0:0:0:
320,192,46242,1,0,0:0:0:0:
64,192,46328,1,0,0:0:0:0:
448,192,46413,1,0,0:0:0:0:
320,192,46499,1,0,0:0:0:0:
64,192,46585,1,0,0:0:0:0:
320,192,46670,1,0,0:0:0:0:
192,192,46756,1,0,0:0:0:0:
448,192,46842,1,0,0:0:0:0:
192,192,46928,1,0,0:0:0:0:
64,192,47013,1,0,0:0:0:0:
448,192,47099,1,0,0:0:0:0:
320,192,47185,1,0,0:0:0:0:
64,192,47185,1,0,0:0:0:0:
192,192,47270,1,0,0:0:0:0:
320,192,47356,1,0,0:0:0:0:
64,192,47356,1,0,0:0:0:0:
448,192,47442,1,0,0:0:0:0:
320,192,47528,1,0,0:0:0:0:
64,192,47528,1,0,0:0:0:0:
192,192,47613,1,0,0:0:0:0:
64,192,47699,1,0,0:0:0:0:
320,192,47699,1,0,0:0:0:0:
448,192,47785,1,0,0:0:0:0:
64,192,47870,1,0,0:0:0:0:
192,192,47956,1,0,0:0:0:0:
320,192,47956,1,0,0:0:0:0:
448,192,48042,1,0,0:0:0:0:
64,192,48128,1,0,0:0:0:0:
448,192,48213,1,0,0:0:0:0:
64,192,48299,1,0,0:0:0:0:
320,192,48385,1,0,0:0:0:0:
448,192,48385,1,0,0:0:0:0:
64,192,48470,1,0,0:0:0:0:
320,192,48556,1,0,0:0:0:0:
64,192,48642,1,0,0:0:0:0:
448,192,48642,1,0,0:0:0:0:
320,192,48728,1,0,0:0:0:0:
64,192,48813,1,0,0:0:0:0:
192,192,48899,1,0,0:0:0:0:
320,192,48899,1,0,0:0:0:0:
448,192,48985,1,0,0:0:0:0:
64,192,49070,1,0,0:0:0:0:
448,192,49156,1,0,0:0:0:0:
64,192,49242,1,0,0:0:0:0:
320,192,49328,1,0,0:0:0:0:
64,192,49413,1,0,0:0:0:0:
448,192,49413,1,0,0:0:0:0:
320,192,49499,1,0,0:0:0:0:
192,192,49585,1,0,0:0:0:0:
64,192,49585,1,0,0:0:0:0:
448,192,49670,1,0,0:0:0:0:
320,192,49756,1,0,0:0:0:0:
64,192,49842,1,0,0:0:0:0:
192,192,49928,1,0,0:0:0:0:
320,192,50013,1,0,0:0:0:0:
448,192,50099,1,0,0:0:0:0:
192,192,50185,1,0,0:0:0:0:
320,192,50270,1,0,0:0:0:0:
64,192,50356,1,0,0:0:0:0:
192,192,50442,1,0,0:0:0:0:
320,192,50528,1,0,0:0:0:0:
192,192,50613,1,0,0:0:0:0:
64,192,50699,1,0,0:0:0:0:
448,192,50699,1,0,0:0:0:0:
320,192,50785,1,0,0:0:0:0:
192,192,50870,1,0,0:0:0:0:
448,192,50956,1,0,0:0:0:0:
64,192,50956,1,0,0:0:0:0:
320,192,51042,1,0,0:0:0:0:
192,192,51128,1,0,0:0:0:0:
320,192,51213,1,0,0:0:0:0:
448,192,51299,1,0,0:0:0:0:
64,192,51299,1,0,0:0:0:0:
192,192,51385,1,0,0:0:0:0:
320,192,51470,1,0,0:0:0:0:
448,192,51470,1,0,0:0:0:0:
192,192,51556,1,0,0:0:0:0:
64,192,51642,1,0,0:0:0:0:
448,192,51642,1,0,0:0:0:0:
320,192,51728,1,0,0:0:0:0:
192,192,51813,1,0,0:0:0:0:
64,192,51899,1,0,0:0:0:0:
448,192,51899,1,0,0:0:0:0:
320,192,51985,1,0,0:0:0:0:
192,192,52070,1,0,0:0:0:0:
64,192,52070,1,0,0:0:0:0:
320,192,52156,1,0,0:0:0:0:
448,192,52242,1,0,0:0:0:0:
64,192,52242,1,0,0:0:0:0:
192,192,52328,1,0,0:0:0:0:
448,192,52413,1,0,0:0:0:0:
320,192,52499,1,0,0:0:0:0:
192,192,52499,1,0,0:0:0:0:
64,192,52585,1,0,0:0:0:0:
448,192,52670,1,0,0:0:0:0:
320,192,52756,1,0,0:0:0:0:
192,192,52842,1,0,0:0:0:0:
448,192,52928,1,0,0:0:0:0:
64,192,53013,1,0,0:0:0:0:
320,192,53099,1,0,0:0:0:0:
192,192,53185,1,0,0:0:0:0:
64,192,53270,1,0,0:0:0:0:
192,192,53356,1,0,0:0:0:0:
448,192,53442,1,0,0:0:0:0:
320,192,53528,1,0,0:0:0:0:
192,192,53613,1,0,0:0:0:0:
64,192,53699,1,0,0:0:0:0:
320,192,53785,1,0,0:0:0:0:
192,192,53870,1,0,0:0:0:0:
64,192,53956,1,0,0:0:0:0:
320,192,54042,1,0,0:0:0:0:
64,192,54128,1,0,0:0:0:0:
192,192,54213,1,0,0:0:0:0:
320,192,54299,1,0,0:0:0:0:
448,192,54385,1,0,0:0:0:0:
192,192,54470,1,0,0:0:0:0:
64,192,54556,1,0,0:0:0:0:
448,192,54556,1,0,0:0:0:0:
320,192,54642,1,0,0:0:0:0:
192,192,54728,1,0,0:0:0:0:
64,192,54728,1,0,0:0:0:0:
448,192,54813,1,0,0:0:0:0:
320,192,54899,1,0,0:0:0:0:
192,192,54899,1,0,0:0:0:0:
64,192,54985,1,0,0:0:0:0:
448,192,55070,1,0,0:0:0:0:
320,192,55156,1,0,0:0:0:0:
192,192,55242,1,0,0:0:0:0:
64,192,55242,1,0,0:0:0:0:
320,192,55328,1,0,0:0:0:0:
448,192,55413,1,0,0:0:0:0:
64,192,55413,1,0,0:0:0:0:
192,192,55499,1,0,0:0:0:0:
320,192,55585,1,0,0:0:0:0:
448,192,55585,1,0,0:0:0:0:
192,192,55670,1,0,0:0:0:0:
64,192,55756,1,0,0:0:0:0:
448,192,55842,1,0,0:0:0:0:
192,192,55842,1,0,0:0:0:0:
320,192,55928,1,0,0:0:0:0:
64,192,56013,1,0,0:0:0:0:
192,192,56099,1,0,0:0:0:0:
448,192,56185,1,0,0:0:0:0:
320,192,56270,1,0,0:0:0:0:
192,192,56270,1,0,0:0:0:0:
64,192,56356,1,0,0:0:0:0:
448,192,56442,1,0,0:0:0:0:
192,192,56528,1,0,0:0:0:0:
320,192,56613,1,0,0:0:0:0:
64,192,56613,1,0,0:0:0:0:
192,192,56699,1,0,0:0:0:0:
448,192,56785,1,0,0:0:0:0:
320,192,56870,1,0,0:0:0:0:
192,192,56956,1,0,0:0:0:0:
64,192,57042,1,0,0:0:0:0:
448,192,57042,1,0,0:0:0:0:
320,192,57128,1,0,0:0:0:0:
192,192,57213,1,0,0:0:0:0:
64,192,57299,1,0,0:0:0:0:
448,192,57299,1,0,0:0:0:0:
320,192,57385,1,0,0:0:0:0:
192,192,57470,1,0,0:0:0:0:
64,192,57556,1,0,0:0:0:0:
448,192,57556,1,0,0:0:0:0:
320,192,57642,1,0,0:0:0:0:
192,192,57728,1,0,0:0:0:0:
64,192,57728,1,0,0:0:0:0:
448,192,57813,1,0,0:0:0:0:
64,192,57899,1,0,0:0:0:0:
192,192,57985,1,0,0:0:0:0:
320,192,57985,1,0,0:0:0:0:
448,192,58070,1,0,0:0:0:0:
64,192,58156,1,0,0:0:0:0:
448,192,58242,1,0,0:0:0:0:
192,192,58328,1,0,0:0:0:0:
320,192,58328,1,0,0:0:0:0:
64,192,58413,1,0,0:0:0:0:
448,192,58499,1,0,0:0:0:0:
192,192,58585,1,0,0:0:0:0:
320,192,58585,1,0,0:0:0:0:
64,192,58670,1,0,0:0:0:0:
448,192,58756,1,0,0:0:0:0:
64,192,58842,1,0,0:0:0:0:
320,192,58928,1,0,0:0:0:0:
192,192,59013,1,0,0:0:0:0:
64,192,59099,1,0,0:0:0:0:
448,192,59099,1,0,0:0:0:0:
320,192,59185,1,0,0:0:0:0:
192,192,59270,1,0,0:0:0:0:
64,192,59270,1,0,0:0:0:0:
448,192,59356,1,0,0:0:0:0:
64,192,59442,1,0,0:0:0:0:
320,192,59528,1,0,0:0:0:0:
448,192,59528,1,0,0:0:0:0:
192,192,59613,1,0,0:0:0:0:
64,192,59613,1,0,0:0:0:0:
320,192,59699,1,0,0:0:0:0:
448,192,59699,1,0,0:0:0:0:
192,192,59785,1,0,0:0:0:0:
64,192,59870,1,0,0:0:0:0:
448,192,59870,1,0,0:0:0:0:
320,192,59956,1,0,0:0:0:0:
192,192,60042,1,0,0:0:0:0:
64,192,60042,1,0,0:0:0:0:
320,192,60128,1,0,0:0:0:0:
192,192,60213,1,0,0:0:0:0:
448,192,60213,1,0,0:0:0:0:
64,192,60299,1,0,0:0:0:0:
320,192,60299,1,0,0:0:0:0:
192,192,60385,1,0,0:0:0:0:
448,192,60470,1,0,0:0:0:0:
320,192,60470,1,0,0:0:0:0:
64,192,60642,1,0,0:0:0:0:
448,192,60642,1,0,0:0:0:0:
192,192,60813,1,0,0:0:0:0:
64,192,60813,1,0,0:0:0:0:
320,192,60985,1,0,0:0:0:0:
192,192,60985,1,0,0:0:0:0:
448,192,61156,1,0,0:0:0:0:
192,192,61156,1,0,0:0:0:0:
192,192,61328,1,0,0:0:0:0:
448,192,61328,1,0,0:0:0:0:
320,192,61413,1,0,0:0:0:0:
64,192,61413,1,0,0:0:0:0:
192,192,61499,1,0,0:0:0:0:
320,192,61670,1,0,0:0:0:0:
192,192,61670,1,0,0:0:0:0:
448,192,61842,1,0,0:0:0:0:
320,192,62013,1,0,0:0:0:0:
64,192,62185,1,0,0:0:0:0:
192,192,62185,1,0,0:0:0:0:
64,192,62356,1,0,0:0:0:0:
320,192,62356,1,0,0:0:0:0:
192,192,62528,1,0,0:0:0:0:
448,192,62528,1,0,0:0:0:0:
320,192,62699,1,0,0:0:0:0:
448,192,62699,1,0,0:0:0:0:
64,192,62870,1,0,0:0:0:0:
448,192,62870,1,0,0:0:0:0:
192,192,63042,1,0,0:0:0:0:
448,192,63042,1,0,0:0:0:0:
320,192,63213,1,0,0:0:0:0:
448,192,63213,1,0,0:0:0:0:
192,192,63299,1,0,0:0:0:0:
64,192,63299,1,0,0:0:0:0:
320,192,63385,1,0,0:0:0:0:
448,192,63385,1,0,0:0:0:0:
192,192,63470,5,0,0:0:0:0:
64,192,63470,1,0,0:0:0:0:
320,192,63556,1,0,0:0:0:0:
448,192,63556,1,0,0:0:0:0:
64,192,63642,1,0,0:0:0:0:
192,192,63642,1,0,0:0:0:0:
320,192,63728,1,0,0:0:0:0:
448,192,63728,1,0,0:0:0:0:
192,192,63813,1,0,0:0:0:0:
64,192,63813,1,0,0:0:0:0:
320,192,63899,1,0,0:0:0:0:
448,192,63899,1,0,0:0:0:0:
192,192,63985,1,0,0:0:0:0:
64,192,63985,1,0,0:0:0:0:
448,192,64070,1,0,0:0:0:0:
320,192,64070,1,0,0:0:0:0:
192,192,64156,1,0,0:0:0:0:
64,192,64156,1,0,0:0:0:0:
320,192,64242,1,0,0:0:0:0:
448,192,64242,1,0,0:0:0:0:
192,192,64328,1,0,0:0:0:0:
64,192,64328,1,0,0:0:0:0:
320,192,64413,1,0,0:0:0:0:
448,192,64413,1,0,0:0:0:0:
192,192,64499,1,0,0:0:0:0:
64,192,64499,1,0,0:0:0:0:
448,192,64585,5,0,0:0:0:0:
320,192,64628,1,0,0:0:0:0:
192,192,64670,1,0,0:0:0:0:
64,192,64713,1,0,0:0:0:0:
448,192,64756,1,0,0:0:0:0:
320,192,64799,1,0,0:0:0:0:
192,192,64842,1,0,0:0:0:0:
64,192,64885,1,0,0:0:0:0:
320,192,64928,1,0,0:0:0:0:
448,192,64970,1,0,0:0:0:0:
64,192,65013,1,0,0:0:0:0:
192,192,65056,1,0,0:0:0:0:
448,192,65099,1,0,0:0:0:0:
320,192,65142,1,0,0:0:0:0:
192,192,65185,1,0,0:0:0:0:
64,192,65228,1,0,0:0:0:0:
448,192,65270,1,0,0:0:0:0:
320,192,65313,1,0,0:0:0:0:
64,192,65356,1,0,0:0:0:0:
192,192,65399,1,0,0:0:0:0:
448,192,65399,1,0,0:0:0:0:
320,192,65442,1,0,0:0:0:0:
64,192,65485,1,0,0:0:0:0:
192,192,65528,1,0,0:0:0:0:
320,192,65570,1,0,0:0:0:0:
448,192,65570,1,0,0:0:0:0:
64,192,65613,1,0,0:0:0:0:
192,192,65656,1,0,0:0:0:0:
448,192,65699,1,0,0:0:0:0:
320,192,65742,1,0,0:0:0:0:
64,192,65742,1,0,0:0:0:0:
192,192,65785,1,0,0:0:0:0:
448,192,65828,1,0,0:0:0:0:
320,192,65870,1,0,0:0:0:0:
192,192,65913,1,0,0:0:0:0:
64,192,65913,1,0,0:0:0:0:
448,192,65956,1,0,0:0:0:0:
192,192,76928,5,0,0:0:0:0:
448,192,77099,1,0,0:0:0:0:
320,192,77185,1,0,0:0:0:0:
64,192,77270,1,0,0:0:0:0:
192,192,77270,1,0,0:0:0:0:
448,192,77442,1,0,0:0:0:0:
64,192,77528,1,0,0:0:0:0:
192,192,77613,1,0,0:0:0:0:
320,192,77613,1,0,0:0:0:0:
448,192,77785,1,0,0:0:0:0:
192,192,77870,1,0,0:0:0:0:
320,192,77870,1,0,0:0:0:0:
64,192,77956,1,0,0:0:0:0:
448,192,78128,1,0,0:0:0:0:
192,192,78128,1,0,0:0:0:0:
320,192,78213,1,0,0:0:0:0:
64,192,78213,1,0,0:0:0:0:
192,192,78299,1,0,0:0:0:0:
448,192,78299,1,0,0:0:0:0:
320,192,78470,1,0,0:0:0:0:
192,192,78556,1,0,0:0:0:0:
448,192,78556,1,0,0:0:0:0:
320,192,78642,1,0,0:0:0:0:
64,192,78813,1,0,0:0:0:0:
320,192,78813,1,0,0:0:0:0:
192,192,78899,1,0,0:0:0:0:
64,192,78985,1,0,0:0:0:0:
320,192,78985,1,0,0:0:0:0:
448,192,79156,1,0,0:0:0:0:
320,192,79242,1,0,0:0:0:0:
192,192,79242,1,0,0:0:0:0:
64,192,79328,1,0,0:0:0:0:
448,192,79499,1,0,0:0:0:0:
320,192,79499,1,0,0:0:0:0:
192,192,79585,1,0,0:0:0:0:
64,192,79585,1,0,0:0:0:0:
320,192,79670,1,0,0:0:0:0:
448,192,79670,1,0,0:0:0:0:
192,192,79842,1,0,0:0:0:0:
64,192,79928,1,0,0:0:0:0:
448,192,79928,1,0,0:0:0:0:
320,192,80013,1,0,0:0:0:0:
64,192,80185,1,0,0:0:0:0:
448,192,80185,1,0,0:0:0:0:
320,192,80270,1,0,0:0:0:0:
192,192,80270,1,0,0:0:0:0:
64,192,80356,1,0,0:0:0:0:
448,192,80356,1,0,0:0:0:0:
320,192,80528,1,0,0:0:0:0:
448,192,80528,1,0,0:0:0:0:
192,192,80613,1,0,0:0:0:0:
64,192,80699,1,0,0:0:0:0:
448,192,80699,1,0,0:0:0:0:
320,192,80870,1,0,0:0:0:0:
64,192,80870,1,0,0:0:0:0:
192,192,80956,1,0,0:0:0:0:
448,192,81042,1,0,0:0:0:0:
64,192,81042,1,0,0:0:0:0:
320,192,81213,1,0,0:0:0:0:
192,192,81299,1,0,0:0:0:0:
320,192,81385,1,0,0:0:0:0:
64,192,81556,1,0,0:0:0:0:
320,192,81642,1,0,0:0:0:0:
448,192,81728,1,0,0:0:0:0:
192,192,81899,1,0,0:0:0:0:
64,192,81985,1,0,0:0:0:0:
448,192,81985,1,0,0:0:0:0:
320,192,82070,1,0,0:0:0:0:
448,192,82242,1,0,0:0:0:0:
320,192,82242,1,0,0:0:0:0:
192,192,82328,1,0,0:0:0:0:
64,192,82328,1,0,0:0:0:0:
320,192,82413,1,0,0:0:0:0:
448,192,82413,1,0,0:0:0:0:
192,192,82585,1,0,0:0:0:0:
64,192,82585,1,0,0:0:0:0:
320,192,82670,1,0,0:0:0:0:
64,192,82756,1,0,0:0:0:0:
448,192,82756,1,0,0:0:0:0:
320,192,82928,1,0,0:0:0:0:
192,192,83013,1,0,0:0:0:0:
64,192,83099,1,0,0:0:0:0:
448,192,83099,1,0,0:0:0:0:
320,192,83270,1,0,0:0:0:0:
192,192,83356,1,0,0:0:0:0:
448,192,83356,1,0,0:0:0:0:
320,192,83442,1,0,0:0:0:0:
64,192,83613,1,0,0:0:0:0:
192,192,83613,1,0,0:0:0:0:
320,192,83699,1,0,0:0:0:0:
448,192,83699,1,0,0:0:0:0:
192,192,83785,1,0,0:0:0:0:
64,192,83785,1,0,0:0:0:0:
320,192,83956,1,0,0:0:0:0:
192,192,84042,1,0,0:0:0:0:
448,192,84042,1,0,0:0:0:0:
64,192,84128,1,0,0:0:0:0:
320,192,84128,1,0,0:0:0:0:
192,192,84299,1,0,0:0:0:0:
448,192,84385,1,0,0:0:0:0:
192,192,84470,1,0,0:0:0:0:
320,192,84470,1,0,0:0:0:0:
64,192,84642,1,0,0:0:0:0:
448,192,84642,1,0,0:0:0:0:
320,192,84728,1,0,0:0:0:0:
192,192,84728,1,0,0:0:0:0:
64,192,84813,1,0,0:0:0:0:
448,192,84813,1,0,0:0:0:0:
192,192,84985,1,0,0:0:0:0:
320,192,84985,1,0,0:0:0:0:
64,192,85070,1,0,0:0:0:0:
448,192,85070,1,0,0:0:0:0:
192,192,85156,1,0,0:0:0:0:
320,192,85156,1,0,0:0:0:0:
64,192,85328,1,0,0:0:0:0:
192,192,85413,1,0,0:0:0:0:
320,192,85413,1,0,0:0:0:0:
448,192,85499,1,0,0:0:0:0:
448,192,85670,1,0,0:0:0:0:
320,192,85756,1,0,0:0:0:0:
192,192,85756,1,0,0:0:0:0:
64,192,85842,1,0,0:0:0:0:
320,192,86013,1,0,0:0:0:0:
64,192,86099,1,0,0:0:0:0:
448,192,86099,1,0,0:0:0:0:
192,192,86185,1,0,0:0:0:0:
448,192,86356,1,0,0:0:0:0:
320,192,86356,1,0,0:0:0:0:
64,192,86442,1,0,0:0:0:0:
192,192,86528,1,0,0:0:0:0:
448,192,86528,1,0,0:0:0:0:
320,192,86699,1,0,0:0:0:0:
192,192,86785,1,0,0:0:0:0:
64,192,86870,1,0,0:0:0:0:
448,192,86870,1,0,0:0:0:0:
320,192,86956,1,0,0:0:0:0:
192,192,87042,1,0,0:0:0:0:
64,192,87042,1,0,0:0:0:0:
320,192,87128,1,0,0:0:0:0:
448,192,87128,1,0,0:0:0:0:
192,192,87213,1,0,0:0:0:0:
64,192,87213,1,0,0:0:0:0:
320,192,87299,1,0,0:0:0:0:
192,192,87385,1,0,0:0:0:0:
448,192,87385,1,0,0:0:0:0:
64,192,87470,1,0,0:0:0:0:
320,192,87470,1,0,0:0:0:0:
192,192,87556,1,0,0:0:0:0:
64,192,87642,1,0,0:0:0:0:
448,192,87728,1,0,0:0:0:0:
320,192,87813,1,0,0:0:0:0:
192,192,87813,1,0,0:0:0:0:
64,192,87899,1,0,0:0:0:0:
448,192,88070,1,0,0:0:0:0:
320,192,88156,1,0,0:0:0:0:
192,192,88242,1,4,0:0:0:0:
448,192,88242,1,4,0:0:0:0:
192,192,88413,1,0,0:0:0:0:
320,192,88499,1,0,0:0:0:0:
64,192,88585,1,0,0:0:0:0:
192,192,88670,1,0,0:0:0:0:
320,192,88756,1,0,0:0:0:0:
448,192,88756,1,0,0:0:0:0:
64,192,88842,1,0,0:0:0:0:
192,192,88928,1,4,0:0:0:0:
448,192,88928,1,4,0:0:0:0:
320,192,89099,1,0,0:0:0:0:
192,192,89185,1,0,0:0:0:0:
64,192,89270,1,0,0:0:0:0:
448,192,89270,1,0,0:0:0:0:
320,192,89356,1,0,0:0:0:0:
192,192,89442,1,0,0:0:0:0:
64,192,89442,1,0,0:0:0:0:
320,192,89528,1,0,0:0:0:0:
64,192,89613,1,4,0:0:0:0:
448,192,89613,1,4,0:0:0:0:
320,192,89785,1,0,0:0:0:0:
192,192,89870,1,0,0:0:0:0:
448,192,89956,1,0,0:0:0:0:
320,192,90042,1,0,0:0:0:0:
192,192,90042,1,0,0:0:0:0:
64,192,90128,1,0,0:0:0:0:
448,192,90213,1,0,0:0:0:0:
192,192,90213,1,0,0:0:0:0:
64,192,90299,1,4,0:0:0:0:
320,192,90299,1,4,0:0:0:0:
192,192,90470,1,0,0:0:0:0:
320,192,90556,1,0,0:0:0:0:
448,192,90642,1,0,0:0:0:0:
64,192,90642,1,0,0:0:0:0:
192,192,90728,1,0,0:0:0:0:
320,192,90813,1,0,0:0:0:0:
448,192,90813,1,0,0:0:0:0:
64,192,90899,1,0,0:0:0:0:
192,192,90985,1,4,0:0:0:0:
448,192,90985,1,4,0:0:0:0:
320,192,91156,1,0,0:0:0:0:
192,192,91242,1,0,0:0:0:0:
64,192,91328,1,0,0:0:0:0:
448,192,91328,1,0,0:0:0:0:
320,192,91413,1,0,0:0:0:0:
192,192,91499,1,0,0:0:0:0:
64,192,91499,1,0,0:0:0:0:
320,192,91585,1,0,0:0:0:0:
448,192,91585,1,0,0:0:0:0:
192,192,91670,1,4,0:0:0:0:
64,192,91670,1,4,0:0:0:0:
448,192,91842,1,0,0:0:0:0:
320,192,91928,1,0,0:0:0:0:
64,192,91928,1,0,0:0:0:0:
192,192,92013,1,0,0:0:0:0:
64,192,92099,1,0,0:0:0:0:
448,192,92185,1,0,0:0:0:0:
320,192,92185,1,0,0:0:0:0:
192,192,92270,1,0,0:0:0:0:
64,192,92270,1,0,0:0:0:0:
320,192,92356,1,4,0:0:0:0:
448,192,92356,1,4,0:0:0:0:
192,192,92528,1,0,0:0:0:0:
64,192,92613,1,0,0:0:0:0:
320,192,92613,1,0,0:0:0:0:
192,192,92699,1,0,0:0:0:0:
448,192,92699,1,0,0:0:0:0:
320,192,92785,1,0,0:0:0:0:
64,192,92870,1,0,0:0:0:0:
448,192,92956,1,0,0:0:0:0:
320,192,92956,1,0,0:0:0:0:
192,192,93042,1,4,0:0:0:0:
320,192,93213,1,4,0:0:0:0:
192,192,93299,1,4,0:0:0:0:
448,192,93299,1,4,0:0:0:0:
320,192,93385,1,0,0:0:0:0:
192,192,93470,1,0,0:0:0:0:
64,192,93470,1,0,0:0:0:0:
320,192,93556,1,0,0:0:0:0:
192,192,93642,1,0,0:0:0:0:
448,192,93642,1,0,0:0:0:0:
64,192,93728,1,4,0:0:0:0:
320,192,93728,1,4,0:0:0:0:
192,192,93899,1,0,0:0:0:0:
64,192,93985,1,0,0:0:0:0:
320,192,93985,1,0,0:0:0:0:
448,192,94070,1,0,0:0:0:0:
64,192,94156,1,0,0:0:0:0:
192,192,94242,1,0,0:0:0:0:
320,192,94242,1,0,0:0:0:0:
448,192,94328,1,0,0:0:0:0:
64,192,94413,1,4,0:0:0:0:
192,192,94413,1,4,0:0:0:0:
320,192,94585,1,0,0:0:0:0:
192,192,94670,1,0,0:0:0:0:
448,192,94756,1,0,0:0:0:0:
64,192,94756,1,0,0:0:0:0:
320,192,94842,1,0,0:0:0:0:
192,192,94928,1,0,0:0:0:0:
64,192,94928,1,0,0:0:0:0:
320,192,95013,1,0,0:0:0:0:
448,192,95013,1,0,0:0:0:0:
192,192,95099,1,4,0:0:0:0:
64,192,95099,1,4,0:0:0:0:
320,192,95270,1,0,0:0:0:0:
192,192,95356,1,0,0:0:0:0:
64,192,95442,1,0,0:0:0:0:
448,192,95442,1,0,0:0:0:0:
320,192,95528,1,0,0:0:0:0:
64,192,95613,1,0,0:0:0:0:
192,192,95699,1,0,0:0:0:0:
320,192,95699,1,0,0:0:0:0:
448,192,95785,1,4,0:0:0:0:
320,192,95956,1,0,0:0:0:0:
192,192,96042,1,0,0:0:0:0:
64,192,96128,1,0,0:0:0:0:
448,192,96128,1,0,0:0:0:0:
320,192,96213,1,0,0:0:0:0:
192,192,96299,1,0,0:0:0:0:
64,192,96385,1,0,0:0:0:0:
448,192,96385,1,0,0:0:0:0:
320,192,96470,1,4,0:0:0:0:
192,192,96470,1,4,0:0:0:0:
448,192,96642,1,0,0:0:0:0:
192,192,96642,1,0,0:0:0:0:
320,192,96728,1,0,0:0:0:0:
64,192,96728,1,0,0:0:0:0:
192,192,96813,1,0,0:0:0:0:
448,192,96899,1,0,0:0:0:0:
320,192,96985,1,0,0:0:0:0:
192,192,96985,1,0,0:0:0:0:
64,192,97070,1,0,0:0:0:0:
320,192,97156,1,4,0:0:0:0:
64,192,97328,1,0,0:0:0:0:
192,192,97413,1,0,0:0:0:0:
320,192,97499,1,0,0:0:0:0:
448,192,97499,1,0,0:0:0:0:
192,192,97585,1,0,0:0:0:0:
64,192,97670,1,0,0:0:0:0:
448,192,97670,1,0,0:0:0:0:
320,192,97756,1,0,0:0:0:0:
192,192,97842,1,4,0:0:0:0:
64,192,97842,1,4,0:0:0:0:
320,192,98013,1,0,0:0:0:0:
64,192,98099,1,0,0:0:0:0:
448,192,98099,1,0,0:0:0:0:
320,192,98185,1,0,0:0:0:0:
64,192,98270,1,0,0:0:0:0:
448,192,98270,1,0,0:0:0:0:
192,192,98356,1,0,0:0:0:0:
448,192,98442,1,0,0:0:0:0:
320,192,98442,1,0,0:0:0:0:
64,192,98528,1,4,0:0:0:0:
192,192,98528,1,4,0:0:0:0:
320,192,98699,1,0,0:0:0:0:
192,192,98785,1,0,0:0:0:0:
64,192,98870,1,0,0:0:0:0:
448,192,98870,1,0,0:0:0:0:
192,192,99042,1,0,0:0:0:0:
320,192,99128,1,0,0:0:0:0:
64,192,99213,1,4,0:0:0:0:
448,192,99213,1,4,0:0:0:0:
192,192,99213,1,4,0:0:0:0:
320,192,99385,1,0,0:0:0:0:
192,192,99470,1,0,0:0:0:0:
64,192,99556,1,0,0:0:0:0:
448,192,99642,1,0,0:0:0:0:
192,192,99642,1,0,0:0:0:0:
320,192,99728,1,0,0:0:0:0:
192,192,99813,1,0,0:0:0:0:
64,192,99899,1,4,0:0:0:0:
448,192,99899,1,4,0:0:0:0:
320,192,99899,1,4,0:0:0:0:
192,192,100070,1,0,0:0:0:0:
320,192,100070,1,0,0:0:0:0:
64,192,100156,1,0,0:0:0:0:
192,192,100242,1,0,0:0:0:0:
320,192,100328,1,0,0:0:0:0:
448,192,100328,1,0,0:0:0:0:
64,192,100413,1,0,0:0:0:0:
192,192,100413,1,0,0:0:0:0:
320,192,100499,1,0,0:0:0:0:
448,192,100585,1,4,0:0:0:0:
64,192,100585,1,4,0:0:0:0:
192,192,100585,1,4,0:0:0:0:
320,192,100756,1,0,0:0:0:0:
192,192,100842,1,0,0:0:0:0:
64,192,100928,1,0,0:0:0:0:
320,192,100928,1,0,0:0:0:0:
192,192,101013,1,0,0:0:0:0:
448,192,101099,1,0,0:0:0:0:
320,192,101099,1,0,0:0:0:0:
192,192,101185,1,0,0:0:0:0:
64,192,101185,1,0,0:0:0:0:
320,192,101270,1,4,0:0:0:0:
448,192,101270,1,4,0:0:0:0:
192,192,101442,1,0,0:0:0:0:
64,192,101528,1,0,0:0:0:0:
320,192,101528,1,0,0:0:0:0:
192,192,101613,1,0,0:0:0:0:
448,192,101613,1,0,0:0:0:0:
320,192,101699,1,0,0:0:0:0:
448,192,101785,1,0,0:0:0:0:
64,192,101870,1,0,0:0:0:0:
192,192,101956,1,4,0:0:0:0:
320,192,101956,1,4,0:0:0:0:
448,192,101956,1,4,0:0:0:0:
320,192,102128,1,0,0:0:0:0:
192,192,102213,1,0,0:0:0:0:
64,192,102299,1,0,0:0:0:0:
448,192,102385,1,0,0:0:0:0:
192,192,102470,1,0,0:0:0:0:
320,192,102556,1,0,0:0:0:0:
64,192,102642,1,4,0:0:0:0:
192,192,102642,1,4,0:0:0:0:
448,192,102642,1,4,0:0:0:0:
320,192,102813,1,0,0:0:0:0:
192,192,102899,1,0,0:0:0:0:
320,192,102985,1,0,0:0:0:0:
64,192,103070,1,0,0:0:0:0:
192,192,103156,1,0,0:0:0:0:
64,192,103242,1,0,0:0:0:0:
192,192,103328,1,4,0:0:0:0:
320,192,103328,1,4,0:0:0:0:
448,192,103328,1,4,0:0:0:0:
320,192,103499,1,0,0:0:0:0:
192,192,103585,1,0,0:0:0:0:
448,192,103585,1,0,0:0:0:0:
320,192,103670,1,0,0:0:0:0:
64,192,103756,1,0,0:0:0:0:
448,192,103756,1,0,0:0:0:0:
320,192,103842,1,0,0:0:0:0:
64,192,103928,1,0,0:0:0:0:
192,192,103928,1,0,0:0:0:0:
320,192,104013,1,4,0:0:0:0:
192,192,104185,1,0,0:0:0:0:
64,192,104185,1,0,0:0:0:0:
320,192,104270,1,0,0:0:0:0:
64,192,104356,1,0,0:0:0:0:
448,192,104356,1,0,0:0:0:0:
192,192,104442,1,0,0:0:0:0:
320,192,104528,1,0,0:0:0:0:
448,192,104528,1,0,0:0:0:0:
64,192,104613,1,0,0:0:0:0:
192,192,104699,1,4,0:0:0:0:
320,192,104699,1,4,0:0:0:0:
320,192,104870,1,0,0:0:0:0:
64,192,104956,1,0,0:0:0:0:
192,192,105042,1,0,0:0:0:0:
320,192,105128,1,0,0:0:0:0:
448,192,105213,1,0,0:0:0:0:
64,192,105299,1,0,0:0:0:0:
320,192,105385,1,4,0:0:0:0:
448,192,105385,1,4,0:0:0:0:
192,192,105556,1,0,0:0:0:0:
320,192,105642,1,0,0:0:0:0:
64,192,105728,1,0,0:0:0:0:
448,192,105728,1,0,0:0:0:0:
320,192,105813,1,0,0:0:0:0:
192,192,105899,1,0,0:0:0:0:
64,192,105899,1,0,0:0:0:0:
448,192,105985,1,0,0:0:0:0:
64,192,106070,1,4,0:0:0:0:
320,192,106070,1,4,0:0:0:0:
192,192,106070,1,4,0:0:0:0:
448,192,106242,1,0,0:0:0:0:
320,192,106328,1,0,0:0:0:0:
64,192,106413,1,0,0:0:0:0:
192,192,106499,1,0,0:0:0:0:
320,192,106585,1,0,0:0:0:0:
448,192,106670,1,0,0:0:0:0:
64,192,106756,1,4,0:0:0:0:
192,192,106756,1,4,0:0:0:0:
320,192,106756,1,4,0:0:0:0:
448,192,106928,1,0,0:0:0:0:
64,192,107013,1,0,0:0:0:0:
320,192,107099,1,0,0:0:0:0:
192,192,107185,1,0,0:0:0:0:
64,192,107270,1,0,0:0:0:0:
192,192,107356,1,0,0:0:0:0:
64,192,107442,1,4,0:0:0:0:
320,192,107442,1,4,0:0:0:0:
448,192,107442,1,4,0:0:0:0:
192,192,107613,1,0,0:0:0:0:
320,192,107699,1,0,0:0:0:0:
192,192,107785,1,0,0:0:0:0:
448,192,107870,1,0,0:0:0:0:
64,192,107956,1,0,0:0:0:0:
192,192,108042,1,0,0:0:0:0:
448,192,108128,1,4,0:0:0:0:
64,192,108128,1,4,0:0:0:0:
320,192,108128,1,4,0:0:0:0:
192,192,108299,1,0,0:0:0:0:
320,192,108385,1,0,0:0:0:0:
64,192,108470,1,0,0:0:0:0:
192,192,108556,1,0,0:0:0:0:
320,192,108642,1,0,0:0:0:0:
448,192,108728,1,0,0:0:0:0:
320,192,108813,1,0,0:0:0:0:
64,192,108813,1,0,0:0:0:0:
192,192,108899,1,0,0:0:0:0:
448,192,108985,1,0,0:0:0:0:
320,192,109070,1,0,0:0:0:0:
64,192,109070,1,0,0:0:0:0:
192,192,109156,1,0,0:0:0:0:
320,192,109242,1,0,0:0:0:0:
448,192,109328,1,0,0:0:0:0:
64,192,109328,1,0,0:0:0:0:
192,192,109413,1,0,0:0:0:0:
320,192,109499,1,0,0:0:0:0:
448,192,109585,1,0,0:0:0:0:
64,192,109585,1,0,0:0:0:0:
192,192,109670,1,0,0:0:0:0:
320,192,109756,1,0,0:0:0:0:
448,192,109842,1,10,0:0:0:0:
448,192,110099,1,10,0:0:0:0:
320,192,110356,1,10,0:0:0:0:
192,192,110613,1,10,0:0:0:0:
64,192,110870,1,10,0:0:0:0:
192,192,111042,1,10,0:0:0:0:
448,192,111213,1,10,0:0:0:0:
448,192,111470,1,10,0:0:0:0:
320,192,111728,1,10,0:0:0:0:
64,192,111985,1,10,0:0:0:0:
448,192,112242,1,10,0:0:0:0:
192,192,112413,1,10,0:0:0:0:
64,192,112585,1,10,0:0:0:0:
448,192,112842,1,10,0:0:0:0:
320,192,113099,1,10,0:0:0:0:
320,192,113356,1,10,0:0:0:0:
64,192,113613,1,10,0:0:0:0:
192,192,113785,1,10,0:0:0:0:
64,192,113956,1,10,0:0:0:0:
448,192,113956,1,10,0:0:0:0:
320,192,114213,1,10,0:0:0:0:
64,192,114470,1,10,0:0:0:0:
448,192,114728,1,10,0:0:0:0:
64,192,114985,1,10,0:0:0:0:
192,192,115156,1,10,0:0:0:0:
448,192,115328,1,10,0:0:0:0:
448,192,115585,1,10,0:0:0:0:
64,192,115842,1,10,0:0:0:0:
448,192,116099,1,10,0:0:0:0:
64,192,116356,1,10,0:0:0:0:
192,192,116528,1,10,0:0:0:0:
448,192,116699,1,10,0:0:0:0:
192,192,116956,1,10,0:0:0:0:
192,192,117213,1,10,0:0:0:0:
448,192,117470,1,10,0:0:0:0:
64,192,117728,1,10,0:0:0:0:
192,192,117899,1,10,0:0:0:0:
448,192,118070,1,10,0:0:0:0:
448,192,118328,1,10,0:0:0:0:
320,192,118585,1,10,0:0:0:0:
192,192,118842,1,10,0:0:0:0:
448,192,119099,1,10,0:0:0:0:
320,192,119270,1,10,0:0:0:0:
64,192,119442,1,10,0:0:0:0:
320,192,119442,1,10,0:0:0:0:
192,192,119699,1,10,0:0:0:0:
64,192,119956,1,10,0:0:0:0:
448,192,120213,1,10,0:0:0:0:
64,192,120470,1,10,0:0:0:0:
192,192,120642,1,10,0:0:0:0:
448,192,120813,1,10,0:0:0:0:
64,192,120813,1,10,0:0:0:0:
192,192,120985,1,0,0:0:0:0:
320,192,121070,1,0,0:0:0:0:
192,192,121156,1,0,0:0:0:0:
448,192,121156,1,0,0:0:0:0:
320,192,121328,1,0,0:0:0:0:
64,192,121413,1,0,0:0:0:0:
192,192,121499,1,0,0:0:0:0:
448,192,121499,1,0,0:0:0:0:
320,192,121670,1,0,0:0:0:0:
192,192,121756,1,0,0:0:0:0:
64,192,121842,1,0,0:0:0:0:
448,192,121842,1,0,0:0:0:0:
192,192,122013,1,0,0:0:0:0:
448,192,122013,1,0,0:0:0:0:
320,192,122099,1,0,0:0:0:0:
64,192,122099,1,0,0:0:0:0:
192,192,122185,1,0,0:0:0:0:
448,192,122185,1,0,0:0:0:0:
64,192,122356,1,0,0:0:0:0:
320,192,122356,1,0,0:0:0:0:
192,192,122442,1,0,0:0:0:0:
64,192,122528,1,0,0:0:0:0:
320,192,122528,1,0,0:0:0:0:
192,192,122699,1,0,0:0:0:0:
64,192,122785,1,0,0:0:0:0:
448,192,122870,1,0,0:0:0:0:
192,192,123042,1,0,0:0:0:0:
448,192,123128,1,0,0:0:0:0:
64,192,123128,1,0,0:0:0:0:
320,192,123213,1,0,0:0:0:0:
192,192,123385,1,0,0:0:0:0:
320,192,123470,1,0,0:0:0:0:
64,192,123556,1,0,0:0:0:0:
448,192,123556,1,0,0:0:0:0:
192,192,123728,1,0,0:0:0:0:
320,192,123813,1,0,0:0:0:0:
448,192,123899,1,0,0:0:0:0:
192,192,123899,1,0,0:0:0:0:
64,192,124070,1,0,0:0:0:0:
320,192,124070,1,0,0:0:0:0:
448,192,124156,1,0,0:0:0:0:
192,192,124242,1,0,0:0:0:0:
320,192,124413,1,0,0:0:0:0:
192,192,124499,1,0,0:0:0:0:
448,192,124499,1,0,0:0:0:0:
320,192,124585,1,0,0:0:0:0:
64,192,124756,1,0,0:0:0:0:
192,192,124842,1,0,0:0:0:0:
320,192,124842,1,0,0:0:0:0:
448,192,124928,1,0,0:0:0:0:
192,192,125099,1,0,0:0:0:0:
64,192,125185,1,0,0:0:0:0:
320,192,125185,1,0,0:0:0:0:
448,192,125270,1,0,0:0:0:0:
64,192,125442,1,0,0:0:0:0:
192,192,125528,1,0,0:0:0:0:
448,192,125528,1,0,0:0:0:0:
320,192,125613,1,0,0:0:0:0:
64,192,125785,1,0,0:0:0:0:
192,192,125870,1,0,0:0:0:0:
320,192,125956,1,0,0:0:0:0:
448,192,126128,1,0,0:0:0:0:
320,192,126213,1,0,0:0:0:0:
192,192,126299,1,0,0:0:0:0:
64,192,126299,1,0,0:0:0:0:
320,192,126470,1,0,0:0:0:0:
64,192,126470,1,0,0:0:0:0:
64,192,126642,1,0,0:0:0:0:
448,192,126642,1,0,0:0:0:0:
192,192,126813,1,0,0:0:0:0:
448,192,126813,1,0,0:0:0:0:
64,192,126985,1,0,0:0:0:0:
192,192,126985,1,0,0:0:0:0:
64,192,127156,1,0,0:0:0:0:
320,192,127156,1,0,0:0:0:0:
192,192,127328,1,0,0:0:0:0:
320,192,127328,1,0,0:0:0:0:
448,192,127328,1,0,0:0:0:0:
192,192,127499,1,0,0:0:0:0:
64,192,127499,1,0,0:0:0:0:
192,192,127670,1,0,0:0:0:0:
448,192,127670,1,0,0:0:0:0:
64,192,127842,1,0,0:0:0:0:
192,192,127842,1,0,0:0:0:0:
64,192,128013,1,0,0:0:0:0:
448,192,128013,1,0,0:0:0:0:
192,192,128185,1,0,0:0:0:0:
448,192,128185,1,0,0:0:0:0:
64,192,128356,1,0,0:0:0:0:
320,192,128356,1,0,0:0:0:0:
192,192,128528,1,0,0:0:0:0:
64,192,128528,1,0,0:0:0:0:
192,192,128699,1,0,0:0:0:0:
448,192,128699,1,0,0:0:0:0:
64,192,128870,1,0,0:0:0:0:
320,192,128870,1,0,0:0:0:0:
64,192,129042,1,0,0:0:0:0:
192,192,129128,1,0,0:0:0:0:
320,192,129213,1,0,0:0:0:0:
448,192,129213,1,0,0:0:0:0:
192,192,129299,1,0,0:0:0:0:
64,192,129385,1,0,0:0:0:0:
448,192,129385,1,0,0:0:0:0:
320,192,129470,1,0,0:0:0:0:
192,192,129556,1,0,0:0:0:0:
64,192,129556,1,0,0:0:0:0:
448,192,129642,1,0,0:0:0:0:
64,192,129728,1,0,0:0:0:0:
192,192,129813,1,0,0:0:0:0:
320,192,129813,1,0,0:0:0:0:
448,192,129899,1,0,0:0:0:0:
64,192,129985,1,0,0:0:0:0:
192,192,130070,1,0,0:0:0:0:
448,192,130070,1,0,0:0:0:0:
320,192,130156,1,0,0:0:0:0:
64,192,130242,1,0,0:0:0:0:
192,192,130328,1,0,0:0:0:0:
448,192,130328,1,0,0:0:0:0:
448,192,130413,1,0,0:0:0:0:
320,192,130456,1,0,0:0:0:0:
192,192,130499,1,0,0:0:0:0:
64,192,130542,1,0,0:0:0:0:
448,192,130585,1,0,0:0:0:0:
320,192,130628,1,0,0:0:0:0:
192,192,130670,1,0,0:0:0:0:
64,192,130713,1,0,0:0:0:0:
448,192,130756,1,0,0:0:0:0:
320,192,130799,1,0,0:0:0:0:
64,192,130842,1,0,0:0:0:0:
192,192,130885,1,0,0:0:0:0:
448,192,130928,1,0,0:0:0:0:
320,192,130970,1,0,0:0:0:0:
192,192,131013,1,0,0:0:0:0:
64,192,131056,1,0,0:0:0:0:
448,192,131099,1,0,0:0:0:0:
320,192,131142,1,0,0:0:0:0:
64,192,131185,1,0,0:0:0:0:
192,192,131228,1,0,0:0:0:0:
448,192,131228,1,0,0:0:0:0:
320,192,131270,1,0,0:0:0:0:
64,192,131313,1,0,0:0:0:0:
192,192,131356,1,0,0:0:0:0:
320,192,131399,1,0,0:0:0:0:
448,192,131399,1,0,0:0:0:0:
64,192,131442,1,0,0:0:0:0:
192,192,131485,1,0,0:0:0:0:
448,192,131528,1,0,0:0:0:0:
320,192,131570,1,0,0:0:0:0:
64,192,131570,1,0,0:0:0:0:
192,192,131613,1,0,0:0:0:0:
448,192,131656,1,0,0:0:0:0:
320,192,131699,1,0,0:0:0:0:
192,192,131742,1,0,0:0:0:0:
64,192,131742,1,0,0:0:0:0:
448,192,131785,1,0,0:0:0:0:
192,192,131956,1,0,0:0:0:0:
320,192,132042,1,0,0:0:0:0:
64,192,132128,1,0,0:0:0:0:
448,192,132128,1,0,0:0:0:0:
192,192,132128,1,0,0:0:0:0:
320,192,132213,1,0,0:0:0:0:
64,192,132299,1,0,0:0:0:0:
192,192,132385,1,0,0:0:0:0:
320,192,132470,1,0,0:0:0:0:
192,192,132556,1,0,0:0:0:0:
64,192,132642,1,0,0:0:0:0:
192,192,132728,1,0,0:0:0:0:
448,192,132813,1,0,0:0:0:0:
64,192,132813,1,0,0:0:0:0:
320,192,132813,1,0,0:0:0:0:
192,192,132899,1,0,0:0:0:0:
320,192,132985,1,0,0:0:0:0:
64,192,133070,1,0,0:0:0:0:
192,192,133156,1,0,0:0:0:0:
320,192,133242,1,0,0:0:0:0:
448,192,133328,1,0,0:0:0:0:
320,192,133413,1,0,0:0:0:0:
64,192,133499,1,0,0:0:0:0:
192,192,133499,1,0,0:0:0:0:
448,192,133499,1,0,0:0:0:0:
320,192,133585,1,0,0:0:0:0:
192,192,133670,1,0,0:0:0:0:
320,192,133756,1,0,0:0:0:0:
192,192,133842,1,0,0:0:0:0:
64,192,133928,1,0,0:0:0:0:
192,192,134013,1,0,0:0:0:0:
320,192,134099,1,0,0:0:0:0:
448,192,134185,1,0,0:0:0:0:
64,192,134185,1,0,0:0:0:0:
192,192,134185,1,0,0:0:0:0:
320,192,134270,1,0,0:0:0:0:
64,192,134356,1,0,0:0:0:0:
192,192,134442,1,0,0:0:0:0:
448,192,134528,1,0,0:0:0:0:
320,192,134613,1,0,0:0:0:0:
192,192,134699,1,0,0:0:0:0:
64,192,134785,1,0,0:0:0:0:
192,192,134870,1,0,0:0:0:0:
320,192,134870,1,0,0:0:0:0:
448,192,134870,1,0,0:0:0:0:
64,192,134956,1,0,0:0:0:0:
448,192,135042,1,0,0:0:0:0:
320,192,135128,1,0,0:0:0:0:
192,192,135213,1,0,0:0:0:0:
320,192,135299,1,0,0:0:0:0:
192,192,135385,1,0,0:0:0:0:
448,192,135470,1,0,0:0:0:0:
320,192,135556,1,0,0:0:0:0:
192,192,135556,1,0,0:0:0:0:
64,192,135556,1,0,0:0:0:0:
448,192,135642,1,0,0:0:0:0:
320,192,135728,1,0,0:0:0:0:
192,192,135813,1,0,0:0:0:0:
320,192,135899,1,0,0:0:0:0:
192,192,135985,1,0,0:0:0:0:
64,192,136070,1,0,0:0:0:0:
192,192,136156,1,0,0:0:0:0:
320,192,136242,1,0,0:0:0:0:
64,192,136242,1,0,0:0:0:0:
448,192,136242,1,0,0:0:0:0:
192,192,136328,1,0,0:0:0:0:
320,192,136413,1,0,0:0:0:0:
192,192,136499,1,0,0:0:0:0:
320,192,136585,1,0,0:0:0:0:
192,192,136670,1,0,0:0:0:0:
64,192,136756,1,0,0:0:0:0:
192,192,136842,1,0,0:0:0:0:
64,192,136928,1,0,0:0:0:0:
320,192,136928,1,0,0:0:0:0:
448,192,136928,1,0,0:0:0:0:
192,192,137013,1,0,0:0:0:0:
320,192,137099,1,0,0:0:0:0:
448,192,137185,1,0,0:0:0:0:
320,192,137270,1,0,0:0:0:0:
192,192,137356,1,0,0:0:0:0:
64,192,137442,1,0,0:0:0:0:
192,192,137528,1,0,0:0:0:0:
320,192,137613,1,0,0:0:0:0:
448,192,137613,1,0,0:0:0:0:
64,192,137613,1,0,0:0:0:0:
192,192,137699,1,0,0:0:0:0:
320,192,137785,1,0,0:0:0:0:
192,192,137870,1,0,0:0:0:0:
448,192,137956,1,0,0:0:0:0:
320,192,138042,1,0,0:0:0:0:
192,192,138128,1,0,0:0:0:0:
64,192,138213,1,0,0:0:0:0:
192,192,138299,1,0,0:0:0:0:
320,192,138299,1,0,0:0:0:0:
448,192,138299,1,0,0:0:0:0:
64,192,138385,1,0,0:0:0:0:
192,192,138470,1,0,0:0:0:0:
448,192,138556,1,0,0:0:0:0:
320,192,138642,1,0,0:0:0:0:
192,192,138728,1,0,0:0:0:0:
64,192,138813,1,0,0:0:0:0:
192,192,138899,1,0,0:0:0:0:
320,192,138985,1,0,0:0:0:0:
448,192,138985,1,0,0:0:0:0:
64,192,138985,1,0,0:0:0:0:
192,192,139070,1,0,0:0:0:0:
320,192,139156,1,0,0:0:0:0:
448,192,139242,1,0,0:0:0:0:
320,192,139328,1,0,0:0:0:0:
192,192,139413,1,0,0:0:0:0:
320,192,139499,1,0,0:0:0:0:
192,192,139585,1,0,0:0:0:0:
64,192,139670,1,0,0:0:0:0:
320,192,139670,1,0,0:0:0:0:
448,192,139670,1,0,0:0:0:0:
192,192,139756,1,0,0:0:0:0:
320,192,139842,1,0,0:0:0:0:
448,192,139928,1,0,0:0:0:0:
320,192,140013,1,0,0:0:0:0:
192,192,140099,1,0,0:0:0:0:
64,192,140185,1,0,0:0:0:0:
320,192,140270,1,0,0:0:0:0:
192,192,140356,1,0,0:0:0:0:
64,192,140356,1,0,0:0:0:0:
448,192,140356,1,0,0:0:0:0:
320,192,140442,1,0,0:0:0:0:
192,192,140528,1,0,0:0:0:0:
448,192,140613,1,0,0:0:0:0:
320,192,140699,1,0,0:0:0:0:
192,192,140785,1,0,0:0:0:0:
64,192,140870,1,0,0:0:0:0:
320,192,140956,1,0,0:0:0:0:
192,192,141042,1,0,0:0:0:0:
64,192,141042,1,0,0:0:0:0:
448,192,141042,1,0,0:0:0:0:
320,192,141128,1,0,0:0:0:0:
192,192,141213,1,0,0:0:0:0:
448,192,141299,1,0,0:0:0:0:
320,192,141385,1,0,0:0:0:0:
192,192,141470,1,0,0:0:0:0:
320,192,141556,1,0,0:0:0:0:
192,192,141642,1,0,0:0:0:0:
64,192,141728,1,0,0:0:0:0:
448,192,141728,1,0,0:0:0:0:
320,192,141728,1,0,0:0:0:0:
192,192,141813,1,0,0:0:0:0:
320,192,141899,1,0,0:0:0:0:
448,192,141985,1,0,0:0:0:0:
320,192,142070,1,0,0:0:0:0:
192,192,142156,1,0,0:0:0:0:
64,192,142242,1,0,0:0:0:0:
192,192,142328,1,0,0:0:0:0:
64,192,142413,1,0,0:0:0:0:
320,192,142413,1,0,0:0:0:0:
448,192,142413,1,0,0:0:0:0:
192,192,142499,1,0,0:0:0:0:
320,192,142585,1,0,0:0:0:0:
192,192,142670,1,0,0:0:0:0:
448,192,142756,1,0,0:0:0:0:
320,192,142842,1,0,0:0:0:0:
192,192,142928,1,0,0:0:0:0:
64,192,143013,1,0,0:0:0:0:
192,192,143099,1,0,0:0:0:0:
320,192,143099,1,0,0:0:0:0:
448,192,143099,1,0,0:0:0:0:
64,192,143185,1,0,0:0:0:0:
320,192,143270,1,0,0:0:0:0:
192,192,143356,1,0,0:0:0:0:
448,192,143442,1,0,0:0:0:0:
192,192,143528,1,0,0:0:0:0:
320,192,143613,1,0,0:0:0:0:
64,192,143699,1,0,0:0:0:0:
192,192,143785,1,0,0:0:0:0:
320,192,143785,1,0,0:0:0:0:
448,192,143785,1,0,0:0:0:0:
64,192,143870,1,0,0:0:0:0:
448,192,143956,1,0,0:0:0:0:
192,192,144042,1,0,0:0:0:0:
320,192,144128,1,0,0:0:0:0:
64,192,144213,1,0,0:0:0:0:
448,192,144299,1,0,0:0:0:0:
192,192,144385,1,0,0:0:0:0:
448,192,144470,1,0,0:0:0:0:
320,192,144470,1,0,0:0:0:0:
64,192,144470,1,0,0:0:0:0:
192,192,144556,1,0,0:0:0:0:
320,192,144642,1,0,0:0:0:0:
192,192,144728,1,0,0:0:0:0:
64,192,144813,1,0,0:0:0:0:
448,192,144813,1,0,0:0:0:0:
320,192,144899,1,0,0:0:0:0:
192,192,144985,1,0,0:0:0:0:
320,192,145070,1,0,0:0:0:0:
64,192,145156,1,0,0:0:0:0:
192,192,145156,1,0,0:0:0:0:
448,192,145156,1,0,0:0:0:0:
320,192,145242,1,0,0:0:0:0:
64,192,145328,1,0,0:0:0:0:
192,192,145413,1,0,0:0:0:0:
320,192,145499,1,0,0:0:0:0:
192,192,145585,1,0,0:0:0:0:
320,192,145670,1,0,0:0:0:0:
64,192,145756,1,0,0:0:0:0:
192,192,145842,1,0,0:0:0:0:
448,192,145842,1,0,0:0:0:0:
320,192,145842,1,0,0:0:0:0:
64,192,145928,1,0,0:0:0:0:
192,192,146013,1,0,0:0:0:0:
320,192,146099,1,0,0:0:0:0:
448,192,146185,1,0,0:0:0:0:
320,192,146270,1,0,0:0:0:0:
192,192,146356,1,0,0:0:0:0:
320,192,146442,1,0,0:0:0:0:
192,192,146528,1,0,0:0:0:0:
448,192,146528,1,0,0:0:0:0:
64,192,146528,1,0,0:0:0:0:
320,192,146613,1,0,0:0:0:0:
192,192,146699,1,0,0:0:0:0:
448,192,146785,1,0,0:0:0:0:
320,192,146870,1,0,0:0:0:0:
192,192,146956,1,0,0:0:0:0:
320,192,147042,1,0,0:0:0:0:
192,192,147128,1,0,0:0:0:0:
448,192,147213,1,0,0:0:0:0:
320,192,147213,1,0,0:0:0:0:
64,192,147213,1,0,0:0:0:0:
192,192,147299,1,0,0:0:0:0:
320,192,147385,1,0,0:0:0:0:
448,192,147470,1,0,0:0:0:0:
192,192,147556,1,0,0:0:0:0:
320,192,147642,1,0,0:0:0:0:
448,192,147728,1,0,0:0:0:0:
320,192,147813,1,0,0:0:0:0:
192,192,147899,1,0,0:0:0:0:
64,192,147899,1,0,0:0:0:0:
448,192,147899,1,0,0:0:0:0:
320,192,147985,1,0,0:0:0:0:
192,192,148070,1,0,0:0:0:0:
64,192,148156,1,0,0:0:0:0:
192,192,148242,1,0,0:0:0:0:
64,192,148328,1,0,0:0:0:0:
192,192,148413,1,0,0:0:0:0:
320,192,148499,1,0,0:0:0:0:
448,192,148585,1,0,0:0:0:0:
192,192,148585,1,0,0:0:0:0:
64,192,148585,1,0,0:0:0:0:
320,192,148670,1,0,0:0:0:0:
192,192,148756,1,0,0:0:0:0:
64,192,148842,1,0,0:0:0:0:
192,192,148928,1,0,0:0:0:0:
320,192,149013,1,0,0:0:0:0:
448,192,149099,1,0,0:0:0:0:
192,192,149185,1,0,0:0:0:0:
320,192,149270,1,0,0:0:0:0:
448,192,149270,1,0,0:0:0:0:
64,192,149270,1,0,0:0:0:0:
192,192,149356,1,0,0:0:0:0:
448,192,149442,1,0,0:0:0:0:
320,192,149528,1,0,0:0:0:0:
192,192,149613,1,0,0:0:0:0:
320,192,149699,1,0,0:0:0:0:
448,192,149785,1,0,0:0:0:0:
64,192,149785,1,0,0:0:0:0:
192,192,149870,1,0,0:0:0:0:
320,192,149956,1,0,0:0:0:0:
448,192,149956,1,0,0:0:0:0:
64,192,149956,1,0,0:0:0:0:
192,192,150042,1,0,0:0:0:0:
320,192,150128,1,0,0:0:0:0:
64,192,150213,1,0,0:0:0:0:
192,192,150299,1,0,0:0:0:0:
448,192,150385,1,0,0:0:0:0:
320,192,150385,1,0,0:0:0:0:
192,192,150470,1,0,0:0:0:0:
64,192,150556,1,0,0:0:0:0:
320,192,150642,1,0,0:0:0:0:
192,192,150642,1,0,0:0:0:0:
448,192,150642,1,0,0:0:0:0:
64,192,150728,1,0,0:0:0:0:
448,192,150813,1,0,0:0:0:0:
320,192,150899,1,0,0:0:0:0:
192,192,150985,1,0,0:0:0:0:
64,192,151070,1,0,0:0:0:0:
192,192,151156,1,0,0:0:0:0:
320,192,151242,1,0,0:0:0:0:
64,192,151328,1,0,0:0:0:0:
448,192,151328,1,0,0:0:0:0:
192,192,151328,1,0,0:0:0:0:
320,192,151413,1,0,0:0:0:0:
64,192,151499,1,0,0:0:0:0:
192,192,151585,1,0,0:0:0:0:
320,192,151670,1,0,0:0:0:0:
448,192,151756,1,0,0:0:0:0:
320,192,151842,1,0,0:0:0:0:
192,192,151928,1,0,0:0:0:0:
448,192,152013,1,0,0:0:0:0:
64,192,152013,1,0,0:0:0:0:
320,192,152013,1,0,0:0:0:0:
192,192,152099,1,0,0:0:0:0:
320,192,152185,1,0,0:0:0:0:
192,192,152270,1,0,0:0:0:0:
448,192,152356,128,0,152613:0:0:0:0:
320,192,152356,128,0,152613:0:0:0:0:
192,192,152613,128,0,152870:0:0:0:0:
64,192,152613,128,0,152870:0:0:0:0:
320,192,152870,128,0,153128:0:0:0:0:
448,192,152870,128,0,153128:0:0:0:0:
192,192,153128,128,0,153385:0:0:0:0:
64,192,153128,128,0,153385:0:0:0:0:
448,192,153385,128,0,153470:0:0:0:0:
320,192,153385,128,0,153470:0:0:0:0:
192,192,153556,128,0,153642:0:0:0:0:
320,192,153556,128,0,153642:0:0:0:0:
64,192,153728,1,0,0:0:0:0:
192,192,153728,1,0,0:0:0:0:
320,192,153813,1,0,0:0:0:0:
448,192,153899,1,0,0:0:0:0:
192,192,153985,1,0,0:0:0:0:
64,192,154070,1,0,0:0:0:0:
320,192,154070,1,0,0:0:0:0:
448,192,154070,1,0,0:0:0:0:
192,192,154156,1,0,0:0:0:0:
320,192,154242,1,0,0:0:0:0:
448,192,154328,1,0,0:0:0:0:
192,192,154413,1,0,0:0:0:0:
320,192,154499,1,0,0:0:0:0:
192,192,154585,1,0,0:0:0:0:
64,192,154670,1,0,0:0:0:0:
192,192,154756,1,0,0:0:0:0:
320,192,154756,1,0,0:0:0:0:
448,192,154756,1,0,0:0:0:0:
64,192,154842,1,0,0:0:0:0:
448,192,154928,1,0,0:0:0:0:
320,192,155013,1,0,0:0:0:0:
192,192,155099,1,0,0:0:0:0:
320,192,155185,1,0,0:0:0:0:
192,192,155270,1,0,0:0:0:0:
320,192,155356,1,0,0:0:0:0:
448,192,155442,1,0,0:0:0:0:
192,192,155442,1,0,0:0:0:0:
64,192,155442,1,0,0:0:0:0:
320,192,155528,1,0,0:0:0:0:
192,192,155613,1,0,0:0:0:0:
64,192,155699,1,0,0:0:0:0:
192,192,155785,1,0,0:0:0:0:
320,192,155870,1,0,0:0:0:0:
192,192,155956,1,0,0:0:0:0:
320,192,156042,1,0,0:0:0:0:
448,192,156128,1,0,0:0:0:0:
192,192,156128,1,0,0:0:0:0:
64,192,156128,1,0,0:0:0:0:
320,192,156213,1,0,0:0:0:0:
192,192,156299,1,0,0:0:0:0:
64,192,156385,1,0,0:0:0:0:
192,192,156470,1,0,0:0:0:0:
320,192,156556,1,0,0:0:0:0:
192,192,156642,1,0,0:0:0:0:
64,192,156728,1,0,0:0:0:0:
448,192,156813,1,0,0:0:0:0:
320,192,156813,1,0,0:0:0:0:
192,192,156813,1,0,0:0:0:0:
64,192,156899,1,0,0:0:0:0:
192,192,156985,1,0,0:0:0:0:
320,192,157070,1,0,0:0:0:0:
448,192,157156,1,0,0:0:0:0:
64,192,157156,1,0,0:0:0:0:
192,192,157242,1,0,0:0:0:0:
320,192,157328,1,0,0:0:0:0:
192,192,157413,1,0,0:0:0:0:
64,192,157499,1,0,0:0:0:0:
320,192,157499,1,0,0:0:0:0:
448,192,157499,1,0,0:0:0:0:
192,192,157585,1,0,0:0:0:0:
448,192,157670,1,0,0:0:0:0:
320,192,157756,1,0,0:0:0:0:
192,192,157842,1,0,0:0:0:0:
320,192,157928,1,0,0:0:0:0:
448,192,158013,1,0,0:0:0:0:
320,192,158099,1,0,0:0:0:0:
192,192,158185,1,0,0:0:0:0:
64,192,158185,1,0,0:0:0:0:
448,192,158185,1,0,0:0:0:0:
320,192,158270,1,0,0:0:0:0:
64,192,158356,1,0,0:0:0:0:
192,192,158442,1,0,0:0:0:0:
64,192,158528,1,0,0:0:0:0:
448,192,158613,1,0,0:0:0:0:
320,192,158699,1,0,0:0:0:0:
448,192,158785,1,0,0:0:0:0:
192,192,158870,1,0,0:0:0:0:
320,192,158870,1,0,0:0:0:0:
64,192,158870,1,0,0:0:0:0:
448,192,158956,1,0,0:0:0:0:
320,192,159042,1,0,0:0:0:0:
192,192,159128,1,0,0:0:0:0:
64,192,159213,1,0,0:0:0:0:
448,192,159299,1,0,0:0:0:0:
64,192,159385,1,0,0:0:0:0:
320,192,159470,1,0,0:0:0:0:
192,192,159556,1,0,0:0:0:0:
64,192,159556,1,0,0:0:0:0:
448,192,159556,1,0,0:0:0:0:
320,192,159642,1,0,0:0:0:0:
64,192,159728,1,0,0:0:0:0:
192,192,159813,1,0,0:0:0:0:
320,192,159899,1,0,0:0:0:0:
192,192,159985,1,0,0:0:0:0:
320,192,160070,1,0,0:0:0:0:
448,192,160156,1,0,0:0:0:0:
320,192,160242,1,0,0:0:0:0:
192,192,160242,1,0,0:0:0:0:
64,192,160242,1,0,0:0:0:0:
448,192,160328,1,0,0:0:0:0:
320,192,160413,1,0,0:0:0:0:
192,192,160499,1,0,0:0:0:0:
320,192,160585,1,0,0:0:0:0:
64,192,160670,1,0,0:0:0:0:
192,192,160756,1,0,0:0:0:0:
320,192,160842,1,0,0:0:0:0:
64,192,160928,1,0,0:0:0:0:
192,192,160928,1,0,0:0:0:0:
448,192,160928,1,0,0:0:0:0:
320,192,161013,1,0,0:0:0:0:
64,192,161099,1,0,0:0:0:0:
320,192,161185,1,0,0:0:0:0:
192,192,161270,1,0,0:0:0:0:
448,192,161356,1,0,0:0:0:0:
320,192,161442,1,0,0:0:0:0:
192,192,161528,1,0,0:0:0:0:
448,192,161613,1,0,0:0:0:0:
320,192,161613,1,0,0:0:0:0:
64,192,161613,1,0,0:0:0:0:
192,192,161699,1,0,0:0:0:0:
320,192,161785,1,0,0:0:0:0:
64,192,161870,1,0,0:0:0:0:
192,192,161956,1,0,0:0:0:0:
320,192,162042,1,0,0:0:0:0:
192,192,162128,1,0,0:0:0:0:
320,192,162213,1,0,0:0:0:0:
192,192,162299,1,0,0:0:0:0:
448,192,162299,1,0,0:0:0:0:
64,192,162299,1,0,0:0:0:0:
320,192,162385,1,0,0:0:0:0:
192,192,162470,1,0,0:0:0:0:
64,192,162556,1,0,0:0:0:0:
320,192,162642,1,0,0:0:0:0:
192,192,162728,1,0,0:0:0:0:
320,192,162813,1,0,0:0:0:0:
448,192,162899,1,0,0:0:0:0:
320,192,162985,1,0,0:0:0:0:
192,192,162985,1,0,0:0:0:0:
64,192,162985,1,0,0:0:0:0:
448,192,163070,1,0,0:0:0:0:
64,192,163156,1,0,0:0:0:0:
192,192,163242,1,0,0:0:0:0:
320,192,163328,1,0,0:0:0:0:
192,192,163413,1,0,0:0:0:0:
64,192,163499,1,0,0:0:0:0:
448,192,163585,1,0,0:0:0:0:
64,192,163670,1,0,0:0:0:0:
320,192,163670,1,0,0:0:0:0:
192,192,163670,1,0,0:0:0:0:
448,192,163756,1,0,0:0:0:0:
320,192,163842,1,0,0:0:0:0:
192,192,163928,1,0,0:0:0:0:
448,192,164013,1,0,0:0:0:0:
64,192,164013,1,0,0:0:0:0:
320,192,164013,128,0,164699:0:0:0:0:
192,192,164699,1,0,0:0:0:0:
448,192,164699,1,0,0:0:0:0:
64,192,164785,1,0,0:0:0:0:
192,192,164870,1,0,0:0:0:0:
64,192,164956,1,0,0:0:0:0:
448,192,165042,1,0,0:0:0:0:
320,192,165042,1,0,0:0:0:0:
64,192,165128,1,0,0:0:0:0:
192,192,165213,1,0,0:0:0:0:
320,192,165299,1,0,0:0:0:0:
64,192,165385,1,0,0:0:0:0:
192,192,165385,1,0,0:0:0:0:
448,192,165470,1,0,0:0:0:0:
320,192,165556,1,0,0:0:0:0:
192,192,165642,1,0,0:0:0:0:
64,192,165642,1,0,0:0:0:0:
448,192,165728,1,0,0:0:0:0:
64,192,165813,1,0,0:0:0:0:
320,192,165813,1,0,0:0:0:0:
192,192,165899,1,0,0:0:0:0:
448,192,165985,1,0,0:0:0:0:
320,192,166070,1,0,0:0:0:0:
192,192,166070,1,0,0:0:0:0:
64,192,166156,1,0,0:0:0:0:
448,192,166242,1,0,0:0:0:0:
64,192,166328,1,0,0:0:0:0:
192,192,166413,1,0,0:0:0:0:
448,192,166499,1,0,0:0:0:0:
64,192,166499,1,0,0:0:0:0:
320,192,166585,1,0,0:0:0:0:
192,192,166670,1,0,0:0:0:0:
64,192,166670,1,0,0:0:0:0:
320,192,166756,1,0,0:0:0:0:
448,192,166842,1,0,0:0:0:0:
192,192,166928,1,0,0:0:0:0:
64,192,167013,1,0,0:0:0:0:
448,192,167013,1,0,0:0:0:0:
320,192,167099,1,0,0:0:0:0:
192,192,167185,1,0,0:0:0:0:
64,192,167185,1,0,0:0:0:0:
448,192,167270,1,0,0:0:0:0:
320,192,167356,1,0,0:0:0:0:
64,192,167442,1,0,0:0:0:0:
192,192,167442,1,0,0:0:0:0:
448,192,167528,1,0,0:0:0:0:
64,192,167613,1,0,0:0:0:0:
192,192,167699,1,0,0:0:0:0:
448,192,167699,1,0,0:0:0:0:
320,192,167785,1,0,0:0:0:0:
192,192,167870,1,0,0:0:0:0:
64,192,167956,1,0,0:0:0:0:
448,192,167956,1,0,0:0:0:0:
320,192,168042,1,0,0:0:0:0:
192,192,168128,1,0,0:0:0:0:
64,192,168128,1,0,0:0:0:0:
320,192,168213,1,0,0:0:0:0:
64,192,168299,1,0,0:0:0:0:
448,192,168299,1,0,0:0:0:0:
192,192,168385,1,0,0:0:0:0:
448,192,168470,1,0,0:0:0:0:
320,192,168470,1,0,0:0:0:0:
64,192,168556,1,0,0:0:0:0:
192,192,168642,1,0,0:0:0:0:
320,192,168642,1,0,0:0:0:0:
448,192,168728,1,0,0:0:0:0:
64,192,168813,1,0,0:0:0:0:
192,192,168813,1,0,0:0:0:0:
320,192,168899,1,0,0:0:0:0:
192,192,168985,1,0,0:0:0:0:
448,192,168985,1,0,0:0:0:0:
320,192,169070,1,0,0:0:0:0:
64,192,169156,1,0,0:0:0:0:
192,192,169156,1,0,0:0:0:0:
320,192,169242,1,0,0:0:0:0:
64,192,169328,1,0,0:0:0:0:
448,192,169328,1,0,0:0:0:0:
192,192,169413,1,0,0:0:0:0:
320,192,169499,1,0,0:0:0:0:
448,192,169499,1,0,0:0:0:0:
192,192,169585,1,0,0:0:0:0:
64,192,169670,1,0,0:0:0:0:
448,192,169670,1,0,0:0:0:0:
320,192,169756,1,0,0:0:0:0:
192,192,169842,1,0,0:0:0:0:
64,192,169842,1,0,0:0:0:0:
320,192,169928,1,0,0:0:0:0:
192,192,170013,1,0,0:0:0:0:
448,192,170013,1,0,0:0:0:0:
320,192,170099,1,0,0:0:0:0:
64,192,170185,1,0,0:0:0:0:
192,192,170185,1,0,0:0:0:0:
64,192,170356,1,0,0:0:0:0:
320,192,170356,1,0,0:0:0:0:
192,192,170528,1,0,0:0:0:0:
448,192,170528,1,0,0:0:0:0:
320,192,170699,1,0,0:0:0:0:
192,192,170699,1,0,0:0:0:0:
64,192,170870,1,0,0:0:0:0:
448,192,170870,1,0,0:0:0:0:
192,192,171042,1,0,0:0:0:0:
448,192,171042,1,0,0:0:0:0:
64,192,171213,1,0,0:0:0:0:
448,192,171213,1,0,0:0:0:0:
320,192,171385,1,0,0:0:0:0:
64,192,171385,1,0,0:0:0:0:
192,192,171556,1,0,0:0:0:0:
64,192,171556,1,0,0:0:0:0:
192,192,171728,1,0,0:0:0:0:
448,192,171728,1,0,0:0:0:0:
320,192,171899,1,0,0:0:0:0:
448,192,171899,1,0,0:0:0:0:
64,192,172070,1,0,0:0:0:0:
448,192,172070,1,0,0:0:0:0:
64,192,172242,1,0,0:0:0:0:
320,192,172242,1,0,0:0:0:0:
64,192,172413,1,0,0:0:0:0:
448,192,172413,1,0,0:0:0:0:
192,192,172585,1,0,0:0:0:0:
448,192,172585,1,0,0:0:0:0:
320,192,172585,1,0,0:0:0:0:
64,192,172756,1,0,0:0:0:0:
320,192,172756,1,0,0:0:0:0:
192,192,172928,1,0,0:0:0:0:
320,192,173013,1,0,0:0:0:0:
64,192,173099,1,0,0:0:0:0:
192,192,173185,1,0,0:0:0:0:
320,192,173270,1,0,0:0:0:0:
448,192,173356,1,0,0:0:0:0:
192,192,173442,1,0,0:0:0:0:
320,192,173528,1,0,0:0:0:0:
64,192,173613,1,0,0:0:0:0:
192,192,173699,1,0,0:0:0:0:
448,192,173785,1,0,0:0:0:0:
64,192,173870,1,0,0:0:0:0:
320,192,173956,1,0,0:0:0:0:
192,192,174042,1,0,0:0:0:0:
448,192,174128,1,0,0:0:0:0:
64,192,174213,1,0,0:0:0:0:
320,192,174299,1,0,0:0:0:0:
448,192,174299,1,4,0:0:0:0:
192,192,174385,1,0,0:0:0:0:
64,192,174385,1,0,0:0:0:0:
320,192,174470,1,0,0:0:0:0:
448,192,174470,1,4,0:0:0:0:
192,192,174556,1,0,0:0:0:0:
64,192,174556,1,0,0:0:0:0:
448,192,174642,1,4,0:0:0:0:
320,192,174642,1,0,0:0:0:0:
64,192,174728,1,0,0:0:0:0:
192,192,174728,1,0,0:0:0:0:
64,192,174813,1,4,0:0:0:0:
192,192,174813,1,0,0:0:0:0:
320,192,174899,1,0,0:0:0:0:
448,192,174899,1,0,0:0:0:0:
320,192,174985,1,0,0:0:0:0:
448,192,174985,1,4,0:0:0:0:
64,192,174985,128,0,175328:0:0:0:0:
192,192,175156,1,0,0:0:0:0:
448,192,175328,128,10,175670:0:0:0:0:
64,192,175670,1,0,0:0:0:0:
192,192,175756,1,0,0:0:0:0:
320,192,175842,1,0,0:0:0:0:
192,192,175928,1,0,0:0:0:0:
448,192,176013,1,0,0:0:0:0:
320,192,176099,1,0,0:0:0:0:
192,192,176185,1,0,0:0:0:0:
64,192,176270,1,0,0:0:0:0:
320,192,176356,1,0,0:0:0:0:
192,192,176442,1,0,0:0:0:0:
448,192,176528,1,0,0:0:0:0:
320,192,176613,1,0,0:0:0:0:
192,192,176699,1,0,0:0:0:0:
64,192,176785,1,0,0:0:0:0:
448,192,176870,1,0,0:0:0:0:
320,192,176956,1,0,0:0:0:0:
448,192,177042,1,0,0:0:0:0:
192,192,177128,1,0,0:0:0:0:
320,192,177213,1,0,0:0:0:0:
64,192,177299,1,0,0:0:0:0:
192,192,177385,1,0,0:0:0:0:
64,192,177470,1,0,0:0:0:0:
448,192,177556,1,0,0:0:0:0:
64,192,177642,1,0,0:0:0:0:
320,192,177728,1,0,0:0:0:0:
64,192,177813,1,0,0:0:0:0:
448,192,177899,1,0,0:0:0:0:
192,192,177985,1,0,0:0:0:0:
320,192,178070,1,0,0:0:0:0:
64,192,178156,1,0,0:0:0:0:
448,192,178242,1,0,0:0:0:0:
64,192,178328,1,0,0:0:0:0:
320,192,178413,1,0,0:0:0:0:
192,192,178499,1,0,0:0:0:0:
64,192,178585,1,0,0:0:0:0:
448,192,178670,1,0,0:0:0:0:
64,192,178756,1,0,0:0:0:0:
320,192,178842,1,0,0:0:0:0:
192,192,178928,1,0,0:0:0:0:
64,192,179013,1,0,0:0:0:0:
448,192,179099,1,0,0:0:0:0:
320,192,179185,1,0,0:0:0:0:
192,192,179270,1,0,0:0:0:0:
64,192,179270,1,0,0:0:0:0:
320,192,179356,1,0,0:0:0:0:
448,192,179442,1,0,0:0:0:0:
64,192,179442,1,0,0:0:0:0:
192,192,179528,1,0,0:0:0:0:
448,192,179613,1,0,0:0:0:0:
64,192,179613,1,0,0:0:0:0:
320,192,179699,1,0,0:0:0:0:
192,192,179785,1,0,0:0:0:0:
64,192,179785,1,0,0:0:0:0:
320,192,179870,1,0,0:0:0:0:
64,192,179956,1,0,0:0:0:0:
448,192,179956,1,0,0:0:0:0:
320,192,180042,1,0,0:0:0:0:
64,192,180128,1,0,0:0:0:0:
192,192,180128,1,0,0:0:0:0:
320,192,180213,1,0,0:0:0:0:
448,192,180299,1,0,0:0:0:0:
192,192,180385,1,0,0:0:0:0:
320,192,180470,1,0,0:0:0:0:
64,192,180556,1,0,0:0:0:0:
192,192,180642,1,0,0:0:0:0:
64,192,180728,1,0,0:0:0:0:
448,192,180813,1,0,0:0:0:0:
320,192,180899,1,0,0:0:0:0:
192,192,180985,1,0,0:0:0:0:
64,192,181070,1,0,0:0:0:0:
320,192,181156,1,0,0:0:0:0:
192,192,181242,1,0,0:0:0:0:
448,192,181328,1,0,0:0:0:0:
320,192,181413,1,0,0:0:0:0:
192,192,181499,1,0,0:0:0:0:
64,192,181585,1,0,0:0:0:0:
192,192,181670,1,0,0:0:0:0:
320,192,181756,1,0,0:0:0:0:
64,192,181842,1,0,0:0:0:0:
192,192,181928,1,0,0:0:0:0:
448,192,182013,1,0,0:0:0:0:
320,192,182099,1,0,0:0:0:0:
192,192,182185,1,0,0:0:0:0:
64,192,182270,1,0,0:0:0:0:
320,192,182356,1,0,0:0:0:0:
64,192,182442,1,0,0:0:0:0:
192,192,182442,1,0,0:0:0:0:
448,192,182528,1,0,0:0:0:0:
320,192,182528,1,0,0:0:0:0:
192,192,182613,1,0,0:0:0:0:
64,192,182699,1,0,0:0:0:0:
448,192,182699,1,0,0:0:0:0:
320,192,182785,1,0,0:0:0:0:
192,192,182870,1,0,0:0:0:0:
64,192,182870,1,0,0:0:0:0:
320,192,182956,1,0,0:0:0:0:
64,192,183042,1,0,0:0:0:0:
448,192,183042,1,0,0:0:0:0:
192,192,183128,1,0,0:0:0:0:
320,192,183213,1,0,0:0:0:0:
448,192,183213,1,0,0:0:0:0:
64,192,183299,1,0,0:0:0:0:
192,192,183385,1,0,0:0:0:0:
448,192,183385,1,0,0:0:0:0:
64,192,183470,1,0,0:0:0:0:
320,192,183470,1,0,0:0:0:0:
192,192,183556,1,0,0:0:0:0:
64,192,183642,1,0,0:0:0:0:
448,192,183728,1,0,0:0:0:0:
320,192,183813,1,0,0:0:0:0:
192,192,183899,1,0,0:0:0:0:
320,192,183985,1,0,0:0:0:0:
448,192,184070,1,0,0:0:0:0:
64,192,184070,1,0,0:0:0:0:
192,192,184156,1,0,0:0:0:0:
320,192,184242,1,0,0:0:0:0:
448,192,184242,1,0,0:0:0:0:
192,192,184328,1,0,0:0:0:0:
64,192,184413,1,0,0:0:0:0:
448,192,184413,1,0,0:0:0:0:
320,192,184499,1,0,0:0:0:0:
192,192,184585,1,0,0:0:0:0:
64,192,184585,1,0,0:0:0:0:
448,192,184670,1,0,0:0:0:0:
320,192,184756,1,0,0:0:0:0:
64,192,184756,1,0,0:0:0:0:
192,192,184842,1,0,0:0:0:0:
448,192,184928,1,0,0:0:0:0:
320,192,184928,1,0,0:0:0:0:
192,192,185013,1,0,0:0:0:0:
64,192,185099,1,0,0:0:0:0:
320,192,185099,1,0,0:0:0:0:
192,192,185185,1,0,0:0:0:0:
64,192,185270,1,0,0:0:0:0:
448,192,185270,1,0,0:0:0:0:
320,192,185356,1,0,0:0:0:0:
64,192,185442,1,0,0:0:0:0:
448,192,185528,1,0,0:0:0:0:
192,192,185528,1,0,0:0:0:0:
320,192,185613,1,0,0:0:0:0:
64,192,185699,1,0,0:0:0:0:
192,192,185699,1,0,0:0:0:0:
448,192,185785,1,0,0:0:0:0:
320,192,185870,1,0,0:0:0:0:
64,192,185870,1,0,0:0:0:0:
192,192,185956,1,0,0:0:0:0:
448,192,186042,1,0,0:0:0:0:
320,192,186042,1,0,0:0:0:0:
64,192,186128,1,0,0:0:0:0:
448,192,186213,1,0,0:0:0:0:
192,192,186213,1,0,0:0:0:0:
320,192,186299,1,0,0:0:0:0:
64,192,186385,1,0,0:0:0:0:
192,192,186385,1,0,0:0:0:0:
448,192,186470,1,0,0:0:0:0:
320,192,186556,1,0,0:0:0:0:
192,192,186556,1,0,0:0:0:0:
64,192,186642,1,0,0:0:0:0:
448,192,186728,1,0,0:0:0:0:
320,192,186813,1,0,0:0:0:0:
64,192,186813,1,0,0:0:0:0:
192,192,186899,1,0,0:0:0:0:
448,192,186985,1,0,0:0:0:0:
320,192,187070,1,0,0:0:0:0:
64,192,187070,1,0,0:0:0:0:
192,192,187156,1,0,0:0:0:0:
320,192,187242,1,0,0:0:0:0:
192,192,187328,1,0,0:0:0:0:
448,192,187328,1,0,0:0:0:0:
64,192,187413,1,0,0:0:0:0:
320,192,187499,1,0,0:0:0:0:
192,192,187585,1,0,0:0:0:0:
448,192,187585,1,0,0:0:0:0:
64,192,187670,1,0,0:0:0:0:
448,192,187756,1,0,0:0:0:0:
320,192,187756,1,0,0:0:0:0:
192,192,187842,1,0,0:0:0:0:
64,192,187928,1,0,0:0:0:0:
448,192,187928,1,0,0:0:0:0:
320,192,188013,1,0,0:0:0:0:
192,192,188099,1,0,0:0:0:0:
64,192,188099,1,0,0:0:0:0:
320,192,188185,1,0,0:0:0:0:
192,192,188270,1,0,0:0:0:0:
448,192,188270,1,0,0:0:0:0:
64,192,188356,1,0,0:0:0:0:
320,192,188442,1,0,0:0:0:0:
448,192,188442,1,0,0:0:0:0:
64,192,188528,1,0,0:0:0:0:
192,192,188613,1,0,0:0:0:0:
448,192,188613,1,0,0:0:0:0:
320,192,188699,1,0,0:0:0:0:
64,192,188785,1,0,0:0:0:0:
192,192,188785,1,0,0:0:0:0:
448,192,188870,1,0,0:0:0:0:
64,192,188956,1,0,0:0:0:0:
320,192,188956,1,0,0:0:0:0:
192,192,189042,1,0,0:0:0:0:
448,192,189128,1,0,0:0:0:0:
64,192,189213,1,0,0:0:0:0:
192,192,189213,1,0,0:0:0:0:
320,192,189299,1,0,0:0:0:0:
448,192,189299,1,0,0:0:0:0:
64,192,189385,1,0,0:0:0:0:
192,192,189385,1,0,0:0:0:0:
320,192,189470,1,0,0:0:0:0:
64,192,189556,1,0,0:0:0:0:
448,192,189556,1,0,0:0:0:0:
320,192,189642,1,0,0:0:0:0:
192,192,189728,1,0,0:0:0:0:
64,192,189728,1,0,0:0:0:0:
448,192,189813,1,0,0:0:0:0:
192,192,189899,1,0,0:0:0:0:
64,192,189985,1,0,0:0:0:0:
448,192,190070,1,0,0:0:0:0:
192,192,190070,1,0,0:0:0:0:
320,192,190156,1,0,0:0:0:0:
64,192,190242,1,0,0:0:0:0:
192,192,190328,1,0,0:0:0:0:
320,192,190328,1,0,0:0:0:0:
448,192,190413,1,0,0:0:0:0:
192,192,190499,1,0,0:0:0:0:
64,192,190499,1,0,0:0:0:0:
320,192,190585,1,0,0:0:0:0:
192,192,190670,1,0,0:0:0:0:
448,192,190670,1,0,0:0:0:0:
64,192,190756,1,0,0:0:0:0:
320,192,190756,1,0,0:0:0:0:
192,192,190842,1,0,0:0:0:0:
448,192,190928,1,0,0:0:0:0:
64,192,190928,1,0,0:0:0:0:
192,192,191013,1,0,0:0:0:0:
320,192,191099,1,0,0:0:0:0:
448,192,191099,1,0,0:0:0:0:
192,192,191185,1,0,0:0:0:0:
320,192,191270,1,0,0:0:0:0:
64,192,191270,1,0,0:0:0:0:
192,192,191356,1,0,0:0:0:0:
448,192,191356,1,0,0:0:0:0:
320,192,191442,1,0,0:0:0:0:
64,192,191528,1,0,0:0:0:0:
192,192,191613,1,0,0:0:0:0:
320,192,191699,1,0,0:0:0:0:
448,192,191699,1,0,0:0:0:0:
64,192,191785,1,0,0:0:0:0:
448,192,191870,1,0,0:0:0:0:
192,192,191870,1,0,0:0:0:0:
320,192,191956,1,0,0:0:0:0:
64,192,192042,1,0,0:0:0:0:
192,192,192128,1,0,0:0:0:0:
320,192,192128,1,0,0:0:0:0:
320,192,192299,1,0,0:0:0:0:
64,192,192299,1,0,0:0:0:0:
192,192,192470,1,0,0:0:0:0:
448,192,192470,1,0,0:0:0:0:
64,192,192642,1,0,0:0:0:0:
448,192,192642,1,0,0:0:0:0:
64,192,192813,1,0,0:0:0:0:
320,192,192813,1,0,0:0:0:0:
192,192,192985,1,0,0:0:0:0:
64,192,192985,1,0,0:0:0:0:
448,192,193156,1,0,0:0:0:0:
192,192,193156,1,0,0:0:0:0:
320,192,193328,1,0,0:0:0:0:
64,192,193328,1,0,0:0:0:0:
64,192,193499,1,0,0:0:0:0:
192,192,193499,1,0,0:0:0:0:
320,192,193499,1,0,0:0:0:0:
192,192,193670,1,0,0:0:0:0:
448,192,193670,1,0,0:0:0:0:
320,192,193842,1,0,0:0:0:0:
448,192,193842,1,0,0:0:0:0:
192,192,194013,1,0,0:0:0:0:
320,192,194013,1,0,0:0:0:0:
64,192,194185,1,0,0:0:0:0:
192,192,194185,1,0,0:0:0:0:
448,192,194356,1,0,0:0:0:0:
64,192,194356,1,0,0:0:0:0:
320,192,194528,1,0,0:0:0:0:
448,192,194528,1,0,0:0:0:0:
64,192,194699,1,0,0:0:0:0:
320,192,194699,1,0,0:0:0:0:
192,192,194870,1,0,0:0:0:0:
448,192,194870,1,0,0:0:0:0:
320,192,194956,1,0,0:0:0:0:
192,192,195042,1,0,0:0:0:0:
448,192,195042,1,0,0:0:0:0:
64,192,195128,5,0,0:0:0:0:
320,192,195128,1,0,0:0:0:0:
192,192,195213,1,0,0:0:0:0:
448,192,195299,1,0,0:0:0:0:
320,192,195385,1,0,0:0:0:0:
64,192,195385,1,0,0:0:0:0:
192,192,195470,1,0,0:0:0:0:
448,192,195556,1,0,0:0:0:0:
320,192,195556,1,0,0:0:0:0:
192,192,195642,1,0,0:0:0:0:
64,192,195642,1,0,0:0:0:0:
320,192,195728,1,0,0:0:0:0:
448,192,195728,1,0,0:0:0:0:
192,192,195813,1,0,0:0:0:0:
64,192,195813,1,0,0:0:0:0:
320,192,195899,1,0,0:0:0:0:
448,192,195899,1,0,0:0:0:0:
192,192,195985,1,0,0:0:0:0:
64,192,195985,1,0,0:0:0:0:
320,192,196070,1,0,0:0:0:0:
448,192,196070,1,0,0:0:0:0:
192,192,196156,1,0,0:0:0:0:
64,192,196156,1,0,0:0:0:0:
448,192,196242,5,0,0:0:0:0:
320,192,196285,1,0,0:0:0:0:
192,192,196328,1,0,0:0:0:0:
64,192,196370,1,0,0:0:0:0:
320,192,196413,1,0,0:0:0:0:
448,192,196456,1,0,0:0:0:0:
192,192,196499,1,0,0:0:0:0:
64,192,196542,1,0,0:0:0:0:
448,192,196585,1,0,0:0:0:0:
320,192,196628,1,0,0:0:0:0:
64,192,196670,1,0,0:0:0:0:
192,192,196713,1,0,0:0:0:0:
448,192,196756,1,0,0:0:0:0:
320,192,196799,1,0,0:0:0:0:
192,192,196842,1,0,0:0:0:0:
64,192,196885,1,0,0:0:0:0:
448,192,196928,1,0,0:0:0:0:
320,192,196970,1,0,0:0:0:0:
64,192,197013,1,0,0:0:0:0:
192,192,197056,1,0,0:0:0:0:
448,192,197056,1,0,0:0:0:0:
320,192,197099,1,0,0:0:0:0:
64,192,197142,1,0,0:0:0:0:
192,192,197185,1,0,0:0:0:0:
448,192,197228,1,0,0:0:0:0:
320,192,197228,1,0,0:0:0:0:
64,192,197270,1,0,0:0:0:0:
192,192,197313,1,0,0:0:0:0:
448,192,197356,1,0,0:0:0:0:
320,192,197399,1,0,0:0:0:0:
64,192,197442,1,0,0:0:0:0:
192,192,197485,1,0,0:0:0:0:
320,192,197485,1,0,0:0:0:0:
448,192,197528,1,0,0:0:0:0:
64,192,197570,1,0,0:0:0:0:
192,192,197613,1,0,0:0:0:0:
320,192,197613,1,0,0:0:0:0:
448,192,197613,1,0,0:0:0:0:
448,192,197785,1,0,0:0:0:0:
64,192,197956,1,0,0:0:0:0:
192,192,198128,1,0,0:0:0:0:
320,192,198299,1,0,0:0:0:0:
192,192,198470,1,0,0:0:0:0:
320,192,198642,1,0,0:0:0:0:
64,192,198813,1,0,0:0:0:0:
192,192,198985,1,0,0:0:0:0:
320,192,199156,1,0,0:0:0:0:
448,192,199328,1,0,0:0:0:0:
192,192,199499,1,0,0:0:0:0:
320,192,199670,1,0,0:0:0:0:
192,192,199842,1,0,0:0:0:0:
320,192,200013,1,0,0:0:0:0:
192,192,200185,1,0,0:0:0:0:
320,192,200356,1,0,0:0:0:0:
64,192,200528,1,0,0:0:0:0:
192,192,200699,1,0,0:0:0:0:
320,192,200870,1,0,0:0:0:0:
448,192,201042,1,0,0:0:0:0:
192,192,201213,1,0,0:0:0:0:
64,192,201385,1,0,0:0:0:0:
448,192,201556,1,0,0:0:0:0:
192,192,201728,1,0,0:0:0:0:
320,192,201899,1,0,0:0:0:0:
64,192,202070,1,0,0:0:0:0:
448,192,202242,1,0,0:0:0:0:
320,192,202413,1,0,0:0:0:0:
64,192,202585,1,0,0:0:0:0:
192,192,202756,1,0,0:0:0:0:
320,192,202928,1,0,0:0:0:0:
320,192,203099,1,0,0:0:0:0:
448,192,203099,128,0,204470:0:0:0:0:
64,192,203270,1,0,0:0:0:0:
192,192,203442,1,0,0:0:0:0:
320,192,203613,1,0,0:0:0:0:
64,192,203785,1,0,0:0:0:0:
320,192,203956,1,0,0:0:0:0:
192,192,204128,1,0,0:0:0:0:
320,192,204299,1,0,0:0:0:0:
64,192,204470,1,0,0:0:0:0:
192,192,204642,1,0,0:0:0:0:
448,192,204813,1,0,0:0:0:0:
192,192,204985,1,0,0:0:0:0:
320,192,205156,1,0,0:0:0:0:
192,192,205328,1,0,0:0:0:0:
64,192,205499,1,0,0:0:0:0:
448,192,205670,1,0,0:0:0:0:
192,192,205670,1,0,0:0:0:0:
320,192,205842,1,0,0:0:0:0:
64,192,206013,1,0,0:0:0:0:
448,192,206185,1,0,0:0:0:0:
320,192,206356,1,0,0:0:0:0:
64,192,206528,1,0,0:0:0:0:
448,192,206699,1,0,0:0:0:0:
192,192,206870,1,0,0:0:0:0:
320,192,207042,1,0,0:0:0:0:
192,192,207213,1,0,0:0:0:0:
64,192,207385,1,0,0:0:0:0:
320,192,207556,1,0,0:0:0:0:
192,192,207728,1,0,0:0:0:0:
448,192,207899,1,0,0:0:0:0:
320,192,208070,1,0,0:0:0:0:
192,192,208242,1,0,0:0:0:0:
320,192,208413,1,0,0:0:0:0:
64,192,208585,1,0,0:0:0:0:
448,192,208756,1,0,0:0:0:0:
320,192,208928,1,0,0:0:0:0:
64,192,209099,1,0,0:0:0:0:
192,192,209270,1,0,0:0:0:0:
448,192,209442,1,0,0:0:0:0:
192,192,209613,1,0,0:0:0:0:
320,192,209785,1,0,0:0:0:0:
64,192,209956,1,0,0:0:0:0:
192,192,210128,1,0,0:0:0:0:
64,192,210299,1,0,0:0:0:0:
448,192,210470,1,0,0:0:0:0:
320,192,210642,1,0,0:0:0:0:
448,192,210813,1,0,0:0:0:0:
192,192,210985,1,0,0:0:0:0:
320,192,211156,1,0,0:0:0:0:
192,192,211328,1,0,0:0:0:0:
448,192,211499,1,0,0:0:0:0:
64,192,211670,1,0,0:0:0:0:
320,192,211842,1,0,0:0:0:0:
192,192,212013,1,0,0:0:0:0:
64,192,212185,1,0,0:0:0:0:
448,192,212356,1,0,0:0:0:0:
320,192,212528,1,0,0:0:0:0:
192,192,212699,1,0,0:0:0:0:
320,192,212870,1,0,0:0:0:0:
64,192,213042,1,0,0:0:0:0:
192,192,213213,1,0,0:0:0:0:
448,192,213385,1,0,0:0:0:0:
320,192,213556,1,0,0:0:0:0:
64,192,213728,1,0,0:0:0:0:
320,192,213899,1,0,0:0:0:0:
192,192,214070,128,0,215442:0:0:0:0:
448,192,214070,1,0,0:0:0:0:
320,192,214242,1,0,0:0:0:0:
64,192,214413,1,0,0:0:0:0:
448,192,214585,1,0,0:0:0:0:
64,192,214756,1,0,0:0:0:0:
320,192,214928,1,0,0:0:0:0:
448,192,215099,1,0,0:0:0:0:
320,192,215270,1,0,0:0:0:0:
64,192,215442,1,0,0:0:0:0:
448,192,215613,1,0,0:0:0:0:
320,192,215785,1,0,0:0:0:0:
192,192,215956,1,0,0:0:0:0:
64,192,216128,1,0,0:0:0:0:
320,192,216299,1,0,0:0:0:0:
448,192,216470,1,0,0:0:0:0:
192,192,216642,1,0,0:0:0:0:
64,192,216813,1,0,0:0:0:0:
320,192,216985,1,0,0:0:0:0:
192,192,217156,1,0,0:0:0:0:
448,192,217328,1,0,0:0:0:0:
320,192,217499,1,0,0:0:0:0:
192,192,217670,1,0,0:0:0:0:
64,192,217842,1,0,0:0:0:0:
448,192,218013,1,0,0:0:0:0:
64,192,218013,1,0,0:0:0:0:
64,192,218185,1,0,0:0:0:0:
320,192,218185,1,0,0:0:0:0:
64,192,218356,1,0,0:0:0:0:
192,192,218356,1,0,0:0:0:0:
64,192,218528,1,0,0:0:0:0:
320,192,218528,1,0,0:0:0:0:
64,192,218699,1,0,0:0:0:0:
448,192,218699,1,0,0:0:0:0:
64,192,218870,1,0,0:0:0:0:
320,192,218870,1,0,0:0:0:0:
192,192,219042,1,0,0:0:0:0:
320,192,219213,1,0,0:0:0:0:
448,192,219213,1,0,0:0:0:0:
192,192,219385,1,0,0:0:0:0:
64,192,219385,1,0,0:0:0:0:
448,192,219556,1,4,0:0:0:0:
192,192,219556,1,4,0:0:0:0:
64,192,219556,1,4,0:0:0:0:
320,192,219556,128,4,225042:0:0:0:0:
64,192,229156,128,0,230528:0:0:0:0:
448,192,230528,1,0,0:0:0:0:
192,192,230528,1,0,0:0:0:0:
320,192,230699,1,0,0:0:0:0:
192,192,230785,1,0,0:0:0:0:
64,192,230870,1,0,0:0:0:0:
448,192,230870,1,0,0:0:0:0:
320,192,231042,1,0,0:0:0:0:
192,192,231128,1,0,0:0:0:0:
448,192,231213,1,0,0:0:0:0:
64,192,231213,1,0,0:0:0:0:
320,192,231299,1,0,0:0:0:0:
64,192,231385,1,0,0:0:0:0:
448,192,231385,1,0,0:0:0:0:
192,192,231470,1,0,0:0:0:0:
64,192,231556,128,0,231899:0:0:0:0:
448,192,231899,1,0,0:0:0:0:
320,192,232070,1,0,0:0:0:0:
192,192,232156,1,0,0:0:0:0:
448,192,232242,1,0,0:0:0:0:
64,192,232242,1,0,0:0:0:0:
320,192,232413,1,0,0:0:0:0:
192,192,232499,1,0,0:0:0:0:
448,192,232585,1,0,0:0:0:0:
64,192,232585,1,0,0:0:0:0:
320,192,232756,1,0,0:0:0:0:
192,192,232842,1,0,0:0:0:0:
448,192,232928,1,0,0:0:0:0:
64,192,233099,1,0,0:0:0:0:
192,192,233185,1,0,0:0:0:0:
448,192,233270,1,0,0:0:0:0:
64,192,233270,1,0,0:0:0:0:
320,192,233442,1,0,0:0:0:0:
64,192,233528,1,0,0:0:0:0:
320,192,233613,1,0,0:0:0:0:
448,192,233613,1,0,0:0:0:0:
192,192,233785,1,0,0:0:0:0:
64,192,233870,1,0,0:0:0:0:
320,192,233870,1,0,0:0:0:0:
448,192,233956,1,0,0:0:0:0:
192,192,234128,1,0,0:0:0:0:
320,192,234213,1,0,0:0:0:0:
64,192,234213,1,0,0:0:0:0:
192,192,234299,1,0,0:0:0:0:
448,192,234299,128,0,234642:0:0:0:0:
192,192,234642,1,0,0:0:0:0:
320,192,234813,1,0,0:0:0:0:
448,192,234813,1,0,0:0:0:0:
192,192,234899,1,0,0:0:0:0:
64,192,234899,1,0,0:0:0:0:
320,192,234985,1,0,0:0:0:0:
448,192,234985,1,0,0:0:0:0:
192,192,235156,1,0,0:0:0:0:
64,192,235156,1,0,0:0:0:0:
448,192,235242,1,0,0:0:0:0:
64,192,235328,1,0,0:0:0:0:
320,192,235328,1,0,0:0:0:0:
192,192,235499,1,0,0:0:0:0:
64,192,235585,1,0,0:0:0:0:
448,192,235585,1,0,0:0:0:0:
320,192,235670,1,0,0:0:0:0:
448,192,235756,1,0,0:0:0:0:
192,192,235842,1,0,0:0:0:0:
64,192,235928,1,0,0:0:0:0:
320,192,235928,1,0,0:0:0:0:
448,192,236013,1,0,0:0:0:0:
192,192,236185,1,0,0:0:0:0:
64,192,236270,1,0,0:0:0:0:
448,192,236356,1,0,0:0:0:0:
192,192,236356,1,0,0:0:0:0:
320,192,236528,1,0,0:0:0:0:
192,192,236613,1,0,0:0:0:0:
448,192,236613,1,0,0:0:0:0:
64,192,236699,1,0,0:0:0:0:
192,192,236785,1,0,0:0:0:0:
320,192,236870,1,0,0:0:0:0:
64,192,237042,1,0,0:0:0:0:
320,192,237042,128,0,237385:0:0:0:0:
64,192,237385,1,0,0:0:0:0:
448,192,237385,1,0,0:0:0:0:
192,192,237556,1,0,0:0:0:0:
320,192,237642,1,0,0:0:0:0:
64,192,237728,1,0,0:0:0:0:
448,192,237728,1,0,0:0:0:0:
192,192,237899,1,0,0:0:0:0:
448,192,237985,1,0,0:0:0:0:
64,192,238070,1,0,0:0:0:0:
320,192,238070,1,0,0:0:0:0:
192,192,238242,1,0,0:0:0:0:
448,192,238328,1,0,0:0:0:0:
64,192,238328,1,0,0:0:0:0:
320,192,238499,1,0,0:0:0:0:
320,192,238670,1,0,0:0:0:0:
64,192,238756,1,0,0:0:0:0:
448,192,238928,1,0,0:0:0:0:
192,192,238928,1,0,0:0:0:0:
320,192,239013,1,0,0:0:0:0:
320,192,239185,1,0,0:0:0:0:
192,192,239270,1,0,0:0:0:0:
448,192,239270,1,0,0:0:0:0:
64,192,239442,1,0,0:0:0:0:
320,192,239442,1,0,0:0:0:0:
192,192,239528,1,0,0:0:0:0:
64,192,239613,1,0,0:0:0:0:
320,192,239613,1,0,0:0:0:0:
192,192,239699,1,0,0:0:0:0:
448,192,239699,1,0,0:0:0:0:
320,192,239785,1,0,0:0:0:0:
64,192,239870,1,0,0:0:0:0:
448,192,239870,1,0,0:0:0:0:
320,192,239956,1,0,0:0:0:0:
192,192,240042,1,0,0:0:0:0:
64,192,240042,1,0,0:0:0:0:
320,192,240128,1,0,0:0:0:0:
448,192,240128,1,0,0:0:0:0:
192,192,240213,1,0,0:0:0:0:
64,192,240299,1,0,0:0:0:0:
448,192,240299,1,0,0:0:0:0:
320,192,240385,1,0,0:0:0:0:
64,192,240470,128,0,240556:0:0:0:0:
192,192,240556,128,0,240642:0:0:0:0:
320,192,240642,128,0,240728:0:0:0:0:
448,192,240728,128,0,240813:0:0:0:0:
64,192,240813,128,0,240899:0:0:0:0:
192,192,240899,128,0,240985:0:0:0:0:
320,192,240985,128,0,241070:0:0:0:0:
448,192,241070,128,0,241156:0:0:0:0:
192,192,241156,128,0,241242:0:0:0:0:
64,192,241242,128,0,241328:0:0:0:0:
320,192,241328,128,0,241413:0:0:0:0:
448,192,241413,128,0,241499:0:0:0:0:
64,192,241499,1,0,0:0:0:0:
192,192,241499,1,0,0:0:0:0:
448,192,241585,1,0,0:0:0:0:
320,192,241670,1,0,0:0:0:0:
192,192,241756,1,0,0:0:0:0:
64,192,241842,1,0,0:0:0:0:
448,192,241842,1,0,0:0:0:0:
320,192,241928,1,0,0:0:0:0:
192,192,242013,1,0,0:0:0:0:
64,192,242013,1,0,0:0:0:0:
448,192,242099,1,0,0:0:0:0:
64,192,242185,1,0,0:0:0:0:
192,192,242270,1,0,0:0:0:0:
448,192,242356,1,0,0:0:0:0:
320,192,242442,1,0,0:0:0:0:
192,192,242528,1,0,0:0:0:0:
64,192,242613,1,0,0:0:0:0:
192,192,242699,1,0,0:0:0:0:
320,192,242785,1,0,0:0:0:0:
64,192,242870,1,0,0:0:0:0:
448,192,242956,1,0,0:0:0:0:
192,192,243042,1,0,0:0:0:0:
320,192,243128,1,0,0:0:0:0:
192,192,243213,1,0,0:0:0:0:
448,192,243299,1,0,0:0:0:0:
64,192,243385,1,0,0:0:0:0:
320,192,243470,1,0,0:0:0:0:
192,192,243556,1,0,0:0:0:0:
448,192,243642,1,0,0:0:0:0:
320,192,243728,1,0,0:0:0:0:
192,192,243813,1,0,0:0:0:0:
64,192,243899,1,0,0:0:0:0:
320,192,243985,1,0,0:0:0:0:
192,192,244070,1,0,0:0:0:0:
448,192,244156,1,0,0:0:0:0:
64,192,244242,1,0,0:0:0:0:
192,192,244328,1,0,0:0:0:0:
320,192,244413,1,0,0:0:0:0:
192,192,244499,1,0,0:0:0:0:
64,192,244585,1,0,0:0:0:0:
448,192,244670,1,0,0:0:0:0:
320,192,244756,1,0,0:0:0:0:
192,192,244842,1,0,0:0:0:0:
448,192,244928,1,0,0:0:0:0:
64,192,244928,1,0,0:0:0:0:
320,192,245013,1,0,0:0:0:0:
192,192,245099,1,0,0:0:0:0:
64,192,245185,1,0,0:0:0:0:
448,192,245185,1,0,0:0:0:0:
192,192,245270,1,0,0:0:0:0:
320,192,245356,1,0,0:0:0:0:
448,192,245442,1,0,0:0:0:0:
64,192,245442,1,0,0:0:0:0:
192,192,245528,1,0,0:0:0:0:
320,192,245613,1,0,0:0:0:0:
448,192,245613,1,0,0:0:0:0:
192,192,245699,1,0,0:0:0:0:
64,192,245785,1,0,0:0:0:0:
448,192,245785,1,0,0:0:0:0:
320,192,245870,1,0,0:0:0:0:
192,192,245956,1,0,0:0:0:0:
64,192,245956,1,0,0:0:0:0:
448,192,246042,1,0,0:0:0:0:
320,192,246128,1,0,0:0:0:0:
192,192,246128,1,0,0:0:0:0:
64,192,246213,1,0,0:0:0:0:
448,192,246299,1,0,0:0:0:0:
320,192,246299,1,0,0:0:0:0:
192,192,246385,1,0,0:0:0:0:
64,192,246470,1,0,0:0:0:0:
448,192,246556,1,0,0:0:0:0:
64,192,246642,1,0,0:0:0:0:
192,192,246642,1,0,0:0:0:0:
320,192,246813,1,0,0:0:0:0:
448,192,246813,1,0,0:0:0:0:
64,192,246985,1,0,0:0:0:0:
320,192,246985,1,0,0:0:0:0:
192,192,247156,1,0,0:0:0:0:
320,192,247156,1,0,0:0:0:0:
192,192,247328,1,0,0:0:0:0:
448,192,247328,1,0,0:0:0:0:
64,192,247499,1,0,0:0:0:0:
448,192,247499,1,0,0:0:0:0:
64,192,247670,1,0,0:0:0:0:
320,192,247670,1,0,0:0:0:0:
192,192,247842,1,0,0:0:0:0:
320,192,247842,1,0,0:0:0:0:
192,192,248013,1,0,0:0:0:0:
448,192,248013,1,0,0:0:0:0:
320,192,248185,1,0,0:0:0:0:
448,192,248185,1,0,0:0:0:0:
192,192,248356,1,0,0:0:0:0:
320,192,248356,1,0,0:0:0:0:
64,192,248528,1,0,0:0:0:0:
192,192,248528,1,0,0:0:0:0:
192,192,248699,1,0,0:0:0:0:
320,192,248699,1,0,0:0:0:0:
448,192,248699,1,0,0:0:0:0:
64,192,248870,1,0,0:0:0:0:
320,192,248870,1,0,0:0:0:0:
64,192,249042,1,0,0:0:0:0:
192,192,249042,1,0,0:0:0:0:
448,192,249042,1,0,0:0:0:0:
192,192,249213,1,0,0:0:0:0:
320,192,249213,1,0,0:0:0:0:
192,192,249385,1,0,0:0:0:0:
448,192,249385,1,0,0:0:0:0:
64,192,249556,1,0,0:0:0:0:
192,192,249556,1,0,0:0:0:0:
448,192,249728,1,0,0:0:0:0:
192,192,249728,1,0,0:0:0:0:
320,192,249813,1,0,0:0:0:0:
448,192,249899,1,0,0:0:0:0:
192,192,249899,1,0,0:0:0:0:
64,192,249985,1,0,0:0:0:0:
192,192,250070,1,0,0:0:0:0:
448,192,250070,1,0,0:0:0:0:
320,192,250156,1,0,0:0:0:0:
64,192,250242,1,0,0:0:0:0:
192,192,250242,1,0,0:0:0:0:
320,192,250328,1,0,0:0:0:0:
448,192,250328,1,0,0:0:0:0:
192,192,250413,1,0,0:0:0:0:
64,192,250499,1,0,0:0:0:0:
320,192,250499,1,0,0:0:0:0:
192,192,250585,1,0,0:0:0:0:
448,192,250670,1,0,0:0:0:0:
320,192,250670,1,0,0:0:0:0:
64,192,250756,1,0,0:0:0:0:
192,192,250756,1,0,0:0:0:0:
320,192,250842,1,0,0:0:0:0:
448,192,250842,1,0,0:0:0:0:
192,192,250928,1,0,0:0:0:0:
64,192,250928,1,0,0:0:0:0:
320,192,251013,1,0,0:0:0:0:
448,192,251013,1,0,0:0:0:0:
64,192,251099,1,0,0:0:0:0:
192,192,251142,1,0,0:0:0:0:
320,192,251185,1,0,0:0:0:0:
448,192,251228,1,0,0:0:0:0:
64,192,251270,1,0,0:0:0:0:
192,192,251313,1,0,0:0:0:0:
448,192,251356,1,0,0:0:0:0:
320,192,251399,1,0,0:0:0:0:
64,192,251442,1,0,0:0:0:0:
192,192,251485,1,0,0:0:0:0:
320,192,251528,1,0,0:0:0:0:
448,192,251570,1,0,0:0:0:0:
192,192,251613,1,0,0:0:0:0:
64,192,251656,1,0,0:0:0:0:
320,192,251699,1,0,0:0:0:0:
448,192,251742,1,0,0:0:0:0:
192,192,251785,1,0,0:0:0:0:
64,192,251828,1,0,0:0:0:0:
320,192,251870,1,0,0:0:0:0:
448,192,251913,1,0,0:0:0:0:
192,192,251913,1,0,0:0:0:0:
64,192,251956,1,0,0:0:0:0:
448,192,251999,1,0,0:0:0:0:
320,192,252042,1,0,0:0:0:0:
192,192,252085,1,0,0:0:0:0:
64,192,252085,1,0,0:0:0:0:
448,192,252128,1,0,0:0:0:0:
320,192,252170,1,0,0:0:0:0:
64,192,252213,1,0,0:0:0:0:
192,192,252256,1,0,0:0:0:0:
448,192,252256,1,0,0:0:0:0:
320,192,252299,1,0,0:0:0:0:
64,192,252342,1,0,0:0:0:0:
192,192,252385,1,0,0:0:0:0:
320,192,252385,1,0,0:0:0:0:
448,192,252428,1,0,0:0:0:0:
64,192,252470,1,0,0:0:0:0:
192,192,252470,1,0,0:0:0:0:
192,192,252556,1,0,0:0:0:0:
320,192,252642,1,0,0:0:0:0:
64,192,252642,1,0,0:0:0:0:
192,192,252728,1,0,0:0:0:0:
448,192,252728,1,0,0:0:0:0:
320,192,252813,1,0,0:0:0:0:
64,192,252899,1,0,0:0:0:0:
192,192,252985,1,0,0:0:0:0:
320,192,252985,1,0,0:0:0:0:
448,192,253070,1,0,0:0:0:0:
192,192,253156,1,0,0:0:0:0:
64,192,253242,1,0,0:0:0:0:
448,192,253328,1,0,0:0:0:0:
192,192,253413,1,0,0:0:0:0:
320,192,253413,1,0,0:0:0:0:
64,192,253499,1,0,0:0:0:0:
192,192,253585,1,0,0:0:0:0:
448,192,253670,1,0,0:0:0:0:
64,192,253670,1,0,0:0:0:0:
320,192,253756,1,0,0:0:0:0:
192,192,253842,1,0,0:0:0:0:
64,192,253842,1,0,0:0:0:0:
448,192,253928,1,0,0:0:0:0:
64,192,254013,1,0,0:0:0:0:
320,192,254013,1,0,0:0:0:0:
192,192,254099,1,0,0:0:0:0:
448,192,254185,1,0,0:0:0:0:
320,192,254270,1,0,0:0:0:0:
64,192,254270,1,0,0:0:0:0:
192,192,254356,1,0,0:0:0:0:
448,192,254442,1,0,0:0:0:0:
320,192,254528,1,0,0:0:0:0:
192,192,254528,1,0,0:0:0:0:
64,192,254613,1,0,0:0:0:0:
448,192,254699,1,0,0:0:0:0:
192,192,254699,1,0,0:0:0:0:
64,192,254785,1,0,0:0:0:0:
320,192,254785,1,0,0:0:0:0:
192,192,254870,1,0,0:0:0:0:
448,192,254956,1,0,0:0:0:0:
320,192,254956,1,0,0:0:0:0:
64,192,255042,1,0,0:0:0:0:
448,192,255128,1,0,0:0:0:0:
64,192,255213,1,0,0:0:0:0:
320,192,255213,1,0,0:0:0:0:
192,192,255299,1,0,0:0:0:0:
448,192,255385,1,0,0:0:0:0:
64,192,255470,1,0,0:0:0:0:
192,192,255470,1,0,0:0:0:0:
320,192,255556,1,0,0:0:0:0:
192,192,255642,1,0,0:0:0:0:
448,192,255642,1,0,0:0:0:0:
64,192,255728,1,0,0:0:0:0:
320,192,255813,1,0,0:0:0:0:
64,192,255899,1,0,0:0:0:0:
448,192,255899,1,0,0:0:0:0:
192,192,255899,1,0,0:0:0:0:
320,192,255985,1,0,0:0:0:0:
192,192,256070,1,0,0:0:0:0:
64,192,256070,1,0,0:0:0:0:
448,192,256070,1,0,0:0:0:0:
320,192,256156,1,0,0:0:0:0:
64,192,256242,1,0,0:0:0:0:
448,192,256242,1,0,0:0:0:0:
192,192,256328,1,0,0:0:0:0:
320,192,256413,1,0,0:0:0:0:
448,192,256413,1,0,0:0:0:0:
192,192,256499,1,0,0:0:0:0:
64,192,256585,1,0,0:0:0:0:
448,192,256585,1,0,0:0:0:0:
320,192,256670,1,0,0:0:0:0:
192,192,256756,1,0,0:0:0:0:
64,192,256756,1,0,0:0:0:0:
320,192,256842,1,0,0:0:0:0:
64,192,256928,1,0,0:0:0:0:
448,192,256928,1,0,0:0:0:0:
192,192,257013,1,0,0:0:0:0:
320,192,257099,1,0,0:0:0:0:
448,192,257099,1,0,0:0:0:0:
64,192,257185,1,0,0:0:0:0:
448,192,257270,1,0,0:0:0:0:
192,192,257270,1,0,0:0:0:0:
320,192,257356,1,0,0:0:0:0:
64,192,257442,1,0,0:0:0:0:
192,192,257528,1,0,0:0:0:0:
320,192,257528,1,0,0:0:0:0:
448,192,257613,1,0,0:0:0:0:
64,192,257613,1,0,0:0:0:0:
320,192,257699,1,0,0:0:0:0:
192,192,257785,1,0,0:0:0:0:
64,192,257785,1,0,0:0:0:0:
320,192,257870,1,0,0:0:0:0:
192,192,257956,1,0,0:0:0:0:
448,192,257956,1,0,0:0:0:0:
64,192,258042,1,0,0:0:0:0:
320,192,258042,1,0,0:0:0:0:
192,192,258128,1,0,0:0:0:0:
448,192,258213,1,0,0:0:0:0:
64,192,258213,1,0,0:0:0:0:
192,192,258299,1,0,0:0:0:0:
320,192,258385,1,0,0:0:0:0:
448,192,258385,1,0,0:0:0:0:
192,192,258470,1,0,0:0:0:0:
64,192,258556,1,0,0:0:0:0:
448,192,258556,1,0,0:0:0:0:
320,192,258642,1,0,0:0:0:0:
192,192,258728,1,0,0:0:0:0:
64,192,258728,1,0,0:0:0:0:
448,192,258813,1,0,0:0:0:0:
64,192,258899,1,0,0:0:0:0:
320,192,258899,1,0,0:0:0:0:
192,192,258985,1,0,0:0:0:0:
448,192,259070,1,0,0:0:0:0:
64,192,259156,1,0,0:0:0:0:
320,192,259156,1,0,0:0:0:0:
192,192,259242,1,0,0:0:0:0:
448,192,259328,1,0,0:0:0:0:
320,192,259328,1,0,0:0:0:0:
64,192,259413,1,0,0:0:0:0:
192,192,259413,1,0,0:0:0:0:
448,192,259499,1,0,0:0:0:0:
64,192,259585,1,0,0:0:0:0:
320,192,259585,1,0,0:0:0:0:
192,192,259670,1,0,0:0:0:0:
448,192,259756,1,0,0:0:0:0:
320,192,259756,1,0,0:0:0:0:
64,192,259756,1,0,0:0:0:0:
192,192,259842,1,0,0:0:0:0:
320,192,259928,1,0,0:0:0:0:
192,192,260013,1,0,0:0:0:0:
448,192,260013,1,0,0:0:0:0:
320,192,260099,1,0,0:0:0:0:
64,192,260099,1,0,0:0:0:0:
192,192,260185,1,0,0:0:0:0:
448,192,260270,1,0,0:0:0:0:
64,192,260356,1,0,0:0:0:0:
320,192,260442,1,0,0:0:0:0:
192,192,260528,1,0,0:0:0:0:
64,192,260613,1,0,0:0:0:0:
448,192,260699,1,0,0:0:0:0:
192,192,260785,1,0,0:0:0:0:
320,192,260870,1,0,0:0:0:0:
448,192,260956,1,0,0:0:0:0:
64,192,261042,1,0,0:0:0:0:
320,192,261128,1,0,0:0:0:0:
192,192,261213,1,0,0:0:0:0:
448,192,261213,1,0,0:0:0:0:
64,192,261299,1,0,0:0:0:0:
320,192,261385,1,0,0:0:0:0:
64,192,261470,1,0,0:0:0:0:
448,192,261556,1,0,0:0:0:0:
192,192,261642,1,0,0:0:0:0:
320,192,261728,1,0,0:0:0:0:
64,192,261813,1,0,0:0:0:0:
448,192,261899,1,0,0:0:0:0:
64,192,261985,1,0,0:0:0:0:
320,192,262070,1,0,0:0:0:0:
64,192,262156,1,0,0:0:0:0:
192,192,262242,1,0,0:0:0:0:
64,192,262328,1,0,0:0:0:0:
448,192,262413,1,0,0:0:0:0:
192,192,262499,1,0,0:0:0:0:
448,192,262585,1,0,0:0:0:0:
64,192,262670,1,0,0:0:0:0:
320,192,262756,1,0,0:0:0:0:
64,192,262842,1,0,0:0:0:0:
448,192,262928,1,0,0:0:0:0:
192,192,263013,1,0,0:0:0:0:
320,192,263099,1,0,0:0:0:0:
64,192,263185,1,0,0:0:0:0:
320,192,263270,1,0,0:0:0:0:
192,192,263356,1,0,0:0:0:0:
448,192,263442,1,4,0:0:0:0:
192,192,263528,1,0,0:0:0:0:
320,192,263613,1,0,0:0:0:0:
64,192,263699,1,0,0:0:0:0:
192,192,263785,1,0,0:0:0:0:
64,192,263870,1,0,0:0:0:0:
320,192,263956,1,0,0:0:0:0:
192,192,264042,1,0,0:0:0:0:
448,192,264128,1,0,0:0:0:0:
320,192,264213,1,0,0:0:0:0:
448,192,264299,1,0,0:0:0:0:
64,192,264385,1,0,0:0:0:0:
192,192,264470,1,0,0:0:0:0:
64,192,264556,1,0,0:0:0:0:
448,192,264642,1,0,0:0:0:0:
320,192,264728,1,0,0:0:0:0:
448,192,264813,1,0,0:0:0:0:
64,192,264813,1,0,0:0:0:0:
192,192,264899,1,0,0:0:0:0:
320,192,264985,1,0,0:0:0:0:
448,192,265070,1,0,0:0:0:0:
64,192,265070,1,0,0:0:0:0:
192,192,265156,1,0,0:0:0:0:
320,192,265242,1,0,0:0:0:0:
448,192,265328,1,0,0:0:0:0:
64,192,265328,1,0,0:0:0:0:
320,192,265413,1,0,0:0:0:0:
192,192,265499,1,0,0:0:0:0:
64,192,265585,1,0,0:0:0:0:
448,192,265670,1,0,0:0:0:0:
192,192,265756,1,0,0:0:0:0:
320,192,265842,1,0,0:0:0:0:
64,192,265928,1,0,0:0:0:0:
192,192,266013,1,0,0:0:0:0:
448,192,266099,1,0,0:0:0:0:
320,192,266099,1,0,0:0:0:0:
192,192,266185,1,0,0:0:0:0:
64,192,266270,1,0,0:0:0:0:
448,192,266270,1,0,0:0:0:0:
320,192,266356,1,0,0:0:0:0:
192,192,266442,1,0,0:0:0:0:
64,192,266442,1,0,0:0:0:0:
320,192,266528,1,0,0:0:0:0:
448,192,266613,1,0,0:0:0:0:
192,192,266699,1,0,0:0:0:0:
64,192,266785,1,0,0:0:0:0:
320,192,266785,1,0,0:0:0:0:
192,192,266870,1,0,0:0:0:0:
448,192,266956,1,0,0:0:0:0:
64,192,266956,1,0,0:0:0:0:
320,192,267042,1,0,0:0:0:0:
192,192,267128,1,0,0:0:0:0:
64,192,267128,1,0,0:0:0:0:
320,192,267213,1,0,0:0:0:0:
192,192,267299,1,0,0:0:0:0:
448,192,267299,1,0,0:0:0:0:
64,192,267385,1,0,0:0:0:0:
448,192,267470,1,0,0:0:0:0:
320,192,267556,1,0,0:0:0:0:
192,192,267556,1,0,0:0:0:0:
64,192,267642,1,0,0:0:0:0:
448,192,267728,1,0,0:0:0:0:
320,192,267728,1,0,0:0:0:0:
192,192,267813,1,0,0:0:0:0:
64,192,267899,1,0,0:0:0:0:
320,192,267899,1,0,0:0:0:0:
192,192,267985,1,0,0:0:0:0:
64,192,268070,1,0,0:0:0:0:
448,192,268070,1,0,0:0:0:0:
320,192,268156,1,0,0:0:0:0:
192,192,268242,1,0,0:0:0:0:
448,192,268328,1,0,0:0:0:0:
64,192,268328,1,0,0:0:0:0:
192,192,268413,1,0,0:0:0:0:
320,192,268499,1,0,0:0:0:0:
448,192,268499,1,0,0:0:0:0:
192,192,268585,1,0,0:0:0:0:
64,192,268585,1,0,0:0:0:0:
320,192,268670,1,0,0:0:0:0:
192,192,268756,1,0,0:0:0:0:
448,192,268756,1,0,0:0:0:0:
64,192,268842,1,0,0:0:0:0:
448,192,268928,1,0,0:0:0:0:
320,192,269013,1,0,0:0:0:0:
64,192,269099,1,0,0:0:0:0:
192,192,269099,1,0,0:0:0:0:
448,192,269185,1,0,0:0:0:0:
64,192,269270,1,0,0:0:0:0:
192,192,269356,1,0,0:0:0:0:
320,192,269356,1,0,0:0:0:0:
448,192,269442,1,0,0:0:0:0:
64,192,269528,1,0,0:0:0:0:
320,192,269528,1,0,0:0:0:0:
192,192,269613,1,0,0:0:0:0:
448,192,269699,1,0,0:0:0:0:
320,192,269785,1,0,0:0:0:0:
192,192,269785,1,0,0:0:0:0:
64,192,269870,1,0,0:0:0:0:
448,192,269956,1,0,0:0:0:0:
64,192,270042,1,0,0:0:0:0:
192,192,270128,1,0,0:0:0:0:
320,192,270213,1,0,0:0:0:0:
448,192,270213,1,0,0:0:0:0:
192,192,270299,1,0,0:0:0:0:
64,192,270385,1,0,0:0:0:0:
448,192,270385,1,0,0:0:0:0:
320,192,270470,1,0,0:0:0:0:
192,192,270556,1,0,0:0:0:0:
64,192,270556,1,0,0:0:0:0:
320,192,270642,1,0,0:0:0:0:
448,192,270728,1,0,0:0:0:0:
64,192,270813,1,0,0:0:0:0:
192,192,270813,1,0,0:0:0:0:
320,192,270899,1,0,0:0:0:0:
448,192,270899,1,0,0:0:0:0:
192,192,270985,1,0,0:0:0:0:
64,192,270985,1,0,0:0:0:0:
320,192,271070,1,0,0:0:0:0:
448,192,271070,1,0,0:0:0:0:
64,192,271156,1,0,0:0:0:0:
192,192,271156,1,0,0:0:0:0:
320,192,271242,1,0,0:0:0:0:
448,192,271242,1,0,0:0:0:0:
192,192,271328,1,0,0:0:0:0:
64,192,271413,1,0,0:0:0:0:
448,192,271413,1,0,0:0:0:0:
320,192,271499,1,0,0:0:0:0:
192,192,271585,1,0,0:0:0:0:
64,192,271585,1,0,0:0:0:0:
448,192,271670,1,0,0:0:0:0:
64,192,271756,1,0,0:0:0:0:
192,192,271842,1,0,0:0:0:0:
448,192,271842,1,0,0:0:0:0:
320,192,271928,1,0,0:0:0:0:
64,192,272013,1,0,0:0:0:0:
320,192,272099,1,0,0:0:0:0:
192,192,272185,1,0,0:0:0:0:
448,192,272270,1,0,0:0:0:0:
192,192,272356,1,0,0:0:0:0:
64,192,272442,1,0,0:0:0:0:
320,192,272528,1,0,0:0:0:0:
192,192,272613,1,0,0:0:0:0:
64,192,272699,1,0,0:0:0:0:
448,192,272699,1,0,0:0:0:0:
320,192,272785,1,0,0:0:0:0:
192,192,272870,1,0,0:0:0:0:
64,192,272870,1,0,0:0:0:0:
320,192,272956,1,0,0:0:0:0:
64,192,273042,1,0,0:0:0:0:
448,192,273128,1,0,0:0:0:0:
192,192,273213,1,0,0:0:0:0:
320,192,273299,1,0,0:0:0:0:
64,192,273385,1,0,0:0:0:0:
320,192,273470,1,0,0:0:0:0:
192,192,273556,1,0,0:0:0:0:
448,192,273642,1,0,0:0:0:0:
192,192,273728,1,0,0:0:0:0:
320,192,273813,1,0,0:0:0:0:
64,192,273899,1,0,0:0:0:0:
448,192,273985,1,0,0:0:0:0:
192,192,274070,1,0,0:0:0:0:
448,192,274156,1,0,0:0:0:0:
192,192,274242,1,0,0:0:0:0:
320,192,274328,1,0,0:0:0:0:
64,192,274413,1,0,0:0:0:0:
192,192,274499,1,0,0:0:0:0:
320,192,274585,1,0,0:0:0:0:
448,192,274585,1,0,0:0:0:0:
64,192,274670,1,0,0:0:0:0:
448,192,274756,1,0,0:0:0:0:
192,192,274756,1,0,0:0:0:0:
320,192,274842,1,0,0:0:0:0:
64,192,274928,1,0,0:0:0:0:
192,192,274928,1,0,0:0:0:0:
448,192,275013,1,0,0:0:0:0:
320,192,275099,1,0,0:0:0:0:
64,192,275099,1,0,0:0:0:0:
192,192,275185,1,0,0:0:0:0:
448,192,275270,1,0,0:0:0:0:
320,192,275270,1,0,0:0:0:0:
192,192,275356,1,0,0:0:0:0:
64,192,275442,1,0,0:0:0:0:
320,192,275442,1,0,0:0:0:0:
448,192,275528,1,0,0:0:0:0:
64,192,275613,1,0,0:0:0:0:
192,192,275613,1,0,0:0:0:0:
320,192,275699,1,0,0:0:0:0:
192,192,275785,1,0,0:0:0:0:
448,192,275785,1,0,0:0:0:0:
64,192,275870,1,0,0:0:0:0:
320,192,275870,1,0,0:0:0:0:
192,192,275956,1,0,0:0:0:0:
320,192,276128,1,0,0:0:0:0:
192,192,276213,1,0,0:0:0:0:
448,192,276213,1,0,0:0:0:0:
64,192,276299,1,0,0:0:0:0:
192,192,276385,1,0,0:0:0:0:
448,192,276385,1,0,0:0:0:0:
320,192,276470,1,0,0:0:0:0:
192,192,276556,1,0,0:0:0:0:
448,192,276556,1,0,0:0:0:0:
64,192,276642,1,0,0:0:0:0:
192,192,276728,1,0,0:0:0:0:
448,192,276728,1,0,0:0:0:0:
320,192,276813,1,0,0:0:0:0:
64,192,276899,1,0,0:0:0:0:
192,192,276985,1,0,0:0:0:0:
320,192,276985,1,0,0:0:0:0:
448,192,277070,1,0,0:0:0:0:
64,192,277070,1,0,0:0:0:0:
320,192,277156,1,0,0:0:0:0:
192,192,277242,1,0,0:0:0:0:
64,192,277242,1,0,0:0:0:0:
320,192,277328,1,0,0:0:0:0:
192,192,277413,1,0,0:0:0:0:
448,192,277413,1,0,0:0:0:0:
64,192,277499,1,0,0:0:0:0:
192,192,277585,1,0,0:0:0:0:
320,192,277585,1,0,0:0:0:0:
448,192,277670,1,0,0:0:0:0:
64,192,277756,1,0,0:0:0:0:
320,192,277756,1,0,0:0:0:0:
192,192,277842,1,0,0:0:0:0:
448,192,277928,1,0,0:0:0:0:
320,192,278013,1,0,0:0:0:0:
192,192,278013,1,0,0:0:0:0:
64,192,278099,1,0,0:0:0:0:
448,192,278185,1,0,0:0:0:0:
64,192,278270,1,0,0:0:0:0:
320,192,278270,1,0,0:0:0:0:
192,192,278356,1,0,0:0:0:0:
448,192,278442,1,0,0:0:0:0:
320,192,278528,1,0,0:0:0:0:
192,192,278528,1,0,0:0:0:0:
64,192,278613,1,0,0:0:0:0:
448,192,278699,1,0,0:0:0:0:
320,192,278699,1,0,0:0:0:0:
64,192,278785,1,0,0:0:0:0:
192,192,278785,1,0,0:0:0:0:
320,192,278870,1,0,0:0:0:0:
448,192,278870,1,0,0:0:0:0:
192,192,278956,1,0,0:0:0:0:
64,192,279042,1,0,0:0:0:0:
448,192,279042,1,0,0:0:0:0:
320,192,279128,1,0,0:0:0:0:
192,192,279213,1,0,0:0:0:0:
64,192,279213,1,0,0:0:0:0:
320,192,279299,1,0,0:0:0:0:
192,192,279385,1,0,0:0:0:0:
448,192,279385,1,0,0:0:0:0:
64,192,279470,1,0,0:0:0:0:
320,192,279470,1,0,0:0:0:0:
192,192,279556,1,0,0:0:0:0:
448,192,279642,1,0,0:0:0:0:
192,192,279728,1,0,0:0:0:0:
320,192,279728,1,0,0:0:0:0:
64,192,279813,1,0,0:0:0:0:
192,192,279899,1,0,0:0:0:0:
320,192,279899,1,0,0:0:0:0:
448,192,279985,1,0,0:0:0:0:
320,192,280070,1,0,0:0:0:0:
64,192,280156,1,0,0:0:0:0:
192,192,280156,1,0,0:0:0:0:
448,192,280242,1,0,0:0:0:0:
64,192,280328,1,0,0:0:0:0:
320,192,280328,1,0,0:0:0:0:
192,192,280413,1,0,0:0:0:0:
448,192,280499,1,0,0:0:0:0:
320,192,280499,1,0,0:0:0:0:
192,192,280585,1,0,0:0:0:0:
64,192,280670,1,0,0:0:0:0:
448,192,280670,1,0,0:0:0:0:
192,192,280756,1,0,0:0:0:0:
320,192,280842,1,0,0:0:0:0:
448,192,280842,1,0,0:0:0:0:
64,192,280928,1,0,0:0:0:0:
192,192,280928,1,0,0:0:0:0:
320,192,281013,1,0,0:0:0:0:
64,192,281099,1,0,0:0:0:0:
448,192,281099,1,0,0:0:0:0:
192,192,281185,1,0,0:0:0:0:
448,192,281270,1,0,0:0:0:0:
64,192,281270,1,0,0:0:0:0:
320,192,281356,1,0,0:0:0:0:
64,192,281442,1,0,0:0:0:0:
448,192,281442,1,0,0:0:0:0:
192,192,281528,1,0,0:0:0:0:
320,192,281613,1,0,0:0:0:0:
448,192,281613,1,0,0:0:0:0:
192,192,281699,1,0,0:0:0:0:
64,192,281785,1,0,0:0:0:0:
448,192,281785,1,0,0:0:0:0:
320,192,281870,1,0,0:0:0:0:
192,192,281956,1,0,0:0:0:0:
64,192,281956,1,0,0:0:0:0:
320,192,282042,1,0,0:0:0:0:
64,192,282128,1,0,0:0:0:0:
192,192,282128,1,0,0:0:0:0:
320,192,282213,1,0,0:0:0:0:
448,192,282213,1,0,0:0:0:0:
192,192,282299,1,0,0:0:0:0:
64,192,282299,1,0,0:0:0:0:
320,192,282385,1,0,0:0:0:0:
64,192,282470,1,0,0:0:0:0:
192,192,282556,1,0,0:0:0:0:
448,192,282556,1,0,0:0:0:0:
64,192,282642,1,0,0:0:0:0:
320,192,282642,1,0,0:0:0:0:
192,192,282728,1,0,0:0:0:0:
448,192,282813,1,0,0:0:0:0:
64,192,282813,1,0,0:0:0:0:
320,192,282899,1,0,0:0:0:0:
192,192,282985,1,0,0:0:0:0:
64,192,282985,1,0,0:0:0:0:
320,192,283070,1,0,0:0:0:0:
448,192,283156,1,0,0:0:0:0:
64,192,283156,1,0,0:0:0:0:
192,192,283242,1,0,0:0:0:0:
320,192,283328,1,0,0:0:0:0:
448,192,283328,1,0,0:0:0:0:
64,192,283413,1,0,0:0:0:0:
192,192,283499,1,0,0:0:0:0:
320,192,283499,1,0,0:0:0:0:
448,192,283585,1,0,0:0:0:0:
64,192,283670,1,0,0:0:0:0:
192,192,283670,1,0,0:0:0:0:
320,192,283756,1,0,0:0:0:0:
448,192,283842,1,0,0:0:0:0:
64,192,283928,1,0,0:0:0:0:
192,192,284013,1,0,0:0:0:0:
320,192,284013,1,0,0:0:0:0:
64,192,284099,1,0,0:0:0:0:
448,192,284099,1,0,0:0:0:0:
320,192,284185,1,0,0:0:0:0:
192,192,284185,1,0,0:0:0:0:
64,192,284270,1,0,0:0:0:0:
192,192,284356,1,0,0:0:0:0:
320,192,284356,1,0,0:0:0:0:
448,192,284442,1,0,0:0:0:0:
64,192,284528,1,0,0:0:0:0:
320,192,284528,1,0,0:0:0:0:
192,192,284613,1,0,0:0:0:0:
448,192,284699,1,0,0:0:0:0:
320,192,284785,1,0,0:0:0:0:
192,192,284785,1,0,0:0:0:0:
64,192,284870,1,0,0:0:0:0:
320,192,284956,1,0,0:0:0:0:
64,192,285042,1,0,0:0:0:0:
448,192,285042,1,0,0:0:0:0:
192,192,285128,1,0,0:0:0:0:
320,192,285213,1,0,0:0:0:0:
448,192,285213,1,0,0:0:0:0:
192,192,285299,1,0,0:0:0:0:
448,192,285385,1,0,0:0:0:0:
192,192,285470,1,0,0:0:0:0:
64,192,285556,1,0,0:0:0:0:
320,192,285642,1,0,0:0:0:0:
64,192,285728,1,0,0:0:0:0:
448,192,285813,1,0,0:0:0:0:
192,192,285899,1,0,0:0:0:0:
64,192,285985,1,0,0:0:0:0:
320,192,285985,1,0,0:0:0:0:
192,192,286070,1,0,0:0:0:0:
448,192,286070,1,0,0:0:0:0:
320,192,286156,1,0,0:0:0:0:
64,192,286242,1,0,0:0:0:0:
192,192,286328,1,0,0:0:0:0:
320,192,286328,1,0,0:0:0:0:
448,192,286413,1,0,0:0:0:0:
192,192,286499,1,0,0:0:0:0:
320,192,286499,1,0,0:0:0:0:
448,192,286585,1,0,0:0:0:0:
64,192,286585,1,0,0:0:0:0:
192,192,286670,1,0,0:0:0:0:
320,192,286756,1,0,0:0:0:0:
448,192,286756,1,0,0:0:0:0:
192,192,286842,1,0,0:0:0:0:
64,192,286928,1,0,0:0:0:0:
448,192,286928,1,0,0:0:0:0:
320,192,287013,1,0,0:0:0:0:
192,192,287099,1,0,0:0:0:0:
64,192,287099,1,0,0:0:0:0:
320,192,287185,1,0,0:0:0:0:
192,192,287270,1,0,0:0:0:0:
448,192,287270,1,0,0:0:0:0:
64,192,287356,1,0,0:0:0:0:
448,192,287442,1,0,0:0:0:0:
320,192,287528,1,0,0:0:0:0:
192,192,287528,1,0,0:0:0:0:
64,192,287613,1,0,0:0:0:0:
320,192,287699,1,0,0:0:0:0:
192,192,287785,1,0,0:0:0:0:
448,192,287785,1,0,0:0:0:0:
64,192,287870,1,0,0:0:0:0:
320,192,287870,1,0,0:0:0:0:
192,192,287956,1,0,0:0:0:0:
64,192,288042,1,0,0:0:0:0:
448,192,288128,1,0,0:0:0:0:
192,192,288213,1,0,0:0:0:0:
320,192,288213,1,0,0:0:0:0:
64,192,288299,1,0,0:0:0:0:
448,192,288385,1,0,0:0:0:0:
64,192,288470,1,0,0:0:0:0:
192,192,288556,1,0,0:0:0:0:
320,192,288556,1,0,0:0:0:0:
448,192,288642,1,0,0:0:0:0:
192,192,288728,1,0,0:0:0:0:
64,192,288813,1,0,0:0:0:0:
448,192,288813,1,0,0:0:0:0:
192,192,288899,1,0,0:0:0:0:
320,192,288985,1,0,0:0:0:0:
448,192,288985,1,0,0:0:0:0:
64,192,289070,1,0,0:0:0:0:
320,192,289156,1,0,0:0:0:0:
192,192,289242,1,0,0:0:0:0:
64,192,289242,1,0,0:0:0:0:
448,192,289328,1,0,0:0:0:0:
64,192,289413,1,0,0:0:0:0:
320,192,289413,1,0,0:0:0:0:
192,192,289499,1,0,0:0:0:0:
448,192,289585,1,0,0:0:0:0:
320,192,289670,1,0,0:0:0:0:
192,192,289670,1,0,0:0:0:0:
64,192,289756,1,0,0:0:0:0:
320,192,289842,1,0,0:0:0:0:
64,192,289928,1,0,0:0:0:0:
448,192,289928,1,0,0:0:0:0:
192,192,290013,1,0,0:0:0:0:
320,192,290099,1,0,0:0:0:0:
448,192,290099,1,0,0:0:0:0:
64,192,290185,1,0,0:0:0:0:
192,192,290270,1,0,0:0:0:0:
448,192,290356,1,0,0:0:0:0:
64,192,290356,1,0,0:0:0:0:
320,192,290442,1,0,0:0:0:0:
192,192,290528,1,0,0:0:0:0:
64,192,290528,1,0,0:0:0:0:
320,192,290613,1,0,0:0:0:0:
64,192,290699,1,0,0:0:0:0:
448,192,290699,1,0,0:0:0:0:
192,192,290785,1,0,0:0:0:0:
448,192,290870,1,0,0:0:0:0:
320,192,290870,1,0,0:0:0:0:
64,192,291042,1,0,0:0:0:0:
320,192,291042,1,0,0:0:0:0:
192,192,291213,1,0,0:0:0:0:
448,192,291213,1,0,0:0:0:0:
320,192,291213,1,0,0:0:0:0:
320,192,291385,1,0,0:0:0:0:
64,192,291385,1,0,0:0:0:0:
64,192,291556,1,0,0:0:0:0:
448,192,291556,1,0,0:0:0:0:
320,192,291556,1,0,0:0:0:0:
192,192,291728,1,0,0:0:0:0:
448,192,291728,1,0,0:0:0:0:
320,192,291899,1,0,0:0:0:0:
448,192,291899,1,0,0:0:0:0:
64,192,292070,1,0,0:0:0:0:
192,192,292070,1,0,0:0:0:0:
320,192,292070,1,0,0:0:0:0:
64,192,292242,1,0,0:0:0:0:
320,192,292242,1,0,0:0:0:0:
192,192,292413,1,0,0:0:0:0:
320,192,292413,1,0,0:0:0:0:
192,192,292585,1,0,0:0:0:0:
448,192,292585,1,0,0:0:0:0:
64,192,292756,1,0,0:0:0:0:
448,192,292756,1,0,0:0:0:0:
64,192,292928,1,0,0:0:0:0:
320,192,292928,1,0,0:0:0:0:
192,192,293099,1,0,0:0:0:0:
448,192,293099,1,0,0:0:0:0:
320,192,293099,1,0,0:0:0:0:
320,192,293270,1,0,0:0:0:0:
64,192,293270,1,0,0:0:0:0:
192,192,293442,1,0,0:0:0:0:
192,192,293613,1,0,0:0:0:0:
448,192,293613,1,0,0:0:0:0:
320,192,293699,1,0,0:0:0:0:
192,192,293785,1,0,0:0:0:0:
448,192,293785,1,0,0:0:0:0:
64,192,293870,5,0,0:0:0:0:
320,192,293870,1,0,0:0:0:0:
192,192,293956,1,0,0:0:0:0:
64,192,294042,1,0,0:0:0:0:
320,192,294042,1,0,0:0:0:0:
448,192,294128,1,0,0:0:0:0:
192,192,294128,1,0,0:0:0:0:
320,192,294213,1,0,0:0:0:0:
192,192,294299,1,0,0:0:0:0:
64,192,294299,1,0,0:0:0:0:
320,192,294385,1,0,0:0:0:0:
448,192,294385,1,0,0:0:0:0:
192,192,294470,1,0,0:0:0:0:
64,192,294470,1,0,0:0:0:0:
320,192,294556,1,0,0:0:0:0:
448,192,294556,1,0,0:0:0:0:
192,192,294642,1,0,0:0:0:0:
64,192,294642,1,0,0:0:0:0:
320,192,294728,1,0,0:0:0:0:
448,192,294728,1,0,0:0:0:0:
192,192,294813,1,0,0:0:0:0:
64,192,294813,1,0,0:0:0:0:
320,192,294899,1,0,0:0:0:0:
448,192,294899,1,0,0:0:0:0:
64,192,294985,5,0,0:0:0:0:
192,192,295028,1,0,0:0:0:0:
320,192,295070,1,0,0:0:0:0:
448,192,295113,1,0,0:0:0:0:
64,192,295156,1,0,0:0:0:0:
192,192,295199,1,0,0:0:0:0:
320,192,295242,1,0,0:0:0:0:
448,192,295285,1,0,0:0:0:0:
64,192,295328,1,0,0:0:0:0:
192,192,295370,1,0,0:0:0:0:
320,192,295413,1,0,0:0:0:0:
448,192,295456,1,0,0:0:0:0:
64,192,295499,1,0,0:0:0:0:
192,192,295542,1,0,0:0:0:0:
320,192,295585,1,0,0:0:0:0:
448,192,295628,1,0,0:0:0:0:
192,192,295670,1,0,0:0:0:0:
64,192,295713,1,0,0:0:0:0:
320,192,295756,1,0,0:0:0:0:
448,192,295799,1,0,0:0:0:0:
192,192,295799,1,0,0:0:0:0:
64,192,295842,1,0,0:0:0:0:
448,192,295885,1,0,0:0:0:0:
320,192,295928,1,0,0:0:0:0:
192,192,295970,1,0,0:0:0:0:
64,192,295970,1,0,0:0:0:0:
448,192,296013,1,0,0:0:0:0:
320,192,296056,1,0,0:0:0:0:
64,192,296056,1,0,0:0:0:0:
192,192,296099,1,0,0:0:0:0:
448,192,296142,1,0,0:0:0:0:
320,192,296185,1,0,0:0:0:0:
192,192,296228,1,0,0:0:0:0:
64,192,296228,1,0,0:0:0:0:
448,192,296270,1,0,0:0:0:0:
192,192,296313,1,0,0:0:0:0:
320,192,296313,1,0,0:0:0:0:
64,192,296356,1,0,0:0:0:0:
448,192,296528,1,0,0:0:0:0:
320,192,296613,1,0,0:0:0:0:
64,192,296699,1,0,0:0:0:0:
448,192,296699,1,0,0:0:0:0:
192,192,296870,1,0,0:0:0:0:
64,192,296870,1,0,0:0:0:0:
320,192,296956,1,0,0:0:0:0:
64,192,297042,1,0,0:0:0:0:
448,192,297042,1,0,0:0:0:0:
192,192,297128,1,0,0:0:0:0:
448,192,297213,1,0,0:0:0:0:
320,192,297213,1,0,0:0:0:0:
64,192,297299,1,0,0:0:0:0:
192,192,297385,1,0,0:0:0:0:
320,192,297385,1,0,0:0:0:0:
448,192,297470,1,0,0:0:0:0:
64,192,297556,1,0,0:0:0:0:
192,192,297642,1,0,0:0:0:0:
448,192,297728,1,0,0:0:0:0:
320,192,297728,1,0,0:0:0:0:
192,192,297899,1,0,0:0:0:0:
64,192,297985,1,0,0:0:0:0:
320,192,297985,1,0,0:0:0:0:
448,192,298070,1,0,0:0:0:0:
192,192,298242,1,0,0:0:0:0:
64,192,298328,1,0,0:0:0:0:
320,192,298328,1,0,0:0:0:0:
448,192,298413,1,0,0:0:0:0:
64,192,298499,1,0,0:0:0:0:
320,192,298499,1,0,0:0:0:0:
192,192,298585,1,0,0:0:0:0:
448,192,298670,1,0,0:0:0:0:
192,192,298756,1,0,0:0:0:0:
320,192,298756,1,0,0:0:0:0:
64,192,298842,1,0,0:0:0:0:
448,192,298928,1,0,0:0:0:0:
64,192,299013,1,0,0:0:0:0:
320,192,299013,1,0,0:0:0:0:
192,192,299099,1,0,0:0:0:0:
320,192,299270,1,0,0:0:0:0:
192,192,299356,1,0,0:0:0:0:
448,192,299442,1,0,0:0:0:0:
320,192,299442,1,0,0:0:0:0:
64,192,299613,1,0,0:0:0:0:
192,192,299699,1,0,0:0:0:0:
448,192,299699,1,0,0:0:0:0:
320,192,299785,1,0,0:0:0:0:
64,192,299870,1,0,0:0:0:0:
192,192,299870,1,0,0:0:0:0:
448,192,299956,1,0,0:0:0:0:
320,192,300042,1,0,0:0:0:0:
192,192,300042,1,0,0:0:0:0:
64,192,300128,1,0,0:0:0:0:
448,192,300213,1,0,0:0:0:0:
64,192,300299,1,0,0:0:0:0:
320,192,300299,1,0,0:0:0:0:
192,192,300385,1,0,0:0:0:0:
448,192,300470,1,0,0:0:0:0:
320,192,300470,1,0,0:0:0:0:
192,192,300642,1,0,0:0:0:0:
64,192,300728,1,0,0:0:0:0:
320,192,300728,1,0,0:0:0:0:
448,192,300813,1,0,0:0:0:0:
64,192,300985,1,0,0:0:0:0:
192,192,301070,1,0,0:0:0:0:
320,192,301070,1,0,0:0:0:0:
448,192,301156,1,0,0:0:0:0:
64,192,301242,1,0,0:0:0:0:
448,192,301328,1,0,0:0:0:0:
192,192,301328,1,0,0:0:0:0:
320,192,301413,1,0,0:0:0:0:
64,192,301499,1,0,0:0:0:0:
448,192,301585,1,0,0:0:0:0:
320,192,301585,1,0,0:0:0:0:
192,192,301670,1,0,0:0:0:0:
64,192,301670,1,0,0:0:0:0:
320,192,301756,1,0,0:0:0:0:
448,192,301756,1,0,0:0:0:0:
192,192,301842,1,0,0:0:0:0:
64,192,301842,1,0,0:0:0:0:
320,192,302013,1,0,0:0:0:0:
192,192,302099,1,0,0:0:0:0:
448,192,302099,1,0,0:0:0:0:
64,192,302185,1,0,0:0:0:0:
64,192,302356,1,0,0:0:0:0:
448,192,302356,1,0,0:0:0:0:
192,192,302442,1,0,0:0:0:0:
320,192,302528,1,0,0:0:0:0:
64,192,302613,1,0,0:0:0:0:
448,192,302613,1,0,0:0:0:0:
192,192,302699,1,0,0:0:0:0:
320,192,302785,1,0,0:0:0:0:
448,192,302785,1,0,0:0:0:0:
64,192,302870,1,0,0:0:0:0:
320,192,302956,1,0,0:0:0:0:
192,192,302956,1,0,0:0:0:0:
448,192,303042,1,0,0:0:0:0:
192,192,303128,1,0,0:0:0:0:
448,192,303213,1,0,0:0:0:0:
320,192,303213,1,0,0:0:0:0:
64,192,303213,1,0,0:0:0:0:
192,192,303385,1,0,0:0:0:0:
64,192,303470,1,0,0:0:0:0:
448,192,303470,1,0,0:0:0:0:
320,192,303556,1,0,0:0:0:0:
64,192,303728,1,0,0:0:0:0:
448,192,303728,1,0,0:0:0:0:
320,192,303813,1,0,0:0:0:0:
64,192,303899,1,0,0:0:0:0:
192,192,303985,1,0,0:0:0:0:
448,192,304070,1,0,0:0:0:0:
320,192,304070,1,0,0:0:0:0:
64,192,304156,1,0,0:0:0:0:
192,192,304156,1,0,0:0:0:0:
320,192,304242,1,0,0:0:0:0:
64,192,304328,1,0,0:0:0:0:
448,192,304328,1,0,0:0:0:0:
192,192,304413,1,0,0:0:0:0:
448,192,304499,1,0,0:0:0:0:
64,192,304499,1,0,0:0:0:0:
320,192,304585,1,0,0:0:0:0:
192,192,304585,1,0,0:0:0:0:
192,192,304756,1,0,0:0:0:0:
64,192,304842,1,0,0:0:0:0:
320,192,304842,1,0,0:0:0:0:
448,192,304928,1,0,0:0:0:0:
64,192,305099,1,0,0:0:0:0:
448,192,305099,1,0,0:0:0:0:
320,192,305185,1,0,0:0:0:0:
192,192,305270,1,0,0:0:0:0:
64,192,305270,1,0,0:0:0:0:
320,192,305356,1,0,0:0:0:0:
448,192,305442,1,0,0:0:0:0:
64,192,305442,1,0,0:0:0:0:
192,192,305528,1,0,0:0:0:0:
320,192,305613,1,0,0:0:0:0:
448,192,305613,1,0,0:0:0:0:
192,192,305699,1,0,0:0:0:0:
64,192,305785,1,0,0:0:0:0:
448,192,305785,1,0,0:0:0:0:
320,192,305870,1,0,0:0:0:0:
192,192,305956,1,0,0:0:0:0:
64,192,305956,1,0,0:0:0:0:
320,192,306128,1,0,0:0:0:0:
192,192,306213,1,0,0:0:0:0:
448,192,306213,1,0,0:0:0:0:
64,192,306299,1,0,0:0:0:0:
192,192,306470,1,0,0:0:0:0:
448,192,306470,1,0,0:0:0:0:
320,192,306556,1,0,0:0:0:0:
64,192,306556,1,0,0:0:0:0:
192,192,306642,1,0,0:0:0:0:
448,192,306642,1,0,0:0:0:0:
320,192,306728,1,0,0:0:0:0:
64,192,306813,1,0,0:0:0:0:
192,192,306813,1,0,0:0:0:0:
448,192,306899,1,0,0:0:0:0:
320,192,306985,1,0,0:0:0:0:
192,192,306985,1,0,0:0:0:0:
64,192,307070,1,0,0:0:0:0:
448,192,307156,1,0,0:0:0:0:
192,192,307156,1,0,0:0:0:0:
320,192,307156,1,0,0:0:0:0:
64,192,307242,1,0,0:0:0:0:
192,192,307328,1,0,0:0:0:0:
448,192,307328,1,0,0:0:0:0:
320,192,307499,1,0,0:0:0:0:
192,192,307585,1,0,0:0:0:0:
448,192,307585,1,0,0:0:0:0:
64,192,307670,1,0,0:0:0:0:
320,192,307842,1,0,0:0:0:0:
448,192,307842,1,0,0:0:0:0:
192,192,307928,1,0,0:0:0:0:
64,192,308013,1,0,0:0:0:0:
448,192,308013,1,0,0:0:0:0:
320,192,308099,1,0,0:0:0:0:
192,192,308185,1,0,0:0:0:0:
64,192,308185,1,0,0:0:0:0:
320,192,308270,1,0,0:0:0:0:
448,192,308356,1,0,0:0:0:0:
64,192,308356,1,0,0:0:0:0:
192,192,308442,1,0,0:0:0:0:
320,192,308528,1,0,0:0:0:0:
448,192,308528,1,0,0:0:0:0:
192,192,308613,1,0,0:0:0:0:
64,192,308699,1,0,0:0:0:0:
448,192,308699,1,0,0:0:0:0:
320,192,308699,1,0,0:0:0:0:
192,192,308870,1,0,0:0:0:0:
64,192,308956,1,0,0:0:0:0:
320,192,308956,1,0,0:0:0:0:
448,192,309042,1,0,0:0:0:0:
192,192,309213,1,0,0:0:0:0:
64,192,309299,1,0,0:0:0:0:
320,192,309299,1,0,0:0:0:0:
192,192,309385,1,0,0:0:0:0:
448,192,309470,1,0,0:0:0:0:
320,192,309470,1,0,0:0:0:0:
64,192,309556,1,0,0:0:0:0:
192,192,309556,1,0,0:0:0:0:
320,192,309642,1,0,0:0:0:0:
64,192,309728,1,0,0:0:0:0:
448,192,309728,1,0,0:0:0:0:
192,192,309813,1,0,0:0:0:0:
448,192,309899,1,0,0:0:0:0:
64,192,309899,1,0,0:0:0:0:
320,192,309985,1,0,0:0:0:0:
192,192,310070,1,0,0:0:0:0:
64,192,310070,1,0,0:0:0:0:
320,192,310242,1,0,0:0:0:0:
192,192,310328,1,0,0:0:0:0:
448,192,310328,1,0,0:0:0:0:
64,192,310413,1,0,0:0:0:0:
448,192,310499,1,0,0:0:0:0:
320,192,310499,1,0,0:0:0:0:
192,192,310585,1,0,0:0:0:0:
64,192,310585,1,0,0:0:0:0:
448,192,310670,1,0,0:0:0:0:
192,192,310756,1,0,0:0:0:0:
320,192,310756,1,0,0:0:0:0:
64,192,310842,1,0,0:0:0:0:
448,192,310928,1,0,0:0:0:0:
192,192,310928,1,0,0:0:0:0:
64,192,311013,1,0,0:0:0:0:
320,192,311099,1,0,0:0:0:0:
192,192,311099,1,0,0:0:0:0:
448,192,311185,1,0,0:0:0:0:
64,192,311270,1,0,0:0:0:0:
192,192,311356,1,0,0:0:0:0:
448,192,311356,1,0,0:0:0:0:
320,192,311442,1,0,0:0:0:0:
192,192,311613,1,0,0:0:0:0:
320,192,311613,1,0,0:0:0:0:
64,192,311699,1,0,0:0:0:0:
192,192,311785,1,0,0:0:0:0:
448,192,311785,1,0,0:0:0:0:
320,192,311956,1,0,0:0:0:0:
192,192,312042,1,0,0:0:0:0:
448,192,312042,1,0,0:0:0:0:
64,192,312128,1,0,0:0:0:0:
448,192,312213,1,0,0:0:0:0:
320,192,312213,1,0,0:0:0:0:
192,192,312299,1,0,0:0:0:0:
64,192,312385,1,0,0:0:0:0:
448,192,312385,1,0,0:0:0:0:
320,192,312470,1,0,0:0:0:0:
192,192,312556,1,0,0:0:0:0:
64,192,312556,1,0,0:0:0:0:
448,192,312642,1,0,0:0:0:0:
320,192,312642,1,0,0:0:0:0:
192,192,312728,1,0,0:0:0:0:
64,192,312728,1,0,0:0:0:0:
320,192,312813,1,0,0:0:0:0:
448,192,312813,1,0,0:0:0:0:
64,192,312813,1,0,0:0:0:0:
192,192,312985,1,0,0:0:0:0:
320,192,312985,1,0,0:0:0:0:
64,192,313156,1,0,0:0:0:0:
320,192,313156,1,0,0:0:0:0:
192,192,313328,1,0,0:0:0:0:
448,192,313328,1,0,0:0:0:0:
64,192,313499,1,0,0:0:0:0:
448,192,313499,1,0,0:0:0:0:
192,192,313670,1,0,0:0:0:0:
320,192,313670,1,0,0:0:0:0:
448,192,313670,1,0,0:0:0:0:
64,192,313842,1,0,0:0:0:0:
320,192,313842,1,0,0:0:0:0:
192,192,314013,1,0,0:0:0:0:
320,192,314013,1,0,0:0:0:0:
192,192,314185,1,0,0:0:0:0:
448,192,314185,1,0,0:0:0:0:
64,192,314356,1,0,0:0:0:0:
320,192,314356,1,0,0:0:0:0:
192,192,314528,1,0,0:0:0:0:
448,192,314528,1,0,0:0:0:0:
320,192,314699,1,0,0:0:0:0:
448,192,314699,1,0,0:0:0:0:
64,192,314870,1,0,0:0:0:0:
320,192,314870,1,0,0:0:0:0:
192,192,315042,1,0,0:0:0:0:
64,192,315042,1,0,0:0:0:0:
320,192,315213,1,0,0:0:0:0:
192,192,315213,1,0,0:0:0:0:
448,192,315385,1,0,0:0:0:0:
192,192,315385,1,0,0:0:0:0:
448,192,315556,1,0,0:0:0:0:
320,192,315642,1,0,0:0:0:0:
64,192,315728,1,0,0:0:0:0:
192,192,315813,1,0,0:0:0:0:
448,192,315899,1,0,0:0:0:0:
320,192,315985,1,0,0:0:0:0:
64,192,316070,1,0,0:0:0:0:
192,192,316156,1,0,0:0:0:0:
320,192,316156,1,0,0:0:0:0:
448,192,316242,1,0,0:0:0:0:
64,192,316328,1,0,0:0:0:0:
192,192,316328,1,0,0:0:0:0:
320,192,316413,1,0,0:0:0:0:
448,192,316413,1,0,0:0:0:0:
192,192,316499,1,0,0:0:0:0:
64,192,316499,1,0,0:0:0:0:
320,192,316585,1,0,0:0:0:0:
448,192,316585,1,0,0:0:0:0:
192,192,316670,1,0,0:0:0:0:
64,192,316670,1,0,0:0:0:0:
320,192,316756,1,0,0:0:0:0:
448,192,316842,1,0,0:0:0:0:
192,192,316842,1,0,0:0:0:0:
64,192,316928,1,0,0:0:0:0:
192,192,316970,1,0,0:0:0:0:
320,192,317013,1,0,0:0:0:0:
448,192,317056,1,0,0:0:0:0:
64,192,317099,1,0,0:0:0:0:
192,192,317142,1,0,0:0:0:0:
320,192,317185,1,0,0:0:0:0:
448,192,317228,1,0,0:0:0:0:
64,192,317270,1,0,0:0:0:0:
192,192,317313,1,0,0:0:0:0:
320,192,317356,1,0,0:0:0:0:
448,192,317399,1,0,0:0:0:0:
64,192,317442,1,0,0:0:0:0:
192,192,317485,1,0,0:0:0:0:
320,192,317528,1,0,0:0:0:0:
448,192,317570,1,0,0:0:0:0:
192,192,317613,1,0,0:0:0:0:
64,192,317656,1,0,0:0:0:0:
320,192,317699,1,0,0:0:0:0:
448,192,317742,1,0,0:0:0:0:
192,192,317785,1,0,0:0:0:0:
64,192,317828,1,0,0:0:0:0:
448,192,317870,1,0,0:0:0:0:
320,192,317913,1,0,0:0:0:0:
192,192,317956,1,0,0:0:0:0:
64,192,317999,1,0,0:0:0:0:
448,192,318042,1,0,0:0:0:0:
320,192,318085,1,0,0:0:0:0:
64,192,318128,1,0,0:0:0:0:
192,192,318170,1,0,0:0:0:0:
320,192,318213,1,0,0:0:0:0:
448,192,318256,1,0,0:0:0:0:
64,192,318299,1,4,0:0:0:0:
192,192,318299,1,4,0:0:0:0:
