osu file format v14

[General]
AudioFilename: audio.mp3
AudioLeadIn: 0
PreviewTime: 86304
Countdown: 0
SampleSet: None
StackLeniency: 0.7
Mode: 1
LetterboxInBreaks: 0
WidescreenStoryboard: 1

[Editor]
DistanceSpacing: 0.8
BeatDivisor: 4
GridSize: 32
TimelineZoom: 1.9

[Metadata]
Title:Awakening
TitleUnicode:Awakening
Artist:typeMARS
ArtistUnicode:typeMARS
Creator:[TCD] Azure
Version:Hard Lv. 14
Source:PUMP IT UP ~ 2018 PRIME 2 ~
Tags:pump it up prime 2 piu andamiro hardstyle electronic instrumental typemars indonesian
BeatmapID:5291048
BeatmapSetID:2429727

[Difficulty]
HPDrainRate:6
CircleSize:2
OverallDifficulty:5
ApproachRate:9
SliderMultiplier:1.4
SliderTickRate:1

[Events]
//Background and Video events
0,0,"1541-wide.png",0,0
//Break Periods
2,54604,60204
//Storyboard Layer 0 (Background)
//Storyboard Layer 1 (Fail)
//Storyboard Layer 2 (Pass)
//Storyboard Layer 3 (Foreground)
//Storyboard Layer 4 (Overlay)
//Storyboard Sound Samples

[TimingPoints]
1604,400,4,1,0,80,1,0
16004,-100,4,1,0,80,0,1
28804,-100,4,1,0,80,0,0
86404,-100,4,1,0,80,0,1
112004,-100,4,1,0,80,0,0

[HitObjects]
256,192,1604,12,0,2804,0:0:0:0:
256,192,3204,5,0,0:0:0:0:
256,192,3804,1,8,0:0:0:0:
256,192,4004,1,8,0:0:0:0:
256,192,4604,1,8,0:0:0:0:
256,192,4804,1,8,0:0:0:0:
256,192,5004,1,0,0:0:0:0:
256,192,5404,1,8,0:0:0:0:
256,192,5804,1,8,0:0:0:0:
256,192,6204,1,0,0:0:0:0:
256,192,6404,1,8,0:0:0:0:
256,192,7004,1,8,0:0:0:0:
256,192,7204,1,8,0:0:0:0:
256,192,7804,1,8,0:0:0:0:
256,192,8004,1,0,0:0:0:0:
256,192,8204,1,8,0:0:0:0:
256,192,8604,1,8,0:0:0:0:
256,192,9004,1,8,0:0:0:0:
256,192,9404,1,0,0:0:0:0:
256,192,9604,1,8,0:0:0:0:
256,192,10004,1,8,0:0:0:0:
256,192,10404,1,0,0:0:0:0:
256,192,10804,1,8,0:0:0:0:
256,192,11004,1,8,0:0:0:0:
256,192,11204,1,0,0:0:0:0:
256,192,11604,1,8,0:0:0:0:
256,192,12004,1,0,0:0:0:0:
256,192,12404,1,8,0:0:0:0:
256,192,12604,1,0,0:0:0:0:
256,192,12804,1,8,0:0:0:0:
256,192,13204,1,8,0:0:0:0:
256,192,13404,1,8,0:0:0:0:
256,192,13604,1,0,0:0:0:0:
256,192,13804,1,0,0:0:0:0:
256,192,14004,1,8,0:0:0:0:
256,192,14404,12,0,15604,0:0:0:0:
256,192,16004,5,12,0:0:0:0:
256,192,16604,1,8,0:0:0:0:
256,192,16804,1,8,0:0:0:0:
256,192,17404,1,8,0:0:0:0:
256,192,17604,1,0,0:0:0:0:
256,192,18004,1,8,0:0:0:0:
256,192,18204,1,8,0:0:0:0:
256,192,18404,1,0,0:0:0:0:
256,192,18504,1,0,0:0:0:0:
256,192,18604,1,0,0:0:0:0:
256,192,18804,1,8,0:0:0:0:
256,192,19204,1,8,0:0:0:0:
256,192,19804,1,8,0:0:0:0:
256,192,20004,1,8,0:0:0:0:
256,192,20604,1,8,0:0:0:0:
256,192,20804,1,0,0:0:0:0:
256,192,20904,1,0,0:0:0:0:
256,192,21004,1,0,0:0:0:0:
256,192,21204,1,8,0:0:0:0:
256,192,21604,1,8,0:0:0:0:
256,192,22004,1,0,0:0:0:0:
256,192,22404,1,8,0:0:0:0:
256,192,23004,1,8,0:0:0:0:
256,192,23204,1,8,0:0:0:0:
256,192,23804,1,8,0:0:0:0:
256,192,24004,1,0,0:0:0:0:
256,192,24104,1,0,0:0:0:0:
256,192,24204,1,0,0:0:0:0:
256,192,24404,1,8,0:0:0:0:
256,192,24804,1,8,0:0:0:0:
256,192,25004,1,8,0:0:0:0:
256,192,25204,1,0,0:0:0:0:
256,192,25604,1,8,0:0:0:0:
256,192,26204,1,8,0:0:0:0:
256,192,26404,1,8,0:0:0:0:
256,192,26804,1,0,0:0:0:0:
256,192,27004,1,8,0:0:0:0:
256,192,27204,1,0,0:0:0:0:
256,192,28404,1,0,0:0:0:0:
256,192,28504,1,0,0:0:0:0:
256,192,28604,1,0,0:0:0:0:
256,192,28804,1,12,0:0:0:0:
256,192,29204,1,0,0:0:0:0:
256,192,29604,1,0,0:0:0:0:
256,192,30004,1,8,0:0:0:0:
256,192,30404,1,0,0:0:0:0:
256,192,30804,1,0,0:0:0:0:
256,192,31204,1,0,0:0:0:0:
256,192,31404,1,8,0:0:0:0:
256,192,31604,1,8,0:0:0:0:
256,192,32004,1,0,0:0:0:0:
256,192,32804,1,0,0:0:0:0:
256,192,33204,1,8,0:0:0:0:
256,192,33604,1,0,0:0:0:0:
256,192,34004,1,8,0:0:0:0:
256,192,34204,1,8,0:0:0:0:
256,192,34404,1,0,0:0:0:0:
256,192,34804,1,8,0:0:0:0:
256,192,35204,1,0,0:0:0:0:
256,192,36004,1,8,0:0:0:0:
256,192,36404,1,0,0:0:0:0:
256,192,36804,1,8,0:0:0:0:
256,192,37004,1,8,0:0:0:0:
256,192,37204,1,0,0:0:0:0:
256,192,37604,1,8,0:0:0:0:
256,192,38004,1,0,0:0:0:0:
256,192,38404,1,8,0:0:0:0:
256,192,38804,1,0,0:0:0:0:
256,192,39004,1,0,0:0:0:0:
256,192,39204,1,8,0:0:0:0:
256,192,39604,1,0,0:0:0:0:
256,192,40004,1,8,0:0:0:0:
256,192,40604,1,8,0:0:0:0:
256,192,40704,1,8,0:0:0:0:
256,192,40804,1,8,0:0:0:0:
256,192,41104,1,0,0:0:0:0:
256,192,41404,1,0,0:0:0:0:
256,192,41604,1,8,0:0:0:0:
256,192,42404,1,0,0:0:0:0:
256,192,42804,1,0,0:0:0:0:
256,192,43204,1,8,0:0:0:0:
256,192,43604,1,0,0:0:0:0:
256,192,43804,1,0,0:0:0:0:
256,192,44004,1,8,0:0:0:0:
256,192,44404,1,0,0:0:0:0:
256,192,44804,1,8,0:0:0:0:
256,192,45604,1,0,0:0:0:0:
256,192,45804,1,0,0:0:0:0:
256,192,46004,1,8,0:0:0:0:
256,192,46404,1,0,0:0:0:0:
256,192,46804,1,8,0:0:0:0:
256,192,47004,1,8,0:0:0:0:
256,192,47204,1,0,0:0:0:0:
256,192,47404,1,8,0:0:0:0:
256,192,47604,1,8,0:0:0:0:
256,192,48004,1,0,0:0:0:0:
256,192,48404,1,8,0:0:0:0:
256,192,48804,1,0,0:0:0:0:
256,192,49204,1,8,0:0:0:0:
256,192,49604,1,0,0:0:0:0:
256,192,49804,1,0,0:0:0:0:
256,192,50004,1,0,0:0:0:0:
256,192,50404,1,8,0:0:0:0:
256,192,50804,1,0,0:0:0:0:
256,192,51204,1,8,0:0:0:0:
256,192,51304,1,8,0:0:0:0:
256,192,51404,1,8,0:0:0:0:
256,192,51604,1,0,0:0:0:0:
256,192,51804,1,0,0:0:0:0:
256,192,52004,1,8,0:0:0:0:
256,192,52404,1,0,0:0:0:0:
256,192,52804,1,8,0:0:0:0:
256,192,53004,1,8,0:0:0:0:
256,192,53104,1,8,0:0:0:0:
256,192,53204,1,8,0:0:0:0:
256,192,53604,1,8,0:0:0:0:
256,192,54404,1,4,0:0:0:0:
256,192,60804,5,0,0:0:0:0:
256,192,61204,1,0,0:0:0:0:
256,192,61604,1,8,0:0:0:0:
256,192,62004,1,8,0:0:0:0:
256,192,62404,1,0,0:0:0:0:
256,192,62804,1,0,0:0:0:0:
256,192,63204,1,8,0:0:0:0:
256,192,63604,1,0,0:0:0:0:
256,192,64004,1,8,0:0:0:0:
256,192,64404,1,8,0:0:0:0:
256,192,64804,1,0,0:0:0:0:
256,192,65204,1,8,0:0:0:0:
256,192,65604,1,0,0:0:0:0:
256,192,66004,1,0,0:0:0:0:
256,192,66404,1,8,0:0:0:0:
256,192,67204,1,0,0:0:0:0:
256,192,67604,1,8,0:0:0:0:
256,192,68004,1,0,0:0:0:0:
256,192,68404,1,8,0:0:0:0:
256,192,68804,1,0,0:0:0:0:
256,192,69204,1,0,0:0:0:0:
256,192,69604,1,8,0:0:0:0:
256,192,70004,1,8,0:0:0:0:
256,192,70404,1,0,0:0:0:0:
256,192,70804,1,8,0:0:0:0:
256,192,71204,1,0,0:0:0:0:
256,192,71604,1,8,0:0:0:0:
256,192,72004,1,0,0:0:0:0:
256,192,72404,1,0,0:0:0:0:
256,192,72804,1,8,0:0:0:0:
256,192,73604,1,0,0:0:0:0:
256,192,74004,1,0,0:0:0:0:
256,192,74404,1,8,0:0:0:0:
256,192,74804,1,8,0:0:0:0:
256,192,75204,1,0,0:0:0:0:
256,192,75604,1,0,0:0:0:0:
256,192,76004,1,8,0:0:0:0:
256,192,76404,1,0,0:0:0:0:
256,192,76804,1,8,0:0:0:0:
256,192,77204,1,8,0:0:0:0:
256,192,77604,1,8,0:0:0:0:
256,192,78004,1,0,0:0:0:0:
256,192,78404,1,8,0:0:0:0:
256,192,78804,1,8,0:0:0:0:
256,192,79204,1,8,0:0:0:0:
256,192,79604,1,8,0:0:0:0:
256,192,80004,1,0,0:0:0:0:
256,192,80804,1,0,0:0:0:0:
256,192,81604,1,0,0:0:0:0:
256,192,82404,1,0,0:0:0:0:
256,192,82804,1,0,0:0:0:0:
256,192,83204,1,0,0:0:0:0:
256,192,84004,1,0,0:0:0:0:
256,192,84404,1,0,0:0:0:0:
256,192,84804,1,8,0:0:0:0:
256,192,85204,1,8,0:0:0:0:
256,192,85404,1,8,0:0:0:0:
256,192,85604,1,0,0:0:0:0:
256,192,85704,1,0,0:0:0:0:
256,192,85804,1,0,0:0:0:0:
256,192,86004,1,12,0:0:0:0:
256,192,86404,1,4,0:0:0:0:
256,192,86804,1,0,0:0:0:0:
256,192,87004,1,8,0:0:0:0:
256,192,87204,1,0,0:0:0:0:
256,192,87504,1,8,0:0:0:0:
256,192,87804,1,0,0:0:0:0:
256,192,88004,1,0,0:0:0:0:
256,192,88404,1,8,0:0:0:0:
256,192,88604,1,0,0:0:0:0:
256,192,88804,1,8,0:0:0:0:
256,192,89104,1,0,0:0:0:0:
256,192,89404,1,8,0:0:0:0:
256,192,89604,1,8,0:0:0:0:
256,192,90004,1,0,0:0:0:0:
256,192,90204,1,0,0:0:0:0:
256,192,90404,1,8,0:0:0:0:
256,192,90704,1,8,0:0:0:0:
256,192,91004,1,0,0:0:0:0:
256,192,91204,1,0,0:0:0:0:
256,192,91604,1,8,0:0:0:0:
256,192,91804,1,0,0:0:0:0:
256,192,92004,1,8,0:0:0:0:
256,192,92104,1,8,0:0:0:0:
256,192,92304,1,0,0:0:0:0:
256,192,92804,1,0,0:0:0:0:
256,192,93204,1,0,0:0:0:0:
256,192,93404,1,0,0:0:0:0:
256,192,93604,1,8,0:0:0:0:
256,192,93904,1,8,0:0:0:0:
256,192,94204,1,0,0:0:0:0:
256,192,94404,1,8,0:0:0:0:
256,192,94804,1,0,0:0:0:0:
256,192,95004,1,8,0:0:0:0:
256,192,95204,1,0,0:0:0:0:
256,192,95504,1,8,0:0:0:0:
256,192,95804,1,0,0:0:0:0:
256,192,96004,1,8,0:0:0:0:
256,192,96404,1,8,0:0:0:0:
256,192,96604,1,0,0:0:0:0:
256,192,96804,1,8,0:0:0:0:
256,192,97104,1,0,0:0:0:0:
256,192,97404,1,0,0:0:0:0:
256,192,97604,1,8,0:0:0:0:
256,192,98004,1,8,0:0:0:0:
256,192,98204,1,0,0:0:0:0:
256,192,98404,1,8,0:0:0:0:
256,192,98704,1,0,0:0:0:0:
256,192,99004,1,8,0:0:0:0:
256,192,99104,1,8,0:0:0:0:
256,192,99204,1,8,0:0:0:0:
256,192,99604,1,0,0:0:0:0:
256,192,99804,1,0,0:0:0:0:
256,192,100004,1,8,0:0:0:0:
256,192,100104,1,8,0:0:0:0:
256,192,100304,1,8,0:0:0:0:
256,192,100604,1,0,0:0:0:0:
256,192,100804,1,8,0:0:0:0:
256,192,101204,1,0,0:0:0:0:
256,192,101404,1,0,0:0:0:0:
256,192,101604,1,8,0:0:0:0:
256,192,101704,1,8,0:0:0:0:
256,192,101904,1,8,0:0:0:0:
256,192,102204,1,8,0:0:0:0:
256,192,102404,1,0,0:0:0:0:
256,192,102804,1,8,0:0:0:0:
256,192,103004,1,0,0:0:0:0:
256,192,103204,1,8,0:0:0:0:
256,192,103304,1,8,0:0:0:0:
256,192,103504,1,8,0:0:0:0:
256,192,103804,1,0,0:0:0:0:
256,192,104004,1,8,0:0:0:0:
256,192,104404,1,8,0:0:0:0:
256,192,104604,1,8,0:0:0:0:
256,192,104804,1,0,0:0:0:0:
256,192,104904,1,0,0:0:0:0:
256,192,105104,1,8,0:0:0:0:
256,192,105604,1,0,0:0:0:0:
256,192,106004,1,8,0:0:0:0:
256,192,106204,1,8,0:0:0:0:
256,192,106404,1,0,0:0:0:0:
256,192,106604,1,0,0:0:0:0:
256,192,106804,1,8,0:0:0:0:
256,192,107204,1,0,0:0:0:0:
256,192,107604,1,8,0:0:0:0:
256,192,107804,1,8,0:0:0:0:
256,192,108004,1,0,0:0:0:0:
256,192,108204,1,8,0:0:0:0:
256,192,108404,1,0,0:0:0:0:
256,192,108804,1,8,0:0:0:0:
256,192,109204,1,0,0:0:0:0:
256,192,109404,1,0,0:0:0:0:
256,192,109604,1,8,0:0:0:0:
256,192,109704,1,8,0:0:0:0:
256,192,109804,1,8,0:0:0:0:
256,192,110004,1,0,0:0:0:0:
256,192,110404,1,8,0:0:0:0:
256,192,110804,1,8,0:0:0:0:
256,192,111004,1,8,0:0:0:0:
256,192,111204,1,0,0:0:0:0:
256,192,111304,1,0,0:0:0:0:
256,192,111404,1,0,0:0:0:0:
256,192,111604,1,8,0:0:0:0:
256,192,112004,1,4,0:0:0:0:
256,192,112404,12,0,115204,0:0:0:0:
