osu file format v14

[General]
AudioFilename: audio.mp3
AudioLeadIn: 0
PreviewTime: 86304
Countdown: 0
SampleSet: None
StackLeniency: 0.7
Mode: 1
LetterboxInBreaks: 0
WidescreenStoryboard: 0

[Editor]
DistanceSpacing: 0.8
BeatDivisor: 4
GridSize: 32
TimelineZoom: 1.9

[Metadata]
Title:Awakening
TitleUnicode:Awakening
Artist:typeMARS
ArtistUnicode:typeMARS
Creator:[TCD] Azure
Version:Extreme Lv. 19
Source:PUMP IT UP ~ 2018 PRIME 2 ~
Tags:pump it up prime 2 piu andamiro hardstyle electronic instrumental typemars indonesian
BeatmapID:5291047
BeatmapSetID:2429727

[Difficulty]
HPDrainRate:6
CircleSize:2
OverallDifficulty:6
ApproachRate:9
SliderMultiplier:1.4
SliderTickRate:1

[Events]
//Background and Video events
0,0,"1541-wide.png",0,0
//Break Periods
2,54604,60204
//Storyboard Layer 0 (Background)
//Storyboard Layer 1 (Fail)
//Storyboard Layer 2 (Pass)
//Storyboard Layer 3 (Foreground)
//Storyboard Layer 4 (Overlay)
//Storyboard Sound Samples

[TimingPoints]
1604,400,4,1,0,80,1,0
16004,-100,4,1,0,80,0,1
28804,-100,4,1,0,80,0,0
86404,-100,4,1,0,80,0,1
112004,-100,4,1,0,80,0,0

[HitObjects]
256,192,1604,12,0,2604,0:0:0:0:
256,192,2804,5,12,0:0:0:0:
256,192,3204,1,4,0:0:0:0:
256,192,3804,1,0,0:0:0:0:
256,192,4004,1,0,0:0:0:0:
256,192,4604,1,8,0:0:0:0:
256,192,4804,1,0,0:0:0:0:
256,192,4904,1,0,0:0:0:0:
256,192,5004,1,8,0:0:0:0:
256,192,5204,1,0,0:0:0:0:
256,192,5304,1,0,0:0:0:0:
256,192,5404,1,0,0:0:0:0:
256,192,5604,1,8,0:0:0:0:
256,192,5704,1,8,0:0:0:0:
256,192,5804,1,0,0:0:0:0:
256,192,6004,1,8,0:0:0:0:
256,192,6104,1,0,0:0:0:0:
256,192,6204,1,8,0:0:0:0:
256,192,6404,1,0,0:0:0:0:
256,192,7004,1,8,0:0:0:0:
256,192,7204,1,8,0:0:0:0:
256,192,7804,1,8,0:0:0:0:
256,192,8004,1,0,0:0:0:0:
256,192,8104,1,0,0:0:0:0:
256,192,8204,1,0,0:0:0:0:
256,192,8404,1,8,0:0:0:0:
256,192,8504,1,8,0:0:0:0:
256,192,8604,1,0,0:0:0:0:
256,192,8804,1,8,0:0:0:0:
256,192,8904,1,8,0:0:0:0:
256,192,9004,1,8,0:0:0:0:
256,192,9204,1,0,0:0:0:0:
256,192,9304,1,0,0:0:0:0:
256,192,9404,1,8,0:0:0:0:
256,192,9604,1,0,0:0:0:0:
256,192,9804,1,0,0:0:0:0:
256,192,10004,1,8,0:0:0:0:
256,192,10204,1,8,0:0:0:0:
256,192,10404,1,0,0:0:0:0:
256,192,10604,1,0,0:0:0:0:
256,192,10804,1,8,0:0:0:0:
256,192,11004,1,8,0:0:0:0:
256,192,11204,1,0,0:0:0:0:
256,192,11404,1,8,0:0:0:0:
256,192,11604,1,0,0:0:0:0:
256,192,11804,1,8,0:0:0:0:
256,192,12004,1,0,0:0:0:0:
256,192,12204,1,8,0:0:0:0:
256,192,12404,1,8,0:0:0:0:
256,192,12604,1,8,0:0:0:0:
256,192,12804,1,0,0:0:0:0:
256,192,12904,1,0,0:0:0:0:
256,192,13004,1,8,0:0:0:0:
256,192,13104,1,8,0:0:0:0:
256,192,13204,1,0,0:0:0:0:
256,192,13304,1,0,0:0:0:0:
256,192,13404,1,8,0:0:0:0:
256,192,13504,1,8,0:0:0:0:
256,192,13604,1,0,0:0:0:0:
256,192,13704,1,0,0:0:0:0:
256,192,13804,1,8,0:0:0:0:
256,192,13904,1,0,0:0:0:0:
256,192,14004,1,8,0:0:0:0:
256,192,14104,1,8,0:0:0:0:
256,192,14204,1,0,0:0:0:0:
256,192,14304,1,8,0:0:0:0:
256,192,14404,1,0,0:0:0:0:
256,192,14604,12,0,15404,0:0:0:0:
256,192,15604,5,12,0:0:0:0:
256,192,16004,1,4,0:0:0:0:
256,192,16404,1,0,0:0:0:0:
256,192,16604,1,8,0:0:0:0:
256,192,16804,1,8,0:0:0:0:
256,192,17204,1,0,0:0:0:0:
256,192,17404,1,8,0:0:0:0:
256,192,17604,1,0,0:0:0:0:
256,192,17704,1,0,0:0:0:0:
256,192,17804,1,8,0:0:0:0:
256,192,18004,1,0,0:0:0:0:
256,192,18104,1,8,0:0:0:0:
256,192,18204,1,0,0:0:0:0:
256,192,18404,1,8,0:0:0:0:
256,192,18504,1,8,0:0:0:0:
256,192,18604,1,0,0:0:0:0:
256,192,18804,1,8,0:0:0:0:
256,192,18904,1,8,0:0:0:0:
256,192,19004,1,8,0:0:0:0:
256,192,19204,1,0,0:0:0:0:
256,192,19604,1,0,0:0:0:0:
256,192,19804,1,8,0:0:0:0:
256,192,20004,1,8,0:0:0:0:
256,192,20404,1,0,0:0:0:0:
256,192,20604,1,8,0:0:0:0:
256,192,20804,1,0,0:0:0:0:
256,192,20904,1,0,0:0:0:0:
256,192,21004,1,8,0:0:0:0:
256,192,21204,1,0,0:0:0:0:
256,192,21304,1,0,0:0:0:0:
256,192,21404,1,0,0:0:0:0:
256,192,21604,1,8,0:0:0:0:
256,192,21704,1,0,0:0:0:0:
256,192,21804,1,8,0:0:0:0:
256,192,22004,1,0,0:0:0:0:
256,192,22104,1,0,0:0:0:0:
256,192,22204,1,8,0:0:0:0:
256,192,22404,1,0,0:0:0:0:
256,192,22804,1,8,0:0:0:0:
256,192,23004,1,0,0:0:0:0:
256,192,23204,1,8,0:0:0:0:
256,192,23604,1,0,0:0:0:0:
256,192,23804,1,8,0:0:0:0:
256,192,24004,1,0,0:0:0:0:
256,192,24104,1,8,0:0:0:0:
256,192,24204,1,0,0:0:0:0:
256,192,24404,1,8,0:0:0:0:
256,192,24504,1,8,0:0:0:0:
256,192,24604,1,8,0:0:0:0:
256,192,24804,1,0,0:0:0:0:
256,192,24904,1,0,0:0:0:0:
256,192,25004,1,8,0:0:0:0:
256,192,25204,1,0,0:0:0:0:
256,192,25304,1,0,0:0:0:0:
256,192,25404,1,0,0:0:0:0:
256,192,25604,1,8,0:0:0:0:
256,192,26004,1,0,0:0:0:0:
256,192,26204,1,8,0:0:0:0:
256,192,26404,1,8,0:0:0:0:
256,192,26804,1,0,0:0:0:0:
256,192,27004,1,8,0:0:0:0:
256,192,27204,1,0,0:0:0:0:
256,192,27304,1,0,0:0:0:0:
256,192,27404,1,8,0:0:0:0:
256,192,27604,1,0,0:0:0:0:
256,192,27704,1,0,0:0:0:0:
256,192,27804,1,0,0:0:0:0:
256,192,28004,1,8,0:0:0:0:
256,192,28104,1,0,0:0:0:0:
256,192,28204,1,8,0:0:0:0:
256,192,28404,1,8,0:0:0:0:
256,192,28504,1,8,0:0:0:0:
256,192,28604,1,8,0:0:0:0:
256,192,28704,1,8,0:0:0:0:
256,192,28804,1,4,0:0:0:0:
256,192,29204,1,0,0:0:0:0:
256,192,29304,1,0,0:0:0:0:
256,192,29404,1,8,0:0:0:0:
256,192,29604,1,0,0:0:0:0:
256,192,29704,1,0,0:0:0:0:
256,192,29804,1,0,0:0:0:0:
256,192,30004,1,8,0:0:0:0:
256,192,30104,1,8,0:0:0:0:
256,192,30204,1,0,0:0:0:0:
256,192,30404,1,8,0:0:0:0:
256,192,30604,1,0,0:0:0:0:
256,192,30804,1,8,0:0:0:0:
256,192,30904,1,8,0:0:0:0:
256,192,31004,1,8,0:0:0:0:
256,192,31204,1,0,0:0:0:0:
256,192,31304,1,0,0:0:0:0:
256,192,31404,1,0,0:0:0:0:
256,192,31604,1,8,0:0:0:0:
256,192,31804,1,0,0:0:0:0:
256,192,32004,1,8,0:0:0:0:
256,192,32104,1,8,0:0:0:0:
256,192,32204,1,8,0:0:0:0:
256,192,32404,1,0,0:0:0:0:
256,192,32504,1,0,0:0:0:0:
256,192,32604,1,8,0:0:0:0:
256,192,32804,1,0,0:0:0:0:
256,192,32904,1,8,0:0:0:0:
256,192,33004,1,0,0:0:0:0:
256,192,33204,1,8,0:0:0:0:
256,192,33404,1,0,0:0:0:0:
256,192,33604,1,8,0:0:0:0:
256,192,33704,1,8,0:0:0:0:
256,192,33804,1,8,0:0:0:0:
256,192,34004,1,0,0:0:0:0:
256,192,34104,1,0,0:0:0:0:
256,192,34204,1,8,0:0:0:0:
256,192,34304,1,8,0:0:0:0:
256,192,34404,1,0,0:0:0:0:
256,192,34604,1,8,0:0:0:0:
256,192,34704,1,8,0:0:0:0:
256,192,34804,1,0,0:0:0:0:
256,192,35004,1,8,0:0:0:0:
256,192,35204,1,0,0:0:0:0:
256,192,35404,1,8,0:0:0:0:
256,192,35604,1,0,0:0:0:0:
256,192,35704,1,0,0:0:0:0:
256,192,35804,1,0,0:0:0:0:
256,192,36004,1,8,0:0:0:0:
256,192,36104,1,0,0:0:0:0:
256,192,36204,1,8,0:0:0:0:
256,192,36404,1,0,0:0:0:0:
256,192,36604,1,0,0:0:0:0:
256,192,36804,1,8,0:0:0:0:
256,192,36904,1,8,0:0:0:0:
256,192,37004,1,8,0:0:0:0:
256,192,37204,1,0,0:0:0:0:
256,192,37304,1,0,0:0:0:0:
256,192,37404,1,8,0:0:0:0:
256,192,37604,1,0,0:0:0:0:
256,192,37704,1,0,0:0:0:0:
256,192,37804,1,0,0:0:0:0:
256,192,38004,1,8,0:0:0:0:
256,192,38104,1,8,0:0:0:0:
256,192,38204,1,0,0:0:0:0:
256,192,38404,1,8,0:0:0:0:
256,192,38604,1,8,0:0:0:0:
256,192,38804,1,0,0:0:0:0:
256,192,38904,1,0,0:0:0:0:
256,192,39004,1,8,0:0:0:0:
256,192,39204,1,0,0:0:0:0:
256,192,39304,1,0,0:0:0:0:
256,192,39404,1,0,0:0:0:0:
256,192,39604,1,8,0:0:0:0:
256,192,39804,1,0,0:0:0:0:
256,192,40004,1,8,0:0:0:0:
256,192,40104,1,8,0:0:0:0:
256,192,40204,1,0,0:0:0:0:
256,192,40304,1,0,0:0:0:0:
256,192,40404,1,8,0:0:0:0:
256,192,40604,1,0,0:0:0:0:
256,192,40704,1,0,0:0:0:0:
256,192,40804,1,0,0:0:0:0:
256,192,41004,1,8,0:0:0:0:
256,192,41104,1,0,0:0:0:0:
256,192,41304,1,0,0:0:0:0:
256,192,41404,1,8,0:0:0:0:
256,192,41604,1,0,0:0:0:0:
256,192,42004,1,0,0:0:0:0:
256,192,42104,1,0,0:0:0:0:
256,192,42204,1,8,0:0:0:0:
256,192,42404,1,0,0:0:0:0:
256,192,42504,1,8,0:0:0:0:
256,192,42604,1,0,0:0:0:0:
256,192,42804,1,8,0:0:0:0:
256,192,43004,1,0,0:0:0:0:
256,192,43204,1,8,0:0:0:0:
256,192,43304,1,8,0:0:0:0:
256,192,43404,1,0,0:0:0:0:
256,192,43604,1,8,0:0:0:0:
256,192,43704,1,8,0:0:0:0:
256,192,43804,1,8,0:0:0:0:
256,192,44004,1,0,0:0:0:0:
256,192,44104,1,0,0:0:0:0:
256,192,44204,1,8,0:0:0:0:
256,192,44404,1,0,0:0:0:0:
256,192,44604,1,8,0:0:0:0:
256,192,44804,1,0,0:0:0:0:
256,192,44904,1,0,0:0:0:0:
256,192,45004,1,0,0:0:0:0:
256,192,45204,1,8,0:0:0:0:
256,192,45304,1,0,0:0:0:0:
256,192,45404,1,8,0:0:0:0:
256,192,45604,1,0,0:0:0:0:
256,192,45704,1,8,0:0:0:0:
256,192,45804,1,8,0:0:0:0:
256,192,46004,1,0,0:0:0:0:
256,192,46204,1,8,0:0:0:0:
256,192,46404,1,0,0:0:0:0:
256,192,46504,1,0,0:0:0:0:
256,192,46604,1,0,0:0:0:0:
256,192,46804,1,8,0:0:0:0:
256,192,46904,1,8,0:0:0:0:
256,192,47004,1,8,0:0:0:0:
256,192,47204,1,0,0:0:0:0:
256,192,47304,1,0,0:0:0:0:
256,192,47404,1,8,0:0:0:0:
256,192,47604,1,0,0:0:0:0:
256,192,47704,1,0,0:0:0:0:
256,192,47804,1,8,0:0:0:0:
256,192,47904,1,8,0:0:0:0:
256,192,48004,1,0,0:0:0:0:
256,192,48204,1,8,0:0:0:0:
256,192,48404,1,0,0:0:0:0:
256,192,48604,1,8,0:0:0:0:
256,192,48804,1,0,0:0:0:0:
256,192,49004,1,8,0:0:0:0:
256,192,49204,1,0,0:0:0:0:
256,192,49404,1,8,0:0:0:0:
256,192,49604,1,0,0:0:0:0:
256,192,49804,1,0,0:0:0:0:
256,192,50004,1,8,0:0:0:0:
256,192,50204,1,8,0:0:0:0:
256,192,50404,1,0,0:0:0:0:
256,192,50604,1,0,0:0:0:0:
256,192,50804,1,8,0:0:0:0:
256,192,51004,1,8,0:0:0:0:
256,192,51204,1,0,0:0:0:0:
256,192,51404,1,8,0:0:0:0:
256,192,51604,1,8,0:0:0:0:
256,192,51804,1,8,0:0:0:0:
256,192,52004,1,0,0:0:0:0:
256,192,52204,1,8,0:0:0:0:
256,192,52404,1,8,0:0:0:0:
256,192,52504,1,0,0:0:0:0:
256,192,52604,1,8,0:0:0:0:
256,192,52704,1,8,0:0:0:0:
256,192,52804,1,0,0:0:0:0:
256,192,52904,1,0,0:0:0:0:
256,192,53004,1,8,0:0:0:0:
256,192,53104,1,8,0:0:0:0:
256,192,53204,1,0,0:0:0:0:
256,192,53304,1,8,0:0:0:0:
256,192,53404,1,0,0:0:0:0:
256,192,53504,1,0,0:0:0:0:
256,192,53604,1,8,0:0:0:0:
256,192,53704,1,8,0:0:0:0:
256,192,53804,1,0,0:0:0:0:
256,192,53904,1,8,0:0:0:0:
256,192,54004,1,0,0:0:0:0:
256,192,54104,1,0,0:0:0:0:
256,192,54204,1,8,0:0:0:0:
256,192,54304,1,8,0:0:0:0:
256,192,54404,1,4,0:0:0:0:
256,192,60804,5,0,0:0:0:0:
256,192,61004,1,0,0:0:0:0:
256,192,61104,1,8,0:0:0:0:
256,192,61304,1,0,0:0:0:0:
256,192,61404,1,8,0:0:0:0:
256,192,61604,1,0,0:0:0:0:
256,192,61804,1,8,0:0:0:0:
256,192,61904,1,8,0:0:0:0:
256,192,62104,1,0,0:0:0:0:
256,192,62204,1,8,0:0:0:0:
256,192,62404,1,0,0:0:0:0:
256,192,62604,1,8,0:0:0:0:
256,192,62704,1,0,0:0:0:0:
256,192,62904,1,0,0:0:0:0:
256,192,63004,1,8,0:0:0:0:
256,192,63204,1,0,0:0:0:0:
256,192,63404,1,8,0:0:0:0:
256,192,63504,1,0,0:0:0:0:
256,192,63704,1,0,0:0:0:0:
256,192,63804,1,8,0:0:0:0:
256,192,64004,1,0,0:0:0:0:
256,192,64204,1,8,0:0:0:0:
256,192,64304,1,8,0:0:0:0:
256,192,64504,1,0,0:0:0:0:
256,192,64604,1,8,0:0:0:0:
256,192,64804,1,0,0:0:0:0:
256,192,65004,1,0,0:0:0:0:
256,192,65104,1,8,0:0:0:0:
256,192,65304,1,8,0:0:0:0:
256,192,65404,1,0,0:0:0:0:
256,192,65604,1,8,0:0:0:0:
256,192,65804,1,8,0:0:0:0:
256,192,65904,1,0,0:0:0:0:
256,192,66104,1,8,0:0:0:0:
256,192,66204,1,0,0:0:0:0:
256,192,66404,1,8,0:0:0:0:
256,192,66604,1,0,0:0:0:0:
256,192,66704,1,0,0:0:0:0:
256,192,66804,1,8,0:0:0:0:
256,192,66904,1,8,0:0:0:0:
256,192,67004,1,8,0:0:0:0:
256,192,67104,1,8,0:0:0:0:
256,192,67204,1,0,0:0:0:0:
256,192,67404,1,0,0:0:0:0:
256,192,67504,1,0,0:0:0:0:
256,192,67704,1,0,0:0:0:0:
256,192,67804,1,8,0:0:0:0:
256,192,68004,1,0,0:0:0:0:
256,192,68204,1,8,0:0:0:0:
256,192,68304,1,0,0:0:0:0:
256,192,68504,1,0,0:0:0:0:
256,192,68604,1,8,0:0:0:0:
256,192,68804,1,0,0:0:0:0:
256,192,69004,1,8,0:0:0:0:
256,192,69104,1,8,0:0:0:0:
256,192,69304,1,0,0:0:0:0:
256,192,69404,1,8,0:0:0:0:
256,192,69604,1,0,0:0:0:0:
256,192,69804,1,0,0:0:0:0:
256,192,69904,1,8,0:0:0:0:
256,192,70104,1,8,0:0:0:0:
256,192,70204,1,0,0:0:0:0:
256,192,70404,1,8,0:0:0:0:
256,192,70604,1,0,0:0:0:0:
256,192,70704,1,8,0:0:0:0:
256,192,70904,1,8,0:0:0:0:
256,192,71004,1,0,0:0:0:0:
256,192,71204,1,8,0:0:0:0:
256,192,71404,1,0,0:0:0:0:
256,192,71504,1,8,0:0:0:0:
256,192,71704,1,0,0:0:0:0:
256,192,71804,1,0,0:0:0:0:
256,192,72004,1,8,0:0:0:0:
256,192,72204,1,0,0:0:0:0:
256,192,72304,1,8,0:0:0:0:
256,192,72504,1,0,0:0:0:0:
256,192,72604,1,8,0:0:0:0:
256,192,72804,1,0,0:0:0:0:
256,192,73004,1,8,0:0:0:0:
256,192,73104,1,8,0:0:0:0:
256,192,73304,1,8,0:0:0:0:
256,192,73404,1,0,0:0:0:0:
256,192,73604,1,8,0:0:0:0:
256,192,73804,1,0,0:0:0:0:
256,192,73904,1,0,0:0:0:0:
256,192,74104,1,0,0:0:0:0:
256,192,74204,1,8,0:0:0:0:
256,192,74404,1,0,0:0:0:0:
256,192,74604,1,8,0:0:0:0:
256,192,74704,1,0,0:0:0:0:
256,192,74904,1,0,0:0:0:0:
256,192,75004,1,8,0:0:0:0:
256,192,75204,1,0,0:0:0:0:
256,192,75404,1,0,0:0:0:0:
256,192,75504,1,8,0:0:0:0:
256,192,75704,1,0,0:0:0:0:
256,192,75804,1,8,0:0:0:0:
256,192,76004,1,0,0:0:0:0:
256,192,76204,1,8,0:0:0:0:
256,192,76304,1,0,0:0:0:0:
256,192,76504,1,0,0:0:0:0:
256,192,76604,1,8,0:0:0:0:
256,192,76804,1,0,0:0:0:0:
256,192,77004,1,0,0:0:0:0:
256,192,77104,1,8,0:0:0:0:
256,192,77304,1,0,0:0:0:0:
256,192,77404,1,8,0:0:0:0:
256,192,77604,1,0,0:0:0:0:
256,192,77804,1,8,0:0:0:0:
256,192,77904,1,0,0:0:0:0:
256,192,78104,1,0,0:0:0:0:
256,192,78204,1,8,0:0:0:0:
256,192,78404,1,0,0:0:0:0:
256,192,78604,1,8,0:0:0:0:
256,192,78704,1,0,0:0:0:0:
256,192,78904,1,8,0:0:0:0:
256,192,79004,1,8,0:0:0:0:
256,192,79204,1,0,0:0:0:0:
256,192,79404,1,8,0:0:0:0:
256,192,79504,1,8,0:0:0:0:
256,192,79604,1,0,0:0:0:0:
256,192,79704,1,0,0:0:0:0:
256,192,79804,1,8,0:0:0:0:
256,192,79904,1,8,0:0:0:0:
256,192,80004,1,0,0:0:0:0:
256,192,80404,1,0,0:0:0:0:
256,192,80604,1,0,0:0:0:0:
256,192,80804,1,0,0:0:0:0:
256,192,80904,1,0,0:0:0:0:
256,192,81104,1,0,0:0:0:0:
256,192,81204,1,0,0:0:0:0:
256,192,81404,1,0,0:0:0:0:
256,192,81504,1,0,0:0:0:0:
256,192,81604,1,0,0:0:0:0:
256,192,82004,1,0,0:0:0:0:
256,192,82204,1,0,0:0:0:0:
256,192,82404,1,0,0:0:0:0:
256,192,82504,1,0,0:0:0:0:
256,192,82704,1,0,0:0:0:0:
256,192,82804,1,0,0:0:0:0:
256,192,83004,1,0,0:0:0:0:
256,192,83104,1,0,0:0:0:0:
256,192,83204,1,0,0:0:0:0:
256,192,83604,1,0,0:0:0:0:
256,192,83804,1,0,0:0:0:0:
256,192,84004,1,0,0:0:0:0:
256,192,84104,1,0,0:0:0:0:
256,192,84304,1,0,0:0:0:0:
256,192,84404,1,0,0:0:0:0:
256,192,84604,1,8,0:0:0:0:
256,192,84704,1,8,0:0:0:0:
256,192,84804,1,8,0:0:0:0:
256,192,85204,1,8,0:0:0:0:
256,192,85404,1,8,0:0:0:0:
256,192,85604,1,8,0:0:0:0:
256,192,85704,1,8,0:0:0:0:
256,192,85804,1,8,0:0:0:0:
256,192,85904,1,8,0:0:0:0:
256,192,86004,1,4,0:0:0:0:
256,192,86404,1,12,0:0:0:0:
256,192,86804,1,0,0:0:0:0:
256,192,87004,1,8,0:0:0:0:
256,192,87204,1,0,0:0:0:0:
256,192,87304,1,0,0:0:0:0:
256,192,87504,1,0,0:0:0:0:
256,192,87604,1,8,0:0:0:0:
256,192,87804,1,0,0:0:0:0:
256,192,87904,1,0,0:0:0:0:
256,192,88004,1,8,0:0:0:0:
256,192,88404,1,8,0:0:0:0:
256,192,88604,1,0,0:0:0:0:
256,192,88804,1,8,0:0:0:0:
256,192,88904,1,8,0:0:0:0:
256,192,89104,1,0,0:0:0:0:
256,192,89204,1,8,0:0:0:0:
256,192,89404,1,0,0:0:0:0:
256,192,89504,1,0,0:0:0:0:
256,192,89604,1,8,0:0:0:0:
256,192,90004,1,8,0:0:0:0:
256,192,90204,1,8,0:0:0:0:
256,192,90404,1,0,0:0:0:0:
256,192,90504,1,8,0:0:0:0:
256,192,90704,1,0,0:0:0:0:
256,192,90804,1,0,0:0:0:0:
256,192,91004,1,8,0:0:0:0:
256,192,91104,1,8,0:0:0:0:
256,192,91204,1,0,0:0:0:0:
256,192,91604,1,8,0:0:0:0:
256,192,91804,1,0,0:0:0:0:
256,192,92004,1,8,0:0:0:0:
256,192,92104,1,8,0:0:0:0:
256,192,92304,1,0,0:0:0:0:
256,192,92404,1,0,0:0:0:0:
256,192,92604,1,8,0:0:0:0:
256,192,92704,1,8,0:0:0:0:
256,192,92804,1,0,0:0:0:0:
256,192,93204,1,8,0:0:0:0:
256,192,93404,1,0,0:0:0:0:
256,192,93604,1,8,0:0:0:0:
256,192,93704,1,0,0:0:0:0:
256,192,93904,1,0,0:0:0:0:
256,192,94004,1,8,0:0:0:0:
256,192,94204,1,0,0:0:0:0:
256,192,94304,1,0,0:0:0:0:
256,192,94404,1,0,0:0:0:0:
256,192,94804,1,8,0:0:0:0:
256,192,95004,1,0,0:0:0:0:
256,192,95204,1,8,0:0:0:0:
256,192,95304,1,8,0:0:0:0:
256,192,95504,1,0,0:0:0:0:
256,192,95604,1,0,0:0:0:0:
256,192,95804,1,8,0:0:0:0:
256,192,95904,1,0,0:0:0:0:
256,192,96004,1,8,0:0:0:0:
256,192,96404,1,0,0:0:0:0:
256,192,96604,1,8,0:0:0:0:
256,192,96804,1,0,0:0:0:0:
256,192,96904,1,0,0:0:0:0:
256,192,97104,1,0,0:0:0:0:
256,192,97204,1,8,0:0:0:0:
256,192,97404,1,0,0:0:0:0:
256,192,97504,1,0,0:0:0:0:
256,192,97604,1,8,0:0:0:0:
256,192,98004,1,8,0:0:0:0:
256,192,98204,1,8,0:0:0:0:
256,192,98404,1,0,0:0:0:0:
256,192,98504,1,8,0:0:0:0:
256,192,98704,1,0,0:0:0:0:
256,192,98904,1,0,0:0:0:0:
256,192,99004,1,8,0:0:0:0:
256,192,99104,1,8,0:0:0:0:
256,192,99204,1,0,0:0:0:0:
256,192,99604,1,8,0:0:0:0:
256,192,99804,1,0,0:0:0:0:
256,192,100004,1,8,0:0:0:0:
256,192,100104,1,8,0:0:0:0:
256,192,100304,1,0,0:0:0:0:
256,192,100404,1,8,0:0:0:0:
256,192,100504,1,8,0:0:0:0:
256,192,100604,1,0,0:0:0:0:
256,192,100704,1,0,0:0:0:0:
256,192,100804,1,8,0:0:0:0:
256,192,101004,1,0,0:0:0:0:
256,192,101104,1,0,0:0:0:0:
256,192,101204,1,8,0:0:0:0:
256,192,101404,1,0,0:0:0:0:
256,192,101604,1,8,0:0:0:0:
256,192,101704,1,0,0:0:0:0:
256,192,101904,1,8,0:0:0:0:
256,192,102004,1,8,0:0:0:0:
256,192,102104,1,0,0:0:0:0:
256,192,102204,1,8,0:0:0:0:
256,192,102304,1,0,0:0:0:0:
256,192,102404,1,8,0:0:0:0:
256,192,102604,1,0,0:0:0:0:
256,192,102704,1,0,0:0:0:0:
256,192,102804,1,0,0:0:0:0:
256,192,103004,1,8,0:0:0:0:
256,192,103204,1,0,0:0:0:0:
256,192,103304,1,0,0:0:0:0:
256,192,103504,1,8,0:0:0:0:
256,192,103604,1,0,0:0:0:0:
256,192,103704,1,0,0:0:0:0:
256,192,103804,1,8,0:0:0:0:
256,192,103904,1,0,0:0:0:0:
256,192,104004,1,8,0:0:0:0:
256,192,104204,1,8,0:0:0:0:
256,192,104304,1,8,0:0:0:0:
256,192,104404,1,0,0:0:0:0:
256,192,104604,1,0,0:0:0:0:
256,192,104804,1,8,0:0:0:0:
256,192,104904,1,8,0:0:0:0:
256,192,105104,1,0,0:0:0:0:
256,192,105204,1,8,0:0:0:0:
256,192,105304,1,0,0:0:0:0:
256,192,105404,1,8,0:0:0:0:
256,192,105504,1,8,0:0:0:0:
256,192,105604,1,0,0:0:0:0:
256,192,105804,1,0,0:0:0:0:
256,192,106004,1,8,0:0:0:0:
256,192,106204,1,0,0:0:0:0:
256,192,106404,1,8,0:0:0:0:
256,192,106504,1,8,0:0:0:0:
256,192,106604,1,0,0:0:0:0:
256,192,106704,1,8,0:0:0:0:
256,192,106804,1,8,0:0:0:0:
256,192,107004,1,0,0:0:0:0:
256,192,107104,1,0,0:0:0:0:
256,192,107204,1,8,0:0:0:0:
256,192,107404,1,0,0:0:0:0:
256,192,107604,1,0,0:0:0:0:
256,192,107804,1,0,0:0:0:0:
256,192,108004,1,8,0:0:0:0:
256,192,108104,1,8,0:0:0:0:
256,192,108204,1,0,0:0:0:0:
256,192,108304,1,0,0:0:0:0:
256,192,108404,1,8,0:0:0:0:
256,192,108604,1,0,0:0:0:0:
256,192,108704,1,8,0:0:0:0:
256,192,108804,1,0,0:0:0:0:
256,192,109004,1,8,0:0:0:0:
256,192,109104,1,8,0:0:0:0:
256,192,109204,1,8,0:0:0:0:
256,192,109404,1,0,0:0:0:0:
256,192,109604,1,8,0:0:0:0:
256,192,109704,1,8,0:0:0:0:
256,192,109804,1,0,0:0:0:0:
256,192,109904,1,0,0:0:0:0:
256,192,110004,1,8,0:0:0:0:
256,192,110204,1,0,0:0:0:0:
256,192,110304,1,0,0:0:0:0:
256,192,110404,1,0,0:0:0:0:
256,192,110504,1,0,0:0:0:0:
256,192,110604,1,8,0:0:0:0:
256,192,110704,1,8,0:0:0:0:
256,192,110804,1,0,0:0:0:0:
256,192,110904,1,0,0:0:0:0:
256,192,111004,1,8,0:0:0:0:
256,192,111104,1,0,0:0:0:0:
256,192,111204,1,8,0:0:0:0:
256,192,111304,1,8,0:0:0:0:
256,192,111404,1,0,0:0:0:0:
256,192,111504,1,8,0:0:0:0:
256,192,111604,1,0,0:0:0:0:
256,192,111704,1,0,0:0:0:0:
256,192,111804,1,8,0:0:0:0:
256,192,111904,1,8,0:0:0:0:
256,192,112004,1,4,0:0:0:0:
256,192,112204,12,0,115204,0:0:0:0:
