osu file format v14

[General]
AudioFilename: audio.mp3
AudioLeadIn: 0
PreviewTime: 76329
Countdown: 0
SampleSet: Normal
StackLeniency: 0.7
Mode: 1
LetterboxInBreaks: 0
WidescreenStoryboard: 0

[Editor]
Bookmarks: 2620,5200,36168,56813,77458,98103,118749,139394,170361,180200
DistanceSpacing: 1.1
BeatDivisor: 4
GridSize: 32
TimelineZoom: 1

[Metadata]
Title:The Birds
TitleUnicode:The Birds
Artist:twiddy
ArtistUnicode:twiddy
Creator:Vitas2222
Version:Oni
Source:
Tags:english electronic funk Majestic Casual Records vocals indie
BeatmapID:2441724
BeatmapSetID:1170472

[Difficulty]
HPDrainRate:5
CircleSize:5
OverallDifficulty:6
ApproachRate:5
SliderMultiplier:1.4
SliderTickRate:1

[Events]
//Background and Video events
0,0,"71064337_p0.jpg",0,0
//Break Periods
//Storyboard Layer 0 (Background)
//Storyboard Layer 1 (Fail)
//Storyboard Layer 2 (Pass)
//Storyboard Layer 3 (Foreground)
//Storyboard Layer 4 (Overlay)
//Storyboard Sound Samples

[TimingPoints]
2610,645.161290322581,4,1,0,20,1,0
2610,-100,4,1,0,20,0,0
5190,-66.6666666666667,4,1,0,45,0,0
36158,-66.6666666666667,4,1,0,70,0,1
56803,-66.6666666666667,4,1,0,45,0,0
77448,-66.6666666666667,4,1,0,70,0,1
98093,-66.6666666666667,4,1,0,45,0,0
139384,-66.6666666666667,4,1,0,70,0,1
170351,-66.6666666666667,4,1,0,45,0,0
178577,-100,4,1,0,20,0,0

[HitObjects]
256,192,2610,5,0,0:0:0:0:
256,192,3255,1,0,0:0:0:0:
256,192,3900,1,0,0:0:0:0:
256,192,4545,1,0,0:0:0:0:
256,192,5190,1,8,0:0:0:0:
256,192,5674,1,8,0:0:0:0:
256,192,5835,1,0,0:0:0:0:
256,192,6319,1,8,0:0:0:0:
256,192,6480,1,0,0:0:0:0:
256,192,6803,1,8,0:0:0:0:
256,192,7126,1,8,0:0:0:0:
256,192,7448,1,0,0:0:0:0:
256,192,7610,1,0,0:0:0:0:
256,192,7771,1,0,0:0:0:0:
256,192,8255,1,8,0:0:0:0:
256,192,8416,1,0,0:0:0:0:
256,192,8900,1,8,0:0:0:0:
256,192,9061,1,0,0:0:0:0:
256,192,9706,1,0,0:0:0:0:
256,192,9868,1,8,0:0:0:0:
256,192,10351,1,8,0:0:0:0:
256,192,10835,1,8,0:0:0:0:
256,192,10997,1,0,0:0:0:0:
256,192,11480,1,8,0:0:0:0:
256,192,11642,1,0,0:0:0:0:
256,192,11964,1,0,0:0:0:0:
256,192,12287,1,8,0:0:0:0:
256,192,12610,1,0,0:0:0:0:
256,192,12771,1,0,0:0:0:0:
256,192,12932,1,0,0:0:0:0:
256,192,13416,1,8,0:0:0:0:
256,192,13577,1,0,0:0:0:0:
256,192,14222,1,0,0:0:0:0:
256,192,14384,1,8,0:0:0:0:
256,192,14868,1,0,0:0:0:0:
256,192,15029,1,8,0:0:0:0:
256,192,15513,1,8,0:0:0:0:
256,192,15997,1,8,0:0:0:0:
256,192,16158,1,0,0:0:0:0:
256,192,16642,1,8,0:0:0:0:
256,192,16803,1,0,0:0:0:0:
256,192,17126,1,8,0:0:0:0:
256,192,17287,1,0,0:0:0:0:
256,192,17448,1,8,0:0:0:0:
256,192,17771,1,0,0:0:0:0:
256,192,17932,1,0,0:0:0:0:
256,192,18093,1,0,0:0:0:0:
256,192,18416,1,0,0:0:0:0:
256,192,18577,1,8,0:0:0:0:
256,192,18739,1,0,0:0:0:0:
256,192,19222,1,8,0:0:0:0:
256,192,19384,1,0,0:0:0:0:
256,192,20029,1,0,0:0:0:0:
256,192,20190,1,8,0:0:0:0:
256,192,20351,1,0,0:0:0:0:
256,192,20513,1,0,0:0:0:0:
256,192,20674,1,8,0:0:0:0:
256,192,21158,1,8,0:0:0:0:
256,192,21319,1,0,0:0:0:0:
256,192,21642,1,0,0:0:0:0:
256,192,21803,1,8,0:0:0:0:
256,192,21964,1,0,0:0:0:0:
256,192,22287,1,8,0:0:0:0:
256,192,22448,1,0,0:0:0:0:
256,192,22610,1,8,0:0:0:0:
256,192,22932,1,0,0:0:0:0:
256,192,23093,1,0,0:0:0:0:
256,192,23255,1,0,0:0:0:0:
256,192,23739,1,8,0:0:0:0:
256,192,23900,1,0,0:0:0:0:
256,192,24222,1,0,0:0:0:0:
256,192,24384,1,8,0:0:0:0:
256,192,24706,1,8,0:0:0:0:
256,192,24868,1,0,0:0:0:0:
256,192,25190,1,0,0:0:0:0:
256,192,25351,1,8,0:0:0:0:
256,192,25513,1,0,0:0:0:0:
256,192,25674,1,0,0:0:0:0:
256,192,25835,1,8,0:0:0:0:
256,192,26319,1,8,0:0:0:0:
256,192,26480,1,0,0:0:0:0:
256,192,26964,1,8,0:0:0:0:
256,192,27126,1,0,0:0:0:0:
256,192,27448,1,8,0:0:0:0:
256,192,27610,1,0,0:0:0:0:
256,192,27771,1,8,0:0:0:0:
256,192,28093,1,0,0:0:0:0:
256,192,28255,1,0,0:0:0:0:
256,192,28416,1,0,0:0:0:0:
256,192,28900,1,8,0:0:0:0:
256,192,29061,1,0,0:0:0:0:
256,192,29545,1,8,0:0:0:0:
256,192,29706,1,0,0:0:0:0:
256,192,30190,1,8,0:0:0:0:
256,192,30351,1,0,0:0:0:0:
256,192,30513,1,8,0:0:0:0:
256,192,30997,1,8,0:0:0:0:
256,192,31480,1,8,0:0:0:0:
256,192,31642,1,0,0:0:0:0:
256,192,32126,1,8,0:0:0:0:
256,192,32287,1,0,0:0:0:0:
256,192,32448,1,8,0:0:0:0:
256,192,32610,1,0,0:0:0:0:
256,192,32771,1,8,0:0:0:0:
256,192,32932,1,8,0:0:0:0:
256,192,33093,1,0,0:0:0:0:
256,192,33416,1,0,0:0:0:0:
256,192,33577,1,8,0:0:0:0:
256,192,33739,1,0,0:0:0:0:
256,192,34061,1,8,0:0:0:0:
256,192,34222,1,0,0:0:0:0:
256,192,34545,1,0,0:0:0:0:
256,192,34706,1,8,0:0:0:0:
256,192,34868,1,0,0:0:0:0:
256,192,35029,1,8,0:0:0:0:
256,192,35190,1,0,0:0:0:0:
256,192,35351,1,0,0:0:0:0:
256,192,35513,1,8,0:0:0:0:
256,192,35674,1,8,0:0:0:0:
256,192,36158,1,8,0:0:0:0:
256,192,36480,1,0,0:0:0:0:
256,192,36642,1,8,0:0:0:0:
256,192,36803,1,0,0:0:0:0:
256,192,37287,1,8,0:0:0:0:
256,192,37771,1,8,0:0:0:0:
256,192,37932,1,0,0:0:0:0:
256,192,38093,1,8,0:0:0:0:
256,192,38255,1,0,0:0:0:0:
256,192,38577,1,0,0:0:0:0:
256,192,38739,1,8,0:0:0:0:
256,192,39061,1,0,0:0:0:0:
256,192,39222,1,8,0:0:0:0:
256,192,39384,1,0,0:0:0:0:
256,192,39868,1,8,0:0:0:0:
256,192,40513,1,0,0:0:0:0:
256,192,40674,1,8,0:0:0:0:
256,192,40835,1,0,0:0:0:0:
256,192,41319,1,8,0:0:0:0:
256,192,41803,1,8,0:0:0:0:
256,192,41964,1,0,0:0:0:0:
256,192,42448,1,8,0:0:0:0:
256,192,42771,1,0,0:0:0:0:
256,192,42932,1,8,0:0:0:0:
256,192,43093,1,0,0:0:0:0:
256,192,43255,1,8,0:0:0:0:
256,192,43416,1,0,0:0:0:0:
256,192,43739,1,0,0:0:0:0:
256,192,43900,1,0,0:0:0:0:
256,192,44222,1,0,0:0:0:0:
256,192,44384,1,8,0:0:0:0:
256,192,44545,1,0,0:0:0:0:
256,192,45029,1,0,0:0:0:0:
256,192,45351,1,8,0:0:0:0:
256,192,45513,1,0,0:0:0:0:
256,192,45674,1,0,0:0:0:0:
256,192,45835,1,0,0:0:0:0:
256,192,45997,1,8,0:0:0:0:
256,192,46319,1,0,0:0:0:0:
256,192,46480,1,8,0:0:0:0:
256,192,46803,1,0,0:0:0:0:
256,192,46964,1,8,0:0:0:0:
256,192,47126,1,0,0:0:0:0:
256,192,47610,1,8,0:0:0:0:
256,192,48093,1,8,0:0:0:0:
256,192,48255,1,0,0:0:0:0:
256,192,48416,1,8,0:0:0:0:
256,192,48577,1,0,0:0:0:0:
256,192,48900,1,0,0:0:0:0:
256,192,49384,1,0,0:0:0:0:
256,192,49545,1,8,0:0:0:0:
256,192,49706,1,0,0:0:0:0:
256,192,50190,1,8,0:0:0:0:
256,192,50835,1,0,0:0:0:0:
256,192,50997,1,0,0:0:0:0:
256,192,51158,1,8,0:0:0:0:
256,192,51642,1,8,0:0:0:0:
256,192,52126,1,8,0:0:0:0:
256,192,52287,1,0,0:0:0:0:
256,192,52771,1,8,0:0:0:0:
256,192,53093,1,0,0:0:0:0:
256,192,53255,1,8,0:0:0:0:
256,192,53416,1,0,0:0:0:0:
256,192,53577,1,8,0:0:0:0:
256,192,53739,1,0,0:0:0:0:
256,192,54061,1,0,0:0:0:0:
256,192,54222,1,8,0:0:0:0:
256,192,54545,1,0,0:0:0:0:
256,192,54706,1,8,0:0:0:0:
256,192,55029,1,0,0:0:0:0:
256,192,55351,1,0,0:0:0:0:
256,192,55674,1,8,0:0:0:0:
256,192,55997,1,0,0:0:0:0:
256,192,56158,1,8,0:0:0:0:
256,192,56803,1,8,0:0:0:0:
256,192,57126,1,0,0:0:0:0:
256,192,57287,1,8,0:0:0:0:
256,192,57610,1,0,0:0:0:0:
256,192,57771,1,0,0:0:0:0:
256,192,57932,1,8,0:0:0:0:
256,192,58255,1,0,0:0:0:0:
256,192,58416,1,8,0:0:0:0:
256,192,58577,1,0,0:0:0:0:
256,192,58739,1,8,0:0:0:0:
256,192,59061,1,0,0:0:0:0:
256,192,59222,1,8,0:0:0:0:
256,192,59384,1,8,0:0:0:0:
256,192,59706,1,8,0:0:0:0:
256,192,59868,1,8,0:0:0:0:
256,192,60351,1,0,0:0:0:0:
256,192,60513,1,8,0:0:0:0:
256,192,60835,1,0,0:0:0:0:
256,192,60997,1,8,0:0:0:0:
256,192,61158,1,8,0:0:0:0:
256,192,61319,1,0,0:0:0:0:
256,192,61480,1,8,0:0:0:0:
256,192,61964,1,8,0:0:0:0:
256,192,62287,1,0,0:0:0:0:
256,192,62448,1,8,0:0:0:0:
256,192,62610,1,0,0:0:0:0:
256,192,63093,1,8,0:0:0:0:
256,192,63416,1,0,0:0:0:0:
256,192,63577,1,8,0:0:0:0:
256,192,63739,1,0,0:0:0:0:
256,192,63900,1,8,0:0:0:0:
256,192,64222,1,0,0:0:0:0:
256,192,64384,1,0,0:0:0:0:
256,192,64545,1,8,0:0:0:0:
256,192,64868,1,0,0:0:0:0:
256,192,65029,1,8,0:0:0:0:
256,192,65513,1,0,0:0:0:0:
256,192,65674,1,8,0:0:0:0:
256,192,65997,1,8,0:0:0:0:
256,192,66319,1,8,0:0:0:0:
256,192,66480,1,0,0:0:0:0:
256,192,66642,1,8,0:0:0:0:
256,192,66803,1,0,0:0:0:0:
256,192,67126,1,8,0:0:0:0:
256,192,67448,1,0,0:0:0:0:
256,192,67610,1,8,0:0:0:0:
256,192,68093,1,0,0:0:0:0:
256,192,68255,1,8,0:0:0:0:
256,192,68577,1,0,0:0:0:0:
256,192,68739,1,8,0:0:0:0:
256,192,68900,1,0,0:0:0:0:
256,192,69061,1,8,0:0:0:0:
256,192,69384,1,0,0:0:0:0:
256,192,69545,1,8,0:0:0:0:
256,192,69706,1,8,0:0:0:0:
256,192,70029,1,8,0:0:0:0:
256,192,70190,1,8,0:0:0:0:
256,192,70674,1,0,0:0:0:0:
256,192,70835,1,8,0:0:0:0:
256,192,71158,1,0,0:0:0:0:
256,192,71319,1,0,0:0:0:0:
256,192,71480,1,8,0:0:0:0:
256,192,71642,1,0,0:0:0:0:
256,192,71803,1,8,0:0:0:0:
256,192,72287,1,8,0:0:0:0:
256,192,72610,1,0,0:0:0:0:
256,192,72771,1,8,0:0:0:0:
256,192,72932,1,0,0:0:0:0:
256,192,73255,1,0,0:0:0:0:
256,192,73416,1,8,0:0:0:0:
256,192,73739,1,0,0:0:0:0:
256,192,73900,1,8,0:0:0:0:
256,192,74222,1,8,0:0:0:0:
256,192,74545,1,0,0:0:0:0:
256,192,74706,1,0,0:0:0:0:
256,192,74868,1,8,0:0:0:0:
256,192,75190,1,0,0:0:0:0:
256,192,75351,1,8,0:0:0:0:
256,192,75997,1,8,0:0:0:0:
256,192,76319,1,8,0:0:0:0:
256,192,76480,1,0,0:0:0:0:
256,192,76642,1,8,0:0:0:0:
256,192,76803,1,0,0:0:0:0:
256,192,77126,1,8,0:0:0:0:
256,192,77448,1,8,0:0:0:0:
256,192,77771,1,0,0:0:0:0:
256,192,77932,1,8,0:0:0:0:
256,192,78255,1,0,0:0:0:0:
256,192,78577,1,8,0:0:0:0:
256,192,78900,1,0,0:0:0:0:
256,192,79061,1,8,0:0:0:0:
256,192,79222,1,0,0:0:0:0:
256,192,79384,1,8,0:0:0:0:
256,192,79545,1,0,0:0:0:0:
256,192,79706,1,0,0:0:0:0:
256,192,79868,1,0,0:0:0:0:
256,192,80029,1,8,0:0:0:0:
256,192,80351,1,0,0:0:0:0:
256,192,80513,1,8,0:0:0:0:
256,192,80674,1,0,0:0:0:0:
256,192,80835,1,0,0:0:0:0:
256,192,81158,1,8,0:0:0:0:
256,192,81480,1,8,0:0:0:0:
256,192,81642,1,8,0:0:0:0:
256,192,81803,1,0,0:0:0:0:
256,192,81964,1,0,0:0:0:0:
256,192,82126,1,8,0:0:0:0:
256,192,82448,1,8,0:0:0:0:
256,192,82610,1,0,0:0:0:0:
256,192,82771,1,8,0:0:0:0:
256,192,82932,1,8,0:0:0:0:
256,192,83093,1,0,0:0:0:0:
256,192,83255,1,8,0:0:0:0:
256,192,83416,1,0,0:0:0:0:
256,192,83739,1,8,0:0:0:0:
256,192,84061,1,0,0:0:0:0:
256,192,84222,1,8,0:0:0:0:
256,192,84384,1,0,0:0:0:0:
256,192,84545,1,8,0:0:0:0:
256,192,84868,1,8,0:0:0:0:
256,192,85029,1,8,0:0:0:0:
256,192,85190,1,0,0:0:0:0:
256,192,85351,1,8,0:0:0:0:
256,192,85513,1,0,0:0:0:0:
256,192,85674,1,8,0:0:0:0:
256,192,85997,1,0,0:0:0:0:
256,192,86319,1,0,0:0:0:0:
256,192,86642,1,8,0:0:0:0:
256,192,86964,1,0,0:0:0:0:
256,192,87126,1,8,0:0:0:0:
256,192,87287,1,8,0:0:0:0:
256,192,87771,1,8,0:0:0:0:
256,192,87932,1,0,0:0:0:0:
256,192,88255,1,8,0:0:0:0:
256,192,88577,1,0,0:0:0:0:
256,192,88900,1,8,0:0:0:0:
256,192,89222,1,0,0:0:0:0:
256,192,89384,1,8,0:0:0:0:
256,192,89706,1,8,0:0:0:0:
256,192,89868,1,8,0:0:0:0:
256,192,90029,1,0,0:0:0:0:
256,192,90190,1,0,0:0:0:0:
256,192,90351,1,8,0:0:0:0:
256,192,90513,1,8,0:0:0:0:
256,192,90835,1,8,0:0:0:0:
256,192,91158,1,0,0:0:0:0:
256,192,91319,1,0,0:0:0:0:
256,192,91480,1,8,0:0:0:0:
256,192,91642,1,0,0:0:0:0:
256,192,91803,1,8,0:0:0:0:
256,192,91964,1,0,0:0:0:0:
256,192,92287,1,0,0:0:0:0:
256,192,92448,1,8,0:0:0:0:
256,192,92771,1,0,0:0:0:0:
256,192,92932,1,8,0:0:0:0:
256,192,93093,1,8,0:0:0:0:
256,192,93255,1,0,0:0:0:0:
256,192,93416,1,8,0:0:0:0:
256,192,93577,1,8,0:0:0:0:
256,192,93739,1,0,0:0:0:0:
256,192,93900,1,8,0:0:0:0:
256,192,94061,1,8,0:0:0:0:
256,192,94384,1,0,0:0:0:0:
256,192,94545,1,8,0:0:0:0:
256,192,94868,1,8,0:0:0:0:
256,192,95029,1,0,0:0:0:0:
256,192,95513,1,8,0:0:0:0:
256,192,95674,1,8,0:0:0:0:
256,192,95997,1,8,0:0:0:0:
256,192,96319,1,8,0:0:0:0:
256,192,96480,1,0,0:0:0:0:
256,192,96642,1,0,0:0:0:0:
256,192,96964,1,8,0:0:0:0:
256,192,97287,1,0,0:0:0:0:
256,192,97448,1,8,0:0:0:0:
256,192,98093,1,0,0:0:0:0:
256,192,98577,1,8,0:0:0:0:
256,192,98739,1,0,0:0:0:0:
256,192,99061,1,0,0:0:0:0:
256,192,99222,1,8,0:0:0:0:
256,192,99384,1,0,0:0:0:0:
256,192,99706,1,8,0:0:0:0:
256,192,100029,1,8,0:0:0:0:
256,192,100351,1,0,0:0:0:0:
256,192,100513,1,0,0:0:0:0:
256,192,100674,1,8,0:0:0:0:
256,192,100997,1,0,0:0:0:0:
256,192,101158,1,8,0:0:0:0:
256,192,101319,1,0,0:0:0:0:
256,192,101480,1,8,0:0:0:0:
256,192,101803,1,8,0:0:0:0:
256,192,101964,1,0,0:0:0:0:
256,192,102287,1,8,0:0:0:0:
256,192,102610,1,8,0:0:0:0:
256,192,102771,1,8,0:0:0:0:
256,192,102932,1,0,0:0:0:0:
256,192,103093,1,8,0:0:0:0:
256,192,103255,1,0,0:0:0:0:
256,192,103739,1,8,0:0:0:0:
256,192,103900,1,0,0:0:0:0:
256,192,104384,1,8,0:0:0:0:
256,192,104545,1,0,0:0:0:0:
256,192,104868,1,8,0:0:0:0:
256,192,105029,1,0,0:0:0:0:
256,192,105190,1,8,0:0:0:0:
256,192,105513,1,0,0:0:0:0:
256,192,105674,1,0,0:0:0:0:
256,192,105835,1,8,0:0:0:0:
256,192,106158,1,0,0:0:0:0:
256,192,106319,1,8,0:0:0:0:
256,192,106480,1,0,0:0:0:0:
256,192,106803,1,0,0:0:0:0:
256,192,106964,1,8,0:0:0:0:
256,192,107126,1,0,0:0:0:0:
256,192,107287,1,8,0:0:0:0:
256,192,107610,1,0,0:0:0:0:
256,192,107771,1,0,0:0:0:0:
256,192,107932,1,8,0:0:0:0:
256,192,108093,1,0,0:0:0:0:
256,192,108255,1,8,0:0:0:0:
256,192,108416,1,0,0:0:0:0:
256,192,108900,1,8,0:0:0:0:
256,192,109061,1,0,0:0:0:0:
256,192,109545,1,8,0:0:0:0:
256,192,109706,1,0,0:0:0:0:
256,192,110029,1,8,0:0:0:0:
256,192,110351,1,8,0:0:0:0:
256,192,110674,1,0,0:0:0:0:
256,192,110835,1,8,0:0:0:0:
256,192,110997,1,0,0:0:0:0:
256,192,111319,1,8,0:0:0:0:
256,192,111480,1,8,0:0:0:0:
256,192,111642,1,0,0:0:0:0:
256,192,111803,1,8,0:0:0:0:
256,192,112126,1,8,0:0:0:0:
256,192,112610,1,0,0:0:0:0:
256,192,112771,1,0,0:0:0:0:
256,192,112932,1,0,0:0:0:0:
256,192,113093,1,8,0:0:0:0:
256,192,113416,1,0,0:0:0:0:
256,192,113577,1,8,0:0:0:0:
256,192,114061,1,8,0:0:0:0:
256,192,114222,1,0,0:0:0:0:
256,192,114706,1,8,0:0:0:0:
256,192,114868,1,0,0:0:0:0:
256,192,115190,1,8,0:0:0:0:
256,192,115351,1,0,0:0:0:0:
256,192,115513,1,8,0:0:0:0:
256,192,115674,1,0,0:0:0:0:
256,192,115835,1,0,0:0:0:0:
256,192,115997,1,8,0:0:0:0:
256,192,116158,1,8,0:0:0:0:
256,192,116642,1,8,0:0:0:0:
256,192,116803,1,0,0:0:0:0:
256,192,117126,1,0,0:0:0:0:
256,192,117287,1,8,0:0:0:0:
256,192,117448,1,0,0:0:0:0:
256,192,117610,1,8,0:0:0:0:
256,192,117932,1,0,0:0:0:0:
256,192,118093,1,0,0:0:0:0:
256,192,118255,1,8,0:0:0:0:
256,192,118416,1,0,0:0:0:0:
256,192,118900,1,8,0:0:0:0:
256,192,119384,1,0,0:0:0:0:
256,192,119706,1,0,0:0:0:0:
256,192,119868,1,8,0:0:0:0:
256,192,120674,1,0,0:0:0:0:
256,192,120835,1,8,0:0:0:0:
256,192,120997,1,0,0:0:0:0:
256,192,121158,1,0,0:0:0:0:
256,192,121319,1,0,0:0:0:0:
256,192,121480,1,8,0:0:0:0:
256,192,121803,1,0,0:0:0:0:
256,192,121964,1,8,0:0:0:0:
256,192,122287,1,0,0:0:0:0:
256,192,122448,1,8,0:0:0:0:
256,192,123255,1,0,0:0:0:0:
256,192,123416,1,8,0:0:0:0:
256,192,123900,1,0,0:0:0:0:
256,192,124061,1,8,0:0:0:0:
256,192,124545,1,0,0:0:0:0:
256,192,124706,1,8,0:0:0:0:
256,192,125029,1,8,0:0:0:0:
256,192,125513,1,0,0:0:0:0:
256,192,125835,1,0,0:0:0:0:
256,192,126158,1,8,0:0:0:0:
256,192,126319,1,8,0:0:0:0:
256,192,126480,1,8,0:0:0:0:
256,192,126803,1,8,0:0:0:0:
256,192,127126,1,0,0:0:0:0:
256,192,127287,1,8,0:0:0:0:
256,192,127610,1,8,0:0:0:0:
256,192,128093,1,8,0:0:0:0:
256,192,128255,1,8,0:0:0:0:
256,192,128416,1,0,0:0:0:0:
256,192,128577,1,8,0:0:0:0:
256,192,128739,1,0,0:0:0:0:
256,192,128900,1,0,0:0:0:0:
256,192,129222,1,8,0:0:0:0:
256,192,129706,1,0,0:0:0:0:
256,192,130029,1,0,0:0:0:0:
256,192,130190,1,8,0:0:0:0:
256,192,130997,1,0,0:0:0:0:
256,192,131158,1,8,0:0:0:0:
256,192,131319,1,0,0:0:0:0:
256,192,131480,1,0,0:0:0:0:
256,192,131642,1,0,0:0:0:0:
256,192,131803,1,8,0:0:0:0:
256,192,132287,1,8,0:0:0:0:
256,192,132610,1,0,0:0:0:0:
256,192,132771,1,8,0:0:0:0:
256,192,133577,1,0,0:0:0:0:
256,192,133739,1,8,0:0:0:0:
256,192,134222,1,0,0:0:0:0:
256,192,134384,1,8,0:0:0:0:
256,192,134868,1,0,0:0:0:0:
256,192,135029,1,8,0:0:0:0:
256,192,135351,1,8,0:0:0:0:
256,192,135513,1,0,0:0:0:0:
256,192,135835,1,8,0:0:0:0:
256,192,136158,1,8,0:0:0:0:
256,192,136480,1,0,0:0:0:0:
256,192,136642,1,0,0:0:0:0:
256,192,136803,1,8,0:0:0:0:
256,192,137126,1,0,0:0:0:0:
256,192,137287,1,8,0:0:0:0:
256,192,137610,1,0,0:0:0:0:
256,192,137932,1,0,0:0:0:0:
256,192,138255,1,8,0:0:0:0:
256,192,138577,1,0,0:0:0:0:
256,192,138739,1,8,0:0:0:0:
256,192,138900,1,0,0:0:0:0:
256,192,139384,1,0,0:0:0:0:
256,192,139545,1,8,0:0:0:0:
256,192,139868,1,8,0:0:0:0:
256,192,140029,1,0,0:0:0:0:
256,192,140190,1,8,0:0:0:0:
256,192,140513,1,8,0:0:0:0:
256,192,140835,1,8,0:0:0:0:
256,192,140997,1,8,0:0:0:0:
256,192,141158,1,0,0:0:0:0:
256,192,141319,1,0,0:0:0:0:
256,192,141480,1,8,0:0:0:0:
256,192,141642,1,0,0:0:0:0:
256,192,141803,1,8,0:0:0:0:
256,192,141964,1,0,0:0:0:0:
256,192,142126,1,0,0:0:0:0:
256,192,142448,1,8,0:0:0:0:
256,192,142610,1,0,0:0:0:0:
256,192,142771,1,8,0:0:0:0:
256,192,143093,1,0,0:0:0:0:
256,192,143577,1,0,0:0:0:0:
256,192,143739,1,8,0:0:0:0:
256,192,143900,1,8,0:0:0:0:
256,192,144061,1,0,0:0:0:0:
256,192,144384,1,8,0:0:0:0:
256,192,144706,1,0,0:0:0:0:
256,192,145029,1,8,0:0:0:0:
256,192,145190,1,8,0:0:0:0:
256,192,145351,1,0,0:0:0:0:
256,192,145513,1,0,0:0:0:0:
256,192,145674,1,8,0:0:0:0:
256,192,145997,1,8,0:0:0:0:
256,192,146480,1,8,0:0:0:0:
256,192,146642,1,8,0:0:0:0:
256,192,146803,1,0,0:0:0:0:
256,192,146964,1,0,0:0:0:0:
256,192,147126,1,8,0:0:0:0:
256,192,147287,1,0,0:0:0:0:
256,192,147448,1,8,0:0:0:0:
256,192,147610,1,0,0:0:0:0:
256,192,147771,1,0,0:0:0:0:
256,192,147932,1,8,0:0:0:0:
256,192,148255,1,8,0:0:0:0:
256,192,148416,1,8,0:0:0:0:
256,192,148577,1,0,0:0:0:0:
256,192,148900,1,0,0:0:0:0:
256,192,149061,1,0,0:0:0:0:
256,192,149222,1,8,0:0:0:0:
256,192,149545,1,0,0:0:0:0:
256,192,149706,1,0,0:0:0:0:
256,192,149868,1,8,0:0:0:0:
256,192,150190,1,8,0:0:0:0:
256,192,150351,1,0,0:0:0:0:
256,192,150835,1,0,0:0:0:0:
256,192,151158,1,0,0:0:0:0:
256,192,151319,1,8,0:0:0:0:
256,192,151642,1,8,0:0:0:0:
256,192,151803,1,0,0:0:0:0:
256,192,151964,1,0,0:0:0:0:
256,192,152126,1,8,0:0:0:0:
256,192,152448,1,8,0:0:0:0:
256,192,152771,1,8,0:0:0:0:
256,192,152932,1,8,0:0:0:0:
256,192,153093,1,8,0:0:0:0:
256,192,153416,1,0,0:0:0:0:
256,192,153739,1,8,0:0:0:0:
256,192,153900,1,8,0:0:0:0:
256,192,154061,1,8,0:0:0:0:
256,192,154222,1,8,0:0:0:0:
256,192,154384,1,0,0:0:0:0:
256,192,154706,1,8,0:0:0:0:
256,192,155029,1,0,0:0:0:0:
256,192,155351,1,0,0:0:0:0:
256,192,155513,1,8,0:0:0:0:
256,192,155674,1,0,0:0:0:0:
256,192,155997,1,0,0:0:0:0:
256,192,156158,1,8,0:0:0:0:
256,192,156319,1,8,0:0:0:0:
256,192,156480,1,8,0:0:0:0:
256,192,156642,1,8,0:0:0:0:
256,192,156803,1,0,0:0:0:0:
256,192,157126,1,8,0:0:0:0:
256,192,157287,1,8,0:0:0:0:
256,192,157448,1,0,0:0:0:0:
256,192,157610,1,8,0:0:0:0:
256,192,157771,1,0,0:0:0:0:
256,192,157932,1,8,0:0:0:0:
256,192,158255,1,0,0:0:0:0:
256,192,158577,1,0,0:0:0:0:
256,192,158739,1,8,0:0:0:0:
256,192,158900,1,0,0:0:0:0:
256,192,159061,1,0,0:0:0:0:
256,192,159222,1,8,0:0:0:0:
256,192,159384,1,8,0:0:0:0:
256,192,159545,1,0,0:0:0:0:
256,192,159868,1,8,0:0:0:0:
256,192,160029,1,8,0:0:0:0:
256,192,160190,1,0,0:0:0:0:
256,192,160513,1,8,0:0:0:0:
256,192,160674,1,0,0:0:0:0:
256,192,160835,1,8,0:0:0:0:
256,192,161158,1,8,0:0:0:0:
256,192,161480,1,8,0:0:0:0:
256,192,161642,1,0,0:0:0:0:
256,192,161803,1,0,0:0:0:0:
256,192,161964,1,8,0:0:0:0:
256,192,162126,1,0,0:0:0:0:
256,192,162287,1,0,0:0:0:0:
256,192,162448,1,8,0:0:0:0:
256,192,162771,1,8,0:0:0:0:
256,192,162932,1,0,0:0:0:0:
256,192,163093,1,8,0:0:0:0:
256,192,163255,1,0,0:0:0:0:
256,192,163416,1,8,0:0:0:0:
256,192,163739,1,8,0:0:0:0:
256,192,164061,1,8,0:0:0:0:
256,192,164384,1,8,0:0:0:0:
256,192,164545,1,0,0:0:0:0:
256,192,164706,1,8,0:0:0:0:
256,192,164868,1,8,0:0:0:0:
256,192,165029,1,0,0:0:0:0:
256,192,165190,1,0,0:0:0:0:
256,192,165351,1,8,0:0:0:0:
256,192,165674,1,8,0:0:0:0:
256,192,165835,1,8,0:0:0:0:
256,192,165997,1,8,0:0:0:0:
256,192,166319,1,8,0:0:0:0:
256,192,166480,1,0,0:0:0:0:
256,192,166642,1,0,0:0:0:0:
256,192,166803,1,8,0:0:0:0:
256,192,166964,1,8,0:0:0:0:
256,192,167126,1,8,0:0:0:0:
256,192,167448,1,0,0:0:0:0:
256,192,167610,1,8,0:0:0:0:
256,192,167771,1,8,0:0:0:0:
256,192,167932,1,8,0:0:0:0:
256,192,168093,1,0,0:0:0:0:
256,192,168255,1,8,0:0:0:0:
256,192,168416,1,8,0:0:0:0:
256,192,168577,1,0,0:0:0:0:
256,192,168739,1,8,0:0:0:0:
256,192,168900,1,0,0:0:0:0:
256,192,169061,1,8,0:0:0:0:
256,192,169222,1,0,0:0:0:0:
256,192,169384,1,0,0:0:0:0:
256,192,169545,1,8,0:0:0:0:
256,192,169706,1,8,0:0:0:0:
256,192,169868,1,0,0:0:0:0:
256,192,170351,1,8,0:0:0:0:
256,192,170835,1,8,0:0:0:0:
256,192,171480,1,8,0:0:0:0:
256,192,171642,1,0,0:0:0:0:
256,192,171964,1,8,0:0:0:0:
256,192,172287,1,8,0:0:0:0:
256,192,172610,1,0,0:0:0:0:
256,192,172771,1,0,0:0:0:0:
256,192,172932,1,0,0:0:0:0:
256,192,173255,1,0,0:0:0:0:
256,192,173416,1,8,0:0:0:0:
256,192,173739,1,0,0:0:0:0:
256,192,174061,1,8,0:0:0:0:
256,192,174222,1,0,0:0:0:0:
256,192,174545,1,0,0:0:0:0:
256,192,174868,1,0,0:0:0:0:
256,192,175029,1,8,0:0:0:0:
256,192,175513,1,8,0:0:0:0:
256,192,175997,1,8,0:0:0:0:
256,192,176158,1,0,0:0:0:0:
256,192,176642,1,8,0:0:0:0:
256,192,176803,1,0,0:0:0:0:
256,192,177126,1,0,0:0:0:0:
256,192,177448,1,8,0:0:0:0:
256,192,177771,1,0,0:0:0:0:
256,192,177932,1,0,0:0:0:0:
256,192,178093,1,0,0:0:0:0:
256,192,178577,1,8,0:0:0:0:
256,192,178739,1,0,0:0:0:0:
256,192,179384,1,0,0:0:0:0:
256,192,179545,1,8,0:0:0:0:
256,192,180029,1,0,0:0:0:0:
256,192,180190,1,8,0:0:0:0:
