osu file format v14

[General]
AudioFilename: audio.mp3
AudioLeadIn: 0
PreviewTime: 76319
Countdown: 0
SampleSet: Soft
StackLeniency: 1
Mode: 0
LetterboxInBreaks: 0
WidescreenStoryboard: 1

[Editor]
Bookmarks: 5190,15513,36158,56803,77448,98093,118739,139384,170351
DistanceSpacing: 1.3
BeatDivisor: 4
GridSize: 32
TimelineZoom: 1.9

[Metadata]
Title:The Birds
TitleUnicode:The Birds
Artist:twiddy
ArtistUnicode:twiddy
Creator:Striderin
Version:The Sparrow
Source:
Tags:english electronic funk
BeatmapID:2179476
BeatmapSetID:1027359

[Difficulty]
HPDrainRate:3
CircleSize:4
OverallDifficulty:4
ApproachRate:6
SliderMultiplier:1.4
SliderTickRate:1

[Events]
//Background and Video events
0,0,"71064337_p0.jpg",0,0
//Break Periods
//Storyboard Layer 0 (Background)
//Storyboard Layer 1 (Fail)
//Storyboard Layer 2 (Pass)
//Storyboard Layer 3 (Foreground)
//Storyboard Layer 4 (Overlay)
//Storyboard Sound Samples

[TimingPoints]
2610,645.161290322581,4,2,1,40,1,0
15513,-100,4,2,1,40,0,0
36158,-100,4,2,1,60,0,1
45351,-100,4,2,2,60,0,1
45835,-100,4,2,1,60,0,1
54222,-100,4,2,2,60,0,1
55029,-100,4,2,1,60,0,1
56158,-100,4,2,2,60,0,1
56803,-100,4,2,1,60,0,0
57287,-100,4,2,2,60,0,0
57932,-100,4,2,1,60,0,0
58739,-100,4,2,2,60,0,0
59061,-100,4,2,1,60,0,0
59868,-100,4,2,2,60,0,0
60835,-100,4,2,1,60,0,0
65029,-100,4,2,2,60,0,0
65996,-100,4,2,1,60,0,0
67610,-100,4,2,2,60,0,0
68255,-100,4,2,1,60,0,0
70190,-100,4,2,2,60,0,0
71157,-100,4,2,1,60,0,0
75351,-100,4,2,2,60,0,0
76319,-100,4,2,1,60,0,0
77448,-100,4,2,1,70,0,1
77932,-100,4,2,2,70,0,1
78255,-100,4,2,1,70,0,1
88254,-100,4,2,2,70,0,1
88899,-100,4,2,1,70,0,1
90835,-100,4,2,2,70,0,1
91802,-100,4,2,1,70,0,1
95996,-100,4,2,2,70,0,1
96319,-100,4,2,1,70,0,1
96964,-100,4,2,2,70,0,1
97287,-100,4,2,1,70,0,1
97448,-100,4,2,2,70,0,1
98093,-100,4,2,1,50,0,0
118739,-100,4,2,1,50,0,0
118900,-100,4,2,1,60,0,0
123900,-100,4,2,1,60,0,0
124061,-100,4,2,1,60,0,0
129061,-100,4,2,1,60,0,0
129222,-100,4,2,1,60,0,0
136803,-100,4,2,2,60,0,0
137125,-100,4,2,1,60,0,0
137287,-100,4,2,2,60,0,0
137609,-100,4,2,1,60,0,0
138739,-100,4,2,2,60,0,0
139384,-100,4,2,1,60,0,0
140835,-100,4,2,2,60,0,0
141803,-100,4,2,1,60,0,0
142610,-100,4,2,2,60,0,0
143093,-100,4,2,1,60,0,0
149060,-100,4,2,2,60,0,0
149222,-100,4,2,1,60,0,0
151642,-100,4,2,2,60,0,0
151964,-100,4,2,1,60,0,0
152932,-100,4,2,2,60,0,0
153416,-100,4,2,1,60,0,0
160835,-100,4,2,2,60,0,0
161158,-100,4,2,1,60,0,0
161964,-100,4,2,2,60,0,0
162286,-100,4,2,1,60,0,0
163255,-100,4,2,2,60,0,0
163739,-100,4,2,1,60,0,0
167125,-100,4,2,2,60,0,0
167610,-100,4,2,1,60,0,0
170351,-100,4,2,1,50,0,0

[Colours]
Combo1 : 210,124,87
Combo2 : 156,185,68
Combo3 : 122,204,218

[HitObjects]
229,249,2610,5,0,0:0:0:0:
239,223,3255,1,0,0:0:0:0:
250,197,3900,2,0,P|255:149|335:170,1,140
330,155,5190,6,0,L|319:261,1,105,2|2,0:0|0:0,0:0:0:0:
436,214,6319,2,0,L|425:320,1,105,2|2,0:0|0:0,0:0:0:0:
425,318,7126,2,0,P|373:290|346:355,1,140,2|0,0:0|0:0,0:0:0:0:
265,295,8255,6,0,L|116:330,1,140,2|2,0:0|0:0,0:0:0:0:
164,141,9868,1,2,0:0:0:0:
95,206,10351,6,0,L|217:234,1,105,2|2,0:0|0:0,0:0:0:0:
172,105,11480,2,0,L|69:81,1,105,2|2,0:0|0:0,0:0:0:0:
69,81,12287,2,0,P|95:122|21:146,1,140,2|0,0:0|0:0,0:0:0:0:
52,245,13416,5,2,0:0:0:0:
228,177,14384,2,0,L|381:206,1,140,2|2,0:0|0:0,0:0:0:0:
445,124,15513,6,0,P|469:158|459:266,2,140,2|8|0,0:0|0:0|0:0,0:0:0:0:
367,114,17126,1,2,0:0:0:0:
367,114,17448,2,0,L|284:99,1,70,10|0,0:0|0:0,0:0:0:0:
298,101,18093,6,0,P|317:144|255:194,1,105,0|2,0:0|0:0,0:0:0:0:
211,219,18900,2,0,P|173:250|223:362,1,175
314,349,20190,1,2,0:0:0:0:
374,258,20674,6,0,L|231:290,2,140,2|8|0,0:0|0:0|0:0,0:0:0:0:
451,295,22287,1,2,0:0:0:0:
451,295,22610,2,0,L|471:373,1,70,10|0,0:0|0:0,0:0:0:0:
468,362,23255,6,0,P|424:348|379:392,1,105,0|2,0:0|0:0,0:0:0:0:
280,284,24384,1,0,0:0:0:0:
280,284,24706,2,0,P|296:233|300:299,1,175,2|0,0:0|0:0,0:0:0:0:
382,269,25835,6,0,L|403:120,1,140,2|8,0:0|0:0,0:0:0:0:
272,184,27126,1,0,0:0:0:0:
246,123,27448,1,2,0:0:0:0:
246,123,27771,2,0,L|144:106,1,70,10|0,0:0|0:0,0:0:0:0:
176,111,28416,6,0,P|217:71|197:13,1,105,0|2,0:0|0:0,0:0:0:0:
130,39,29222,1,0,0:0:0:0:
130,39,29545,2,0,P|71:64|58:119,1,105
73,130,30190,2,0,L|83:205,1,70,0|2,0:0|0:0,0:0:0:0:
178,137,30997,5,2,0:0:0:0:
96,273,31642,2,0,P|151:261|214:324,1,140,8|0,0:0|0:0,0:0:0:0:
207,346,32448,2,0,L|215:395,2,35,0|2|0,0:0|0:0|0:0,0:0:0:0:
285,345,33093,1,0,0:0:0:0:
361,269,33577,6,0,P|419:266|437:320,1,105,0|2,0:0|0:0,0:0:0:0:
411,111,36158,6,0,L|393:205,1,70,2|0,0:0|0:0,0:0:0:0:
394,218,36642,1,2,0:0:0:0:
394,218,36803,1,4,3:2:0:0:
304,170,37287,2,0,L|283:287,1,105,2|2,0:0|0:0,0:0:0:0:
208,273,38093,2,0,P|231:330|296:354,1,105,6|0,3:2|0:0,0:0:0:0:
299,330,38739,6,0,L|397:344,1,70
406,346,39222,1,2,0:0:0:0:
406,346,39384,1,4,3:2:0:0:
412,238,39868,2,0,L|435:93,1,140,2|0,0:0|0:0,0:0:0:0:
444,62,40674,1,4,3:2:0:0:
444,62,40835,1,2,0:0:0:0:
329,45,41319,6,0,L|359:175,1,105,2|2,0:0|0:0,0:0:0:0:
335,182,41964,1,4,3:2:0:0:
219,178,42448,2,0,L|129:200,2,70,2|0|0,0:0|0:0|0:0,0:0:0:0:
232,142,43255,2,0,P|238:92|191:56,1,105,6|0,3:2|0:0,0:0:0:0:
165,74,43900,6,0,L|76:55,1,70
58,53,44384,1,2,0:0:0:0:
58,53,44545,1,4,3:2:0:0:
11,158,45029,2,0,L|106:180,1,70,0|10,0:0|0:0,0:0:0:0:
115,160,45513,1,8,0:0:0:0:
144,231,45835,1,4,3:2:0:0:
219,248,46158,1,8,0:3:0:0:
278,199,46480,6,0,L|375:219,1,70,2|0,0:0|0:0,0:0:0:0:
384,220,46964,1,2,0:0:0:0:
384,220,47126,1,4,3:2:0:0:
463,136,47610,2,0,L|493:248,1,105,2|2,0:0|0:0,0:0:0:0:
423,276,48416,1,6,3:2:0:0:
423,276,48577,2,0,L|408:357,1,70
382,371,49061,6,0,L|296:358,1,70
274,354,49545,1,2,0:0:0:0:
274,354,49706,1,4,3:2:0:0:
264,240,50190,2,0,P|203:262|162:333,1,140,2|0,0:0|0:0,0:0:0:0:
161,361,50997,1,4,3:2:0:0:
161,361,51158,1,2,0:0:0:0:
47,383,51642,6,0,L|25:272,1,105,2|2,0:0|0:0,0:0:0:0:
18,242,52287,1,4,3:2:0:0:
97,158,52771,2,0,L|21:127,2,70,2|0|0,0:0|0:0|0:0,0:0:0:0:
132,143,53577,2,0,P|165:105|231:110,1,105,6|0,3:2|0:0,0:0:0:0:
245,76,54222,6,0,L|262:173,1,70,8|0,0:0|0:0,0:0:0:0:
244,181,54706,1,10,0:0:0:0:
320,172,55029,1,4,3:2:0:0:
380,219,55351,1,4,3:2:0:0:
453,196,55674,2,0,L|465:127,1,70,2|8,0:0|0:3,0:0:0:0:
495,103,56158,1,12,0:0:0:0:
376,7,56803,6,0,L|278:27,1,70,2|0,3:2|0:0,0:0:0:0:
269,29,57287,1,10,0:0:0:0:
298,180,57932,1,2,3:2:0:0:
183,197,58416,1,2,3:2:0:0:
172,120,58739,2,0,L|75:103,1,70,10|0,0:0|3:0,0:0:0:0:
37,148,59384,6,0,L|19:240,1,70,0|0,3:0|0:0,0:0:0:0:
16,254,59868,1,10,0:0:0:0:
167,282,60513,2,0,L|182:197,1,70,10|0,0:0|3:0,0:0:0:0:
184,175,60997,2,0,L|274:190,1,70,0|8,0:0|0:0,0:0:0:0:
291,191,61480,1,2,0:0:0:0:
355,283,61964,6,0,L|440:266,1,70,2|0,3:2|0:0,0:0:0:0:
461,263,62448,1,2,0:0:0:0:
461,263,62610,1,8,0:0:0:0:
440,149,63093,2,0,L|344:164,1,70,2|0,3:2|0:0,0:0:0:0:
332,166,63577,1,2,3:2:0:0:
278,110,63900,2,0,P|216:97|173:118,1,105,10|0,3:2|3:0,0:0:0:0:
146,104,64545,6,0,L|162:194,1,70,0|0,3:0|0:0,0:0:0:0:
165,210,65029,1,10,0:0:0:0:
13,236,65674,2,0,L|28:322,1,70,0|2,0:0|3:2,0:0:0:0:
33,342,66158,2,0,L|126:362,1,70,0|8,3:0|0:0,0:0:0:0:
138,366,66642,1,2,0:0:0:0:
138,366,66803,1,4,3:2:0:0:
130,275,67126,6,0,L|230:252,1,70,2|0,3:2|0:0,0:0:0:0:
236,252,67610,1,10,0:0:0:0:
207,100,68255,1,2,3:2:0:0:
320,78,68739,1,2,3:2:0:0:
335,153,69061,2,0,L|415:138,1,70,10|0,3:2|3:0,0:0:0:0:
479,123,69706,6,0,L|499:223,1,70,0|0,3:0|0:0,0:0:0:0:
500,229,70190,1,10,0:0:0:0:
348,244,70835,2,0,L|364:342,1,70,10|0,0:0|3:0,0:0:0:0:
368,350,71319,2,0,L|449:334,1,70,0|8,0:0|0:0,0:0:0:0:
474,330,71803,1,2,3:2:0:0:
474,214,72287,6,0,L|383:199,1,70,2|0,3:2|0:0,0:0:0:0:
366,200,72771,1,2,0:0:0:0:
366,200,72932,1,8,0:0:0:0:
281,122,73416,2,0,L|185:139,1,70,2|0,3:2|0:0,0:0:0:0:
173,140,73900,1,2,3:2:0:0:
121,197,74222,2,0,B|53:180|53:180|5:194,1,105,10|0,3:2|3:0,0:0:0:0:
4,226,74868,6,0,L|17:310,1,70,0|0,3:0|0:0,0:0:0:0:
21,332,75351,1,10,0:0:0:0:
173,307,75997,1,0,0:0:0:0:
170,230,76319,2,0,L|156:192,2,35,2|0|0,3:2|3:0|0:0,0:0:0:0:
208,235,76803,1,8,0:0:0:0:
351,178,77448,6,0,P|339:222|303:264,1,70,2|0,3:2|0:0,0:0:0:0:
292,273,77932,1,10,0:0:0:0:
354,340,78255,2,0,P|399:317|427:282,2,70,2|2|0,0:0|3:2|0:0,0:0:0:0:
330,378,79061,1,0,3:0:0:0:
330,378,79222,1,2,0:0:0:0:
247,340,79545,2,0,P|221:284|187:268,1,70,2|2,0:0|3:2,0:0:0:0:
170,272,80029,6,0,L|187:192,1,70,0|2,3:0|0:0,0:0:0:0:
170,160,80513,2,0,L|150:112,2,35,10|2|2,0:0|0:0|0:0,0:0:0:0:
242,104,81158,1,2,3:2:0:0:
191,28,81480,6,0,P|139:33|108:63,1,70,2|2,3:2|0:0,0:0:0:0:
101,82,81964,1,10,0:0:0:0:
78,121,82126,1,2,3:2:0:0:
115,203,82448,5,2,0:0:0:0:
51,268,82771,2,0,P|47:317|63:349,1,70,2|2,0:0|0:0,0:0:0:0:
99,343,83255,2,0,L|138:383,2,35,10|2|2,0:0|0:0|0:0,0:0:0:0:
139,320,83739,2,0,P|177:274|231:269,1,105,2|2,3:2|3:2,0:0:0:0:
299,309,84545,2,0,L|383:297,1,70,10|2,3:2|0:0,0:0:0:0:
405,325,85029,6,0,P|403:261|450:216,1,105,2|2,0:0|0:0,0:0:0:0:
467,209,85674,1,10,0:0:0:0:
411,136,85997,1,2,0:0:0:0:
462,60,86319,1,2,0:0:0:0:
387,7,86642,2,0,B|370:32|370:32|309:48,1,70,2|0,3:2|0:0,0:0:0:0:
286,50,87126,1,10,0:0:0:0:
286,50,87287,1,2,0:0:0:0:
255,183,87771,5,2,3:2:0:0:
255,183,87932,2,0,P|236:139|196:121,1,70,2|10,0:0|0:0,0:0:0:0:
131,153,88577,2,0,P|78:153|56:174,2,70,2|2|2,0:0|3:2|0:0,0:0:0:0:
202,269,89706,1,10,0:0:0:0:
202,269,89868,1,2,0:0:0:0:
75,319,90351,5,2,3:2:0:0:
75,319,90513,2,0,P|96:272|129:249,1,70,2|10,0:0|0:0,0:0:0:0:
63,181,91158,1,2,0:0:0:0:
63,181,91319,2,0,B|91:172|103:144|100:117|100:117|123:93,2,105,2|2|12,0:0|3:2|0:0,0:0:0:0:
17,181,92448,1,0,0:0:0:0:
56,42,92932,6,0,P|29:64|16:96,1,70,2|2,3:2|0:0,0:0:0:0:
39,135,93416,1,2,0:0:0:0:
83,145,93577,1,10,0:0:0:0:
161,191,93900,1,2,0:0:0:0:
138,230,94061,2,0,L|151:318,1,70,2|2,3:2|0:0,0:0:0:0:
158,343,94545,2,0,P|197:348|232:386,1,70,2|10,3:2|0:0,0:0:0:0:
266,361,95029,1,2,0:0:0:0:
401,379,95513,5,2,3:2:0:0:
389,335,95674,2,0,B|366:313|366:313|355:258,1,70,2|8,0:0|0:0,0:0:0:0:
415,204,96319,1,10,0:3:0:0:
492,250,96642,2,0,P|494:303|470:338,2,70,2|8|8,3:2|0:0|0:3,0:0:0:0:
512,209,97448,1,14,0:0:0:0:
443,40,98093,6,0,L|298:61,2,140,2|8|0,0:0|3:2|0:0,0:0:0:0:
469,127,99706,1,2,0:0:0:0:
402,189,100029,1,10,3:2:0:0:
356,114,100351,1,0,0:0:0:0:
356,114,100674,6,0,L|274:100,1,70
259,74,101158,2,0,P|225:109|193:116,1,70,2|0,0:0|0:0,0:0:0:0:
206,115,102287,2,0,L|218:200,1,70,0|8,0:0|3:2,0:0:0:0:
201,219,102771,1,2,0:0:0:0:
164,328,103255,6,0,P|219:287|288:287,2,140,2|8|0,0:0|3:2|0:0,0:0:0:0:
90,352,104868,1,2,0:0:0:0:
68,278,105190,1,10,3:2:0:0:
104,266,105351,2,0,P|123:229|121:200,1,70
95,172,105835,6,0,B|83:101|83:101|54:71,1,105,0|2,0:0|0:0,0:0:0:0:
67,39,106480,2,0,P|103:11|175:13,1,105,8|0,3:2|0:0,0:0:0:0:
220,56,107287,1,2,0:0:0:0:
330,22,107771,1,8,3:2:0:0:
346,56,107932,2,0,P|387:84|421:83,1,70,2|0,0:0|0:0,0:0:0:0:
444,79,108416,6,0,P|421:139|436:227,2,140,0|8|0,0:0|3:2|0:0,0:0:0:0:
417,6,110029,1,2,0:0:0:0:
344,31,110351,1,10,3:2:0:0:
372,102,110674,1,0,0:0:0:0:
372,102,110997,6,0,B|348:114|348:114|277:121,1,70
273,96,111480,2,0,P|246:83|201:85,1,70,2|0,0:0|0:0,0:0:0:0:
206,83,112610,2,0,L|193:175,1,70,0|8,0:0|3:2,0:0:0:0:
213,186,113093,1,2,0:0:0:0:
100,158,113577,6,0,L|75:313,2,140,0|8|0,0:0|3:2|0:0,0:0:0:0:
45,103,115190,1,2,0:0:0:0:
102,51,115513,1,10,3:2:0:0:
136,68,115674,2,0,P|176:52|202:55,1,70
230,80,116158,6,0,L|246:195,1,105,0|2,0:0|0:0,0:0:0:0:
274,208,116803,1,8,3:2:0:0:
192,290,117287,1,0,0:0:0:0:
259,327,117610,2,0,P|296:288|280:224,1,105,2|8,0:0|3:2,0:0:0:0:
253,234,118255,1,2,0:0:0:0:
145,170,118739,5,0,0:0:0:0:
145,170,118900,2,0,P|158:106|424:134,1,385,2|4,0:0|3:2,0:0:0:0:
437,284,121319,5,0,0:0:0:0:
437,284,121480,2,0,B|457:114|159:231|196:47,1,385,2|4,0:0|3:2,0:0:0:0:
54,166,123900,5,0,0:0:0:0:
54,166,124061,2,0,B|67:122|122:102|163:144|163:144|203:179|256:164|272:116|272:116|284:65|338:46|381:91,1,385,2|4,0:0|3:2,0:0:0:0:
426,134,126158,1,0,0:0:0:0:
497,189,126480,1,0,0:0:0:0:
449,267,126803,6,0,B|392:256|362:218|362:218|347:294|269:352|167:355,1,350,2|4,0:0|3:2,0:0:0:0:
71,205,129061,5,0,0:0:0:0:
71,205,129222,2,0,B|120:95|120:95|258:71|258:71|355:172,1,385,2|4,0:0|3:2,0:0:0:0:
498,64,131642,5,0,0:0:0:0:
498,64,131803,2,0,B|416:75|416:75|355:280|355:280|267:298,1,385,2|4,0:0|3:2,0:0:0:0:
120,192,134222,5,0,0:0:0:0:
120,192,134384,2,0,B|159:164|159:164|205:178|205:178|224:254|224:254|261:265|261:265|321:219|321:219|368:234|368:234|381:289,1,385,2|4,0:0|3:2,0:0:0:0:
464,309,136480,1,0,0:0:0:0:
495,223,136803,6,0,B|476:198|476:198|485:132,1,70,8|2,0:0|0:0,0:0:0:0:
460,119,137287,2,0,L|376:141,2,70,8|2|2,0:0|3:2|3:2,0:0:0:0:
482,30,138255,1,8,0:3:0:0:
392,16,138577,1,8,0:3:0:0:
392,16,138739,1,8,0:0:0:0:
392,16,138900,1,2,0:0:0:0:
311,125,139384,6,0,P|260:137|236:166,1,70
203,138,139868,2,0,L|169:96,2,35,2|0|2,0:0|0:0|0:0,0:0:0:0:
199,229,140513,2,0,P|172:260|132:271,1,70,2|10,0:0|0:0,0:0:0:0:
168,309,140997,2,0,L|159:348,2,35,8|8|8,0:3|0:3|0:3,0:0:0:0:
207,331,141480,5,10,0:0:0:0:
258,256,141803,1,2,0:0:0:0:
347,281,142126,2,0,P|383:248|422:243,1,70,2|2,3:2|0:0,0:0:0:0:
447,248,142610,1,8,0:0:0:0:
484,222,142771,1,2,0:0:0:0:
426,151,143093,2,0,B|438:114|403:115|415:68,1,70,2|2,3:2|0:0,0:0:0:0:
394,42,143577,1,2,0:0:0:0:
355,16,143739,2,0,L|269:32,2,70,2|0|2,0:0|3:0|0:0,0:0:0:0:
444,28,144706,5,2,3:2:0:0:
444,28,144868,1,2,0:0:0:0:
444,28,145029,2,0,P|488:51|508:108,1,105,2|2,0:0|0:0,0:0:0:0:
495,144,145674,1,2,3:2:0:0:
419,195,145997,2,0,B|459:248|396:291|432:337,1,140,2|2,0:0|0:0,0:0:0:0:
297,373,147126,5,0,3:0:0:0:
297,373,147287,2,0,P|237:341|211:345,1,70,2|10,0:0|0:0,0:0:0:0:
149,363,147932,2,0,P|104:343|88:306,1,70,2|2,0:0|0:0,0:0:0:0:
85,281,148416,1,2,0:0:0:0:
53,247,148577,2,0,B|65:220|65:220|60:183|60:183|77:135,1,105,2|8,3:2|0:0,0:0:0:0:
90,104,149222,1,0,3:0:0:0:
262,44,149868,6,0,P|250:91|224:118,1,70,0|2,3:0|0:0,0:0:0:0:
204,139,150351,2,0,P|251:178|269:228,2,105,10|0|2,3:2|3:0|0:0,0:0:0:0:
276,82,151642,2,0,L|266:41,2,35,8|0|0,0:0|0:0|3:0,0:0:0:0:
315,105,152126,1,2,0:0:0:0:
404,87,152448,6,0,P|448:92|477:126,1,70,2|2,3:2|0:0,0:0:0:0:
494,144,152932,1,10,0:0:0:0:
504,188,153093,1,2,0:0:0:0:
421,226,153416,2,0,P|389:251|370:296,1,70,2|2,3:2|0:0,0:0:0:0:
391,318,153900,1,2,0:0:0:0:
382,362,154061,2,0,L|426:373,2,35,2|8|0,0:0|0:0|3:0,0:0:0:0:
292,380,154706,1,2,0:0:0:0:
266,291,155029,6,0,P|231:267|176:268,1,70,2|0,3:2|0:0,0:0:0:0:
159,268,155513,1,10,0:0:0:0:
123,239,155674,1,2,3:2:0:0:
153,153,155997,1,0,3:0:0:0:
178,113,156158,2,0,L|227:115,2,35,2|2|2,0:0|0:0|0:0,0:0:0:0:
162,69,156642,1,2,0:0:0:0:
32,23,157126,6,0,L|20:67,2,35,2|2|2,3:2|0:0|3:2,0:0:0:0:
75,9,157610,1,2,0:0:0:0:
124,85,157932,1,10,0:0:0:0:
191,145,158255,2,0,B|172:169|205:197|184:211,1,70,2|2,0:0|0:0,0:0:0:0:
166,253,158739,2,0,L|175:286,2,35,2|2|2,0:0|3:2|0:0,0:0:0:0:
121,242,159222,6,0,P|86:245|55:261,2,70,2|2|2,0:0|3:2|0:0,0:0:0:0:
70,166,160190,1,0,3:0:0:0:
92,89,160513,2,0,P|160:100|171:111,1,70,2|2,0:0|0:0,0:0:0:0:
215,169,161158,2,0,P|263:185|289:177,1,70,2|2,3:2|0:0,0:0:0:0:
366,150,161803,1,0,0:0:0:0:
396,183,161964,2,0,L|386:232,2,35,10|2|0,0:0|0:0|3:0,0:0:0:0:
440,174,162448,1,2,0:0:0:0:
474,89,162771,6,0,P|459:44|440:28,1,70,2|2,3:2|0:0,0:0:0:0:
398,38,163255,1,8,0:0:0:0:
362,9,163416,1,2,0:0:0:0:
305,80,163739,1,2,3:2:0:0:
225,36,164061,1,2,0:0:0:0:
183,117,164384,1,2,0:0:0:0:
97,86,164706,1,2,3:2:0:0:
97,86,164868,2,0,P|51:131|46:196,1,105,2|2,0:0|3:2,0:0:0:0:
119,217,165674,6,0,L|125:268,2,35,2|10|2,0:0|0:0|3:2,0:0:0:0:
193,164,166319,2,0,B|244:169|223:212|285:217,1,105,2|2,3:2|0:0,0:0:0:0:
324,219,166964,2,0,L|352:177,2,35,2|8|0,0:0|0:0|0:0,0:0:0:0:
382,289,167610,5,2,3:2:0:0:
382,289,167771,2,0,P|344:325|306:332,1,70,2|2,3:2|0:0,0:0:0:0:
284,315,168255,2,0,P|235:295|203:300,1,70,10|2,0:0|0:0,0:0:0:0:
182,323,168739,2,0,L|124:331,2,35,2|2|2,0:0|0:0|0:0,0:0:0:0:
141,241,169384,1,2,0:0:0:0:
141,241,169545,2,0,P|171:198|168:155,1,70,2|14,0:0|0:3,0:0:0:0:
109,84,170351,6,0,P|178:43|265:40,2,140,2|0|0,0:0|0:0|0:0,0:0:0:0:
31,83,171964,1,2,0:0:0:0:
31,83,172287,2,0,L|10:161,1,70,2|0,0:0|0:0,0:0:0:0:
12,150,172932,6,0,P|67:142|101:195,1,105,0|2,0:0|0:0,0:0:0:0:
124,247,173739,2,0,P|157:305|261:293,1,175
341,222,175029,1,2,0:0:0:0:
291,117,175513,6,0,B|326:136|326:136|429:116,2,140,2|0|0,0:0|0:0|0:0,0:0:0:0:
247,53,177126,1,2,0:0:0:0:
247,53,177448,2,0,P|203:62|176:56,1,70,2|0,0:0|0:0,0:0:0:0:
179,57,178093,6,0,P|206:108|169:157,1,105,0|2,0:0|0:0,0:0:0:0:
313,236,179545,2,0,L|340:107,1,105,2|4,0:0|0:0,0:0:0:0:
364,114,180190,1,2,0:0:0:0:
