osu file format v14

[General]
AudioFilename: audio.mp3
AudioLeadIn: 0
PreviewTime: 76319
Countdown: 0
SampleSet: Soft
StackLeniency: 0.3
Mode: 0
LetterboxInBreaks: 0
WidescreenStoryboard: 1

[Editor]
Bookmarks: 5190,15513,36158,56803,77448,98093,118739,139384,170351
DistanceSpacing: 1.1
BeatDivisor: 4
GridSize: 32
TimelineZoom: 1.9

[Metadata]
Title:The Birds
TitleUnicode:The Birds
Artist:twiddy
ArtistUnicode:twiddy
Creator:Striderin
Version:The Falcon
Source:
Tags:english electronic funk
BeatmapID:2178569
BeatmapSetID:1027359

[Difficulty]
HPDrainRate:4
CircleSize:5
OverallDifficulty:6
ApproachRate:8
SliderMultiplier:1.4
SliderTickRate:1

[Events]
//Background and Video events
0,0,"71064337_p0.jpg",0,0
//Break Periods
//Storyboard Layer 0 (Background)
//Storyboard Layer 1 (Fail)
//Storyboard Layer 2 (Pass)
//Storyboard Layer 3 (Foreground)
//Storyboard Layer 4 (Overlay)
//Storyboard Sound Samples

[TimingPoints]
2610,645.161290322581,4,2,1,40,1,0
15513,-100,4,2,1,40,0,0
19545,-100,4,2,99,5,0,0
19706,-100,4,2,1,40,0,0
28577,-100,4,2,1,40,0,0
28738,-100,4,2,1,40,0,0
30351,-100,4,2,1,40,0,0
30513,-100,4,2,1,40,0,0
36158,-66.6666666666667,4,2,1,60,0,1
36803,-100,4,2,1,60,0,1
38739,-66.6666666666667,4,2,1,60,0,1
39384,-100,4,2,1,60,0,1
41158,-100,4,2,99,5,0,1
41319,-66.6666666666667,4,2,1,60,0,1
41641,-66.6666666666667,4,2,1,60,0,1
41803,-66.6666666666667,4,2,1,60,0,1
41964,-100,4,2,1,60,0,1
43900,-66.6666666666667,4,2,1,60,0,1
44545,-100,4,2,1,60,0,1
45351,-100,4,2,2,60,0,1
45835,-100,4,2,1,60,0,1
46480,-66.6666666666667,4,2,1,60,0,1
47126,-100,4,2,1,60,0,1
49061,-66.6666666666667,4,2,1,60,0,1
49706,-100,4,2,1,60,0,1
51480,-100,4,2,99,5,0,1
51642,-66.6666666666667,4,2,1,60,0,1
51964,-66.6666666666667,4,2,1,60,0,1
52126,-66.6666666666667,4,2,1,60,0,1
52287,-100,4,2,1,60,0,1
54222,-100,4,2,2,60,0,1
55029,-100,4,2,1,60,0,1
56158,-100,4,2,2,60,0,1
56803,-100,4,2,1,60,0,0
57287,-100,4,2,2,60,0,0
57932,-100,4,2,1,60,0,0
58739,-100,4,2,2,60,0,0
58900,-100,4,2,2,60,0,0
59061,-100,4,2,1,60,0,0
59868,-100,4,2,2,60,0,0
60835,-100,4,2,1,60,0,0
65029,-100,4,2,2,60,0,0
65997,-100,4,2,1,60,0,0
67610,-100,4,2,2,60,0,0
68255,-100,4,2,1,60,0,0
70190,-100,4,2,2,60,0,0
71157,-100,4,2,1,60,0,0
75351,-100,4,2,2,60,0,0
76319,-100,4,2,1,60,0,0
77448,-100,4,2,1,70,0,1
77932,-100,4,2,2,70,0,1
78093,-100,4,2,99,5,0,1
78255,-100,4,2,1,70,0,1
88255,-100,4,2,2,70,0,1
88900,-100,4,2,1,70,0,1
90835,-100,4,2,2,70,0,1
91803,-100,4,2,1,70,0,1
91964,-100,4,2,1,70,0,1
92125,-100,4,2,1,70,0,1
95997,-100,4,2,2,70,0,1
96319,-100,4,2,1,70,0,1
96964,-100,4,2,2,70,0,1
97287,-100,4,2,1,70,0,1
97448,-100,4,2,2,70,0,1
98093,-100,4,2,1,50,0,0
102125,-100,4,2,99,5,0,0
102287,-100,4,2,1,50,0,0
112448,-100,4,2,99,5,0,0
112610,-100,4,2,1,50,0,0
118416,-100,4,2,1,50,0,0
118900,-100,4,2,1,60,0,0
120029,-100,4,2,1,60,0,0
120674,-100,4,2,1,60,0,0
122609,-100,4,2,1,60,0,0
123255,-100,4,2,1,60,0,0
123577,-100,4,2,1,60,0,0
124061,-100,4,2,1,60,0,0
128093,-100,4,2,2,60,0,0
128416,-100,4,2,1,60,0,0
130351,-100,4,2,1,60,0,0
130997,-100,4,2,1,60,0,0
132932,-100,4,2,1,60,0,0
133577,-100,4,2,1,60,0,0
133899,-100,4,2,1,60,0,0
134222,-100,4,2,1,60,0,0
135190,-100,4,2,1,60,0,0
135351,-100,4,2,1,60,0,0
136641,-100,4,2,1,60,0,0
136803,-100,4,2,2,60,0,0
137125,-100,4,2,1,60,0,0
137287,-100,4,2,2,60,0,0
137610,-100,4,2,1,60,0,0
138739,-100,4,2,2,60,0,0
139383,-100,4,2,1,60,0,0
140835,-100,4,2,2,60,0,0
141642,-100,4,2,1,60,0,0
142610,-100,4,2,2,60,0,0
143093,-100,4,2,1,60,0,0
144545,-100,4,2,1,60,0,0
144706,-100,4,2,1,60,0,0
145190,-100,4,2,2,60,0,0
145351,-100,4,2,1,60,0,0
148093,-100,4,2,1,60,0,0
148255,-100,4,2,1,60,0,0
149061,-100,4,2,2,60,0,0
149222,-100,4,2,1,60,0,0
151642,-100,4,2,2,60,0,0
151964,-100,4,2,1,60,0,0
152932,-100,4,2,2,60,0,0
153416,-100,4,2,1,60,0,0
156803,-100,4,2,2,60,0,0
157126,-100,4,2,1,60,0,0
159383,-100,4,2,1,60,0,0
159545,-100,4,2,1,60,0,0
160835,-100,4,2,2,60,0,0
161158,-100,4,2,1,60,0,0
161964,-100,4,2,2,60,0,0
162286,-100,4,2,1,60,0,0
162609,-100,4,2,1,60,0,0
162771,-100,4,2,1,60,0,0
163254,-100,4,2,2,60,0,0
163739,-100,4,2,1,60,0,0
166158,-100,4,2,1,60,0,0
166319,-100,4,2,1,60,0,0
167125,-100,4,2,2,60,0,0
167448,-100,4,2,1,60,0,0
168416,-100,4,2,1,60,0,0
168577,-100,4,2,1,60,0,0
169706,-100,4,2,2,60,0,0
169867,-100,4,2,1,60,0,0
170351,-100,4,2,1,50,0,0
174384,-100,4,2,99,5,0,0
174545,-100,4,2,1,50,0,0

[Colours]
Combo1 : 210,124,87
Combo2 : 156,185,68
Combo3 : 122,204,218

[HitObjects]
325,194,2610,5,0,0:0:0:0:
317,217,3255,1,0,0:0:0:0:
309,240,3900,2,0,B|298:248|283:251|283:251|311:282|311:282|261:257|220:286,1,140
176,210,5190,6,0,L|158:337,1,105,2|2,0:0|0:0,0:0:0:0:
81,159,6319,2,0,B|103:187|103:187|92:263,1,105,2|2,0:0|0:0,0:0:0:0:
22,210,7126,2,0,L|9:296,1,70,2|0,0:0|0:0,0:0:0:0:
31,303,7610,1,0,0:0:0:0:
52,326,7771,6,0,P|100:293|158:323,1,105,0|2,0:0|0:0,0:0:0:0:
222,241,8900,2,0,B|236:254|242:275|242:275|271:225|251:155|175:177|185:123,1,210,2|2,0:0|0:0,0:0:0:0:
356,80,10351,6,0,L|244:95,1,105,2|2,0:0|0:0,0:0:0:0:
314,190,11480,2,0,B|334:159|334:159|414:149,1,105,2|2,0:0|0:0,0:0:0:0:
450,221,12287,2,0,L|356:234,1,70,2|0,0:0|0:0,0:0:0:0:
367,255,12771,1,0,0:0:0:0:
355,280,12932,6,0,P|323:249|258:267,1,105,0|2,0:0|0:0,0:0:0:0:
196,117,14384,2,0,B|229:139|266:132|287:99|287:99|281:139,1,140,2|2,0:0|0:0,0:0:0:0:
282,134,15513,5,2,0:0:0:0:
366,202,15997,1,2,0:0:0:0:
329,222,16158,2,0,L|316:332,1,105,8|2,0:0|0:0,0:0:0:0:
312,364,16803,1,0,0:0:0:0:
236,302,17126,1,2,0:0:0:0:
394,258,17448,1,10,0:0:0:0:
339,182,17771,1,0,0:0:0:0:
339,182,17932,1,0,0:0:0:0:
339,182,18093,6,0,L|330:237,2,35
261,207,18577,2,0,L|270:159,1,35,2|8,0:0|0:0,0:0:0:0:
294,272,18900,2,0,B|277:283|254:286|231:277|231:277|221:290|221:290|186:298|162:325,1,140
144,348,19706,1,0,0:0:0:0:
88,285,20029,1,8,0:0:0:0:
114,256,20190,2,0,L|127:167,1,70,2|0,0:0|0:0,0:0:0:0:
75,132,20674,6,0,P|110:113|187:144,1,105,2|2,0:0|0:0,0:0:0:0:
226,71,21319,2,0,P|249:109|239:166,1,105,8|2,0:0|0:0,0:0:0:0:
300,220,21964,1,0,0:0:0:0:
354,116,22287,1,2,0:0:0:0:
413,225,22610,2,0,L|418:190,1,35,10|0,0:0|0:0,0:0:0:0:
482,166,22932,1,0,0:0:0:0:
482,166,23093,1,0,0:0:0:0:
482,166,23255,6,0,B|413:154|413:154|426:136|426:103,1,105,0|2,0:0|0:0,0:0:0:0:
494,97,23900,2,0,P|474:68|434:52,1,70,8|0,0:0|0:0,0:0:0:0:
346,106,24384,2,0,L|357:147,1,35
326,207,24706,2,0,P|352:168|422:156,1,105,2|8,0:0|0:0,0:0:0:0:
447,180,25351,1,2,0:0:0:0:
406,235,25513,1,0,0:0:0:0:
406,235,25674,1,0,0:0:0:0:
406,235,25835,6,0,L|424:355,1,105,2|2,0:0|0:0,0:0:0:0:
362,384,26480,1,8,0:0:0:0:
313,312,26964,1,2,0:0:0:0:
313,312,27126,1,0,0:0:0:0:
200,374,27448,1,2,0:0:0:0:
139,283,27771,1,10,0:0:0:0:
212,211,28093,1,0,0:0:0:0:
212,211,28255,1,0,0:0:0:0:
212,211,28416,6,0,L|205:158,2,35
134,170,28900,2,0,L|142:225,1,35,2|8,0:0|0:0,0:0:0:0:
179,111,29222,2,0,P|132:97|88:109,1,70
112,99,30029,1,0,0:0:0:0:
130,134,30190,2,0,L|122:168,1,35,0|8,0:0|0:0,0:0:0:0:
56,166,30513,2,0,P|82:188|95:220,1,70,2|0,0:0|0:0,0:0:0:0:
174,222,30997,6,0,P|147:255|135:319,1,105,2|2,0:0|0:0,0:0:0:0:
196,370,31642,2,0,L|317:383,1,105,8|2,0:0|0:0,0:0:0:0:
343,305,32287,2,0,L|347:259,1,35
279,264,32610,1,2,0:0:0:0:
279,264,32771,2,0,L|275:298,1,35,0|10,0:0|0:0,0:0:0:0:
209,246,33093,2,0,P|280:224|296:205,1,70
240,131,33577,5,0,0:0:0:0:
263,161,33739,2,0,L|336:175,1,70,0|2,0:0|0:0,0:0:0:0:
389,138,34222,1,8,0:0:0:0:
389,138,34384,2,0,P|373:174|378:215,1,70
454,250,35029,1,2,0:0:0:0:
454,250,35351,2,0,L|465:292,2,35,0|8|2,0:0|0:0|0:0,0:0:0:0:
288,121,36158,6,0,P|291:81|319:119,1,105.000004005432,2|0,0:0|0:0,0:0:0:0:
324,199,36642,1,2,0:0:0:0:
262,160,36803,2,0,P|317:135|383:145,1,105,4|2,3:2|0:0,0:0:0:0:
441,62,37771,6,0,L|431:108,1,35,2|0,0:0|0:0,0:0:0:0:
331,107,38093,1,6,3:2:0:0:
374,50,38255,2,0,L|370:16,2,35
225,53,38739,6,0,P|255:24|258:66,1,105.000004005432
210,141,39222,1,2,0:0:0:0:
273,116,39384,2,0,P|221:111|181:79,1,105,4|2,3:2|0:0,0:0:0:0:
37,82,40513,5,0,0:0:0:0:
128,137,40674,1,4,3:2:0:0:
87,152,40835,2,0,P|101:190|97:240,1,70,2|0,0:0|0:0,0:0:0:0:
38,309,41319,6,0,P|25:275|55:307,1,105.000004005432,2|0,0:0|0:0,0:0:0:0:
97,375,41803,1,2,0:0:0:0:
30,363,41964,2,0,B|60:316|60:316|125:307,1,105,4|2,3:2|0:0,0:0:0:0:
226,332,42771,5,0,0:0:0:0:
199,297,42932,2,0,L|214:249,1,35,2|0,0:0|0:0,0:0:0:0:
287,290,43255,2,0,B|291:273|289:256|289:256|266:224|272:182,1,105,6|0,3:2|0:0,0:0:0:0:
365,195,43900,6,0,P|384:166|393:212,1,105.000004005432
349,282,44384,1,2,0:0:0:0:
412,257,44545,2,0,B|360:255|360:255|323:217,1,105,4|0,3:2|0:0,0:0:0:0:
199,102,45351,5,10,0:0:0:0:
240,162,45513,2,0,L|227:207,1,35,8|8,0:0|0:0,0:0:0:0:
300,125,45835,1,4,3:2:0:0:
344,174,45997,1,2,0:0:0:0:
381,139,46158,1,8,0:3:0:0:
411,165,46319,1,8,0:3:0:0:
472,111,46480,6,0,P|441:83|444:125,1,105.000004005432,2|0,0:0|0:0,0:0:0:0:
499,198,46964,1,2,0:0:0:0:
437,172,47126,2,0,B|456:152|463:125|463:125|490:136|517:133,1,105,4|2,3:2|0:0,0:0:0:0:
492,18,48093,6,0,L|477:60,1,35,2|0,0:0|0:0,0:0:0:0:
367,13,48416,1,6,3:2:0:0:
410,73,48577,2,0,L|421:123,2,35
314,138,49061,6,0,P|316:98|292:133,1,105.000004005432
270,212,49545,1,2,0:0:0:0:
332,176,49706,2,0,B|311:169|282:181|282:181|275:154|250:138,1,105,4|2,3:2|0:0,0:0:0:0:
116,138,50835,5,0,0:0:0:0:
205,59,50997,1,4,3:2:0:0:
144,21,51158,2,0,P|163:68|166:96,1,70,2|0,0:0|0:0,0:0:0:0:
67,99,51642,6,0,P|36:72|45:112,1,105.000004005432,2|0,0:0|0:0,0:0:0:0:
102,193,52126,1,2,0:0:0:0:
42,171,52287,2,0,B|53:156|58:134|58:134|82:122|82:122|109:133|144:130,1,105,4|2,3:2|0:0,0:0:0:0:
221,183,53093,5,0,0:0:0:0:
183,202,53255,2,0,L|173:245,1,35,2|0,0:0|0:0,0:0:0:0:
208,299,53577,2,0,P|163:259|121:265,1,105,6|0,3:2|0:0,0:0:0:0:
79,355,54222,6,0,L|-16:380,1,70,8|0,0:0|0:0,0:0:0:0:
43,285,54706,1,10,0:0:0:0:
149,384,55029,1,4,3:2:0:0:
222,248,55351,1,4,3:2:0:0:
222,248,55674,2,0,B|243:262|243:262|227:287|227:336,1,70,2|8,0:0|0:3,0:0:0:0:
300,358,56158,1,12,0:0:0:0:
406,173,56803,6,0,L|423:266,1,70,2|0,3:2|0:0,0:0:0:0:
475,136,57287,2,0,L|500:272,1,105,10|0,0:0|0:0,0:0:0:0:
347,220,57932,2,0,L|272:233,1,70,2|0,3:2|0:0,0:0:0:0:
207,219,58416,1,2,3:2:0:0:
212,257,58577,1,0,0:0:0:0:
148,249,58739,2,0,L|110:254,1,35,10|0,0:0|0:0,0:0:0:0:
49,264,59061,1,0,3:0:0:0:
16,269,59222,1,0,3:0:0:0:
1,168,59384,6,0,L|83:185,1,70,0|0,3:0|0:0,0:0:0:0:
49,107,59868,2,0,L|169:130,1,105,10|0,0:0|0:0,0:0:0:0:
135,52,60513,2,0,L|223:69,1,70,10|0,0:0|3:0,0:0:0:0:
257,6,60997,2,0,L|209:-3,1,35
191,134,61319,1,8,0:0:0:0:
261,113,61480,2,0,L|349:130,1,70,2|0,0:0|0:0,0:0:0:0:
400,77,61964,6,0,L|413:158,1,70,2|0,3:2|0:0,0:0:0:0:
475,187,62448,1,2,0:0:0:0:
359,202,62610,2,0,L|366:250,2,35,8|0|0,0:0|0:0|0:0,0:0:0:0:
428,273,63093,2,0,L|441:354,1,70,2|0,3:2|0:0,0:0:0:0:
489,214,63577,2,0,L|500:276,1,35,2|0,3:2|0:0,0:0:0:0:
424,174,63900,1,10,3:2:0:0:
395,251,64061,2,0,L|326:263,1,70,0|0,0:0|3:0,0:0:0:0:
260,206,64545,6,0,L|238:283,1,70,0|0,3:0|0:0,0:0:0:0:
194,184,65029,2,0,L|163:280,2,70,10|0|0,0:0|0:0|0:0,0:0:0:0:
91,262,65997,1,2,3:2:0:0:
91,262,66158,2,0,L|102:229,1,35,0|0,3:0|0:0,0:0:0:0:
139,315,66480,1,8,0:0:0:0:
205,292,66642,1,2,0:0:0:0:
252,341,66803,1,4,3:2:0:0:
312,210,67126,6,0,L|320:295,1,70,2|0,3:2|0:0,0:0:0:0:
242,194,67610,2,0,L|252:313,1,105,10|0,0:0|0:0,0:0:0:0:
384,236,68255,2,0,L|474:228,1,70,2|0,3:2|0:0,0:0:0:0:
411,132,68739,1,2,3:2:0:0:
414,170,68900,1,0,0:0:0:0:
425,298,69061,2,0,L|430:366,1,35,10|0,3:2|0:0,0:0:0:0:
384,236,69384,1,0,3:0:0:0:
454,230,69545,1,0,3:0:0:0:
414,170,69706,6,0,L|408:98,1,70,0|0,3:0|0:0,0:0:0:0:
348,37,70190,2,0,L|234:16,1,105,10|0,0:0|0:0,0:0:0:0:
177,68,70835,2,0,L|185:159,1,70,10|0,0:0|3:0,0:0:0:0:
258,133,71319,2,0,L|253:77,1,35
304,191,71642,1,8,0:0:0:0:
333,123,71803,2,0,L|402:137,1,70,2|0,3:2|0:0,0:0:0:0:
275,256,72287,6,0,L|208:277,1,70,2|0,3:2|0:0,0:0:0:0:
149,232,72771,1,2,0:0:0:0:
180,162,72932,2,0,L|214:153,2,35,8|0|0,0:0|0:0|0:0,0:0:0:0:
123,116,73416,2,0,L|55:136,1,70,2|0,3:2|0:0,0:0:0:0:
88,49,73900,2,0,L|46:62,1,35,2|0,3:2|0:0,0:0:0:0:
54,211,74222,1,10,3:2:0:0:
131,187,74384,2,0,L|115:267,1,70,0|0,0:0|3:0,0:0:0:0:
188,293,74868,6,0,L|207:373,1,70,0|0,3:0|0:0,0:0:0:0:
261,274,75351,2,0,L|280:354,2,70,10|0|0,0:0|0:0|0:0,0:0:0:0:
372,332,76319,1,2,3:2:0:0:
372,332,76480,2,0,L|360:381,1,35,0|0,3:0|0:0,0:0:0:0:
456,300,76803,1,8,0:0:0:0:
456,300,77126,5,0,0:0:0:0:
503,374,77448,6,0,L|427:385,1,70,2|0,3:2|0:0,0:0:0:0:
383,281,77932,2,0,P|415:293|431:306,1,35,10|0,0:0|0:0,0:0:0:0:
474,236,78255,2,0,P|491:269|494:313,2,70,2|2|0,0:0|3:2|0:0,0:0:0:0:
403,218,79061,1,0,3:0:0:0:
451,164,79222,2,0,P|451:140|445:112,1,35,2|8,0:0|0:0,0:0:0:0:
509,85,79545,2,0,P|472:59|424:59,1,70,2|2,0:0|3:2,0:0:0:0:
362,6,80029,6,0,L|376:49,1,35,0|0,3:0|0:0,0:0:0:0:
326,92,80351,1,2,0:0:0:0:
261,69,80513,1,10,0:0:0:0:
222,129,80674,1,2,0:0:0:0:
222,129,80835,1,2,0:0:0:0:
168,16,81158,5,2,3:2:0:0:
103,150,81480,2,0,P|156:105|161:90,1,70,2|2,3:2|0:0,0:0:0:0:
91,80,81964,1,10,0:0:0:0:
41,126,82126,1,2,3:2:0:0:
6,13,82448,6,0,P|23:36|27:58,1,35,2|0,0:0|3:0,0:0:0:0:
102,36,82771,2,0,P|92:84|61:108,1,70,2|2,0:0|0:0,0:0:0:0:
15,126,83255,1,10,0:0:0:0:
48,184,83416,1,2,0:0:0:0:
17,243,83577,1,2,0:0:0:0:
17,243,83739,6,0,P|58:215|108:222,1,70,2|2,3:2|0:0,0:0:0:0:
127,165,84222,2,0,P|142:189|143:212,1,35,2|2,3:2|0:0,0:0:0:0:
220,204,84545,2,0,P|198:235|189:277,1,70,10|2,3:2|0:0,0:0:0:0:
196,329,85029,6,0,P|168:292|124:289,1,70,2|2,0:0|0:0,0:0:0:0:
79,312,85513,1,2,0:0:0:0:
129,359,85674,1,10,0:0:0:0:
250,267,85997,1,2,0:0:0:0:
340,377,86319,1,2,0:0:0:0:
413,232,86642,1,2,3:2:0:0:
413,232,86803,2,0,P|419:251|421:274,1,35,0|0,3:0|0:0,0:0:0:0:
343,210,87126,1,10,0:0:0:0:
356,278,87287,2,0,P|351:300|342:321,1,35,2|0,0:0|3:2,0:0:0:0:
448,350,87771,5,2,3:2:0:0:
448,350,87932,2,0,P|463:328|465:304,1,35,2|0,0:0|0:0,0:0:0:0:
509,268,88255,2,0,P|493:241|474:226,1,35,10|0,0:0|0:0,0:0:0:0:
497,175,88577,2,0,P|467:163|451:162,1,35,2|0,0:0|0:0,0:0:0:0:
430,104,88900,2,0,P|407:104|387:112,1,35,2|0,3:2|0:0,0:0:0:0:
331,78,89222,2,0,P|320:94|313:117,2,35,2|0|0,0:0|3:0|0:0,0:0:0:0:
206,31,89706,1,10,0:0:0:0:
248,85,89868,2,0,P|249:127|266:159,1,70,2|0,0:0|3:0,0:0:0:0:
392,172,90351,5,2,3:2:0:0:
392,172,90513,1,2,0:0:0:0:
265,229,90835,2,0,P|311:210|326:189,1,70,10|2,0:0|0:0,0:0:0:0:
203,111,91319,1,2,0:0:0:0:
261,152,91480,1,10,0:0:0:0:
249,222,91642,1,2,0:0:0:0:
309,261,91803,2,0,P|316:284|316:316,2,35,2|0|0,3:2|0:0|0:0,0:0:0:0:
394,195,92287,1,12,0:0:0:0:
394,195,92448,2,0,L|378:270,1,70,0|2,0:0|0:0,0:0:0:0:
305,269,92932,5,2,3:2:0:0:
299,339,93093,1,2,0:0:0:0:
237,368,93255,1,2,0:0:0:0:
182,332,93416,1,2,0:0:0:0:
182,332,93577,2,0,P|162:338|144:350,2,35,10|2|2,0:0|0:0|0:0,0:0:0:0:
141,240,94061,2,0,P|151:263|146:314,1,70,2|2,3:2|0:0,0:0:0:0:
229,198,94545,2,0,P|216:246|195:274,1,70,2|10,3:2|0:0,0:0:0:0:
82,283,95029,2,0,P|56:261|23:252,1,70,2|0,0:0|3:0,0:0:0:0:
27,321,95513,5,2,3:2:0:0:
90,234,95674,2,0,P|91:212|86:195,1,35,2|0,0:0|0:0,0:0:0:0:
32,157,95997,1,8,0:0:0:0:
167,64,96319,2,0,P|158:96|148:110,1,35,10|8,0:3|0:3,0:0:0:0:
68,3,96642,2,0,P|93:41|97:71,1,70,2|8,3:2|0:0,0:0:0:0:
223,127,97287,5,8,0:3:0:0:
167,169,97448,1,14,0:0:0:0:
356,284,98093,6,0,P|338:248|309:223,1,70,2|0,0:0|0:0,0:0:0:0:
317,124,98577,1,2,0:0:0:0:
311,154,98739,2,0,P|278:176|242:183,1,70,8|0,3:2|0:0,0:0:0:0:
216,266,99222,1,2,0:0:0:0:
235,291,99384,2,0,L|219:366,2,70,0|2|10,0:0|0:0|3:2,0:0:0:0:
354,383,100351,5,0,0:0:0:0:
343,346,100513,1,0,0:0:0:0:
416,286,100674,2,0,L|409:331,2,35
484,297,101158,2,0,L|476:347,1,35,2|8,0:0|3:2,0:0:0:0:
433,243,101480,2,0,B|464:219|500:225|500:225|504:187|479:157,1,140
459,145,102287,1,0,0:0:0:0:
343,184,102610,1,8,3:2:0:0:
369,159,102771,2,0,L|375:100,2,35,2|0|0,0:0|0:0|0:0,0:0:0:0:
282,69,103255,6,0,P|286:112|307:147,1,70,2|0,0:0|0:0,0:0:0:0:
239,188,103739,1,2,0:0:0:0:
269,215,103900,2,0,L|259:303,1,70,8|0,3:2|0:0,0:0:0:0:
336,325,104384,1,2,0:0:0:0:
308,343,104545,2,0,P|263:333|230:359,1,70,0|2,0:0|0:0,0:0:0:0:
143,245,105190,1,10,3:2:0:0:
132,284,105351,2,0,L|54:317,1,70
15,213,105835,6,0,P|66:221|90:248,1,70
178,190,106319,1,2,0:0:0:0:
196,219,106480,2,0,L|190:258,2,35,8|0|0,3:2|0:0|0:0,0:0:0:0:
111,164,106964,2,0,L|118:207,1,35
184,139,107287,2,0,P|183:96|161:67,1,70,2|0,0:0|0:0,0:0:0:0:
74,56,107771,1,8,3:2:0:0:
96,90,107932,2,0,L|88:133,2,35,2|0|0,0:0|0:0|0:0,0:0:0:0:
215,22,108416,6,0,P|276:20|318:43,1,105,0|2,0:0|0:0,0:0:0:0:
395,22,109061,2,0,P|419:70|416:115,1,70,8|0,3:2|0:0,0:0:0:0:
494,131,109545,1,2,0:0:0:0:
460,144,109706,2,0,L|441:212,2,70,0|2|10,0:0|0:0|3:2,0:0:0:0:
335,132,110674,5,0,0:0:0:0:
344,159,110835,1,0,0:0:0:0:
271,197,110997,2,0,L|265:254,2,35
201,186,111480,2,0,L|195:237,1,35,2|8,0:0|3:2,0:0:0:0:
160,124,111803,2,0,B|113:109|97:121|97:121|86:108|86:108|43:120|17:121,1,140
9,146,112610,1,0,0:0:0:0:
112,224,112932,1,8,3:2:0:0:
73,240,113093,2,0,L|65:282,2,35,2|0|0,0:0|0:0|0:0,0:0:0:0:
139,322,113577,6,0,P|171:283|247:278,1,105,0|2,0:0|0:0,0:0:0:0:
308,245,114222,2,0,L|298:318,1,70,8|0,3:2|0:0,0:0:0:0:
383,362,114706,1,2,0:0:0:0:
370,323,114868,2,0,L|451:331,1,70,0|2,0:0|0:0,0:0:0:0:
467,306,115351,1,0,0:0:0:0:
450,235,115513,1,10,3:2:0:0:
474,208,115674,2,0,P|447:172|405:166,1,70
355,216,116158,6,0,P|318:232|298:267,1,70
212,220,116642,1,2,0:0:0:0:
228,253,116803,2,0,L|214:317,2,35,8|0|0,3:2|0:0|0:0,0:0:0:0:
289,200,117287,1,0,0:0:0:0:
183,137,117610,2,0,L|102:158,1,70,2|0,0:0|0:0,0:0:0:0:
68,101,118093,1,8,3:2:0:0:
133,80,118255,2,0,L|144:47,2,35,2|0|0,0:0|0:0|0:0,0:0:0:0:
281,19,118900,6,0,L|305:129,1,105,2|6,0:0|3:2,0:0:0:0:
413,140,119706,1,0,0:0:0:0:
384,165,119868,2,0,L|398:228,1,35,2|0,0:0|0:0,0:0:0:0:
232,270,120674,5,4,3:2:0:0:
257,298,120835,2,0,L|247:354,2,35,2|0|0,0:0|0:0|0:0,0:0:0:0:
436,352,121480,6,0,L|327:373,1,105,2|6,0:0|3:2,0:0:0:0:
362,249,122287,1,0,0:0:0:0:
380,278,122448,2,0,L|427:284,1,35,2|0,0:0|0:0,0:0:0:0:
299,139,123255,5,4,3:2:0:0:
326,113,123416,2,0,L|378:118,1,35,2|0,0:0|0:0,0:0:0:0:
241,9,124061,6,0,L|254:88,1,70,2|0,0:0|0:0,0:0:0:0:
193,127,124545,1,4,3:2:0:0:
219,147,124706,1,2,0:0:0:0:
161,241,125029,2,0,L|174:324,1,70,2|0,0:0|0:0,0:0:0:0:
99,322,125513,2,0,L|88:247,2,70,0|4|0,0:0|3:2|0:0,0:0:0:0:
13,380,126480,5,0,0:0:0:0:
121,336,126803,2,0,L|196:351,1,70,2|4,0:0|3:2,0:0:0:0:
242,307,127287,1,2,0:0:0:0:
325,384,127610,2,0,L|437:359,1,105,2|8,0:0|0:0,0:0:0:0:
453,296,128255,1,8,0:0:0:0:
383,274,128416,2,0,L|370:242,1,35,4|2,3:2|0:0,0:0:0:0:
406,177,128739,1,8,0:3:0:0:
406,177,128900,1,8,0:3:0:0:
207,146,129222,6,0,L|310:104,1,105,2|6,0:0|3:2,0:0:0:0:
458,141,130029,1,0,0:0:0:0:
464,105,130190,2,0,L|505:86,1,35,2|0,0:0|0:0,0:0:0:0:
343,2,130997,5,4,3:2:0:0:
349,38,131158,2,0,L|390:57,2,35,2|0|0,0:0|0:0|0:0,0:0:0:0:
239,87,131803,6,0,L|223:194,1,105,2|6,0:0|3:2,0:0:0:0:
90,182,132610,1,0,0:0:0:0:
110,212,132771,2,0,L|103:257,1,35,2|0,0:0|0:0,0:0:0:0:
280,277,133577,5,4,3:2:0:0:
260,307,133739,2,0,L|267:352,1,35,2|0,0:0|0:0,0:0:0:0:
120,378,134222,5,0,0:0:0:0:
143,351,134384,2,0,L|32:361,1,105,2|4,0:0|3:2,0:0:0:0:
96,284,135029,2,0,L|56:289,1,35,2|0,0:0|0:0,0:0:0:0:
75,218,135351,2,0,L|67:127,1,70,2|0,0:0|0:0,0:0:0:0:
45,121,135835,1,0,0:0:0:0:
165,38,136158,2,0,P|168:89|120:128,1,105,4|0,3:2|0:0,0:0:0:0:
76,80,136803,6,0,L|5:65,1,70,8|2,0:0|0:0,0:0:0:0:
43,144,137287,2,0,L|4:135,1,35,8|0,0:0|0:0,0:0:0:0:
10,210,137610,1,2,3:2:0:0:
176,138,137932,1,2,3:2:0:0:
153,243,138255,5,8,0:3:0:0:
287,266,138577,1,8,0:3:0:0:
304,299,138739,1,8,0:0:0:0:
354,214,138900,2,0,P|313:191|333:129,1,105,2|0,0:0|0:0,0:0:0:0:
391,105,139545,6,0,L|430:112,1,35
423,47,139868,2,0,P|453:39|464:43,1,35,2|0,0:0|0:0,0:0:0:0:
493,100,140190,2,0,P|504:125|501:140,1,35,2|0,0:0|0:0,0:0:0:0:
443,172,140513,2,0,P|436:204|385:223,1,70,2|10,0:0|0:0,0:0:0:0:
453,282,140997,1,8,0:3:0:0:
401,329,141158,1,8,0:3:0:0:
353,274,141319,1,8,0:3:0:0:
299,323,141480,1,10,0:0:0:0:
299,323,141642,2,0,P|258:299|223:303,1,70,4|0,3:2|0:0,0:0:0:0:
139,271,142126,6,0,P|165:230|209:214,1,70,2|2,3:2|0:0,0:0:0:0:
260,229,142610,1,8,0:0:0:0:
230,160,142771,1,2,0:0:0:0:
82,220,143093,6,0,B|104:244|73:267|101:294,1,70,2|2,3:2|0:0,0:0:0:0:
146,338,143577,1,2,0:0:0:0:
76,358,143739,2,0,P|57:348|27:351,1,35,2|8,0:0|0:0,0:0:0:0:
18,258,144061,1,0,3:0:0:0:
205,290,144384,6,0,P|224:289|239:296,1,35,2|0,0:0|0:0,0:0:0:0:
293,207,144706,1,2,3:2:0:0:
305,276,144868,1,2,0:0:0:0:
359,232,145029,2,0,L|418:220,2,35,2|8|0,0:0|0:0|3:0,0:0:0:0:
427,285,145513,1,2,0:0:0:0:
414,352,145674,1,2,3:2:0:0:
312,298,145997,6,0,B|286:338|241:304|211:370,1,105,2|8,0:0|0:0,0:0:0:0:
126,284,146642,2,0,P|152:318|150:356,1,70,2|0,0:0|3:0,0:0:0:0:
86,378,147126,1,0,3:0:0:0:
38,305,147287,6,0,P|53:269|68:262,1,35,2|0,0:0|0:0,0:0:0:0:
34,203,147610,2,0,P|73:192|87:194,1,35,10|0,0:0|0:0,0:0:0:0:
83,120,147932,2,0,P|113:127|127:142,1,35,2|0,0:0|0:0,0:0:0:0:
192,97,148255,1,2,0:0:0:0:
192,97,148416,1,2,0:0:0:0:
219,160,148577,2,0,P|204:192|201:233,1,70,2|0,3:2|0:0,0:0:0:0:
117,189,149061,1,8,0:0:0:0:
141,171,149222,2,0,L|131:93,1,70,0|8,3:0|0:3,0:0:0:0:
5,45,149868,5,0,3:0:0:0:
175,6,150190,1,2,0:0:0:0:
161,39,150351,2,0,B|206:14|211:55|262:26,2,105,10|0|2,3:2|3:0|0:0,0:0:0:0:
281,132,151642,2,0,L|331:117,2,35,8|0|0,0:0|0:0|3:0,0:0:0:0:
361,177,152126,2,0,P|383:173|402:159,1,35,2|0,0:0|0:0,0:0:0:0:
432,230,152448,6,0,P|428:195|445:165,1,70,2|2,3:2|0:0,0:0:0:0:
506,132,152932,1,10,0:0:0:0:
487,61,153093,1,2,0:0:0:0:
351,39,153416,2,0,B|363:66|326:74|338:125,1,70,2|2,3:2|0:0,0:0:0:0:
370,173,153900,1,2,0:0:0:0:
317,222,154061,2,0,P|325:243|328:267,1,35,2|8,0:0|0:0,0:0:0:0:
245,206,154384,1,0,3:0:0:0:
145,303,154706,1,2,0:0:0:0:
158,151,155029,6,0,P|171:191|168:248,1,70,2|0,3:2|0:0,0:0:0:0:
110,250,155513,1,10,0:0:0:0:
97,313,155674,1,2,3:2:0:0:
244,280,155997,1,0,3:0:0:0:
256,342,156158,1,2,0:0:0:0:
323,321,156319,1,2,0:0:0:0:
377,361,156480,1,2,0:0:0:0:
406,302,156642,2,0,L|452:312,2,35,2|8|0,0:0|0:0|0:0,0:0:0:0:
341,216,157126,6,0,P|343:243|358:262,1,35,2|2,3:2|0:0,0:0:0:0:
439,157,157448,1,2,3:2:0:0:
417,186,157610,2,0,P|417:213|412:227,1,35,2|0,0:0|0:0,0:0:0:0:
350,113,157932,1,10,0:0:0:0:
265,178,158255,2,0,B|256:145|218:167|206:113,1,70,2|2,0:0|0:0,0:0:0:0:
156,199,158739,1,2,0:0:0:0:
92,178,158900,2,0,P|66:187|54:205,1,35,2|2,3:2|0:0,0:0:0:0:
11,117,159222,2,0,P|12:157|28:177,1,35,2|0,0:0|0:0,0:0:0:0:
63,258,159545,2,0,P|75:279|72:310,2,35,2|0|2,3:2|0:0|0:0,0:0:0:0:
205,212,160190,6,0,L|198:259,1,35,0|2,3:0|0:0,0:0:0:0:
139,182,160513,2,0,P|190:172|220:147,1,70,2|2,0:0|0:0,0:0:0:0:
302,255,161158,2,0,P|259:246|231:227,1,70,2|2,3:2|0:0,0:0:0:0:
365,156,161803,5,0,0:0:0:0:
307,113,161964,2,0,L|268:120,2,35,10|2|0,0:0|0:0|3:0,0:0:0:0:
346,51,162448,2,0,P|359:37|385:32,1,35,2|0,0:0|0:0,0:0:0:0:
276,32,162771,6,0,P|258:14|236:6,1,35,2|2,3:2|0:0,0:0:0:0:
225,84,163093,2,0,P|205:97|180:100,1,35,2|8,0:0|0:0,0:0:0:0:
175,18,163416,2,0,P|141:16|123:26,1,35,2|0,0:0|0:0,0:0:0:0:
172,172,163739,2,0,P|165:185|138:205,1,35,2|0,3:2|0:0,0:0:0:0:
107,73,164061,2,0,P|89:88|75:117,1,35,2|0,0:0|0:0,0:0:0:0:
100,159,164384,2,0,P|102:185|110:207,1,35,2|8,0:0|0:0,0:0:0:0:
202,223,164706,1,2,3:2:0:0:
172,243,164868,2,0,P|169:273|147:321,1,70,2|0,0:0|0:0,0:0:0:0:
85,349,165351,5,2,3:2:0:0:
251,275,165674,1,2,0:0:0:0:
295,322,165835,1,10,0:0:0:0:
355,290,165997,2,0,P|369:288|398:304,1,35,2|0,3:2|0:0,0:0:0:0:
406,201,166319,2,0,B|427:216|410:248|434:268,1,70,2|0,3:2|0:0,0:0:0:0:
500,316,166803,1,2,0:0:0:0:
473,341,166964,2,0,L|467:383,2,35,2|8|0,0:0|0:0|0:0,0:0:0:0:
409,288,167448,1,0,3:0:0:0:
392,378,167610,1,2,3:2:0:0:
382,344,167771,6,0,B|356:318|332:338|300:327,1,70,2|2,3:2|0:0,0:0:0:0:
264,273,168255,2,0,P|223:293|215:309,1,35,10|0,0:0|0:0,0:0:0:0:
204,349,168577,1,2,0:0:0:0:
142,324,168739,1,2,0:0:0:0:
93,373,168900,1,2,0:0:0:0:
93,373,169061,6,0,P|113:313|112:275,1,70,2|2,0:0|0:0,0:0:0:0:
66,203,169545,2,0,P|68:220|74:236,2,35,2|8|14,0:0|0:0|0:3,0:0:0:0:
248,108,170351,5,2,0:0:0:0:
127,52,170835,1,2,0:0:0:0:
151,71,170997,2,0,L|163:183,1,105,0|2,0:0|0:0,0:0:0:0:
167,212,171642,1,0,0:0:0:0:
273,166,171964,1,2,0:0:0:0:
316,286,172287,1,2,0:0:0:0:
408,211,172610,2,0,L|366:216,1,35
404,135,172932,6,0,L|456:142,2,35
362,74,173416,1,2,0:0:0:0:
475,24,173739,2,0,B|486:63|463:87|463:87|470:105|470:105|451:139|456:176,1,140
469,192,174545,2,0,P|453:211|447:268,1,70
467,317,175029,2,0,L|388:353,1,70,2|0,0:0|0:0,0:0:0:0:
346,287,175513,6,0,P|310:262|250:258,1,105,2|2,0:0|0:0,0:0:0:0:
182,297,176158,1,0,0:0:0:0:
118,188,176642,1,2,0:0:0:0:
98,221,176803,1,0,0:0:0:0:
8,138,177126,1,2,0:0:0:0:
118,45,177448,1,2,0:0:0:0:
135,82,177610,2,0,L|191:94,2,35
225,32,178093,6,0,P|272:11|340:25,1,105,0|2,0:0|0:0,0:0:0:0:
406,180,179384,5,0,0:0:0:0:
406,180,179545,2,0,P|370:147|296:151,1,105,2|4,0:0|0:0,0:0:0:0:
305,170,180190,1,2,0:0:0:0:
