osu file format v14

[General]
AudioFilename: audio.mp3
AudioLeadIn: 0
PreviewTime: 76319
Countdown: 0
SampleSet: Soft
StackLeniency: 0.3
Mode: 0
LetterboxInBreaks: 0
WidescreenStoryboard: 0

[Editor]
Bookmarks: 5190,15513,36158,56803,77448,98093,118739,139384,170351
DistanceSpacing: 1
BeatDivisor: 8
GridSize: 32
TimelineZoom: 3.799999

[Metadata]
Title:The Birds
TitleUnicode:The Birds
Artist:twiddy
ArtistUnicode:twiddy
Creator:Striderin
Version:The Eagle
Source:
Tags:english electronic funk
BeatmapID:2148398
BeatmapSetID:1027359

[Difficulty]
HPDrainRate:5
CircleSize:5.3
OverallDifficulty:7.5
ApproachRate:8.6
SliderMultiplier:1.4
SliderTickRate:2

[Events]
//Background and Video events
0,0,"71064337_p0.jpg",0,0
//Break Periods
//Storyboard Layer 0 (Background)
//Storyboard Layer 1 (Fail)
//Storyboard Layer 2 (Pass)
//Storyboard Layer 3 (Foreground)
//Storyboard Layer 4 (Overlay)
//Storyboard Sound Samples

[TimingPoints]
2610,645.161290322581,4,2,1,40,1,0
2610,-100,4,2,1,40,0,0
7771,-133.333333333333,4,2,1,40,0,0
8093,-133.333333333333,4,2,99,5,0,0
8255,-100,4,2,1,40,0,0
9868,-133.333333333333,4,2,1,40,0,0
10190,-133.333333333333,4,2,99,5,0,0
10351,-100,4,2,1,40,0,0
15513,-100,4,2,1,40,0,0
19545,-100,4,2,99,5,0,0
19706,-100,4,2,1,40,0,0
19868,-100,4,2,99,5,0,0
20029,-100,4,2,1,40,0,0
36158,-33.3333333333333,4,2,1,60,0,1
36239,-33.3333333333333,4,2,99,5,0,1
36480,-33.3333333333333,4,2,1,60,0,1
36722,-33.3333333333333,4,2,99,5,0,1
36803,-100,4,2,1,60,0,1
37287,-33.3333333333333,4,2,1,60,0,1
37368,-33.3333333333333,4,2,99,5,0,1
37771,-33.3333333333333,4,2,1,60,0,1
37851,-33.3333333333333,4,2,99,5,0,1
37932,-33.3333333333333,4,2,1,60,0,1
38174,-33.3333333333333,4,2,99,5,0,1
38255,-100,4,2,1,60,0,1
39222,-50,4,2,1,60,0,1
39303,-50,4,2,99,5,0,1
39384,-100,4,2,1,60,0,1
39868,-50,4,2,1,60,0,1
39948,-50,4,2,99,5,0,1
40513,-50,4,2,1,60,0,1
40916,-50,4,2,99,5,0,1
41319,-40,4,2,1,60,0,1
41400,-40,4,2,99,5,0,1
41803,-40,4,2,1,60,0,1
41884,-40,4,2,99,5,0,1
41964,-100,4,2,1,60,0,1
42448,-40,4,2,1,60,0,1
42529,-40,4,2,99,5,0,1
42771,-40,4,2,1,60,0,1
43013,-40,4,2,99,5,0,1
43093,-40,4,2,1,60,0,1
43335,-40,4,2,99,5,0,1
43416,-100,4,2,1,60,0,1
44384,-50,4,2,1,60,0,1
44464,-50,4,2,99,5,0,1
44545,-100,4,2,1,60,0,1
45351,-50,4,2,2,60,0,1
45432,-50,4,2,99,5,0,1
45513,-50,4,2,2,60,0,1
45835,-50,4,2,1,60,0,1
46077,-50,4,2,99,5,0,1
46158,-50,4,2,1,60,0,1
46480,-33.3333333333333,4,2,1,60,0,1
46561,-33.3333333333333,4,2,99,5,0,1
46803,-33.3333333333333,4,2,1,60,0,1
47045,-33.3333333333333,4,2,99,5,0,1
47126,-100,4,2,1,60,0,1
47610,-33.3333333333333,4,2,1,60,0,1
47690,-33.3333333333333,4,2,99,5,0,1
48093,-33.3333333333333,4,2,1,60,0,1
48174,-33.3333333333333,4,2,99,5,0,1
48255,-33.3333333333333,4,2,1,60,0,1
48497,-33.3333333333333,4,2,99,5,0,1
48577,-100,4,2,1,60,0,1
49545,-50,4,2,1,60,0,1
49626,-50,4,2,99,5,0,1
49706,-100,4,2,1,60,0,1
50190,-50,4,2,1,60,0,1
50271,-50,4,2,99,5,0,1
50835,-50,4,2,1,60,0,1
51239,-50,4,2,99,5,0,1
51642,-40,4,2,1,60,0,1
51722,-40,4,2,99,5,0,1
52126,-40,4,2,1,60,0,1
52206,-40,4,2,99,5,0,1
52287,-100,4,2,1,60,0,1
52771,-40,4,2,1,60,0,1
52851,-40,4,2,99,5,0,1
53093,-40,4,2,1,60,0,1
53335,-40,4,2,99,5,0,1
53416,-40,4,2,1,60,0,1
53658,-40,4,2,99,5,0,1
53739,-100,4,2,1,60,0,1
54222,-100,4,2,2,60,0,1
54706,-50,4,2,2,60,0,1
54787,-50,4,2,99,5,0,1
55029,-100,4,2,1,60,0,1
56158,-100,4,2,2,60,0,1
56803,-100,4,2,1,60,0,0
57287,-100,4,2,2,60,0,0
57932,-100,4,2,1,60,0,0
58739,-100,4,2,2,60,0,0
59061,-100,4,2,1,60,0,0
59868,-100,4,2,2,60,0,0
60835,-100,4,2,1,60,0,0
65029,-100,4,2,2,60,0,0
65997,-100,4,2,1,60,0,0
67610,-100,4,2,2,60,0,0
68255,-100,4,2,1,60,0,0
70190,-100,4,2,2,60,0,0
71158,-100,4,2,1,60,0,0
75351,-100,4,2,2,60,0,0
76319,-100,4,2,1,60,0,0
77126,-33.3333333333333,4,2,1,60,0,0
77287,-33.3333333333333,4,2,99,5,0,0
77448,-100,4,2,1,70,0,1
77932,-100,4,2,2,70,0,1
78093,-100,4,2,99,5,0,1
78255,-100,4,2,1,70,0,1
78497,-100,4,2,99,5,0,1
78577,-100,4,2,1,70,0,1
79787,-100,4,2,99,5,0,1
79868,-100,4,2,1,70,0,1
81077,-100,4,2,99,5,0,1
81158,-100,4,2,1,70,0,1
88255,-100,4,2,2,70,0,1
88900,-100,4,2,1,70,0,1
90835,-100,4,2,2,70,0,1
91803,-100,4,2,1,70,0,1
95997,-100,4,2,2,70,0,1
96319,-100,4,2,1,70,0,1
96642,-100,4,2,1,70,0,1
96964,-100,4,2,2,70,0,1
97287,-100,4,2,1,70,0,1
97448,-100,4,2,2,70,0,1
98093,-100,4,2,1,50,0,0
102126,-100,4,2,99,5,0,0
102287,-100,4,2,1,50,0,0
112448,-100,4,2,99,5,0,0
112610,-100,4,2,1,50,0,0
118900,-33.3333333333333,4,2,1,60,0,0
118980,-33.3333333333333,4,2,99,5,0,0
119384,-33.3333333333333,4,2,1,60,0,0
119464,-33.3333333333333,4,2,99,5,0,0
119706,-33.3333333333333,4,2,1,60,0,0
119948,-33.3333333333333,4,2,99,5,0,0
120351,-100,4,2,1,60,0,0
120835,-33.3333333333333,4,2,1,60,0,0
120916,-33.3333333333333,4,2,99,5,0,0
120997,-100,4,2,1,60,0,0
121480,-50,4,2,1,60,0,0
121561,-50,4,2,99,5,0,0
121803,-50,4,2,1,60,0,0
122045,-50,4,2,99,5,0,0
122287,-50,4,2,1,60,0,0
122529,-50,4,2,99,5,0,0
122932,-50,4,2,1,60,0,0
123497,-50,4,2,99,5,0,0
124061,-40,4,2,1,60,0,0
124142,-40,4,2,99,5,0,0
124384,-40,4,2,1,60,0,0
124787,-40,4,2,99,5,0,0
125029,-40,4,2,1,60,0,0
125110,-40,4,2,99,5,0,0
125351,-100,4,2,1,60,0,0
126803,-50,4,2,1,60,0,0
126884,-50,4,2,99,5,0,0
127126,-50,4,2,1,60,0,0
127368,-50,4,2,99,5,0,0
127610,-50,4,2,1,60,0,0
127690,-50,4,2,99,5,0,0
128093,-50,4,2,2,60,0,0
128416,-50,4,2,1,60,0,0
128658,-50,4,2,99,5,0,0
128739,-50,4,2,1,60,0,0
129222,-33.3333333333333,4,2,1,60,0,0
129303,-33.3333333333333,4,2,99,5,0,0
129545,-33.3333333333333,4,2,1,60,0,0
129787,-33.3333333333333,4,2,99,5,0,0
130029,-33.3333333333333,4,2,1,60,0,0
130271,-33.3333333333333,4,2,99,5,0,0
130674,-100,4,2,1,60,0,0
131158,-33.3333333333333,4,2,1,60,0,0
131239,-33.3333333333333,4,2,99,5,0,0
131319,-100,4,2,1,60,0,0
131803,-50,4,2,1,60,0,0
131884,-50,4,2,99,5,0,0
132126,-50,4,2,1,60,0,0
132368,-50,4,2,99,5,0,0
132610,-50,4,2,1,60,0,0
132851,-50,4,2,99,5,0,0
133416,-50,4,2,1,60,0,0
133819,-50,4,2,99,5,0,0
134222,-40,4,2,1,60,0,0
134464,-40,4,2,99,5,0,0
134706,-40,4,2,1,60,0,0
135110,-40,4,2,99,5,0,0
135351,-40,4,2,1,60,0,0
135432,-40,4,2,99,5,0,0
135674,-100,4,2,1,60,0,0
136803,-100,4,2,2,60,0,0
137126,-50,4,2,1,60,0,0
137206,-50,4,2,99,5,0,0
137287,-100,4,2,2,60,0,0
137610,-50,4,2,1,60,0,0
137690,-50,4,2,99,5,0,0
137932,-50,4,2,1,60,0,0
138013,-50,4,2,99,5,0,0
138255,-50,4,2,1,60,0,0
138739,-50,4,2,2,60,0,0
138980,-50,4,2,99,5,0,0
139384,-100,4,2,1,60,0,0
140755,-100,4,2,99,5,0,0
140835,-100,4,2,2,60,0,0
141480,-100,4,2,2,60,0,0
141642,-100,4,2,1,60,0,0
142610,-100,4,2,2,60,0,0
143093,-100,4,2,1,60,0,0
145190,-100,4,2,2,60,0,0
145351,-100,4,2,1,60,0,0
149061,-100,4,2,2,60,0,0
149222,-100,4,2,1,60,0,0
151642,-100,4,2,2,60,0,0
151964,-100,4,2,1,60,0,0
152690,-100,4,2,99,5,0,0
152771,-100,4,2,1,60,0,0
152932,-100,4,2,2,60,0,0
153416,-100,4,2,1,60,0,0
156803,-100,4,2,2,60,0,0
157126,-100,4,2,1,60,0,0
159464,-100,4,2,99,5,0,0
159545,-100,4,2,1,60,0,0
160674,-100,4,2,2,60,0,0
161158,-100,4,2,1,60,0,0
161400,-100,4,2,99,5,0,0
161480,-100,4,2,1,60,0,0
161964,-100,4,2,2,60,0,0
162287,-100,4,2,1,60,0,0
163255,-100,4,2,2,60,0,0
163739,-100,4,2,1,60,0,0
167126,-100,4,2,2,60,0,0
167448,-100,4,2,1,60,0,0
169787,-100,4,2,99,5,0,0
169868,-100,4,2,1,60,0,0
170190,-100,4,2,99,5,0,0
170351,-100,4,2,1,50,0,0
174384,-100,4,2,99,5,0,0
174545,-100,4,2,1,50,0,0

[Colours]
Combo1 : 210,124,87
Combo2 : 156,185,68
Combo3 : 122,204,218

[HitObjects]
146,144,2610,5,0,0:0:0:0:
152,171,3255,1,0,0:0:0:0:
158,198,3900,2,0,B|155:210|155:210|137:201|135:184|135:184|212:199|212:199|223:175,1,140
207,166,5190,5,2,0:0:0:0:
68,249,5674,2,0,L|53:301,1,35,2|0,0:0|0:0,0:0:0:0:
200,338,6319,2,0,L|185:390,1,35,2|0,0:0|0:0,0:0:0:0:
146,276,6803,1,2,0:0:0:0:
301,199,7126,1,2,0:0:0:0:
285,300,7448,5,0,0:0:0:0:
318,311,7610,1,0,0:0:0:0:
399,227,7771,2,0,P|408:268|402:294,1,52.5000020027161
378,351,8255,2,0,L|393:403,1,35,2|0,0:0|0:0,0:0:0:0:
499,209,8900,2,0,L|514:261,1,35,2|0,0:0|0:0,0:0:0:0:
221,152,9706,1,0,0:0:0:0:
270,97,9868,2,0,L|252:170,1,52.5000020027161,2|0,0:0|0:0,0:0:0:0:
168,208,10351,5,2,0:0:0:0:
333,254,10835,2,0,L|318:306,1,35,2|0,0:0|0:0,0:0:0:0:
165,334,11480,2,0,L|150:386,1,35,2|0,0:0|0:0,0:0:0:0:
252,282,11964,1,2,0:0:0:0:
70,323,12287,1,2,0:0:0:0:
66,194,12610,6,0,P|82:217|88:243,1,35
169,212,12932,2,0,P|166:248|143:290,1,70
249,270,13416,2,0,L|264:322,1,35,2|0,0:0|0:0,0:0:0:0:
453,157,14222,1,0,0:0:0:0:
401,238,14384,1,2,0:0:0:0:
435,128,14868,1,0,0:0:0:0:
389,210,15029,1,2,0:0:0:0:
312,35,15513,6,0,B|318:77|337:92|337:92|329:114|329:114|330:132,1,105,2|2,0:0|0:0,0:0:0:0:
328,199,16158,1,8,0:0:0:0:
206,102,16642,1,2,0:0:0:0:
249,170,16803,2,0,P|244:210|230:240,2,70,0|2|10,0:0|0:0|0:0,0:0:0:0:
130,287,17771,5,0,0:0:0:0:
164,280,17932,1,0,0:0:0:0:
83,204,18093,2,0,L|92:164,2,35
2,273,18577,2,0,L|16:314,1,35,2|8,0:0|0:0,0:0:0:0:
17,203,18900,2,0,B|64:205|71:229|71:229|85:223|85:223|101:260|143:269,1,140
130,287,19706,2,0,L|167:280,1,35
227,379,20029,1,8,0:0:0:0:
264,279,20190,1,2,0:0:0:0:
210,356,20513,5,0,0:0:0:0:
172,246,20674,2,0,B|179:209|213:195|213:195|224:171|224:171|250:166,1,105,2|2,0:0|0:0,0:0:0:0:
170,115,21319,1,8,0:0:0:0:
332,18,21803,1,2,0:0:0:0:
295,90,21964,2,0,P|304:145|321:169,1,70,0|2,0:0|0:0,0:0:0:0:
432,176,22610,5,10,0:0:0:0:
344,227,22771,1,0,0:0:0:0:
382,241,22932,1,0,0:0:0:0:
406,276,23093,1,0,0:0:0:0:
487,229,23255,2,0,P|481:270|466:304,1,70
315,297,23739,1,2,0:0:0:0:
304,334,23900,2,0,L|229:353,1,70,8|0,0:0|0:0,0:0:0:0:
219,232,24384,6,0,P|216:252|223:266,1,35
106,366,24706,2,0,B|113:303|139:331|145:261,1,105,2|8,0:0|0:0,0:0:0:0:
61,292,25351,1,2,0:0:0:0:
57,195,25513,1,0,0:0:0:0:
40,225,25674,1,0,0:0:0:0:
143,148,25835,6,0,B|130:118|89:116|89:116|88:98|70:81,1,105,2|2,0:0|0:0,0:0:0:0:
178,48,26480,1,8,0:0:0:0:
231,205,26964,1,2,0:0:0:0:
226,130,27126,2,0,P|248:94|274:76,1,70,0|2,0:0|0:0,0:0:0:0:
385,117,27771,1,10,0:0:0:0:
355,9,28093,5,0,0:0:0:0:
336,46,28255,1,0,0:0:0:0:
449,98,28416,2,0,B|480:127|455:136|488:180,1,70
390,215,28900,2,0,L|384:260,1,35,2|8,0:0|0:0,0:0:0:0:
466,293,29222,2,0,L|460:338,1,35
444,351,29545,2,0,P|460:323|478:344,1,70
465,379,30029,1,0,0:0:0:0:
361,307,30190,2,0,B|330:318|346:349|310:371,1,70,0|2,0:0|0:0,0:0:0:0:
298,368,30835,5,0,0:0:0:0:
212,320,30997,2,0,P|203:286|219:246,1,70,2|0,0:0|0:0,0:0:0:0:
277,209,31480,1,2,0:0:0:0:
253,193,31642,2,0,B|223:181|207:194|174:202,1,70,8|0,0:0|0:0,0:0:0:0:
104,246,32126,1,2,0:0:0:0:
128,339,32287,1,0,0:0:0:0:
44,380,32448,1,0,0:0:0:0:
53,348,32610,1,2,0:0:0:0:
41,270,32771,2,0,L|37:311,1,35,0|10,0:0|0:0,0:0:0:0:
152,266,33093,2,0,P|131:304|121:297,1,70
119,382,33577,1,0,0:0:0:0:
196,353,33739,1,0,0:0:0:0:
241,235,34061,5,2,0:0:0:0:
253,276,34222,1,8,0:0:0:0:
223,311,34384,2,0,L|225:355,1,35
254,369,34706,2,0,L|252:325,1,35
138,276,35029,2,0,P|150:244|182:265,1,70,2|0,0:0|0:0,0:0:0:0:
172,289,35513,1,8,0:0:0:0:
325,321,35674,2,0,P|313:279|284:291,1,70,2|0,0:0|0:0,0:0:0:0:
416,193,36158,6,0,L|328:204,1,52.5000020027161,2|0,0:0|0:0,0:0:0:0:
437,158,36480,1,0,0:0:0:0:
437,158,36642,2,0,L|349:169,1,52.5000020027161,2|0,0:0|0:0,0:0:0:0:
337,126,36803,6,0,L|427:137,1,70,4|0,3:2|0:0,0:0:0:0:
481,97,37287,6,0,L|393:108,1,52.5000020027161,2|0,0:0|0:0,0:0:0:0:
274,38,37771,6,0,L|263:126,1,52.5000020027161,2|0,0:0|0:0,0:0:0:0:
331,80,37932,1,0,0:0:0:0:
331,80,38093,2,0,L|320:168,1,52.5000020027161,6|0,3:2|0:0,0:0:0:0:
388,44,38255,6,0,P|396:66|399:89,2,35
228,129,38739,2,0,L|235:173,1,35
204,220,39061,1,0,0:0:0:0:
309,253,39222,6,0,L|248:247,1,35,2|0,0:0|0:0,0:0:0:0:
198,292,39384,6,0,L|278:280,1,70,4|0,3:2|0:0,0:0:0:0:
298,321,39868,6,0,L|237:315,1,35,2|0,0:0|0:0,0:0:0:0:
128,281,40513,5,0,0:0:0:0:
156,384,40674,1,4,3:2:0:0:
161,256,40835,2,0,L|222:262,1,35,2|0,0:0|0:0,0:0:0:0:
44,176,41319,6,0,L|51:107,1,43.75,2|0,0:0|0:0,0:0:0:0:
207,42,41803,6,0,L|200:111,1,43.75,2|0,0:0|0:0,0:0:0:0:
242,151,41964,6,0,L|234:73,1,70,4|0,3:2|0:0,0:0:0:0:
272,29,42448,6,0,L|265:98,1,43.75,2|0,0:0|0:0,0:0:0:0:
310,23,42771,1,0,0:0:0:0:
310,23,42932,2,0,L|303:92,1,43.75,2|0,0:0|0:0,0:0:0:0:
373,57,43093,1,0,0:0:0:0:
373,57,43255,2,0,L|369:100,1,43.75,6|0,3:2|0:0,0:0:0:0:
340,191,43416,6,0,L|332:115,1,70
421,233,43900,2,0,L|410:302,1,70
464,325,44384,6,0,L|429:318,1,35,2|0,0:0|0:0,0:0:0:0:
324,295,44545,6,0,L|393:284,1,70,4|0,3:2|0:0,0:0:0:0:
497,384,45029,1,0,0:0:0:0:
275,384,45351,6,0,L|284:330,1,35,10|0,0:0|0:0,0:0:0:0:
304,371,45513,1,8,0:0:0:0:
333,360,45674,1,8,0:0:0:0:
286,235,45835,1,4,3:2:0:0:
220,322,45997,2,0,L|225:287,1,35,2|0,0:0|0:0,0:0:0:0:
207,313,46158,1,8,0:3:0:0:
193,304,46319,1,8,0:3:0:0:
49,329,46480,6,0,L|130:313,1,52.5000020027161,2|0,0:0|0:0,0:0:0:0:
26,295,46803,1,0,0:0:0:0:
26,295,46964,2,0,L|107:279,1,52.5000020027161,2|0,0:0|0:0,0:0:0:0:
169,271,47126,6,0,L|92:255,1,70,4|0,3:2|0:0,0:0:0:0:
89,173,47610,6,0,L|73:254,1,52.5000020027161,2|0,0:0|0:0,0:0:0:0:
0,57,48093,6,0,L|16:138,1,52.5000020027161,2|0,0:0|0:0,0:0:0:0:
58,20,48255,1,0,0:0:0:0:
58,20,48416,2,0,L|74:101,1,52.5000020027161,6|0,3:2|0:0,0:0:0:0:
132,73,48577,6,0,P|120:108|114:117,2,35
78,215,49061,2,0,L|119:207,1,35
164,162,49384,1,0,0:0:0:0:
238,243,49545,6,0,L|197:233,1,35,2|0,0:0|0:0,0:0:0:0:
156,329,49706,6,0,L|170:247,1,70,4|0,3:2|0:0,0:0:0:0:
274,218,50190,6,0,L|233:208,1,35,2|0,0:0|0:0,0:0:0:0:
226,49,50835,5,0,0:0:0:0:
257,145,50997,1,4,3:2:0:0:
252,27,51158,2,0,L|286:35,1,35,2|0,0:0|0:0,0:0:0:0:
338,203,51642,6,0,L|327:281,1,43.75,2|0,0:0|0:0,0:0:0:0:
434,45,52126,6,0,L|445:123,1,43.75,2|0,0:0|0:0,0:0:0:0:
470,181,52287,6,0,L|479:105,1,70,4|0,3:2|0:0,0:0:0:0:
371,126,52771,6,0,L|414:117,1,43.75,2|0,0:0|0:0,0:0:0:0:
345,159,53093,1,0,0:0:0:0:
345,159,53255,2,0,L|388:150,1,43.75,2|0,0:0|0:0,0:0:0:0:
372,224,53416,1,0,0:0:0:0:
372,224,53577,2,0,L|329:233,1,43.75,6|0,3:2|0:0,0:0:0:0:
239,192,53739,6,0,L|307:207,1,70
348,314,54222,2,0,L|336:387,1,70,8|0,0:0|0:0,0:0:0:0:
277,337,54706,6,0,L|320:343,1,35,10|0,0:0|0:0,0:0:0:0:
307,207,55029,6,0,L|319:280,2,70,4|4|2,3:2|3:2|0:0,0:0:0:0:
194,343,55997,5,8,0:3:0:0:
221,170,56158,1,12,0:0:0:0:
117,53,56803,5,2,3:2:0:0:
325,113,57126,1,0,0:0:0:0:
291,21,57287,2,0,L|285:62,3,35,10|0|0|0,0:0|0:0|0:0|0:0,0:0:0:0:
208,183,57932,5,2,3:2:0:0:
335,301,58255,1,0,0:0:0:0:
374,213,58416,1,2,3:2:0:0:
393,245,58577,1,0,0:0:0:0:
470,220,58739,2,0,P|468:263|456:297,1,70,10|0,0:0|3:0,0:0:0:0:
355,384,59222,1,0,3:0:0:0:
261,278,59384,6,0,P|267:330|282:362,1,70,0|0,3:0|0:0,0:0:0:0:
328,223,59868,2,0,L|197:243,1,105,10|0,0:0|0:0,0:0:0:0:
72,185,60513,6,0,L|49:277,1,70,10|0,0:0|3:0,0:0:0:0:
125,299,60997,1,0,0:0:0:0:
73,354,61158,1,0,0:0:0:0:
83,384,61319,1,8,0:0:0:0:
200,303,61480,2,0,L|187:354,2,35,2|0|0,0:0|0:0|0:0,0:0:0:0:
141,172,61964,5,2,3:2:0:0:
308,85,62287,1,0,0:0:0:0:
278,148,62448,1,2,0:0:0:0:
246,7,62610,2,0,L|257:58,2,35,8|0|0,0:0|0:0|0:0,0:0:0:0:
424,84,63093,5,2,3:2:0:0:
305,217,63416,1,0,0:0:0:0:
396,303,63577,1,2,3:2:0:0:
422,246,63739,1,0,0:0:0:0:
305,317,63900,1,10,3:2:0:0:
329,344,64061,2,0,L|341:247,1,70,0|0,0:0|3:0,0:0:0:0:
218,161,64545,6,0,L|230:209,2,35,0|0|0,3:0|0:0|0:0,0:0:0:0:
305,29,65029,1,10,0:0:0:0:
327,59,65190,2,0,L|316:100,2,35
213,34,65674,6,0,L|225:82,1,35
85,194,65997,2,0,L|76:239,1,35,2|0,3:2|3:0,0:0:0:0:
49,121,66319,1,0,0:0:0:0:
151,149,66480,1,8,0:0:0:0:
125,18,66642,1,2,0:0:0:0:
117,58,66803,1,4,3:2:0:0:
390,264,67126,5,2,3:2:0:0:
225,162,67448,1,0,0:0:0:0:
287,258,67610,1,10,0:0:0:0:
258,275,67771,2,0,L|247:322,2,35
181,384,68255,5,2,3:2:0:0:
64,239,68577,1,0,0:0:0:0:
26,356,68739,1,2,3:2:0:0:
66,364,68900,1,0,0:0:0:0:
142,257,69061,1,10,3:2:0:0:
152,292,69222,1,0,0:0:0:0:
208,188,69384,2,0,L|203:224,1,35,0|0,3:0|3:0,0:0:0:0:
236,112,69706,6,0,P|281:158|286:183,1,70,0|0,3:0|0:0,0:0:0:0:
165,22,70190,2,0,L|149:131,1,105,10|0,0:0|0:0,0:0:0:0:
2,96,70835,6,0,L|76:83,1,70,10|0,0:0|3:0,0:0:0:0:
103,176,71319,1,0,0:0:0:0:
43,233,71480,1,0,0:0:0:0:
53,268,71642,1,8,0:0:0:0:
185,163,71803,2,0,P|179:205|160:237,1,70,2|0,3:2|0:0,0:0:0:0:
270,358,72287,5,2,3:2:0:0:
315,147,72610,1,0,0:0:0:0:
357,251,72771,1,2,0:0:0:0:
434,212,72932,2,0,L|379:198,2,35,8|0|0,0:0|0:0|0:0,0:0:0:0:
383,28,73416,6,0,L|363:104,1,70,2|0,3:2|0:0,0:0:0:0:
273,0,73900,2,0,L|285:56,1,35,2|0,3:2|0:0,0:0:0:0:
484,17,74222,1,10,3:2:0:0:
441,87,74384,2,0,L|457:177,1,70,0|0,0:0|3:0,0:0:0:0:
334,268,74868,5,0,3:0:0:0:
232,104,75190,1,0,0:0:0:0:
350,147,75351,1,10,0:0:0:0:
325,164,75513,2,0,L|337:208,2,35
422,234,75997,6,0,L|407:287,1,35
413,64,76319,1,2,3:2:0:0:
433,123,76480,1,0,3:0:0:0:
329,41,76642,1,0,0:0:0:0:
512,0,76803,1,8,0:0:0:0:
512,0,77126,6,0,B|490:18|490:18|490:44|490:44|511:30|511:30|512:4,1,105.000004005432
359,113,77448,6,0,L|373:195,1,70,2|0,3:2|0:0,0:0:0:0:
226,244,77932,2,0,P|241:232|260:244,1,35,10|0,0:0|0:0,0:0:0:0:
153,222,78255,2,0,P|168:180|179:170,1,52.5,2|0,0:0|0:0,0:0:0:0:
279,124,78577,1,2,3:2:0:0:
46,73,78900,5,0,0:0:0:0:
72,103,79061,1,0,3:0:0:0:
140,50,79222,2,0,P|170:53|179:65,1,35,2|8,0:0|0:0,0:0:0:0:
257,32,79545,2,0,P|286:56|301:82,1,52.5,2|0,0:0|0:0,0:0:0:0:
310,137,79868,1,2,3:2:0:0:
380,32,80029,2,0,L|387:71,1,35,0|0,3:0|0:0,0:0:0:0:
486,148,80351,5,2,0:0:0:0:
409,192,80513,1,10,0:0:0:0:
473,289,80674,1,2,0:0:0:0:
482,247,80835,2,0,P|449:232|418:234,1,52.5,2|0,0:0|0:0,0:0:0:0:
308,260,81158,1,2,3:2:0:0:
319,100,81480,2,0,P|340:135|348:176,1,70,2|2,3:2|0:0,0:0:0:0:
288,322,81964,1,10,0:0:0:0:
240,226,82126,1,2,3:2:0:0:
443,76,82448,5,2,0:0:0:0:
424,111,82610,1,0,3:0:0:0:
341,74,82771,2,0,P|305:75|267:99,1,70,2|2,0:0|0:0,0:0:0:0:
266,101,83174,1,2,0:0:0:0:
259,113,83255,1,10,0:0:0:0:
329,184,83416,1,2,0:0:0:0:
265,237,83577,1,2,0:0:0:0:
302,288,83739,6,0,P|269:262|231:256,1,70,2|2,3:2|0:0,0:0:0:0:
111,267,84222,1,2,3:2:0:0:
185,311,84384,1,2,0:0:0:0:
146,173,84545,2,0,L|141:252,1,70,10|2,3:2|0:0,0:0:0:0:
28,366,85029,6,0,B|36:331|58:347|67:309,1,70,2|2,0:0|0:0,0:0:0:0:
69,297,85432,1,2,0:0:0:0:
68,284,85513,1,2,0:0:0:0:
0,192,85674,1,10,0:0:0:0:
191,108,85997,1,2,0:0:0:0:
33,58,86319,2,0,L|40:94,1,35,2|0,0:0|0:0,0:0:0:0:
266,26,86642,5,2,3:2:0:0:
258,59,86803,1,0,3:0:0:0:
322,103,86964,1,0,0:0:0:0:
180,136,87126,1,10,0:0:0:0:
303,193,87287,2,0,L|279:162,1,35,2|0,0:0|3:2,0:0:0:0:
202,364,87771,5,2,3:2:0:0:
228,277,87932,2,0,P|249:266|269:271,1,35,2|0,0:0|0:0,0:0:0:0:
303,193,88255,2,0,P|320:205|324:226,1,35,10|0,0:0|0:0,0:0:0:0:
414,183,88577,2,0,P|413:205|399:225,1,35,2|0,0:0|0:0,0:0:0:0:
503,255,88900,2,0,P|487:270|464:269,1,35,2|0,3:2|0:0,0:0:0:0:
500,360,89222,1,2,0:0:0:0:
394,318,89384,2,0,L|400:359,1,35,0|0,3:0|0:0,0:0:0:0:
353,204,89706,5,10,0:0:0:0:
261,253,89868,2,0,P|246:288|246:323,1,70,2|0,0:0|3:0,0:0:0:0:
81,318,90351,5,2,3:2:0:0:
169,334,90513,2,0,P|184:359|187:379,1,35,2|0,0:0|0:0,0:0:0:0:
194,178,90835,1,10,0:0:0:0:
61,258,91158,5,2,0:0:0:0:
111,174,91319,1,2,0:0:0:0:
72,74,91480,1,10,0:0:0:0:
99,22,91642,1,2,0:0:0:0:
35,75,91803,2,0,L|48:150,1,70,2|0,3:2|0:0,0:0:0:0:
202,199,92287,1,12,0:0:0:0:
139,239,92448,2,0,L|145:283,1,35
265,245,92771,5,2,0:0:0:0:
232,83,92932,1,2,3:2:0:0:
295,131,93093,1,2,0:0:0:0:
296,188,93255,1,2,0:0:0:0:
395,241,93416,1,2,0:0:0:0:
363,298,93577,1,10,0:0:0:0:
378,328,93739,1,2,0:0:0:0:
461,275,93900,5,2,0:0:0:0:
371,219,94061,2,0,L|381:147,1,70,2|2,3:2|0:0,0:0:0:0:
465,88,94545,2,0,L|417:98,1,35,2|0,3:2|0:0,0:0:0:0:
283,134,94868,1,10,0:0:0:0:
312,20,95029,2,0,B|339:25|336:51|331:71|358:82,1,70,2|0,0:0|3:0,0:0:0:0:
346,269,95513,5,2,3:2:0:0:
373,187,95674,2,0,P|415:182|426:191,1,35,2|0,0:0|0:0,0:0:0:0:
262,282,95997,1,8,0:0:0:0:
164,43,96319,5,10,0:3:0:0:
150,106,96480,1,8,0:3:0:0:
52,120,96642,2,0,P|34:138|25:164,1,35,2|0,3:2|0:0,0:0:0:0:
235,184,96964,1,8,0:0:0:0:
102,331,97287,5,8,0:3:0:0:
136,169,97448,1,14,0:0:0:0:
327,238,98093,6,0,B|340:266|337:293|337:293|346:305,1,70,2|0,0:0|0:0,0:0:0:0:
432,238,98577,1,2,0:0:0:0:
419,270,98739,2,0,L|344:279,1,70,8|0,3:2|0:0,0:0:0:0:
239,249,99222,1,2,0:0:0:0:
270,310,99384,1,0,0:0:0:0:
372,175,99706,1,2,0:0:0:0:
434,292,100029,1,10,3:2:0:0:
318,320,100351,5,0,0:0:0:0:
326,355,100513,1,0,0:0:0:0:
426,311,100674,2,0,L|371:296,2,35
372,203,101158,2,0,L|362:248,1,35,2|8,0:0|3:2,0:0:0:0:
302,176,101480,2,0,B|301:133|334:127|334:127|335:114|335:114|362:96|397:100,1,140
487,163,102287,6,0,L|435:151,1,35
306,126,102610,1,8,3:2:0:0:
348,184,102771,2,0,L|339:229,1,35,2|0,0:0|0:0,0:0:0:0:
238,150,103093,1,0,0:0:0:0:
377,53,103255,6,0,B|384:78|371:104|371:104|382:135,1,70,2|0,0:0|0:0,0:0:0:0:
438,168,103739,1,2,0:0:0:0:
501,56,103900,2,0,P|460:75|443:104,1,70,8|0,3:2|0:0,0:0:0:0:
512,127,104384,1,2,0:0:0:0:
423,58,104545,1,0,0:0:0:0:
345,238,104868,1,2,0:0:0:0:
494,199,105190,1,10,3:2:0:0:
435,263,105351,2,0,P|423:297|423:341,1,70
280,281,105835,6,0,L|360:294,1,70
364,362,106319,1,2,0:0:0:0:
291,312,106480,2,0,L|278:353,2,35,8|0|0,3:2|0:0|0:0,0:0:0:0:
196,280,106964,2,0,L|201:327,1,35
126,355,107287,2,0,P|78:334|59:298,1,70,2|0,0:0|0:0,0:0:0:0:
57,224,107771,1,8,3:2:0:0:
126,278,107932,2,0,L|122:243,1,35,2|0,0:0|0:0,0:0:0:0:
49,127,108255,1,0,0:0:0:0:
107,53,108416,6,0,B|135:34|159:40|159:40|198:29,1,70
237,88,108900,1,2,0:0:0:0:
258,59,109061,2,0,L|342:75,1,70,8|0,3:2|0:0,0:0:0:0:
344,192,109545,1,2,0:0:0:0:
294,143,109706,1,0,0:0:0:0:
455,194,110029,1,2,0:0:0:0:
299,296,110351,1,10,3:2:0:0:
237,176,110674,5,0,0:0:0:0:
225,211,110835,1,0,0:0:0:0:
164,110,110997,2,0,P|171:143|178:155,2,35
292,86,111480,2,0,L|252:106,1,35,2|8,0:0|3:2,0:0:0:0:
178,34,111803,2,0,B|143:29|116:49|116:49|104:46|104:46|95:70|53:98,1,140
4,142,112610,6,0,L|18:191,1,35
50,288,112932,1,8,3:2:0:0:
95,171,113093,1,2,0:0:0:0:
111,204,113255,1,0,0:0:0:0:
203,197,113416,5,0,0:0:0:0:
115,245,113577,2,0,P|97:284|91:333,1,70
0,284,114061,1,2,0:0:0:0:
24,302,114222,2,0,L|36:377,1,70,8|0,3:2|0:0,0:0:0:0:
157,330,114706,1,2,0:0:0:0:
110,284,114868,1,0,0:0:0:0:
265,256,115190,1,2,0:0:0:0:
243,284,115351,1,0,0:0:0:0:
216,160,115513,1,10,3:2:0:0:
171,227,115674,2,0,P|202:189|243:193,1,70
312,303,116158,6,0,P|356:315|380:339,1,70
453,348,116642,1,2,0:0:0:0:
434,274,116803,2,0,L|429:321,2,35,8|0|0,3:2|0:0|0:0,0:0:0:0:
320,377,117287,1,0,0:0:0:0:
262,176,117610,1,2,0:0:0:0:
401,136,117932,5,0,0:0:0:0:
354,184,118093,1,8,3:2:0:0:
322,41,118255,2,0,P|359:74|372:129,1,105,2|0,0:0|0:0,0:0:0:0:
216,95,118900,6,0,L|166:81,1,52.5000020027161,2|0,0:0|0:0,0:0:0:0:
194,177,119384,2,0,L|144:163,1,52.5000020027161,6|0,3:2|0:0,0:0:0:0:
172,262,119706,1,0,0:0:0:0:
172,262,119868,2,0,L|122:248,1,52.5000020027161,2|0,0:0|0:0,0:0:0:0:
271,351,120351,6,0,L|261:387,1,35
261,287,120674,1,4,3:2:0:0:
355,350,120835,6,0,L|372:287,1,52.5000020027161,2|0,0:0|0:0,0:0:0:0:
332,243,120997,6,0,L|340:286,2,35
452,218,121480,6,0,L|441:161,1,35,2|0,0:0|0:0,0:0:0:0:
361,182,121803,1,0,0:0:0:0:
361,182,121964,2,0,L|350:124,1,35,6|0,3:2|0:0,0:0:0:0:
266,147,122287,1,0,0:0:0:0:
266,147,122448,2,0,L|256:95,1,35,2|0,0:0|0:0,0:0:0:0:
342,32,122932,5,0,0:0:0:0:
333,60,123093,1,0,0:0:0:0:
285,0,123255,1,4,3:2:0:0:
408,26,123416,2,0,L|463:14,1,35,2|0,0:0|0:0,0:0:0:0:
392,228,124061,6,0,L|318:243,1,43.75,2|0,0:0|0:0,0:0:0:0:
341,170,124384,1,0,0:0:0:0:
307,296,124545,1,4,3:2:0:0:
240,256,124706,2,0,L|166:271,1,43.75,2|0,0:0|0:0,0:0:0:0:
129,277,125029,2,0,L|55:292,1,43.75,2|0,0:0|0:0,0:0:0:0:
154,207,125351,5,0,0:0:0:0:
83,151,125513,2,0,L|89:192,1,35
224,183,125835,1,4,3:2:0:0:
178,47,126158,1,0,0:0:0:0:
101,167,126480,1,0,0:0:0:0:
50,27,126803,6,0,L|102:36,1,35,2|0,0:0|0:0,0:0:0:0:
93,102,127126,1,4,3:2:0:0:
178,47,127287,2,0,L|230:56,1,35,2|0,0:0|0:0,0:0:0:0:
283,65,127610,2,0,L|335:74,1,35,2|0,0:0|0:0,0:0:0:0:
182,206,128093,5,8,0:0:0:0:
209,201,128255,1,8,0:0:0:0:
239,342,128416,1,4,3:2:0:0:
312,232,128577,2,0,L|266:241,1,35,2|0,0:0|0:0,0:0:0:0:
304,259,128739,1,8,0:3:0:0:
296,285,128900,1,8,0:3:0:0:
444,152,129222,6,0,L|461:230,1,52.5000020027161,2|0,0:0|0:0,0:0:0:0:
350,131,129545,1,0,0:0:0:0:
350,131,129706,2,0,L|367:209,1,52.5000020027161,6|0,3:2|0:0,0:0:0:0:
254,107,130029,1,0,0:0:0:0:
254,107,130190,2,0,L|271:185,1,52.5000020027161,2|0,0:0|0:0,0:0:0:0:
125,234,130674,6,0,L|120:269,1,35
76,182,130997,1,4,3:2:0:0:
193,145,131158,6,0,L|133:134,1,52.5,2|0,0:0|0:0,0:0:0:0:
124,71,131319,6,0,L|117:115,2,35
4,45,131803,6,0,L|49:37,1,35,2|0,0:0|0:0,0:0:0:0:
18,125,132126,1,0,0:0:0:0:
18,125,132287,2,0,L|63:117,1,35,6|0,3:2|0:0,0:0:0:0:
31,207,132610,1,0,0:0:0:0:
31,207,132771,2,0,L|76:199,1,35,2|0,0:0|0:0,0:0:0:0:
214,278,133416,5,0,0:0:0:0:
177,358,133577,1,4,3:2:0:0:
156,243,133739,2,0,L|221:258,1,35,2|0,0:0|0:0,0:0:0:0:
367,292,134222,5,0,0:0:0:0:
291,227,134384,2,0,L|305:300,1,43.75,2|0,0:0|0:0,0:0:0:0:
246,322,134706,1,0,0:0:0:0:
366,255,134868,1,4,3:2:0:0:
217,190,135029,2,0,L|230:255,1,43.75,2|0,0:0|0:0,0:0:0:0:
191,78,135351,2,0,L|204:143,1,43.75,2|0,0:0|0:0,0:0:0:0:
241,13,135674,5,0,0:0:0:0:
303,68,135835,2,0,L|293:113,1,35
434,70,136158,1,4,3:2:0:0:
305,188,136480,1,0,0:0:0:0:
485,218,136803,1,8,0:0:0:0:
400,138,137126,6,0,L|457:149,1,35,2|0,0:0|0:0,0:0:0:0:
403,214,137287,6,0,L|412:170,1,35,8|0,0:0|0:0,0:0:0:0:
318,263,137610,6,0,L|375:274,1,35,2|0,3:2|0:0,0:0:0:0:
463,292,137932,2,0,L|429:286,1,35,2|0,3:2|0:0,0:0:0:0:
369,384,138255,1,8,0:3:0:0:
410,179,138577,5,8,0:3:0:0:
383,315,138739,1,8,0:0:0:0:
305,230,138900,6,0,L|244:242,1,35,2|0,0:0|0:0,0:0:0:0:
140,375,139384,6,0,L|103:354,1,35
33,380,139706,1,0,0:0:0:0:
20,264,139868,2,0,P|46:243|58:241,1,35,2|0,0:0|0:0,0:0:0:0:
76,171,140190,2,0,P|103:177|116:187,1,35,2|0,0:0|0:0,0:0:0:0:
178,130,140513,2,0,P|194:148|203:178,1,52.5,2|0,0:0|0:0,0:0:0:0:
175,256,140835,1,10,0:0:0:0:
243,305,140997,1,8,0:3:0:0:
213,360,141158,1,8,0:3:0:0:
229,375,141319,1,8,0:3:0:0:
317,287,141480,5,10,0:0:0:0:
335,370,141642,1,4,3:2:0:0:
388,333,141803,2,0,P|412:343|430:354,1,35,2|0,0:0|0:0,0:0:0:0:
473,276,142126,2,0,B|462:308|498:315|489:356,1,70,2|2,3:2|0:0,0:0:0:0:
413,229,142610,1,8,0:0:0:0:
382,308,142771,1,2,0:0:0:0:
263,183,143093,6,0,P|277:201|289:232,1,52.5,2|0,3:2|0:0,0:0:0:0:
276,263,143416,1,2,0:0:0:0:
141,255,143577,1,2,0:0:0:0:
204,306,143739,1,2,0:0:0:0:
183,325,143900,1,8,0:0:0:0:
191,156,144061,1,0,3:0:0:0:
41,307,144384,5,2,0:0:0:0:
22,143,144706,5,2,3:2:0:0:
59,128,144868,1,2,0:0:0:0:
35,50,145029,2,0,L|46:15,1,35,2|8,0:0|0:0,0:0:0:0:
157,116,145351,1,0,3:0:0:0:
103,169,145513,1,2,0:0:0:0:
231,216,145674,1,2,3:2:0:0:
339,130,145997,6,0,B|303:113|287:167|234:139,1,105,2|8,0:0|0:0,0:0:0:0:
141,67,146642,1,2,0:0:0:0:
272,45,146803,1,0,3:0:0:0:
246,73,146964,1,0,3:0:0:0:
264,233,147126,1,0,3:0:0:0:
211,142,147287,6,0,P|192:161|185:177,1,35,2|0,0:0|0:0,0:0:0:0:
119,167,147610,2,0,P|119:198|123:214,1,35,10|0,0:0|0:0,0:0:0:0:
60,245,147932,2,0,P|79:275|116:292,1,70,2|2,0:0|0:0,0:0:0:0:
278,224,148416,5,2,0:0:0:0:
253,307,148577,2,0,B|191:346,1,70,2|0,3:2|0:0,0:0:0:0:
175,384,149061,1,8,0:0:0:0:
170,237,149222,2,0,L|186:278,2,35,0|0|8,3:0|0:0|0:3,0:0:0:0:
203,210,149706,1,0,0:0:0:0:
82,164,149868,1,0,3:0:0:0:
296,99,150190,5,2,0:0:0:0:
202,14,150351,2,0,P|203:41|225:93,1,70,10|0,3:2|0:0,0:0:0:0:
136,123,150835,2,0,P|131:158|113:203,1,70,0|0,3:0|0:0,0:0:0:0:
29,260,151319,1,2,0:0:0:0:
188,239,151642,5,8,0:0:0:0:
102,157,151803,1,0,0:0:0:0:
104,196,151964,1,0,3:0:0:0:
179,96,152126,2,0,P|203:84|226:83,1,35,2|0,0:0|0:0,0:0:0:0:
260,26,152448,2,0,P|294:34|314:52,1,52.5,2|0,3:2|0:0,0:0:0:0:
343,116,152771,1,2,0:0:0:0:
286,170,152932,1,10,0:0:0:0:
416,202,153093,1,2,0:0:0:0:
245,259,153416,6,0,P|266:221|298:201,1,70,2|2,3:2|0:0,0:0:0:0:
435,269,153900,1,2,0:0:0:0:
346,304,154061,1,2,0:0:0:0:
358,323,154222,1,8,0:0:0:0:
403,172,154384,1,0,3:0:0:0:
259,106,154706,5,2,0:0:0:0:
342,0,155029,6,0,B|322:30|343:27|330:73,1,70,2|0,3:2|0:0,0:0:0:0:
194,103,155513,1,10,0:0:0:0:
275,127,155674,2,0,P|290:150|294:169,1,35,2|0,3:2|0:0,0:0:0:0:
277,175,155997,5,0,3:0:0:0:
256,64,156158,1,2,0:0:0:0:
219,137,156319,1,2,0:0:0:0:
188,134,156480,1,2,0:0:0:0:
149,13,156642,2,0,P|140:36|137:56,2,35,2|8|0,0:0|0:0|0:0,0:0:0:0:
75,130,157126,5,2,3:2:0:0:
65,104,157287,1,2,0:0:0:0:
143,65,157448,1,2,3:2:0:0:
29,10,157610,2,0,P|10:18|-6:36,1,35,2|0,0:0|0:0,0:0:0:0:
137,106,157932,2,0,P|151:128|152:152,1,35,10|0,0:0|0:0,0:0:0:0:
45,198,158255,2,0,P|30:222|27:260,1,52.5,2|2,0:0|0:0,0:0:0:0:
35,273,158577,1,2,0:0:0:0:
146,219,158739,5,2,0:0:0:0:
72,211,158900,1,2,3:2:0:0:
79,243,159061,1,2,0:0:0:0:
14,352,159222,2,0,P|41:324|66:314,1,52.5,2|0,0:0|0:0,0:0:0:0:
155,324,159545,2,0,P|152:307|163:310,1,35,2|0,3:2|0:0,0:0:0:0:
233,285,159868,2,0,P|216:259|167:239,1,70,2|0,0:0|3:0,0:0:0:0:
210,219,160351,1,2,0:0:0:0:
184,126,160513,6,0,P|169:150|164:170,1,35,2|8,0:0|0:0,0:0:0:0:
150,65,160835,2,0,P|165:57|183:56,1,35,2|0,0:0|0:0,0:0:0:0:
232,175,161158,2,0,P|254:194|278:208,1,52.5,2|0,3:2|0:0,0:0:0:0:
387,140,161480,1,2,0:0:0:0:
366,154,161803,5,0,0:0:0:0:
391,34,161964,1,10,0:0:0:0:
421,62,162126,2,0,L|429:97,1,35,2|0,0:0|3:0,0:0:0:0:
294,128,162448,1,2,0:0:0:0:
488,162,162771,5,2,3:2:0:0:
473,192,162932,1,2,0:0:0:0:
332,203,163093,2,0,P|349:198|367:201,1,35,2|8,0:0|0:0,0:0:0:0:
301,305,163416,2,0,P|308:290|320:277,1,35,2|0,0:0|0:0,0:0:0:0:
377,384,163739,2,0,P|368:369|363:353,1,35,2|0,3:2|0:0,0:0:0:0:
406,228,164061,2,0,P|382:246|375:259,1,35,2|0,0:0|0:0,0:0:0:0:
461,335,164384,2,0,P|444:328|431:317,1,35,2|8,0:0|0:0,0:0:0:0:
506,221,164706,1,2,3:2:0:0:
400,360,164868,2,0,P|376:352|405:331,1,70,2|0,0:0|0:0,0:0:0:0:
285,245,165351,5,2,3:2:0:0:
415,117,165674,5,2,0:0:0:0:
393,182,165835,1,10,0:0:0:0:
277,70,165997,1,2,3:2:0:0:
436,23,166319,6,0,B|412:25|419:58|395:82,1,70,2|0,3:2|0:0,0:0:0:0:
295,119,166803,1,2,0:0:0:0:
266,17,166964,1,2,0:0:0:0:
217,93,167126,2,0,L|231:141,1,35,8|0,0:0|0:0,0:0:0:0:
283,157,167448,1,0,3:0:0:0:
192,241,167610,1,2,3:2:0:0:
163,112,167771,6,0,P|141:101|126:101,1,35,2|0,3:2|0:0,0:0:0:0:
27,148,168093,1,2,0:0:0:0:
75,4,168255,2,0,L|86:52,1,35,10|0,0:0|0:0,0:0:0:0:
212,101,168577,5,2,0:0:0:0:
148,136,168739,1,2,0:0:0:0:
161,240,168900,1,2,0:0:0:0:
86,117,169061,2,0,L|134:105,1,35,2|8,0:0|0:3,0:0:0:0:
246,189,169384,1,2,0:0:0:0:
71,227,169545,2,0,P|56:252|50:278,1,52.5,2|0,0:0|0:0,0:0:0:0:
191,279,169868,2,0,P|199:310|189:356,1,70,14|0,0:3|0:0,0:0:0:0:
183,364,170351,6,0,B|220:341|254:357|254:357|269:345|287:338,1,105,2|2,0:0|0:0,0:0:0:0:
306,264,170997,1,0,0:0:0:0:
388,362,171480,1,2,0:0:0:0:
369,283,171642,1,0,0:0:0:0:
478,335,171964,1,2,0:0:0:0:
313,384,172287,1,2,0:0:0:0:
387,270,172610,1,0,0:0:0:0:
382,299,172771,1,0,0:0:0:0:
449,224,172932,6,0,L|455:266,2,35
388,158,173416,2,0,L|379:206,1,35,2|0,0:0|0:0,0:0:0:0:
462,111,173739,2,0,B|437:87|400:89|400:89|396:77|396:77|362:78|332:68,1,140
308,82,174545,1,0,0:0:0:0:
235,221,174868,1,0,0:0:0:0:
207,138,175029,1,2,0:0:0:0:
259,208,175351,5,0,0:0:0:0:
285,98,175513,2,0,B|248:118|214:107|214:107|193:99|170:106,1,105,2|2,0:0|0:0,0:0:0:0:
132,17,176158,1,0,0:0:0:0:
48,144,176642,1,2,0:0:0:0:
22,69,176803,1,0,0:0:0:0:
160,137,177126,1,2,0:0:0:0:
45,256,177448,5,2,0:0:0:0:
91,186,177610,1,0,0:0:0:0:
106,220,177771,1,0,0:0:0:0:
135,240,177932,1,0,0:0:0:0:
136,336,178093,2,0,P|188:316|209:322,1,70
258,239,178577,2,0,L|308:250,1,35,2|0,0:0|0:0,0:0:0:0:
354,176,179384,5,0,0:0:0:0:
385,267,179545,1,2,0:0:0:0:
379,147,180029,1,4,0:0:0:0:
421,275,180190,1,2,0:0:0:0:
