osu file format v14

[General]
AudioFilename: audio.mp3
AudioLeadIn: 0
PreviewTime: -1
Countdown: 3
SampleSet: None
StackLeniency: 0.8
Mode: 0
LetterboxInBreaks: 0
CountdownOffset: 3
WidescreenStoryboard: 1

[Editor]
DistanceSpacing: 1.5
BeatDivisor: 4
GridSize: 4
TimelineZoom: 1

[Metadata]
Title:forest
TitleUnicode:forest
Artist:twenty one pilots
ArtistUnicode:twenty one pilots
Creator:kidbuu127
Version:Hard
Source:
Tags:
BeatmapID:1551317
BeatmapSetID:734806

[Difficulty]
HPDrainRate:5
CircleSize:4.5
OverallDifficulty:7
ApproachRate:8.4
SliderMultiplier:1.5
SliderTickRate:1

[Events]
//Background and Video events
0,0,"maxresdefault.jpg",0,0
//Break Periods
2,193780,205390
//Storyboard Layer 0 (Background)
//Storyboard Layer 1 (Fail)
//Storyboard Layer 2 (Pass)
//Storyboard Layer 3 (Foreground)
//Storyboard Sound Samples

[TimingPoints]
1080,500,4,3,0,100,1,0

[HitObjects]
256,192,12080,12,0,14830,0:0:0:0:
124,212,16080,5,0,0:0:0:0:
136,268,16205,1,0,0:0:0:0:
160,320,16330,1,0,0:0:0:0:
236,328,16455,2,0,P|236:252|236:252,1,75
364,332,17080,5,0,0:0:0:0:
364,276,17205,1,0,0:0:0:0:
364,220,17330,1,0,0:0:0:0:
272,168,18080,6,0,L|272:120,1,37.5
272,96,18330,2,0,L|272:52,1,37.5
164,92,18830,2,0,L|164:132,1,37.5
164,129,19080,2,0,L|164:192,1,37.5
388,172,20080,5,0,0:0:0:0:
376,116,20205,1,0,0:0:0:0:
352,64,20330,1,0,0:0:0:0:
276,56,20455,2,0,P|276:132|276:132,1,75
148,52,21080,5,0,0:0:0:0:
148,108,21205,1,0,0:0:0:0:
148,164,21330,1,0,0:0:0:0:
240,216,22080,6,0,L|240:264,1,37.5
240,288,22330,2,0,L|240:332,1,37.5
348,292,22830,2,0,L|348:252,1,37.5
348,255,23080,2,0,L|348:192,1,37.5
148,120,24080,5,0,0:0:0:0:
260,120,24330,1,0,0:0:0:0:
332,204,24580,1,0,0:0:0:0:
220,204,24830,1,0,0:0:0:0:
280,300,25080,1,0,0:0:0:0:
392,300,25330,1,0,0:0:0:0:
332,204,25580,1,0,0:0:0:0:
444,192,25830,1,0,0:0:0:0:
392,116,26080,6,0,L|364:160,1,37.5
324,116,26330,2,0,L|296:152,1,37.5
252,108,26580,2,0,L|224:140,1,37.5
176,96,26830,2,0,L|140:136,1,37.5
256,192,28080,12,0,31080,0:0:0:0:
96,144,32080,5,0,0:0:0:0:
100,156,32205,1,0,0:0:0:0:
104,168,32330,1,0,0:0:0:0:
108,180,32580,2,0,L|132:252,1,75
131,251,33080,2,0,L|197:208,1,75
132,64,33580,1,0,0:0:0:0:
408,104,34330,5,0,0:0:0:0:
316,136,34580,1,0,0:0:0:0:
192,84,34830,1,0,0:0:0:0:
220,188,35080,1,0,0:0:0:0:
332,200,35330,2,0,L|332:112,1,75
220,136,36330,6,0,P|172:88|188:104,1,75
236,204,36830,2,0,L|176:260,1,75
320,204,37330,2,0,L|368:264,1,75
300,108,37830,2,0,L|360:56,1,75
140,112,38705,5,0,0:0:0:0:
140,140,38830,1,0,0:0:0:0:
136,168,38955,1,0,0:0:0:0:
300,108,39205,2,0,L|300:188,1,75
216,180,39580,2,0,P|216:92|216:96,1,75
184,160,40500,6,0,B|440:160|336:160|256:160|252:100|228:72|272:240|276:204,1,300
434,81,42330,5,0,0:0:0:0:
295,83,42580,1,0,0:0:0:0:
408,183,42830,1,0,0:0:0:0:
313,171,42955,2,0,L|262:171,2,37.5
440,83,43330,1,0,0:0:0:0:
369,110,43580,1,0,0:0:0:0:
232,90,44205,6,0,L|183:139,1,37.5
179,142,44455,2,0,L|217:180,1,37.5
228,192,44705,2,0,L|268:152,1,37.5
276,138,44955,2,0,L|235:98,1,37.5
370,94,45330,1,0,0:0:0:0:
373,196,45580,1,0,0:0:0:0:
379,294,45830,1,0,0:0:0:0:
292,305,46205,5,0,0:0:0:0:
257,281,46330,1,0,0:0:0:0:
234,259,46455,1,0,0:0:0:0:
215,225,46580,1,0,0:0:0:0:
205,183,46830,6,0,B|240:148|274:178,2,75
141,183,47580,2,0,L|140:77,1,75
175,113,48080,5,0,0:0:0:0:
314,114,48330,1,0,0:0:0:0:
410,202,48580,1,0,0:0:0:0:
440,68,48830,1,0,0:0:0:0:
299,208,49080,1,0,0:0:0:0:
253,76,49330,1,0,0:0:0:0:
323,137,49580,1,0,0:0:0:0:
112,99,50080,6,0,B|189:99,1,75
112,285,50580,6,0,B|189:285,1,75
400,285,51080,6,0,B|323:285,1,75
400,99,51580,6,0,B|323:99,1,75
302,127,52330,5,0,0:0:0:0:
210,127,52580,1,0,0:0:0:0:
210,257,52830,1,0,0:0:0:0:
302,257,53080,1,0,0:0:0:0:
255,192,53330,2,0,L|255:114,1,75
340,116,53830,2,0,L|340:207,1,75
190,192,54330,2,0,B|256:127|322:192,1,150
322,192,55580,2,0,B|256:257|190:192,1,150
407,220,56580,5,0,0:0:0:0:
247,114,57080,2,0,L|162:114,1,75
156,200,57580,1,0,0:0:0:0:
296,192,57955,1,0,0:0:0:0:
296,264,58080,1,0,0:0:0:0:
188,264,58580,1,0,0:0:0:0:
124,180,58830,5,0,0:0:0:0:
160,152,58955,1,0,0:0:0:0:
204,128,59080,1,0,0:0:0:0:
296,128,59580,2,0,L|376:128,2,75
220,88,60455,5,0,0:0:0:0:
170,117,60580,1,0,0:0:0:0:
125,155,60705,1,0,0:0:0:0:
104,236,61080,2,0,L|104:276,1,37.5
288,136,61830,5,0,0:0:0:0:
424,136,62080,1,0,0:0:0:0:
320,240,62330,2,0,L|232:240,1,75
224,240,62830,1,0,0:0:0:0:
188,144,63080,1,0,0:0:0:0:
296,132,63330,1,0,0:0:0:0:
168,96,64080,6,0,L|112:148,1,75
144,224,64580,2,0,L|208:168,1,75
272,204,65080,2,0,L|208:268,1,75
280,304,65580,1,0,0:0:0:0:
372,276,65830,1,0,0:0:0:0:
440,160,66080,1,0,0:0:0:0:
408,64,66330,1,0,0:0:0:0:
308,76,66580,6,0,B|340:160|256:300|104:224,1,300
72,228,67830,2,0,L|72:312,1,75
256,192,69580,12,0,71580,0:0:0:0:
96,76,72080,6,0,L|96:228,1,150
64,288,72830,1,0,0:0:0:0:
164,300,73080,1,0,0:0:0:0:
252,236,73330,1,0,0:0:0:0:
248,136,73580,1,0,0:0:0:0:
336,228,73830,6,0,L|336:144,1,75
416,136,74330,2,0,L|416:224,1,75
488,236,74830,2,0,L|488:148,1,75
460,56,75580,1,0,0:0:0:0:
336,64,76080,5,0,0:0:0:0:
220,64,76330,1,0,0:0:0:0:
220,172,76580,1,0,0:0:0:0:
336,172,76830,1,0,0:0:0:0:
336,64,77080,1,0,0:0:0:0:
424,72,77330,6,0,L|424:248,1,150
360,200,78080,1,0,0:0:0:0:
372,272,78455,1,0,0:0:0:0:
340,288,78580,1,0,0:0:0:0:
300,292,78705,1,0,0:0:0:0:
84,124,80080,5,0,0:0:0:0:
112,104,80205,1,0,0:0:0:0:
136,88,80330,1,0,0:0:0:0:
168,72,80455,1,0,0:0:0:0:
196,64,80580,1,0,0:0:0:0:
276,92,80830,1,0,0:0:0:0:
344,136,81080,2,0,B|368:224|304:272,1,150
252,268,82080,5,0,0:0:0:0:
260,188,82330,1,0,0:0:0:0:
264,104,82580,1,0,0:0:0:0:
168,96,82830,1,0,0:0:0:0:
140,96,82955,1,0,0:0:0:0:
104,96,83080,1,0,0:0:0:0:
72,96,83205,1,0,0:0:0:0:
36,96,83330,1,0,0:0:0:0:
60,192,83580,5,0,0:0:0:0:
120,128,83830,1,0,0:0:0:0:
156,228,84080,1,0,0:0:0:0:
236,160,84330,1,0,0:0:0:0:
228,60,84580,1,0,0:0:0:0:
128,80,84830,1,0,0:0:0:0:
324,100,85080,6,0,L|324:208,1,75
392,188,85580,1,0,0:0:0:0:
468,192,85830,2,0,L|468:96,1,75
172,248,86580,6,0,P|124:240|116:192,1,75
176,144,87080,6,0,P|224:152|232:200,1,75
272,108,88330,5,0,0:0:0:0:
308,124,88455,1,0,0:0:0:0:
332,148,88580,1,0,0:0:0:0:
364,196,88830,1,0,0:0:0:0:
376,256,89080,1,0,0:0:0:0:
296,292,89330,1,0,0:0:0:0:
232,224,89580,1,0,0:0:0:0:
200,156,89830,1,0,0:0:0:0:
176,172,89955,1,0,0:0:0:0:
144,192,90080,1,0,0:0:0:0:
104,124,90330,5,0,0:0:0:0:
116,120,90455,1,0,0:0:0:0:
132,116,90580,1,0,0:0:0:0:
208,100,90830,1,0,0:0:0:0:
320,96,91080,2,0,B|368:156|316:240,1,150
268,232,92330,5,0,0:0:0:0:
252,208,92455,1,0,0:0:0:0:
232,180,92580,1,0,0:0:0:0:
116,172,92830,1,0,0:0:0:0:
96,256,93080,1,0,0:0:0:0:
168,304,93330,1,0,0:0:0:0:
264,320,93580,2,0,L|264:240,1,75
320,212,94205,5,0,0:0:0:0:
340,244,94330,1,0,0:0:0:0:
360,268,94580,1,0,0:0:0:0:
436,240,94830,1,0,0:0:0:0:
408,168,95080,2,0,B|336:104|276:168,1,150
232,64,96330,5,0,0:0:0:0:
200,84,96455,1,0,0:0:0:0:
176,108,96580,1,0,0:0:0:0:
152,136,96705,1,0,0:0:0:0:
132,164,96830,1,0,0:0:0:0:
112,192,96955,1,0,0:0:0:0:
100,228,97080,1,0,0:0:0:0:
92,260,97205,1,0,0:0:0:0:
96,296,97330,1,0,0:0:0:0:
112,328,97455,1,0,0:0:0:0:
144,348,97580,1,0,0:0:0:0:
240,332,98330,6,0,L|292:272,1,75
184,288,98830,6,0,L|236:228,1,75
132,236,99330,6,0,L|184:176,1,75
256,132,100330,6,0,L|288:152,12,37.5
260,152,102330,5,0,0:0:0:0:
288,232,102580,1,0,0:0:0:0:
184,128,102830,1,0,0:0:0:0:
352,56,103080,1,0,0:0:0:0:
364,156,103330,1,0,0:0:0:0:
336,188,103455,1,0,0:0:0:0:
312,216,103580,1,0,0:0:0:0:
232,156,103830,1,0,0:0:0:0:
272,48,104080,1,0,0:0:0:0:
92,152,106330,6,0,L|92:192,1,37.5
88,232,106580,1,0,0:0:0:0:
176,256,106830,1,0,0:0:0:0:
196,232,106955,1,0,0:0:0:0:
200,192,107080,1,0,0:0:0:0:
200,144,107205,2,0,B|200:32|200:32|288:32,1,187.5
324,80,108330,6,0,B|272:128|272:128|320:172|320:172|272:224|272:224|324:276|324:276|264:352,1,375
208,308,109830,1,0,0:0:0:0:
92,168,112080,5,0,0:0:0:0:
120,148,112205,1,0,0:0:0:0:
152,136,112330,1,0,0:0:0:0:
224,148,112580,1,0,0:0:0:0:
228,244,113080,5,0,0:0:0:0:
204,272,113205,1,0,0:0:0:0:
168,276,113330,1,0,0:0:0:0:
128,272,113580,2,0,L|92:220,1,37.5
228,156,114080,5,0,0:0:0:0:
344,144,114330,1,0,0:0:0:0:
280,256,114580,1,0,0:0:0:0:
376,248,114830,1,0,0:0:0:0:
408,224,114955,1,0,0:0:0:0:
420,184,115080,1,0,0:0:0:0:
416,152,115205,1,0,0:0:0:0:
400,120,115330,1,0,0:0:0:0:
376,96,115455,1,0,0:0:0:0:
344,80,115580,1,0,0:0:0:0:
272,120,115830,5,0,0:0:0:0:
192,68,116080,1,0,0:0:0:0:
116,92,117830,2,0,B|116:168|116:168|196:168|196:168|196:100|196:100|272:100|272:100|272:180|272:180,1,375
264,232,119330,1,0,0:0:0:0:
360,232,119580,1,0,0:0:0:0:
92,172,120080,6,0,L|92:248,1,75
112,312,120580,2,0,L|188:312,1,75
236,272,121080,2,0,L|236:192,1,75
220,128,121580,1,0,0:0:0:0:
328,132,121830,1,0,0:0:0:0:
272,204,122080,1,0,0:0:0:0:
276,60,122330,1,0,0:0:0:0:
192,56,122580,1,0,0:0:0:0:
112,80,122830,1,0,0:0:0:0:
168,144,123080,1,0,0:0:0:0:
216,148,123205,1,0,0:0:0:0:
248,152,123330,1,0,0:0:0:0:
360,224,123580,6,0,P|376:168|356:128,2,75
344,112,125455,5,0,0:0:0:0:
312,96,125580,1,0,0:0:0:0:
280,84,125705,1,0,0:0:0:0:
244,80,125830,1,0,0:0:0:0:
212,72,125955,1,0,0:0:0:0:
176,80,126080,1,0,0:0:0:0:
148,92,126205,1,0,0:0:0:0:
124,120,126330,1,0,0:0:0:0:
112,152,126455,1,0,0:0:0:0:
116,188,126580,1,0,0:0:0:0:
128,220,126705,1,0,0:0:0:0:
144,248,126830,1,0,0:0:0:0:
168,272,126955,1,0,0:0:0:0:
196,296,127080,1,0,0:0:0:0:
224,316,127205,1,0,0:0:0:0:
256,328,127330,1,0,0:0:0:0:
96,176,130080,5,0,0:0:0:0:
96,176,130205,1,0,0:0:0:0:
96,176,130330,1,0,0:0:0:0:
228,156,130580,1,0,0:0:0:0:
228,156,130705,1,0,0:0:0:0:
228,156,130830,1,0,0:0:0:0:
328,136,131080,2,0,P|328:224|256:260,1,150
308,120,132080,5,0,0:0:0:0:
308,120,132205,1,0,0:0:0:0:
308,120,132330,1,0,0:0:0:0:
400,168,132580,1,0,0:0:0:0:
400,168,132705,1,0,0:0:0:0:
400,168,132830,1,0,0:0:0:0:
412,248,133080,2,0,B|328:288|268:240,1,150
176,144,134080,5,0,0:0:0:0:
376,144,134330,1,0,0:0:0:0:
308,256,134580,1,0,0:0:0:0:
276,72,134830,1,0,0:0:0:0:
184,252,135080,1,0,0:0:0:0:
148,120,135330,1,0,0:0:0:0:
304,168,135580,1,0,0:0:0:0:
264,72,135830,1,0,0:0:0:0:
444,104,136080,1,0,0:0:0:0:
136,184,138080,5,0,0:0:0:0:
136,184,138205,1,0,0:0:0:0:
136,184,138330,1,0,0:0:0:0:
300,144,138580,1,0,0:0:0:0:
300,144,138705,1,0,0:0:0:0:
300,144,138830,1,0,0:0:0:0:
200,280,139080,2,0,P|288:288|332:240,1,150
368,140,140080,5,0,0:0:0:0:
368,140,140205,1,0,0:0:0:0:
368,140,140330,1,0,0:0:0:0:
244,80,140580,1,0,0:0:0:0:
244,80,140705,1,0,0:0:0:0:
244,80,140830,1,0,0:0:0:0:
232,188,141080,5,0,0:0:0:0:
232,188,141205,1,0,0:0:0:0:
232,188,141330,1,0,0:0:0:0:
316,220,141580,1,0,0:0:0:0:
112,168,142080,5,0,0:0:0:0:
140,144,142205,1,0,0:0:0:0:
168,128,142330,1,0,0:0:0:0:
204,116,142455,1,0,0:0:0:0:
232,112,142580,1,0,0:0:0:0:
312,172,142830,2,0,P|220:232|132:176,2,225
112,168,146080,5,0,0:0:0:0:
112,168,146205,1,0,0:0:0:0:
112,168,146330,1,0,0:0:0:0:
112,168,146455,1,0,0:0:0:0:
112,168,146580,1,0,0:0:0:0:
224,188,146830,5,0,0:0:0:0:
224,188,146955,1,0,0:0:0:0:
224,188,147080,1,0,0:0:0:0:
256,92,147330,5,0,0:0:0:0:
292,108,147455,1,0,0:0:0:0:
312,132,147580,1,0,0:0:0:0:
336,164,147705,1,0,0:0:0:0:
352,192,147830,1,0,0:0:0:0:
120,132,148080,6,0,L|120:172,4,37.5
204,172,148830,1,0,0:0:0:0:
240,172,148955,1,0,0:0:0:0:
272,172,149080,1,0,0:0:0:0:
368,172,149330,1,0,0:0:0:0:
384,268,149580,1,0,0:0:0:0:
384,268,149705,1,0,0:0:0:0:
384,268,149830,1,0,0:0:0:0:
384,268,149955,1,0,0:0:0:0:
384,268,150080,1,0,0:0:0:0:
272,284,150205,5,0,0:0:0:0:
240,264,150330,1,0,0:0:0:0:
224,232,150455,1,0,0:0:0:0:
212,200,150580,1,0,0:0:0:0:
204,168,150830,2,0,L|204:128,6,37.5
256,104,151830,5,0,0:0:0:0:
288,140,151955,1,0,0:0:0:0:
304,184,152080,1,0,0:0:0:0:
288,228,152205,1,0,0:0:0:0:
252,268,152330,1,0,0:0:0:0:
168,212,152580,5,0,0:0:0:0:
168,212,152705,1,0,0:0:0:0:
168,212,152830,1,0,0:0:0:0:
120,108,153080,5,0,0:0:0:0:
332,104,153330,1,0,0:0:0:0:
328,268,153580,1,0,0:0:0:0:
108,284,153830,1,0,0:0:0:0:
232,200,154080,1,0,0:0:0:0:
348,196,154330,5,0,0:0:0:0:
348,196,154455,1,0,0:0:0:0:
348,196,154580,1,0,0:0:0:0:
316,104,154830,1,0,0:0:0:0:
316,104,154955,1,0,0:0:0:0:
316,104,155080,1,0,0:0:0:0:
312,104,155205,1,0,0:0:0:0:
312,104,155330,1,0,0:0:0:0:
232,80,155580,5,0,0:0:0:0:
184,64,155705,1,0,0:0:0:0:
140,64,155830,1,0,0:0:0:0:
104,72,155955,1,0,0:0:0:0:
72,96,156080,1,0,0:0:0:0:
56,200,156330,5,0,0:0:0:0:
56,200,156455,1,0,0:0:0:0:
56,200,156580,1,0,0:0:0:0:
220,108,156830,1,0,0:0:0:0:
220,108,156955,1,0,0:0:0:0:
220,108,157080,1,0,0:0:0:0:
288,236,157330,1,0,0:0:0:0:
288,236,157455,1,0,0:0:0:0:
288,236,157580,1,0,0:0:0:0:
400,96,158080,5,0,0:0:0:0:
272,56,158330,1,0,0:0:0:0:
328,220,158580,1,0,0:0:0:0:
172,120,158830,1,0,0:0:0:0:
244,240,159080,1,0,0:0:0:0:
392,156,159330,1,0,0:0:0:0:
196,44,159580,1,0,0:0:0:0:
124,212,159830,1,0,0:0:0:0:
376,252,160080,1,0,0:0:0:0:
384,180,160580,5,0,0:0:0:0:
364,148,160705,1,0,0:0:0:0:
336,124,160830,1,0,0:0:0:0:
308,104,160955,1,0,0:0:0:0:
276,88,161080,1,0,0:0:0:0:
240,76,161205,1,0,0:0:0:0:
212,72,161330,1,0,0:0:0:0:
172,72,161455,1,0,0:0:0:0:
144,88,161580,1,0,0:0:0:0:
92,172,161830,5,0,0:0:0:0:
104,208,161955,1,0,0:0:0:0:
120,240,162080,2,0,L|144:272,1,37.5
192,220,162455,2,0,L|224:196,1,37.5
300,96,163080,6,0,L|352:152,1,75
356,160,163455,1,0,0:0:0:0:
364,248,163705,1,0,0:0:0:0:
364,248,163830,1,0,0:0:0:0:
364,248,163955,1,0,0:0:0:0:
304,280,164080,2,0,L|268:212,1,75
200,200,164580,5,0,0:0:0:0:
200,200,164705,1,0,0:0:0:0:
200,200,164830,1,0,0:0:0:0:
360,104,165205,1,0,0:0:0:0:
360,104,165330,1,0,0:0:0:0:
360,104,165455,2,0,L|400:156,3,37.5
272,120,166080,5,0,0:0:0:0:
272,120,166205,1,0,0:0:0:0:
272,120,166330,1,0,0:0:0:0:
80,88,166580,1,0,0:0:0:0:
80,88,166705,1,0,0:0:0:0:
80,88,166830,1,0,0:0:0:0:
124,224,167080,1,0,0:0:0:0:
124,224,167205,1,0,0:0:0:0:
124,224,167330,1,0,0:0:0:0:
200,228,167580,1,0,0:0:0:0:
208,232,167705,1,0,0:0:0:0:
216,236,167830,1,0,0:0:0:0:
312,220,168080,5,0,0:0:0:0:
296,120,168330,1,0,0:0:0:0:
140,112,168580,1,0,0:0:0:0:
88,224,168830,1,0,0:0:0:0:
88,224,168955,1,0,0:0:0:0:
88,224,169080,1,0,0:0:0:0:
240,280,169330,1,2,0:0:0:0:
240,280,169455,1,2,0:0:0:0:
240,280,169580,1,2,0:0:0:0:
316,208,169830,5,2,0:0:0:0:
136,176,170080,2,2,B|256:104|352:184|352:184|256:288|128:212,1,450
244,196,171830,1,0,0:0:0:0:
152,108,172080,2,0,L|128:76,1,37.5
256,96,172330,2,0,L|256:56,1,37.5
360,128,172580,2,0,L|380:96,1,37.5
364,264,172830,5,0,0:0:0:0:
272,272,173080,1,0,0:0:0:0:
176,272,173330,1,0,0:0:0:0:
80,232,173580,1,0,0:0:0:0:
56,136,173830,5,0,0:0:0:0:
56,136,173955,1,0,0:0:0:0:
56,136,174080,1,0,0:0:0:0:
144,140,174330,1,0,0:0:0:0:
276,120,174580,1,0,0:0:0:0:
240,220,174830,5,0,0:0:0:0:
240,220,174955,1,0,0:0:0:0:
240,220,175080,1,0,0:0:0:0:
368,176,175330,1,0,0:0:0:0:
364,288,175580,1,0,0:0:0:0:
144,268,175830,5,0,0:0:0:0:
144,268,175955,1,0,0:0:0:0:
144,268,176080,1,0,0:0:0:0:
232,252,176455,2,0,L|232:196,1,37.5
160,192,176830,2,0,L|160:148,1,37.5
88,156,177080,2,0,L|88:116,1,37.5
160,72,177455,1,0,0:0:0:0:
196,72,177580,1,0,0:0:0:0:
304,96,178330,5,0,0:0:0:0:
304,96,178455,1,0,0:0:0:0:
304,96,178580,1,0,0:0:0:0:
404,136,178830,2,0,L|372:176,2,37.5
264,216,179330,6,0,L|240:180,2,37.5
200,136,179830,1,0,0:0:0:0:
80,180,180205,1,0,0:0:0:0:
80,180,180330,1,0,0:0:0:0:
80,180,180455,1,0,0:0:0:0:
80,180,180580,1,0,0:0:0:0:
80,180,180705,1,0,0:0:0:0:
156,244,180955,2,0,L|192:224,1,37.5
236,184,181455,2,0,B|288:144,1,37.5
124,92,181830,5,0,0:0:0:0:
68,148,182080,2,0,L|56:184,1,37.5
104,232,182330,2,0,L|124:188,1,37.5
188,216,182580,2,0,L|168:248,1,37.5
216,300,182830,2,0,L|236:268,1,37.5
312,288,183080,6,0,L|292:328,1,37.5
336,232,183330,2,0,L|304:204,1,37.5
384,176,183580,2,0,L|352:144,1,37.5
344,136,183830,2,0,L|328:88,1,37.5
324,88,184080,2,0,L|284:104,1,37.5
272,108,184330,2,0,L|236:52,1,37.5
240,60,184580,6,0,L|204:88,1,37.5
180,32,184830,2,0,L|144:56,1,37.5
136,68,185080,2,0,L|96:92,1,37.5
188,104,185330,2,0,L|144:136,1,37.5
144,224,185580,1,0,0:0:0:0:
144,224,185705,1,0,0:0:0:0:
144,224,185830,1,0,0:0:0:0:
248,224,186080,1,0,0:0:0:0:
384,200,186330,5,0,0:0:0:0:
376,120,186580,1,0,0:0:0:0:
376,120,186705,1,0,0:0:0:0:
376,120,186830,1,0,0:0:0:0:
376,120,186955,1,0,0:0:0:0:
376,120,187080,1,0,0:0:0:0:
272,104,187330,5,0,0:0:0:0:
216,104,187455,2,0,L|176:104,2,37.5
116,112,187830,1,0,0:0:0:0:
116,112,187955,1,0,0:0:0:0:
116,112,188080,1,0,0:0:0:0:
92,240,188330,1,0,0:0:0:0:
96,232,188455,1,0,0:0:0:0:
100,232,188580,1,0,0:0:0:0:
172,256,188830,5,0,0:0:0:0:
196,264,188955,1,0,0:0:0:0:
220,264,189080,1,0,0:0:0:0:
252,264,189205,1,0,0:0:0:0:
280,256,189330,1,0,0:0:0:0:
360,184,189580,1,0,0:0:0:0:
200,96,190330,5,0,0:0:0:0:
272,100,190455,1,0,0:0:0:0:
340,104,190580,1,0,0:0:0:0:
264,216,190830,1,0,0:0:0:0:
408,208,191080,1,0,0:0:0:0:
344,308,191330,1,0,0:0:0:0:
148,288,191580,1,0,0:0:0:0:
168,112,192330,5,0,0:0:0:0:
168,112,192455,1,0,0:0:0:0:
168,112,192580,1,0,0:0:0:0:
320,116,192830,1,0,0:0:0:0:
156,88,193080,1,0,0:0:0:0:
368,264,193330,1,0,0:0:0:0:
128,292,193580,1,0,0:0:0:0:
256,192,206080,12,0,209580,0:0:0:0:
104,144,210080,5,0,0:0:0:0:
104,144,210205,1,0,0:0:0:0:
104,144,210330,1,0,0:0:0:0:
152,220,210580,2,0,P|212:224|236:200,2,75
288,92,211580,1,0,0:0:0:0:
372,208,212080,5,0,0:0:0:0:
372,208,212205,1,0,0:0:0:0:
372,208,212330,1,0,0:0:0:0:
328,288,212830,2,0,L|248:272,1,75
136,232,213580,1,0,0:0:0:0:
252,80,214080,5,0,0:0:0:0:
252,80,214205,1,0,0:0:0:0:
252,80,214330,1,0,0:0:0:0:
136,96,214580,2,0,P|88:120|88:168,2,75
144,204,215330,1,0,0:0:0:0:
204,204,215580,1,0,0:0:0:0:
228,284,215830,2,0,P|288:288|312:256,1,75
396,92,218080,5,0,0:0:0:0:
396,92,218205,1,0,0:0:0:0:
396,92,218330,1,0,0:0:0:0:
292,84,218580,1,0,0:0:0:0:
120,128,218830,1,0,0:0:0:0:
256,228,219080,1,0,0:0:0:0:
344,92,219330,1,0,0:0:0:0:
120,236,219580,1,0,0:0:0:0:
368,240,220080,5,0,0:0:0:0:
368,240,220205,1,0,0:0:0:0:
368,240,220330,1,0,0:0:0:0:
292,160,220580,1,0,0:0:0:0:
216,108,220830,1,0,0:0:0:0:
128,224,221080,1,0,0:0:0:0:
264,256,221580,1,0,0:0:0:0:
136,112,222080,5,0,0:0:0:0:
424,104,222330,1,0,0:0:0:0:
264,328,222580,1,0,0:0:0:0:
220,56,222830,1,0,0:0:0:0:
432,220,223080,1,0,0:0:0:0:
172,308,223330,1,0,0:0:0:0:
284,56,223580,1,0,0:0:0:0:
380,316,223830,1,0,0:0:0:0:
136,196,224080,1,0,0:0:0:0:
