osu file format v14

[General]
AudioFilename: audio.mp3
AudioLeadIn: 0
PreviewTime: -1
Countdown: 0
SampleSet: Normal
StackLeniency: 0.7
Mode: 0
LetterboxInBreaks: 0
WidescreenStoryboard: 1

[Editor]
DistanceSpacing: 1.8
BeatDivisor: 4
GridSize: 16
TimelineZoom: 1

[Metadata]
Title:Semi-Automatic
TitleUnicode:Semi-Automatic
Artist:twenty one pilots
ArtistUnicode:twenty one pilots
Creator:banter
Version:original insane
Source:
Tags:|-/ Vessel 21 pilots top tyler joseph ben dunn rap indie/alternative
BeatmapID:2704390
BeatmapSetID:570948

[Difficulty]
HPDrainRate:4
CircleSize:3.9
OverallDifficulty:8
ApproachRate:9
SliderMultiplier:1.4
SliderTickRate:1

[Events]
//Background and Video events
//Break Periods
2,28630,32259
//Storyboard Layer 0 (Background)
//Storyboard Layer 1 (Fail)
//Storyboard Layer 2 (Pass)
//Storyboard Layer 3 (Foreground)
//Storyboard Layer 4 (Overlay)
//Storyboard Sound Samples

[TimingPoints]
1145,571.428571428571,4,1,0,100,1,0
32859,-100,4,1,0,100,0,1
50854,-100,4,1,0,100,0,0
53287,-200,4,1,0,100,0,0
54859,-100,4,1,0,100,0,0
60573,-200,4,1,0,100,0,0
61430,-100,4,1,0,100,0,0
83144,-100,4,1,0,100,0,1
101002,-100,4,1,0,100,0,0
101430,-100,4,1,0,100,0,1
120002,-100,4,1,0,100,0,0
155859,-100,4,1,0,100,0,1
174859,-100,4,1,0,100,0,0
195716,-100,4,1,0,100,0,1
213573,-100,4,1,0,100,0,0
214002,-100,4,1,0,100,0,1
232573,-100,4,1,0,100,0,0

[Colours]
Combo1 : 74,134,255
Combo2 : 241,126,130
Combo3 : 253,255,255
Combo4 : 106,234,124

[HitObjects]
85,156,1145,5,0,0:0:0:0:
71,76,1430,2,0,P|122:83|153:106,1,70
226,164,2002,2,0,P|175:171|144:194,1,70
71,252,2430,1,0,0:0:0:0:
159,179,2573,1,0,0:0:0:0:
159,179,2716,1,0,0:0:0:0:
247,252,2859,1,0,0:0:0:0:
247,252,3002,1,0,0:0:0:0:
335,179,3144,5,0,0:0:0:0:
423,252,3430,1,0,0:0:0:0:
423,252,3716,1,0,0:0:0:0:
247,252,4002,1,0,0:0:0:0:
247,252,4287,1,0,0:0:0:0:
71,252,4573,5,0,0:0:0:0:
71,252,4716,1,0,0:0:0:0:
71,76,4859,1,0,0:0:0:0:
218,169,5002,1,0,0:0:0:0:
134,140,5144,2,0,L|114:169,1,35
154,230,5430,1,0,0:0:0:0:
154,230,5716,5,0,0:0:0:0:
222,93,6002,2,0,L|246:159,1,70
332,183,6573,2,0,L|308:248,1,70
308,248,7002,1,0,0:0:0:0:
225,183,7144,1,0,0:0:0:0:
225,183,7287,1,0,0:0:0:0:
141,249,7430,1,0,0:0:0:0:
141,249,7573,1,0,0:0:0:0:
57,183,7716,2,0,B|84:154|124:145,1,70
389,255,8287,6,0,P|347:254|324:230,1,70
214,200,8859,2,0,P|255:199|278:175,1,70
299,109,9287,1,0,0:0:0:0:
222,117,9430,2,0,P|187:114|160:135,1,70
137,208,9859,1,0,0:0:0:0:
137,208,10002,1,0,0:0:0:0:
137,208,10144,1,0,0:0:0:0:
137,208,10287,6,0,P|181:240|225:234,1,70
257,196,10859,2,0,P|233:171|199:163,1,70
271,278,11430,2,0,P|304:269|329:244,1,70
194,241,12002,5,0,0:0:0:0:
312,178,12287,1,0,0:0:0:0:
213,89,12573,2,0,L|258:135,1,35
312,178,13049,2,0,L|266:226,1,35
312,178,13716,5,0,0:0:0:0:
198,170,14002,1,0,0:0:0:0:
254,270,14287,1,0,0:0:0:0:
140,268,14716,5,0,0:0:0:0:
140,268,14859,2,0,P|155:311|184:320,1,70
254,270,15430,2,0,P|247:236|218:218,1,70
87,198,16002,2,0,B|79:238|79:238|85:281,1,70
304,176,16573,5,0,0:0:0:0:
161,239,16859,1,0,0:0:0:0:
447,113,17144,2,0,L|499:75,1,35
310,122,17621,2,0,L|258:160,1,35
167,185,18287,1,0,0:0:0:0:
67,127,18573,1,0,0:0:0:0:
168,69,18859,1,0,0:0:0:0:
268,127,19144,2,0,P|326:136|352:122,2,70
55,184,20002,5,0,0:0:0:0:
143,257,20288,1,0,0:0:0:0:
231,184,20573,1,0,0:0:0:0:
319,257,20859,1,0,0:0:0:0:
319,111,21144,1,0,0:0:0:0:
231,184,21430,1,0,0:0:0:0:
143,111,21716,2,0,P|178:136|191:169,1,70
174,237,22287,2,0,P|191:267|221:285,2,70
457,120,23144,5,0,0:0:0:0:
335,142,23287,1,0,0:0:0:0:
213,164,23430,1,0,0:0:0:0:
229,179,23573,1,0,0:0:0:0:
229,179,23716,1,0,0:0:0:0:
229,179,23859,1,0,0:0:0:0:
229,179,24002,6,0,P|268:204|298:204,1,70
172,114,24573,2,0,P|147:153|147:183,1,70
177,239,25144,1,0,0:0:0:0:
234,326,25430,1,0,0:0:0:0:
177,239,25716,1,0,0:0:0:0:
150,143,26002,2,0,P|155:108|176:81,2,70
232,142,26859,2,0,P|221:187|199:207,1,70
307,219,27430,2,0,P|317:264|339:284,1,70
382,222,28002,5,0,0:0:0:0:
318,117,28144,1,0,0:0:0:0:
423,53,28287,1,0,0:0:0:0:
487,158,28430,1,0,0:0:0:0:
213,178,32859,5,0,0:0:0:0:
213,178,33144,2,0,L|144:183,1,70
75,189,33716,1,0,0:0:0:0:
139,105,34287,2,0,L|218:99,1,70
277,93,34716,1,0,0:0:0:0:
277,93,35144,1,0,0:0:0:0:
372,192,36287,5,0,0:0:0:0:
261,190,36573,2,0,P|203:166|189:145,2,70
372,192,37430,1,0,0:0:0:0:
152,236,37716,6,0,B|194:173|194:173|225:172,1,105
238,248,38287,2,0,P|216:279|196:311,1,70
313,278,38859,2,0,B|334:214|281:179,1,105
238,248,39716,1,0,0:0:0:0:
165,164,40859,5,0,0:0:0:0:
106,100,41144,2,0,P|90:66|85:27,2,70
165,164,42002,1,0,0:0:0:0:
223,100,42287,2,0,P|239:69|246:34,1,70
165,164,42859,1,0,0:0:0:0:
106,228,43430,2,0,P|90:259|84:293,2,70
165,164,44287,1,0,0:0:0:0:
321,188,45430,5,0,0:0:0:0:
405,155,45716,2,0,P|468:113|481:98,1,70
463,117,46144,1,0,0:0:0:0:
463,117,46287,1,0,0:0:0:0:
287,117,46430,2,0,L|262:141,1,35
375,44,46716,2,0,L|400:68,1,35
169,174,48002,5,0,0:0:0:0:
283,126,48573,2,0,P|317:96|349:84,1,70
169,174,49002,1,0,0:0:0:0:
187,254,50002,6,0,B|264:225|220:193|302:162,1,140
370,90,50859,21,0,0:0:0:0:
370,90,51002,1,0,0:0:0:0:
370,90,51144,1,0,0:0:0:0:
370,90,51287,1,0,0:0:0:0:
183,155,51430,1,0,0:0:0:0:
254,54,51573,1,0,0:0:0:0:
254,256,51716,1,0,0:0:0:0:
374,212,51859,1,0,0:0:0:0:
183,155,52002,1,0,0:0:0:0:
250,248,52287,5,0,0:0:0:0:
250,248,52430,1,0,0:0:0:0:
250,248,52573,1,0,0:0:0:0:
68,197,52859,5,0,0:0:0:0:
154,271,53002,1,0,0:0:0:0:
240,197,53144,1,0,0:0:0:0:
326,271,53287,2,0,L|369:226,1,52.5
448,159,54002,5,0,0:0:0:0:
276,159,54144,1,0,0:0:0:0:
362,85,54287,1,0,0:0:0:0:
276,159,54430,1,0,0:0:0:0:
362,233,54573,1,0,0:0:0:0:
276,159,54716,1,0,0:0:0:0:
362,233,54859,2,0,L|423:281,1,70
278,218,55287,5,0,0:0:0:0:
198,300,55430,1,0,0:0:0:0:
167,188,55573,2,0,L|202:221,1,35
284,305,55859,5,0,0:0:0:0:
118,262,56002,1,0,0:0:0:0:
240,138,56144,1,0,0:0:0:0:
197,299,56287,5,0,0:0:0:0:
278,218,56430,2,0,L|244:227,1,35
166,188,56715,1,0,0:0:0:0:
188,330,56859,1,0,0:0:0:0:
142,165,57002,1,0,0:0:0:0:
311,209,57144,1,0,0:0:0:0:
84,271,57287,1,0,0:0:0:0:
84,271,57430,2,0,P|130:301|165:294,1,70
142,300,58002,5,0,0:0:0:0:
211,219,58144,1,0,0:0:0:0:
280,300,58287,2,0,P|319:345|359:359,2,70
280,138,59144,1,0,0:0:0:0:
176,119,59287,1,0,0:0:0:0:
245,38,59430,1,0,0:0:0:0:
176,119,59716,2,0,P|220:138|258:141,1,70
245,38,60144,1,0,0:0:0:0:
349,57,60287,1,0,0:0:0:0:
176,119,60430,5,0,0:0:0:0:
176,119,60573,2,0,P|170:214|178:232,1,105
237,283,61716,1,0,0:0:0:0:
238,104,62002,2,0,P|282:71|328:68,1,70
309,152,62573,2,0,B|278:186|238:191|238:191|315:202|337:287,1,210
