osu file format v14

[General]
AudioFilename: audio.mp3
AudioLeadIn: 0
PreviewTime: -1
Countdown: 0
SampleSet: Soft
StackLeniency: 0.7
Mode: 0
LetterboxInBreaks: 0
WidescreenStoryboard: 1

[Editor]
Bookmarks: 28573,101716,120002,138287
DistanceSpacing: 1.8
BeatDivisor: 8
GridSize: 16
TimelineZoom: 1

[Metadata]
Title:Semi-Automatic
TitleUnicode:Semi-Automatic
Artist:twenty one pilots
ArtistUnicode:twenty one pilots
Creator:banter
Version:hitsounds DO NOT PLAY THIS DIFF
Source:
Tags:|-/ Vessel 21 pilots top tyler joseph ben dunn rap indie/alternative
BeatmapID:2704389
BeatmapSetID:570948

[Difficulty]
HPDrainRate:5.7
CircleSize:4.2
OverallDifficulty:8.5
ApproachRate:9.2
SliderMultiplier:2.2
SliderTickRate:1

[Events]
//Background and Video events
0,0,"top.png",0,0
//Break Periods
2,28773,32275
2,79059,82560
2,178144,195146
//Storyboard Layer 0 (Background)
//Storyboard Layer 1 (Fail)
//Storyboard Layer 2 (Pass)
//Storyboard Layer 3 (Foreground)
//Storyboard Layer 4 (Overlay)
//Storyboard Sound Samples

[TimingPoints]
1145,571.428571428571,4,2,1,60,1,0
1145,-95.2380952380952,4,2,1,60,0,0
3144,-80,4,2,1,60,0,0
3359,-95.2380952380951,4,2,1,5,0,0
3430,-95.2380952380952,4,2,1,60,0,0
4859,-117.647058823529,4,2,1,60,0,0
5144,-95.2380952380952,4,2,1,60,0,0
7716,-79.9999999999999,4,2,1,60,0,0
7930,-79.9999999999999,4,2,1,5,0,0
8002,-95.2380952380952,4,2,1,60,0,0
9430,-117.647058823529,4,2,1,60,0,0
9716,-95.2380952380952,4,2,1,60,0,0
10287,-117.647058823529,4,2,1,50,0,0
12502,-117.647058823529,4,2,1,5,0,0
12573,-117.647058823529,4,2,1,50,0,0
14502,-117.647058823529,4,2,1,5,0,0
14573,-117.647058823529,4,2,1,50,0,0
17073,-117.647058823529,4,2,1,5,0,0
17144,-117.647058823529,4,2,1,50,0,0
19430,-105.263157894737,4,2,1,60,0,0
21644,-105.263157894737,4,2,1,5,0,0
21716,-105.263157894737,4,2,1,60,0,0
26216,-105.263157894737,4,2,1,5,0,0
26287,-105.263157894737,4,2,1,60,0,0
32859,-133.333333333333,4,2,1,50,0,0
33073,-133.333333333333,4,2,1,5,0,0
33144,-95.2380952380951,4,2,1,70,0,0
34573,-117.647058823529,4,2,1,70,0,0
35430,-95.2380952380952,4,2,1,70,0,0
37430,-117.647058823529,4,2,1,70,0,0
37716,-95.2380952380952,4,2,1,70,0,0
39144,-117.647058823529,4,2,1,70,0,0
40002,-95.2380952380952,4,2,1,70,0,0
42287,-95.2380952380952,4,2,1,70,0,0
43716,-117.647058823529,4,2,1,70,0,0
44573,-95.2380952380952,4,2,1,70,0,0
46287,-95.2380952380952,4,2,1,70,0,0
48287,-117.647058823529,4,2,1,70,0,0
49144,-95.238095238095,4,2,1,70,0,0
50573,-117.647058823529,4,2,1,70,0,0
51430,-74.0740740740741,4,2,1,75,0,1
60573,-133.333333333333,4,2,1,50,0,0
83144,-133.333333333333,4,2,1,50,0,0
83359,-133.333333333333,4,2,1,5,0,0
83430,-95.2380952380951,4,2,1,70,0,0
84859,-117.647058823529,4,2,1,70,0,0
85716,-95.2380952380952,4,2,1,70,0,0
87716,-117.647058823529,4,2,1,70,0,0
88002,-95.2380952380952,4,2,1,70,0,0
89430,-117.647058823529,4,2,1,70,0,0
90287,-95.2380952380952,4,2,1,70,0,0
92573,-95.2380952380952,4,2,1,70,0,0
94002,-117.647058823529,4,2,1,70,0,0
94859,-95.2380952380952,4,2,1,70,0,0
96573,-95.2380952380952,4,2,1,70,0,0
98573,-117.647058823529,4,2,1,70,0,0
99430,-95.238095238095,4,2,1,70,0,0
100859,-117.647058823529,4,2,1,70,0,0
101716,-86.9565217391304,4,2,1,75,0,0
103144,-105.263157894737,4,2,1,75,0,0
104002,-86.9565217391304,4,2,1,75,0,0
106287,-86.9565217391306,4,2,1,75,0,0
107716,-105.263157894737,4,2,1,75,0,0
108573,-86.9565217391304,4,2,1,75,0,0
112287,-105.263157894737,4,2,1,75,0,0
113144,-86.9565217391304,4,2,1,75,0,0
116859,-105.263157894737,4,2,1,75,0,0
117716,-86.9565217391304,4,2,1,75,0,0
119144,-105.263157894737,4,2,1,75,0,0
120002,-125,4,2,1,55,0,0
122216,-125,4,2,1,5,0,0
122287,-125,4,2,1,55,0,0
126787,-125,4,2,1,5,0,0
126858,-125,4,2,1,55,0,0
131359,-125,4,2,1,5,0,0
131430,-125,4,2,1,55,0,0
137144,-166.666666666667,4,2,1,45,0,0
137716,-125,4,2,1,55,0,0
138287,-111.111111111111,4,2,2,50,0,0
147430,-100,4,2,2,60,0,0
154144,-90.9090909090909,4,2,2,65,0,0
155287,-83.3333333333333,4,2,2,70,0,0
155573,-100,4,2,2,70,0,0
156002,-100,4,2,2,75,0,0
156573,-68.9655172413793,4,2,2,80,0,1
157430,-76.9230769230769,4,2,2,80,0,1
165716,-71.4285714285714,4,2,2,80,0,1
170287,-62.5,4,2,2,80,0,1
170859,-66.6666666666667,4,2,2,77,0,1
171430,-71.4285714285714,4,2,2,74,0,1
172002,-76.9230769230769,4,2,2,71,0,1
172573,-66.6666666666667,4,2,2,80,0,1
172787,-66.6666666666667,4,2,2,5,0,1
172859,-66.6666666666667,4,2,2,80,0,1
173073,-66.6666666666667,4,2,2,5,0,1
173144,-62.5,4,2,2,83,0,1
173359,-66.6666666666667,4,2,2,5,0,1
173430,-62.5,4,2,2,83,0,1
173644,-66.6666666666667,4,2,2,5,0,1
173716,-58.8235294117647,4,2,2,86,0,1
173930,-66.6666666666667,4,2,2,5,0,1
174002,-58.8235294117647,4,2,2,86,0,1
174216,-66.6666666666667,4,2,2,5,0,1
174287,-55.5555555555556,4,2,2,89,0,1
174502,-66.6666666666667,4,2,2,5,0,1
174573,-55.5555555555556,4,2,2,80,0,1
174859,-100,4,2,1,50,0,0
178144,-200,4,2,1,50,0,0
195716,-133.333333333333,4,2,1,50,0,0
195930,-133.333333333333,4,2,1,5,0,0
196002,-200,4,2,1,60,0,0
197716,-74.0740740740741,4,2,1,75,0,1
198216,-74.0740740740741,4,2,1,5,0,1
198287,-74.0740740740741,4,2,1,75,0,1
198787,-74.0740740740741,4,2,1,5,0,1
198859,-74.0740740740741,4,2,1,80,0,1
213430,-74.0740740740741,4,2,1,80,0,0
213716,-74.0740740740741,4,2,1,80,0,1
214287,-68.9655172413793,4,2,1,80,0,1
215430,-60.6060606060606,4,2,1,85,0,1
216002,-68.9655172413793,4,2,1,80,0,1
232573,-125,4,2,1,50,0,0
234787,-125,4,2,1,5,0,0
234859,-125,4,2,1,50,0,0
239359,-125,4,2,1,5,0,0
239430,-125,4,2,1,50,0,0
243930,-125,4,2,1,5,0,0
244002,-125,4,2,1,50,0,0
250859,-66.6666666666667,4,2,1,50,0,0

[Colours]
Combo1 : 74,134,255
Combo2 : 241,126,130
Combo3 : 253,255,255
Combo4 : 106,234,124

[HitObjects]
118,154,1145,5,0,1:0:0:0:
306,138,1430,1,2,0:0:0:0:
221,284,1716,1,8,0:0:0:0:
306,138,2002,1,2,0:0:0:0:
111,79,2287,1,2,1:0:0:0:
306,138,2430,1,2,0:0:0:0:
306,138,2573,1,2,0:0:0:0:
306,138,2716,1,2,0:0:0:0:
213,207,2859,1,10,0:0:0:0:
306,138,3002,1,2,0:0:0:0:
306,138,3144,1,2,0:0:0:0:
118,154,3430,5,0,1:0:0:0:
306,138,3716,1,2,0:0:0:0:
221,284,4002,1,8,0:0:0:0:
306,138,4287,1,2,0:0:0:0:
111,79,4573,1,2,1:0:0:0:
306,138,4716,1,2,0:0:0:0:
306,138,4859,1,2,0:0:0:0:
213,207,5144,1,10,0:0:0:0:
306,138,5287,1,2,0:0:0:0:
306,138,5430,1,2,0:0:0:0:
221,284,5573,1,8,0:0:0:0:
118,154,5716,5,0,1:0:0:0:
306,138,6001,1,2,0:0:0:0:
221,284,6287,1,8,0:0:0:0:
306,138,6573,1,2,0:0:0:0:
111,79,6858,1,2,1:0:0:0:
306,138,7001,1,2,0:0:0:0:
306,138,7144,1,2,0:0:0:0:
306,138,7287,1,2,0:0:0:0:
213,207,7430,1,10,0:0:0:0:
306,138,7573,1,2,0:0:0:0:
306,138,7715,1,2,0:0:0:0:
118,154,8002,5,0,1:0:0:0:
306,138,8288,1,2,0:0:0:0:
221,284,8574,1,8,0:0:0:0:
306,138,8859,1,2,0:0:0:0:
111,79,9145,1,2,1:0:0:0:
306,138,9288,1,2,0:0:0:0:
306,138,9431,1,2,0:0:0:0:
213,207,9716,1,10,0:0:0:0:
306,138,9859,1,2,0:0:0:0:
306,138,10002,1,2,0:0:0:0:
221,284,10145,1,8,0:0:0:0:
111,79,10287,5,2,1:0:0:0:
213,207,10859,1,10,0:0:0:0:
118,154,11430,1,0,1:0:0:0:
221,284,12002,1,8,0:0:0:0:
306,138,12287,1,2,0:0:0:0:
111,79,12573,5,2,1:0:0:0:
306,138,13002,1,2,0:0:0:0:
221,284,13144,1,8,0:0:0:0:
118,154,13716,1,0,1:0:0:0:
221,284,14287,1,8,0:0:0:0:
213,207,14716,1,10,0:0:0:0:
111,79,14859,5,2,1:0:0:0:
213,207,15430,1,10,0:0:0:0:
118,154,16002,1,0,1:0:0:0:
221,284,16573,1,8,0:0:0:0:
306,138,16859,1,2,0:0:0:0:
111,79,17144,5,2,1:0:0:0:
306,138,17573,1,2,0:0:0:0:
221,284,17715,1,8,0:0:0:0:
118,154,18287,1,0,1:0:0:0:
221,284,18858,1,8,0:0:0:0:
213,207,19144,1,10,0:0:0:0:
213,207,19287,1,10,0:0:0:0:
118,154,19430,5,0,1:0:0:0:
341,254,19716,1,2,0:3:0:0:
221,284,20002,1,8,0:0:0:0:
341,254,20287,1,2,0:3:0:0:
118,154,20573,1,0,1:0:0:0:
341,254,20859,1,2,0:3:0:0:
221,284,21144,1,8,0:0:0:0:
341,254,21430,1,2,0:3:0:0:
118,154,21716,5,0,1:0:0:0:
341,254,22002,1,2,0:3:0:0:
221,284,22287,1,8,0:0:0:0:
341,254,22573,1,2,0:3:0:0:
118,154,22859,1,0,1:0:0:0:
341,254,23144,1,2,0:3:0:0:
341,254,23287,1,2,0:3:0:0:
221,284,23430,1,8,0:0:0:0:
341,254,23573,1,2,0:3:0:0:
341,254,23716,1,2,0:3:0:0:
221,284,23859,1,8,0:0:0:0:
118,154,24002,5,0,1:0:0:0:
341,254,24287,1,2,0:3:0:0:
221,284,24573,1,8,0:0:0:0:
341,254,24859,1,2,0:3:0:0:
118,154,25144,1,0,1:0:0:0:
341,254,25430,1,2,0:3:0:0:
221,284,25716,1,8,0:0:0:0:
341,254,26002,1,2,0:3:0:0:
118,154,26287,5,0,1:0:0:0:
341,254,26573,1,2,0:3:0:0:
341,254,26716,1,2,0:3:0:0:
221,284,26859,1,8,0:0:0:0:
341,254,27144,1,2,0:3:0:0:
118,154,27430,1,0,1:0:0:0:
341,254,27716,1,2,0:3:0:0:
221,284,28002,1,8,0:0:0:0:
221,284,28144,1,8,0:0:0:0:
221,284,28287,1,8,0:0:0:0:
221,284,28430,1,8,0:0:0:0:
306,138,28573,1,2,0:0:0:0:
306,138,32859,5,2,0:0:0:0:
118,154,33144,1,0,1:0:0:0:
341,254,33430,1,2,0:3:0:0:
221,284,33716,1,8,0:0:0:0:
341,254,34002,1,2,0:3:0:0:
118,154,34287,1,0,1:0:0:0:
306,138,34573,1,2,0:0:0:0:
213,207,34859,1,10,0:0:0:0:
306,138,35002,1,2,0:0:0:0:
306,138,35144,1,2,0:0:0:0:
118,154,35430,5,0,1:0:0:0:
341,254,35716,1,2,0:3:0:0:
221,284,36002,1,8,0:0:0:0:
341,254,36287,1,2,0:3:0:0:
118,154,36573,1,0,1:0:0:0:
341,254,36859,1,2,0:3:0:0:
341,254,37002,1,2,0:3:0:0:
221,284,37144,1,8,0:0:0:0:
341,254,37287,1,2,0:3:0:0:
341,254,37430,1,2,0:3:0:0:
221,284,37573,1,8,0:0:0:0:
118,154,37716,5,0,1:0:0:0:
341,254,38002,1,2,0:3:0:0:
221,284,38287,1,8,0:0:0:0:
341,254,38573,1,2,0:3:0:0:
118,154,38859,1,0,1:0:0:0:
306,138,39144,1,2,0:0:0:0:
213,207,39430,1,10,0:0:0:0:
306,138,39573,1,2,0:0:0:0:
306,138,39715,1,2,0:0:0:0:
118,154,40002,5,0,1:0:0:0:
341,254,40288,1,2,0:3:0:0:
341,254,40430,1,2,0:3:0:0:
221,284,40573,1,8,0:0:0:0:
341,254,40859,1,2,0:3:0:0:
118,154,41145,1,0,1:0:0:0:
306,138,41430,1,2,0:0:0:0:
213,207,41716,1,10,0:0:0:0:
213,207,41859,1,10,0:0:0:0:
213,207,42002,1,10,0:0:0:0:
221,284,42144,1,8,0:0:0:0:
118,154,42287,5,0,1:0:0:0:
341,254,42573,1,2,0:3:0:0:
221,284,42859,1,8,0:0:0:0:
341,254,43145,1,2,0:3:0:0:
118,154,43430,1,0,1:0:0:0:
306,138,43716,1,2,0:0:0:0:
213,207,44002,1,10,0:0:0:0:
306,138,44145,1,2,0:0:0:0:
306,138,44287,1,2,0:0:0:0:
118,154,44573,5,0,1:0:0:0:
341,254,44859,1,2,0:3:0:0:
221,284,45145,1,8,0:0:0:0:
341,254,45430,1,2,0:3:0:0:
118,154,45716,1,0,1:0:0:0:
341,254,46002,1,2,0:3:0:0:
341,254,46145,1,2,0:3:0:0:
221,284,46287,1,8,0:0:0:0:
341,254,46430,1,2,0:3:0:0:
341,254,46573,1,2,0:3:0:0:
221,284,46716,1,8,0:0:0:0:
118,154,46859,5,0,1:0:0:0:
341,254,47145,1,2,0:3:0:0:
221,284,47430,1,8,0:0:0:0:
341,254,47716,1,2,0:3:0:0:
118,154,48002,1,0,1:0:0:0:
306,138,48287,1,2,0:0:0:0:
213,207,48573,1,10,0:0:0:0:
306,138,48716,1,2,0:0:0:0:
306,138,48858,1,2,0:0:0:0:
118,154,49144,5,0,1:0:0:0:
341,254,49430,1,2,0:3:0:0:
341,254,49572,1,2,0:3:0:0:
221,284,49715,1,8,0:0:0:0:
341,254,50001,1,2,0:3:0:0:
118,154,50287,1,0,1:0:0:0:
306,138,50572,1,2,0:0:0:0:
213,207,50858,1,10,0:0:0:0:
213,207,51001,1,10,0:0:0:0:
213,207,51144,1,10,0:0:0:0:
221,284,51286,1,8,0:0:0:0:
111,79,51430,5,2,1:0:0:0:
306,138,51573,1,2,0:0:0:0:
306,138,51716,1,2,0:0:0:0:
306,138,51859,1,2,0:0:0:0:
213,207,52002,1,10,0:0:0:0:
306,138,52287,1,2,0:0:0:0:
306,138,52430,1,2,0:0:0:0:
111,79,52573,1,2,1:0:0:0:
306,138,52859,1,2,0:0:0:0:
306,138,53002,1,2,0:0:0:0:
213,207,53144,1,10,0:0:0:0:
306,138,53287,1,2,0:0:0:0:
111,79,53716,1,2,1:0:0:0:
306,138,54002,1,2,0:0:0:0:
306,138,54144,1,2,0:0:0:0:
213,207,54287,1,10,0:0:0:0:
306,138,54430,1,2,0:0:0:0:
306,138,54573,1,2,0:0:0:0:
306,138,54716,1,2,0:0:0:0:
111,79,54859,1,2,1:0:0:0:
306,138,55144,1,2,0:0:0:0:
306,138,55287,1,2,0:0:0:0:
213,207,55430,1,10,0:0:0:0:
306,138,55573,1,2,0:0:0:0:
213,207,55859,1,10,0:0:0:0:
111,79,56002,1,2,1:0:0:0:
306,138,56144,1,2,0:0:0:0:
306,138,56287,1,2,0:0:0:0:
213,207,56573,1,10,0:0:0:0:
306,138,56859,1,2,0:0:0:0:
306,138,57002,1,2,0:0:0:0:
111,79,57144,1,2,1:0:0:0:
306,138,57287,1,2,0:0:0:0:
306,138,57430,1,2,0:0:0:0:
213,207,57716,1,10,0:0:0:0:
306,138,58002,1,2,0:0:0:0:
306,138,58144,1,2,0:0:0:0:
111,79,58287,1,2,1:0:0:0:
306,138,58573,1,2,0:0:0:0:
213,207,58859,1,10,0:0:0:0:
306,138,59144,1,2,0:0:0:0:
306,138,59287,1,2,0:0:0:0:
111,79,59430,1,2,1:0:0:0:
306,138,59716,1,2,0:0:0:0:
213,207,60002,1,10,0:0:0:0:
221,284,60287,1,8,0:0:0:0:
221,284,60430,1,8,0:0:0:0:
111,79,60573,5,2,1:0:0:0:
221,284,61144,1,8,0:0:0:0:
306,138,61430,1,2,0:0:0:0:
111,79,61716,1,2,1:0:0:0:
306,138,62002,1,2,0:0:0:0:
213,207,62287,1,10,0:0:0:0:
306,138,62573,1,2,0:0:0:0:
111,79,62859,5,2,1:0:0:0:
221,284,63430,1,8,0:0:0:0:
306,138,63716,1,2,0:0:0:0:
111,79,64002,1,2,1:0:0:0:
221,284,64573,1,8,0:0:0:0:
306,138,64859,1,2,0:0:0:0:
221,284,65002,1,8,0:0:0:0:
111,79,65144,5,2,1:0:0:0:
221,284,65715,1,8,0:0:0:0:
306,138,66001,1,2,0:0:0:0:
111,79,66287,1,2,1:0:0:0:
306,138,66573,1,2,0:0:0:0:
213,207,66858,1,10,0:0:0:0:
306,138,67144,1,2,0:0:0:0:
111,79,67430,5,2,1:0:0:0:
221,284,68001,1,8,0:0:0:0:
306,138,68287,1,2,0:0:0:0:
111,79,68573,1,2,1:0:0:0:
221,284,69144,1,8,0:0:0:0:
221,284,69430,1,8,0:0:0:0:
221,284,69573,1,8,0:0:0:0:
111,79,69716,5,2,1:0:0:0:
341,254,70002,1,2,0:3:0:0:
213,207,70287,1,10,0:0:0:0:
341,254,70573,1,2,0:3:0:0:
111,79,70859,1,2,1:0:0:0:
341,254,71144,1,2,0:3:0:0:
221,284,71430,1,8,0:0:0:0:
306,138,71716,1,2,0:0:0:0:
111,79,72002,5,2,1:0:0:0:
341,254,72288,1,2,0:3:0:0:
213,207,72573,1,10,0:0:0:0:
341,254,72859,1,2,0:3:0:0:
111,79,73145,1,2,1:0:0:0:
341,254,73430,1,2,0:3:0:0:
341,254,73573,1,2,0:3:0:0:
221,284,73716,1,8,0:0:0:0:
341,254,74002,1,2,0:3:0:0:
221,284,74144,1,8,0:0:0:0:
111,79,74287,5,2,1:0:0:0:
341,254,74573,1,2,0:3:0:0:
213,207,74858,1,10,0:0:0:0:
341,254,75144,1,2,0:3:0:0:
111,79,75430,1,2,1:0:0:0:
341,254,75716,1,2,0:3:0:0:
213,207,76002,1,10,0:0:0:0:
306,138,76288,1,2,0:0:0:0:
111,79,76573,5,2,1:0:0:0:
341,254,76859,1,2,0:3:0:0:
341,254,77002,1,2,0:3:0:0:
213,207,77144,1,10,0:0:0:0:
341,254,77430,1,2,0:3:0:0:
111,79,77716,1,2,1:0:0:0:
341,254,78002,1,2,0:3:0:0:
221,284,78287,1,8,0:0:0:0:
221,284,78430,1,8,0:0:0:0:
221,284,78573,1,8,0:0:0:0:
221,284,78716,1,8,0:0:0:0:
306,138,78859,5,2,0:0:0:0:
306,138,83144,5,2,0:0:0:0:
118,154,83430,1,0,1:0:0:0:
341,254,83716,1,2,0:3:0:0:
221,284,84002,1,8,0:0:0:0:
341,254,84288,1,2,0:3:0:0:
118,154,84573,1,0,1:0:0:0:
306,138,84859,1,2,0:0:0:0:
213,207,85145,1,10,0:0:0:0:
306,138,85288,1,2,0:0:0:0:
306,138,85430,1,2,0:0:0:0:
118,154,85716,5,0,1:0:0:0:
341,254,86002,1,2,0:3:0:0:
221,284,86288,1,8,0:0:0:0:
341,254,86573,1,2,0:3:0:0:
118,154,86859,1,0,1:0:0:0:
341,254,87145,1,2,0:3:0:0:
341,254,87288,1,2,0:3:0:0:
221,284,87430,1,8,0:0:0:0:
341,254,87573,1,2,0:3:0:0:
341,254,87716,1,2,0:3:0:0:
221,284,87859,1,8,0:0:0:0:
118,154,88002,5,0,1:0:0:0:
341,254,88288,1,2,0:3:0:0:
221,284,88573,1,8,0:0:0:0:
341,254,88859,1,2,0:3:0:0:
118,154,89145,1,0,1:0:0:0:
306,138,89430,1,2,0:0:0:0:
213,207,89716,1,10,0:0:0:0:
306,138,89859,1,2,0:0:0:0:
306,138,90001,1,2,0:0:0:0:
118,154,90288,5,0,1:0:0:0:
341,254,90574,1,2,0:3:0:0:
341,254,90716,1,2,0:3:0:0:
221,284,90859,1,8,0:0:0:0:
341,254,91145,1,2,0:3:0:0:
118,154,91431,1,0,1:0:0:0:
306,138,91716,1,2,0:0:0:0:
213,207,92002,1,10,0:0:0:0:
213,207,92145,1,10,0:0:0:0:
213,207,92288,1,10,0:0:0:0:
221,284,92430,1,8,0:0:0:0:
118,154,92573,5,0,1:0:0:0:
341,254,92859,1,2,0:3:0:0:
221,284,93145,1,8,0:0:0:0:
341,254,93431,1,2,0:3:0:0:
118,154,93716,1,0,1:0:0:0:
306,138,94002,1,2,0:0:0:0:
213,207,94288,1,10,0:0:0:0:
306,138,94431,1,2,0:0:0:0:
306,138,94573,1,2,0:0:0:0:
118,154,94859,5,0,1:0:0:0:
341,254,95145,1,2,0:3:0:0:
221,284,95431,1,8,0:0:0:0:
341,254,95716,1,2,0:3:0:0:
118,154,96002,1,0,1:0:0:0:
341,254,96288,1,2,0:3:0:0:
341,254,96431,1,2,0:3:0:0:
221,284,96573,1,8,0:0:0:0:
341,254,96716,1,2,0:3:0:0:
341,254,96859,1,2,0:3:0:0:
221,284,97002,1,8,0:0:0:0:
118,154,97145,5,0,1:0:0:0:
341,254,97431,1,2,0:3:0:0:
221,284,97716,1,8,0:0:0:0:
341,254,98002,1,2,0:3:0:0:
118,154,98288,1,0,1:0:0:0:
306,138,98573,1,2,0:0:0:0:
213,207,98859,1,10,0:0:0:0:
306,138,99002,1,2,0:0:0:0:
306,138,99144,1,2,0:0:0:0:
118,154,99430,5,0,1:0:0:0:
341,254,99716,1,2,0:3:0:0:
341,254,99858,1,2,0:3:0:0:
221,284,100001,1,8,0:0:0:0:
341,254,100287,1,2,0:3:0:0:
118,154,100573,1,0,1:0:0:0:
306,138,100858,1,2,0:0:0:0:
213,207,101144,1,10,0:0:0:0:
213,207,101287,1,10,0:0:0:0:
213,207,101430,1,10,0:0:0:0:
221,284,101572,1,8,0:0:0:0:
118,154,101716,5,4,1:0:0:0:
315,354,102002,1,4,0:3:0:0:
221,284,102288,1,8,0:0:0:0:
315,354,102573,1,4,0:3:0:0:
118,154,102859,1,0,1:0:0:0:
315,354,103144,1,4,0:3:0:0:
213,207,103431,1,10,0:0:0:0:
306,138,103574,1,2,0:0:0:0:
315,354,103716,1,4,0:3:0:0:
118,154,104002,5,0,1:0:0:0:
315,354,104287,1,4,0:3:0:0:
221,284,104574,1,8,0:0:0:0:
315,354,104859,1,4,0:3:0:0:
118,154,105145,1,0,1:0:0:0:
315,354,105430,1,4,0:3:0:0:
341,254,105574,1,2,0:3:0:0:
221,284,105716,1,8,0:0:0:0:
341,254,105859,1,2,0:3:0:0:
315,354,106002,1,4,0:3:0:0:
221,284,106145,1,8,0:0:0:0:
118,154,106288,5,0,1:0:0:0:
315,354,106573,1,4,0:3:0:0:
221,284,106859,1,8,0:0:0:0:
315,354,107144,1,4,0:3:0:0:
118,154,107431,1,0,1:0:0:0:
315,354,107716,1,4,0:3:0:0:
213,207,108002,1,10,0:0:0:0:
306,138,108145,1,2,0:0:0:0:
315,354,108287,1,4,0:3:0:0:
118,154,108574,5,0,1:0:0:0:
315,354,108859,1,4,0:3:0:0:
341,254,109002,1,2,0:3:0:0:
221,284,109145,1,8,0:0:0:0:
315,354,109430,1,4,0:3:0:0:
118,154,109717,1,0,1:0:0:0:
315,354,110002,1,4,0:3:0:0:
213,207,110288,1,10,0:0:0:0:
213,207,110431,1,10,0:0:0:0:
213,207,110574,1,10,0:0:0:0:
221,284,110716,1,8,0:0:0:0:
118,154,110859,5,4,1:0:0:0:
315,354,111144,1,4,0:3:0:0:
221,284,111431,1,8,0:0:0:0:
315,354,111716,1,4,0:3:0:0:
118,154,112002,1,0,1:0:0:0:
315,354,112287,1,4,0:3:0:0:
213,207,112574,1,10,0:0:0:0:
306,138,112717,1,2,0:0:0:0:
315,354,112859,1,4,0:3:0:0:
118,154,113145,5,0,1:0:0:0:
315,354,113430,1,4,0:3:0:0:
221,284,113717,1,8,0:0:0:0:
315,354,114002,1,4,0:3:0:0:
118,154,114288,1,0,1:0:0:0:
315,354,114573,1,4,0:3:0:0:
341,254,114717,1,2,0:3:0:0:
221,284,114859,1,8,0:0:0:0:
341,254,115002,1,2,0:3:0:0:
315,354,115144,1,4,0:3:0:0:
221,284,115288,1,8,0:0:0:0:
118,154,115431,5,0,1:0:0:0:
315,354,115716,1,4,0:3:0:0:
221,284,116002,1,8,0:0:0:0:
315,354,116287,1,4,0:3:0:0:
118,154,116574,1,0,1:0:0:0:
315,354,116859,1,4,0:3:0:0:
213,207,117145,1,10,0:0:0:0:
306,138,117288,1,2,0:0:0:0:
315,354,117430,1,4,0:3:0:0:
118,154,117716,5,0,1:0:0:0:
315,354,118002,1,4,0:3:0:0:
341,254,118144,1,2,0:3:0:0:
221,284,118287,1,8,0:0:0:0:
315,354,118573,1,4,0:3:0:0:
118,154,118859,1,0,1:0:0:0:
306,138,119144,1,2,0:0:0:0:
213,207,119430,1,10,0:0:0:0:
213,207,119573,5,10,0:0:0:0:
213,207,119716,1,10,0:0:0:0:
221,284,119858,1,8,0:0:0:0:
111,79,120002,5,2,1:0:0:0:
213,207,120573,1,10,0:0:0:0:
111,79,121144,1,2,1:0:0:0:
306,138,121573,1,2,0:0:0:0:
213,207,121716,1,10,0:0:0:0:
306,138,121859,1,2,0:0:0:0:
111,79,122287,5,2,1:0:0:0:
213,207,122859,1,10,0:0:0:0:
306,138,123144,1,2,0:0:0:0:
111,79,123430,1,2,1:0:0:0:
306,138,123716,1,2,0:0:0:0:
306,138,123859,1,2,0:0:0:0:
213,207,124002,1,10,0:0:0:0:
306,138,124144,1,2,0:0:0:0:
221,284,124430,1,8,0:0:0:0:
111,79,124573,5,2,1:0:0:0:
213,207,125144,1,10,0:0:0:0:
111,79,125716,1,2,1:0:0:0:
306,138,126145,1,2,0:0:0:0:
213,207,126288,1,10,0:0:0:0:
306,138,126431,1,2,0:0:0:0:
111,79,126859,5,2,1:0:0:0:
221,284,127430,1,8,0:0:0:0:
306,138,127716,1,2,0:0:0:0:
111,79,128002,1,2,1:0:0:0:
306,138,128288,1,2,0:0:0:0:
306,138,128430,1,2,0:0:0:0:
213,207,128573,1,10,0:0:0:0:
306,138,128716,1,2,0:0:0:0:
221,284,128859,1,8,0:0:0:0:
213,207,129002,1,10,0:0:0:0:
111,79,129144,5,2,1:0:0:0:
213,207,129716,1,10,0:0:0:0:
111,79,130287,1,2,1:0:0:0:
306,138,130716,1,2,0:0:0:0:
213,207,130859,1,10,0:0:0:0:
306,138,131002,1,2,0:0:0:0:
111,79,131430,5,2,1:0:0:0:
213,207,132002,1,10,0:0:0:0:
306,138,132287,1,2,0:0:0:0:
111,79,132573,1,2,1:0:0:0:
306,138,133002,1,2,0:0:0:0:
213,207,133144,1,10,0:0:0:0:
306,138,133287,1,2,0:0:0:0:
221,284,133573,1,8,0:0:0:0:
111,79,133716,5,2,1:0:0:0:
221,284,134287,1,8,0:0:0:0:
306,138,134573,1,2,0:0:0:0:
111,79,134859,5,2,1:0:0:0:
306,138,135287,1,2,0:0:0:0:
213,207,135430,1,10,0:0:0:0:
306,138,135573,1,2,0:0:0:0:
306,138,135859,1,2,0:0:0:0:
111,79,136002,5,2,1:0:0:0:
221,284,136573,1,8,0:0:0:0:
306,138,136859,1,2,0:0:0:0:
306,138,137144,1,2,0:0:0:0:
306,138,137716,1,2,0:0:0:0:
118,154,138287,5,0,1:0:0:0:
306,138,138573,1,2,0:0:0:0:
118,154,138859,1,0,1:0:0:0:
306,138,139144,1,2,0:0:0:0:
118,154,139430,1,0,1:0:0:0:
306,138,139716,1,2,0:0:0:0:
193,366,139859,1,8,0:3:0:0:
118,154,140002,1,0,1:0:0:0:
193,366,140144,1,8,0:3:0:0:
193,366,140287,1,8,0:3:0:0:
193,366,140430,1,8,0:3:0:0:
118,154,140573,5,0,1:0:0:0:
306,138,140859,1,2,0:0:0:0:
118,154,141144,1,0,1:0:0:0:
306,138,141430,1,2,0:0:0:0:
118,154,141716,1,0,1:0:0:0:
193,366,142002,1,8,0:3:0:0:
193,366,142144,1,8,0:3:0:0:
118,154,142287,1,0,1:0:0:0:
193,366,142573,1,8,0:3:0:0:
193,366,142716,1,8,0:3:0:0:
118,154,142859,5,0,1:0:0:0:
306,138,143144,1,2,0:0:0:0:
118,154,143430,1,0,1:0:0:0:
306,138,143716,1,2,0:0:0:0:
306,138,143859,1,2,0:0:0:0:
306,138,144144,1,2,0:0:0:0:
193,366,144430,1,8,0:3:0:0:
118,154,144573,1,0,1:0:0:0:
193,366,144716,1,8,0:3:0:0:
193,366,144859,1,8,0:3:0:0:
193,366,145002,1,8,0:3:0:0:
306,138,145287,1,2,0:0:0:0:
306,138,145573,1,2,0:0:0:0:
306,138,146002,1,2,0:0:0:0:
306,138,146144,1,2,0:0:0:0:
306,138,146430,1,2,0:0:0:0:
193,366,146573,1,8,0:3:0:0:
193,366,146716,1,8,0:3:0:0:
118,154,146859,1,0,1:0:0:0:
193,366,147002,1,8,0:3:0:0:
193,366,147144,1,8,0:3:0:0:
37,136,147430,5,4,1:0:0:0:
104,324,147716,1,8,0:0:0:0:
118,154,148002,1,0,1:0:0:0:
92,238,148287,1,10,0:0:0:0:
105,71,148573,1,2,1:0:0:0:
92,238,148859,1,10,0:0:0:0:
118,154,149002,1,0,1:0:0:0:
105,71,149144,1,2,1:0:0:0:
92,238,149430,1,10,0:0:0:0:
306,138,149573,1,2,0:0:0:0:
105,71,149716,5,2,1:0:0:0:
104,324,150002,1,8,0:0:0:0:
118,154,150287,1,0,1:0:0:0:
92,238,150573,1,10,0:0:0:0:
105,71,150859,1,2,1:0:0:0:
104,324,151144,1,8,0:0:0:0:
118,154,151287,1,0,1:0:0:0:
105,71,151430,1,2,1:0:0:0:
118,154,151573,1,0,1:0:0:0:
92,238,151716,1,10,0:0:0:0:
306,138,151859,1,2,0:0:0:0:
105,71,152002,1,2,1:0:0:0:
104,324,152287,1,8,0:0:0:0:
118,154,152573,1,0,1:0:0:0:
92,238,152859,1,10,0:0:0:0:
306,138,153002,1,2,0:0:0:0:
118,154,153144,1,0,1:0:0:0:
306,138,153287,1,2,0:0:0:0:
104,324,153430,1,8,0:0:0:0:
105,71,153573,1,2,1:0:0:0:
118,154,153859,1,0,1:0:0:0:
92,238,154002,1,10,0:0:0:0:
306,138,154144,1,2,0:0:0:0:
118,154,154287,1,0,1:0:0:0:
306,138,154430,1,2,0:0:0:0:
104,324,154573,1,8,0:0:0:0:
306,138,154716,1,2,0:0:0:0:
306,138,155144,1,2,0:0:0:0:
306,138,155287,1,2,0:0:0:0:
118,154,155430,1,0,1:0:0:0:
306,138,155573,1,2,0:0:0:0:
104,324,156002,1,8,0:0:0:0:
104,324,156144,1,8,0:0:0:0:
104,324,156287,1,8,0:0:0:0:
104,324,156430,1,8,0:0:0:0:
37,136,156573,5,4,1:0:0:0:
104,324,156859,1,8,0:0:0:0:
118,154,157144,1,0,1:0:0:0:
92,238,157430,1,10,0:0:0:0:
105,71,157716,1,2,1:0:0:0:
92,238,158002,1,10,0:0:0:0:
118,154,158144,1,0,1:0:0:0:
105,71,158287,1,2,1:0:0:0:
118,154,158430,1,0,1:0:0:0:
92,238,158573,1,10,0:0:0:0:
306,138,158716,1,2,0:0:0:0:
105,71,158859,1,2,1:0:0:0:
104,324,159144,1,8,0:0:0:0:
118,154,159430,1,0,1:0:0:0:
92,238,159716,1,10,0:0:0:0:
105,71,160002,1,2,1:0:0:0:
104,324,160287,1,8,0:0:0:0:
118,154,160430,1,0,1:0:0:0:
105,71,160573,1,2,1:0:0:0:
118,154,160716,1,0,1:0:0:0:
92,238,160859,1,10,0:0:0:0:
306,138,161002,1,2,0:0:0:0:
105,71,161144,5,2,1:0:0:0:
104,324,161430,1,8,0:0:0:0:
118,154,161716,1,0,1:0:0:0:
92,238,162002,1,10,0:0:0:0:
306,138,162144,1,2,0:0:0:0:
118,154,162287,1,0,1:0:0:0:
306,138,162430,1,2,0:0:0:0:
104,324,162573,1,8,0:0:0:0:
306,138,162716,1,2,0:0:0:0:
118,154,163002,1,0,1:0:0:0:
92,238,163144,1,10,0:0:0:0:
306,138,163287,1,2,0:0:0:0:
118,154,163430,1,0,1:0:0:0:
306,138,163573,1,2,0:0:0:0:
104,324,163716,1,8,0:0:0:0:
306,138,163859,1,2,0:0:0:0:
92,238,164287,1,10,0:0:0:0:
306,138,164430,1,2,0:0:0:0:
105,71,164573,1,2,1:0:0:0:
306,138,164716,1,2,0:0:0:0:
306,138,165002,1,2,0:0:0:0:
104,324,165144,1,8,0:0:0:0:
104,324,165287,1,8,0:0:0:0:
104,324,165430,1,8,0:0:0:0:
104,324,165573,1,8,0:0:0:0:
37,136,165716,5,4,1:0:0:0:
104,324,166002,1,8,0:0:0:0:
118,154,166287,1,0,1:0:0:0:
92,238,166573,1,10,0:0:0:0:
105,71,166859,1,2,1:0:0:0:
92,238,167144,1,10,0:0:0:0:
118,154,167286,1,0,1:0:0:0:
105,71,167429,1,2,1:0:0:0:
118,154,167572,1,0,1:0:0:0:
92,238,167715,1,10,0:0:0:0:
306,138,167858,1,2,0:0:0:0:
105,71,168001,1,2,1:0:0:0:
104,324,168287,1,8,0:0:0:0:
118,154,168573,1,0,1:0:0:0:
92,238,168859,1,10,0:0:0:0:
105,71,169144,1,2,1:0:0:0:
104,324,169430,1,8,0:0:0:0:
118,154,169573,1,0,1:0:0:0:
105,71,169716,1,2,1:0:0:0:
118,154,169859,1,0,1:0:0:0:
92,238,170002,1,10,0:0:0:0:
104,324,170144,1,8,0:0:0:0:
105,71,170287,5,2,1:0:0:0:
92,238,170573,1,10,0:0:0:0:
105,71,170859,1,2,1:0:0:0:
92,238,171144,1,10,0:0:0:0:
105,71,171430,1,2,1:0:0:0:
92,238,171715,1,10,0:0:0:0:
118,154,171859,1,0,1:0:0:0:
105,71,172002,1,2,1:0:0:0:
118,154,172144,1,0,1:0:0:0:
92,238,172287,1,10,0:0:0:0:
37,136,172573,5,4,1:0:0:0:
37,136,172859,1,4,1:0:0:0:
37,136,173144,1,4,1:0:0:0:
37,136,173430,1,4,1:0:0:0:
37,136,173716,1,4,1:0:0:0:
37,136,174002,1,4,1:0:0:0:
37,136,174287,1,4,1:0:0:0:
37,136,174573,1,4,1:0:0:0:
306,138,195716,5,2,0:0:0:0:
306,138,196002,1,2,0:0:0:0:
306,138,196573,1,2,0:0:0:0:
306,138,197144,1,2,0:0:0:0:
37,136,197716,5,4,1:0:0:0:
37,136,198287,1,4,1:0:0:0:
221,284,198859,1,8,0:0:0:0:
315,354,199144,1,4,0:3:0:0:
118,154,199430,1,0,1:0:0:0:
315,354,199715,1,4,0:3:0:0:
341,254,199859,1,2,0:3:0:0:
221,284,200001,1,8,0:0:0:0:
341,254,200144,1,2,0:3:0:0:
315,354,200287,1,4,0:3:0:0:
221,284,200430,1,8,0:0:0:0:
118,154,200573,5,0,1:0:0:0:
315,354,200858,1,4,0:3:0:0:
221,284,201144,1,8,0:0:0:0:
315,354,201429,1,4,0:3:0:0:
118,154,201716,1,0,1:0:0:0:
315,354,202001,1,4,0:3:0:0:
213,207,202287,1,10,0:0:0:0:
306,138,202430,1,2,0:0:0:0:
315,354,202572,1,4,0:3:0:0:
118,154,202859,5,0,1:0:0:0:
315,354,203144,1,4,0:3:0:0:
341,254,203287,1,2,0:3:0:0:
221,284,203430,1,8,0:0:0:0:
315,354,203715,1,4,0:3:0:0:
118,154,204002,1,0,1:0:0:0:
315,354,204287,1,4,0:3:0:0:
213,207,204573,1,10,0:0:0:0:
213,207,204716,1,10,0:0:0:0:
213,207,204859,1,10,0:0:0:0:
221,284,205001,1,8,0:0:0:0:
118,154,205144,5,4,1:0:0:0:
315,354,205429,1,4,0:3:0:0:
221,284,205716,1,8,0:0:0:0:
315,354,206001,1,4,0:3:0:0:
118,154,206287,1,0,1:0:0:0:
315,354,206572,1,4,0:3:0:0:
213,207,206859,1,10,0:0:0:0:
306,138,207002,1,2,0:0:0:0:
315,354,207144,1,4,0:3:0:0:
118,154,207430,5,0,1:0:0:0:
315,354,207715,1,4,0:3:0:0:
221,284,208002,1,8,0:0:0:0:
315,354,208287,1,4,0:3:0:0:
118,154,208573,1,0,1:0:0:0:
315,354,208858,1,4,0:3:0:0:
341,254,209002,1,2,0:3:0:0:
221,284,209144,1,8,0:0:0:0:
341,254,209287,1,2,0:3:0:0:
315,354,209429,1,4,0:3:0:0:
221,284,209573,1,8,0:0:0:0:
118,154,209716,5,0,1:0:0:0:
315,354,210001,1,4,0:3:0:0:
221,284,210287,1,8,0:0:0:0:
315,354,210572,1,4,0:3:0:0:
118,154,210859,1,0,1:0:0:0:
315,354,211144,1,4,0:3:0:0:
213,207,211430,1,10,0:0:0:0:
306,138,211573,1,2,0:0:0:0:
315,354,211715,1,4,0:3:0:0:
118,154,212001,5,0,1:0:0:0:
315,354,212287,1,4,0:3:0:0:
341,254,212429,1,2,0:3:0:0:
221,284,212572,1,8,0:0:0:0:
315,354,212858,1,4,0:3:0:0:
118,154,213144,1,0,1:0:0:0:
306,138,213429,1,2,0:0:0:0:
213,207,213715,1,10,0:0:0:0:
213,207,213858,5,10,0:0:0:0:
213,207,214001,1,10,0:0:0:0:
221,284,214143,1,8,0:0:0:0:
118,154,214287,5,4,1:0:0:0:
315,354,214573,1,4,0:3:0:0:
221,284,214859,1,8,0:0:0:0:
315,354,215144,1,4,0:3:0:0:
118,154,215430,1,0,1:0:0:0:
315,354,215715,1,4,0:3:0:0:
213,207,216002,1,10,0:0:0:0:
306,138,216145,1,2,0:0:0:0:
315,354,216287,1,4,0:3:0:0:
118,154,216573,5,0,1:0:0:0:
315,354,216858,1,4,0:3:0:0:
221,284,217145,1,8,0:0:0:0:
315,354,217430,1,4,0:3:0:0:
118,154,217716,1,0,1:0:0:0:
315,354,218001,1,4,0:3:0:0:
341,254,218145,1,2,0:3:0:0:
221,284,218287,1,8,0:0:0:0:
341,254,218430,1,2,0:3:0:0:
315,354,218573,1,4,0:3:0:0:
221,284,218716,1,8,0:0:0:0:
118,154,218859,5,0,1:0:0:0:
315,354,219144,1,4,0:3:0:0:
221,284,219430,1,8,0:0:0:0:
315,354,219715,1,4,0:3:0:0:
118,154,220002,1,0,1:0:0:0:
315,354,220287,1,4,0:3:0:0:
213,207,220573,1,10,0:0:0:0:
306,138,220716,1,2,0:0:0:0:
315,354,220858,1,4,0:3:0:0:
118,154,221145,5,0,1:0:0:0:
315,354,221430,1,4,0:3:0:0:
341,254,221573,1,2,0:3:0:0:
221,284,221716,1,8,0:0:0:0:
315,354,222001,1,4,0:3:0:0:
118,154,222288,1,0,1:0:0:0:
315,354,222573,1,4,0:3:0:0:
213,207,222859,1,10,0:0:0:0:
213,207,223002,1,10,0:0:0:0:
213,207,223145,1,10,0:0:0:0:
221,284,223287,1,8,0:0:0:0:
118,154,223430,5,4,1:0:0:0:
315,354,223715,1,4,0:3:0:0:
221,284,224002,1,8,0:0:0:0:
315,354,224287,1,4,0:3:0:0:
118,154,224573,1,0,1:0:0:0:
315,354,224858,1,4,0:3:0:0:
213,207,225145,1,10,0:0:0:0:
306,138,225288,1,2,0:0:0:0:
315,354,225430,1,4,0:3:0:0:
118,154,225716,5,0,1:0:0:0:
315,354,226001,1,4,0:3:0:0:
221,284,226288,1,8,0:0:0:0:
315,354,226573,1,4,0:3:0:0:
118,154,226859,1,0,1:0:0:0:
315,354,227144,1,4,0:3:0:0:
341,254,227288,1,2,0:3:0:0:
221,284,227430,1,8,0:0:0:0:
341,254,227573,1,2,0:3:0:0:
315,354,227715,1,4,0:3:0:0:
221,284,227859,1,8,0:0:0:0:
118,154,228002,5,0,1:0:0:0:
315,354,228287,1,4,0:3:0:0:
221,284,228573,1,8,0:0:0:0:
315,354,228858,1,4,0:3:0:0:
118,154,229145,1,0,1:0:0:0:
315,354,229430,1,4,0:3:0:0:
213,207,229716,1,10,0:0:0:0:
306,138,229859,1,2,0:0:0:0:
315,354,230001,1,4,0:3:0:0:
118,154,230287,5,0,1:0:0:0:
315,354,230573,1,4,0:3:0:0:
341,254,230715,1,2,0:3:0:0:
221,284,230858,1,8,0:0:0:0:
315,354,231144,1,4,0:3:0:0:
118,154,231430,1,0,1:0:0:0:
306,138,231715,1,2,0:0:0:0:
213,207,232001,1,10,0:0:0:0:
213,207,232144,5,10,0:0:0:0:
213,207,232287,1,10,0:0:0:0:
221,284,232429,1,8,0:0:0:0:
111,79,232573,5,2,1:0:0:0:
213,207,233144,1,10,0:0:0:0:
111,79,233715,1,2,1:0:0:0:
306,138,234144,1,2,0:0:0:0:
213,207,234287,1,10,0:0:0:0:
306,138,234430,1,2,0:0:0:0:
111,79,234858,5,2,1:0:0:0:
213,207,235430,1,10,0:0:0:0:
306,138,235715,1,2,0:0:0:0:
111,79,236001,1,2,1:0:0:0:
306,138,236287,1,2,0:0:0:0:
306,138,236430,1,2,0:0:0:0:
213,207,236573,1,10,0:0:0:0:
306,138,236715,1,2,0:0:0:0:
221,284,237001,1,8,0:0:0:0:
111,79,237144,5,2,1:0:0:0:
213,207,237715,1,10,0:0:0:0:
111,79,238287,1,2,1:0:0:0:
306,138,238716,1,2,0:0:0:0:
213,207,238859,1,10,0:0:0:0:
306,138,239002,1,2,0:0:0:0:
111,79,239430,5,2,1:0:0:0:
221,284,240001,1,8,0:0:0:0:
306,138,240287,1,2,0:0:0:0:
111,79,240573,1,2,1:0:0:0:
306,138,240859,1,2,0:0:0:0:
306,138,241001,1,2,0:0:0:0:
213,207,241144,1,10,0:0:0:0:
306,138,241287,1,2,0:0:0:0:
221,284,241430,1,8,0:0:0:0:
213,207,241573,1,10,0:0:0:0:
111,79,241715,5,2,1:0:0:0:
213,207,242287,1,10,0:0:0:0:
111,79,242858,1,2,1:0:0:0:
306,138,243287,1,2,0:0:0:0:
213,207,243430,1,10,0:0:0:0:
306,138,243573,1,2,0:0:0:0:
111,79,244001,5,2,1:0:0:0:
213,207,244573,1,10,0:0:0:0:
306,138,244858,1,2,0:0:0:0:
111,79,245144,1,2,1:0:0:0:
306,138,245573,1,2,0:0:0:0:
213,207,245715,1,10,0:0:0:0:
306,138,245858,1,2,0:0:0:0:
221,284,246144,1,8,0:0:0:0:
111,79,246287,5,2,1:0:0:0:
221,284,246858,1,8,0:0:0:0:
306,138,247144,1,2,0:0:0:0:
111,79,247430,5,2,1:0:0:0:
306,138,247858,1,2,0:0:0:0:
213,207,248001,1,10,0:0:0:0:
306,138,248144,1,2,0:0:0:0:
306,138,248430,1,2,0:0:0:0:
111,79,248573,5,2,1:0:0:0:
221,284,249144,1,8,0:0:0:0:
306,138,249430,1,2,0:0:0:0:
111,79,249715,1,2,1:0:0:0:
221,284,250287,1,8,0:0:0:0:
221,284,250573,1,8,0:0:0:0:
221,284,250716,1,8,0:0:0:0:
