osu file format v14

[General]
AudioFilename: audio.mp3
AudioLeadIn: 0
PreviewTime: 51275
Countdown: 0
SampleSet: None
StackLeniency: 1
Mode: 0
LetterboxInBreaks: 0
WidescreenStoryboard: 1

[Editor]
DistanceSpacing: 1
BeatDivisor: 4
GridSize: 4
TimelineZoom: 1

[Metadata]
Title:Ride (Jaydon Lewis Remix)
TitleUnicode:Ride (Jaydon Lewis Remix)
Artist:twenty one pilots
ArtistUnicode:twenty one pilots
Creator:Reynolduh
Version:Easy
Source:
Tags:trap trapnation edm short cut edit
BeatmapID:1490600
BeatmapSetID:704642

[Difficulty]
HPDrainRate:2
CircleSize:2.5
OverallDifficulty:2.1
ApproachRate:2.3
SliderMultiplier:1
SliderTickRate:1

[Events]
//Background and Video events
0,0,"ILL TAKE IT.jpg",0,0
//Break Periods
2,38374,43451
//Storyboard Layer 0 (Background)
//Storyboard Layer 1 (Fail)
//Storyboard Layer 2 (Pass)
//Storyboard Layer 3 (Foreground)
//Storyboard Sound Samples

[TimingPoints]
175,400,4,2,0,20,1,0
3375,-100,4,2,0,30,0,0
6575,-100,4,2,0,40,0,0
9775,-100,4,2,0,50,0,0
11375,-100,4,2,0,60,0,0
12975,-100,4,2,0,70,0,0
15175,-100,4,2,0,5,0,0
15375,-100,4,2,0,70,0,0
15975,-100,4,2,0,5,0,0
16175,-100,4,2,0,70,0,0
18375,-100,4,2,0,5,0,0
18575,-100,4,2,0,70,0,0
19175,-100,4,2,0,5,0,0
19375,-100,4,2,0,70,0,0
21575,-100,4,2,0,5,0,0
21775,-100,4,2,0,70,0,0
22375,-100,4,2,0,5,0,0
22575,-100,4,2,0,70,0,0
24775,-100,4,2,0,5,0,0
24975,-100,4,2,0,70,0,0
51375,-100,4,2,0,70,0,1
62575,-100,4,2,0,70,0,0
64175,-100,4,2,0,70,0,1
76175,-100,4,2,0,70,0,0
80175,-100,4,2,0,5,0,0

[Colours]
Combo1 : 26,116,242
Combo2 : 164,32,240
Combo3 : 37,185,239
Combo4 : 23,209,116
Combo5 : 226,45,124

[HitObjects]
106,29,12975,5,2,0:0:0:0:
205,44,13375,2,0,L|312:60,1,100,0|0,0:0|0:0,0:0:0:0:
375,129,14175,1,0,0:0:0:0:
303,199,14575,2,0,L|204:213,1,100,0|0,0:0|0:0,0:0:0:0:
105,230,15375,2,0,P|95:288|128:324,1,100,2|0,0:0|0:0,0:0:0:0:
214,343,16175,1,2,0:0:0:0:
395,258,16975,6,0,P|415:167|319:127,2,200,0|0|2,0:0|0:0|0:0,0:0:0:0:
214,343,19375,1,2,0:0:0:0:
174,251,19775,6,0,L|190:144,1,100
259,81,20575,1,0,0:0:0:0:
329,153,20975,2,0,L|343:251,1,100,0|0,0:0|0:0,0:0:0:0:
360,351,21775,2,0,P|418:361|454:328,1,100,2|0,0:0|0:0,0:0:0:0:
473,242,22575,1,2,0:0:0:0:
359,77,23375,6,0,P|268:57|228:153,2,200,0|0|2,0:0|0:0|0:0,0:0:0:0:
428,264,25775,1,6,0:0:0:0:
354,331,26175,6,0,P|296:341|260:308,1,100,4|8,0:0|0:0,0:0:0:0:
221,227,26975,2,0,L|209:118,1,100,4|4,0:0|0:0,0:0:0:0:
257,39,27775,1,4,0:0:0:0:
355,58,28175,2,0,P|397:98|393:146,2,100,10|4|10,0:0|0:0|0:0,0:0:0:0:
257,39,29375,1,4,0:0:0:0:
160,63,29775,6,0,L|53:115,1,100,8|4,0:0|0:0,0:0:0:0:
70,206,30575,2,0,L|176:258,1,100,4|4,0:0|0:0,0:0:0:0:
259,249,31375,2,0,L|348:205,1,100,10|4,0:0|0:0,0:0:0:0:
438,161,32175,1,10,0:0:0:0:
468,256,32575,6,0,P|450:311|405:328,1,100,4|8,0:0|0:0,0:0:0:0:
315,334,33375,1,4,0:0:0:0:
217,313,33775,2,0,L|130:263,1,100,4|4,0:0|0:0,0:0:0:0:
73,180,34575,2,0,P|90:124|135:107,1,100,10|4,0:0|0:0,0:0:0:0:
225,110,35375,1,10,0:0:0:0:
285,189,35775,1,4,0:0:0:0:
355,260,36175,6,0,L|461:207,1,100,8|4,0:0|0:0,0:0:0:0:
445,117,36975,2,0,L|338:64,1,100,8|4,0:0|0:0,0:0:0:0:
256,74,37775,2,0,L|166:117,1,100,10|8,0:0|0:0,0:0:0:0:
150,238,44975,6,0,L|79:312,2,100,2|2|2,0:0|0:0|0:0,0:0:0:0:
220,167,46175,1,2,0:0:0:0:
290,237,46575,2,0,L|361:311,2,100,2|2|2,0:0|0:0|0:0,0:0:0:0:
220,167,47775,1,2,0:0:0:0:
256,192,48175,12,8,49775,0:0:0:0:
220,167,51375,6,0,B|274:153|274:153|320:164,1,100,10|0,0:0|0:0,0:0:0:0:
403,213,52175,1,4,0:0:0:0:
370,307,52575,2,0,B|345:358|345:358|303:343,1,100,10|0,0:0|0:0,0:0:0:0:
224,283,53375,2,0,P|180:245|132:253,1,100,2|4,0:0|0:0,0:0:0:0:
46,281,54175,1,0,0:0:0:0:
4,189,54575,6,0,L|24:90,1,100,10|0,0:0|0:0,0:0:0:0:
107,35,55375,2,0,B|162:38|162:38|203:63,1,100,4|2,0:0|0:0,0:0:0:0:
270,132,56175,2,0,P|282:188|253:226,1,100,0|2,0:0|0:0,0:0:0:0:
164,247,56975,1,4,0:0:0:0:
116,335,57375,1,0,0:0:0:0:
212,361,57775,6,0,B|267:358|267:358|305:334,1,100,10|0,0:0|0:0,0:0:0:0:
383,271,58575,2,0,P|395:215|366:177,1,100,4|2,0:0|0:0,0:0:0:0:
288,128,59375,2,0,B|234:107|234:107|214:147,1,100,0|2,0:0|0:0,0:0:0:0:
216,246,60175,1,4,0:0:0:0:
125,289,60575,1,0,0:0:0:0:
44,229,60975,6,0,P|32:173|61:135,1,100,10|0,0:0|0:0,0:0:0:0:
140,89,61775,2,0,B|184:87|184:87|234:112,1,100,4|2,0:0|0:0,0:0:0:0:
295,191,62575,1,0,0:0:0:0:
150,314,64175,6,0,B|115:287|115:287|92:235,1,100,14|4,0:0|0:0,0:0:0:0:
108,136,64975,1,4,0:0:0:0:
199,175,65375,2,0,P|255:187|293:158,1,100,6|4,0:0|0:0,0:0:0:0:
368,105,66175,2,0,L|388:204,1,100,2|4,0:0|0:0,0:0:0:0:
409,300,66975,1,4,0:0:0:0:
309,300,67375,6,0,P|261:268|215:282,1,100,10|4,0:0|0:0,0:0:0:0:
131,321,68175,2,0,B|93:339|93:339|63:289,1,100,4|6,0:0|0:0,0:0:0:0:
110,200,68975,1,4,0:0:0:0:
63,111,69375,1,6,0:0:0:0:
146,55,69775,2,0,P|202:47|238:80,1,100,4|4,0:0|0:0,0:0:0:0:
273,164,70575,6,0,B|300:199|300:199|352:222,1,100,14|4,0:0|0:0,0:0:0:0:
434,277,71375,2,0,P|413:330|368:346,1,100,4|6,0:0|0:0,0:0:0:0:
279,323,72175,1,4,0:0:0:0:
182,347,72575,1,2,0:0:0:0:
159,249,72975,2,0,P|138:195|93:179,1,100,4|4,0:0|0:0,0:0:0:0:
2,188,73775,6,0,L|22:89,1,100,14|4,0:0|0:0,0:0:0:0:
110,44,74575,2,0,B|147:25|147:25|177:75,1,100,4|6,0:0|0:0,0:0:0:0:
226,163,75375,1,4,0:0:0:0:
317,123,75775,1,0,0:0:0:0:
256,192,76175,12,4,80175,0:0:0:0:
