osu file format v14

[General]
AudioFilename: audio.mp3
AudioLeadIn: 0
PreviewTime: 59123
Countdown: 0
SampleSet: Soft
StackLeniency: 0.7
Mode: 0
LetterboxInBreaks: 0
WidescreenStoryboard: 1

[Editor]
Bookmarks: 17913,28236,38558,48881,59203,69526,79849,90171,100494,110816,110897,110978,111058,111139,111623,112107,119849,119929,120010,120090,120171,120494,121139,131461,141139
DistanceSpacing: 0.9
BeatDivisor: 4
GridSize: 4
TimelineZoom: 1.9

[Metadata]
Title:Levitate
TitleUnicode:Levitate
Artist:twenty one pilots
ArtistUnicode:twenty one pilots
Creator:Mao
Version:Vulture
Source:
Tags:trench gens hectic hootowlstar RyoKazuka hip hop english rap h4d0uk3n1
BeatmapID:2146132
BeatmapSetID:1026205

[Difficulty]
HPDrainRate:7
CircleSize:5
OverallDifficulty:8
ApproachRate:9
SliderMultiplier:2
SliderTickRate:1

[Events]
//Background and Video events
0,0,"levitate.jpg",0,0
//Break Periods
2,110854,119894
//Storyboard Layer 0 (Background)
//Storyboard Layer 1 (Fail)
//Storyboard Layer 2 (Pass)
//Storyboard Layer 3 (Foreground)
//Storyboard Layer 4 (Overlay)
//Storyboard Sound Samples

[TimingPoints]
7591,322.58064516129,4,2,0,5,1,0
14042,-100,4,2,0,15,0,0
15332,-100,4,2,0,30,0,0
16623,-100,4,2,0,45,0,0
17268,-100,4,2,0,5,0,0
17913,-100,4,2,0,70,0,0
27590,-500,4,2,0,70,0,0
28236,-66.6666666666667,4,2,0,70,0,0
31623,-100,4,2,0,70,0,0
32429,-285.714285714282,4,2,0,70,0,0
32752,-83.3333333333333,4,2,0,70,0,0
33397,-66.6666666666667,4,2,0,70,0,0
34365,-100,4,2,0,70,0,0
37913,-66.6666666666667,4,2,0,70,0,0
41945,-100,4,2,0,70,0,0
42752,-285.714285714286,4,2,0,70,0,0
43074,-83.3333333333333,4,2,0,70,0,0
43720,-66.6666666666667,4,2,0,70,0,0
47590,-100,4,2,0,70,0,0
48236,-66.6666666666667,4,2,0,70,0,0
48881,-133.333333333333,4,2,0,50,0,0
53720,-133.333333333333,4,2,0,30,0,0
54042,-133.333333333333,4,2,0,50,0,0
59203,-100,4,2,0,80,0,1
59284,-100,4,2,0,80,0,0
63720,-100,4,2,0,80,0,1
63800,-100,4,2,0,80,0,0
64365,-100,4,2,0,80,0,1
64445,-100,4,2,0,80,0,0
68236,-333.333333333333,4,2,0,80,0,0
69526,-333.333333333333,4,2,0,80,0,1
69607,-333.333333333333,4,2,0,80,0,0
74687,-333.333333333333,4,2,0,80,0,1
74768,-333.333333333333,4,2,0,80,0,0
75655,-100,4,2,0,80,0,0
79203,-100,4,2,0,80,0,1
79284,-100,4,2,0,80,0,0
79526,-40,4,2,0,80,0,1
79607,-40,4,2,0,80,0,0
79849,-40,4,2,0,80,0,1
79929,-40,4,2,0,80,0,0
80171,-100,4,2,0,60,0,0
85010,-100,4,2,0,60,0,1
85090,-100,4,2,0,60,0,0
90171,-50,4,2,0,80,0,1
90816,-100,4,2,0,80,0,0
92107,-50,4,2,0,80,0,0
94687,-100,4,2,0,80,0,0
95332,-50,4,2,0,80,0,1
95978,-100,4,2,0,60,0,0
110171,-333.333333333333,4,2,0,60,0,0
121139,-100,4,2,0,70,0,0

[Colours]
Combo1 : 255,255,255
Combo2 : 255,217,0
Combo3 : 98,90,107
Combo4 : 255,0,0

[HitObjects]
256,192,12752,12,0,17268,0:0:0:0:
74,57,17913,5,6,1:2:0:0:
196,114,18074,1,4,0:3:0:0:
207,42,18236,1,2,0:0:0:0:
325,98,18397,1,4,0:3:0:0:
356,184,18558,1,8,1:0:0:0:
496,90,18720,1,2,0:0:0:0:
466,23,18881,1,4,0:3:0:0:
423,81,19042,1,2,1:2:0:0:
436,251,19203,5,2,0:0:0:0:
512,199,19365,1,4,0:3:0:0:
440,270,19526,1,4,0:3:0:0:
345,249,19687,1,4,0:3:0:0:
326,341,19849,2,0,L|390:332,1,50,8|0,1:0|0:0,0:0:0:0:
244,287,20010,1,2,0:0:0:0:
237,317,20171,1,2,0:0:0:0:
142,284,20332,37,4,1:2:0:0:
166,378,20494,1,4,0:3:0:0:
44,282,20655,5,4,0:3:0:0:
36,361,20816,1,0,0:0:0:0:
12,292,20978,1,2,0:3:0:0:
163,170,21139,37,8,1:0:0:0:
174,90,21300,1,2,0:0:0:0:
94,89,21461,1,4,0:3:0:0:
86,168,21623,2,0,L|146:155,1,50,2|0,1:3|0:0,0:0:0:0:
266,117,21784,5,2,0:0:0:0:
238,27,21945,1,2,1:2:0:0:
279,102,22107,1,4,0:3:0:0:
440,32,22268,1,4,0:3:0:0:
365,49,22429,2,0,L|431:36,1,50,8|0,1:0|0:0,0:0:0:0:
505,79,22590,1,2,0:0:0:0:
410,245,22752,37,4,0:0:0:0:
387,168,22913,1,6,0:3:0:0:
465,151,23074,1,4,0:3:0:0:
486,228,23236,1,6,0:3:0:0:
385,342,23397,5,2,0:0:0:0:
464,322,23558,1,4,0:3:0:0:
366,368,23720,1,8,1:0:0:0:
308,281,23881,1,2,0:0:0:0:
246,355,24042,1,4,0:3:0:0:
175,329,24203,1,10,1:2:0:0:
126,373,24365,1,2,0:0:0:0:
139,228,24526,37,12,0:3:0:0:
38,301,24687,1,4,0:3:0:0:
131,213,24849,1,8,0:3:0:0:
205,141,25010,2,0,L|112:204,1,100,8|0,1:0|0:0,0:0:0:0:
204,117,25332,2,0,L|297:54,1,100,2|4,0:0|0:3,0:0:0:0:
488,130,25655,5,4,0:3:0:0:
488,130,25816,1,4,0:3:0:0:
483,200,25978,1,4,0:3:0:0:
483,200,26139,1,4,0:3:0:0:
369,26,26300,37,8,1:0:0:0:
382,106,26461,1,2,0:3:0:0:
385,16,26623,1,4,3:0:0:0:
364,117,26784,1,2,1:2:0:0:
435,267,26945,1,2,0:0:0:0:
305,373,27107,5,2,1:3:0:0:
302,283,27268,1,4,0:3:0:0:
364,218,27429,1,4,0:3:0:0:
465,228,27590,2,0,L|458:252,1,20,2|0,0:1|0:0,0:0:0:0:
21,110,28236,6,0,L|94:94,1,75.0000028610231,6|0,1:2|0:0,0:0:0:0:
39,29,28397,2,0,L|76:204,1,150.000005722046,6|0,1:3|0:0,0:0:0:0:
488,307,28720,2,0,L|415:291,1,75.0000028610231,2|0,1:2|0:0,0:0:0:0:
470,226,28881,2,0,L|433:401,1,150.000005722046,8|0,1:0|0:0,0:0:0:0:
256,192,29203,5,4,0:3:0:0:
256,192,29365,1,2,1:2:0:0:
327,18,29526,5,4,0:0:0:0:
355,134,29687,1,4,0:3:0:0:
252,46,29849,1,4,0:3:0:0:
224,116,30010,1,4,0:3:0:0:
115,32,30171,1,8,1:0:0:0:
148,192,30332,1,2,0:0:0:0:
40,109,30494,5,2,0:3:0:0:
58,137,30655,1,4,0:3:0:0:
108,280,30816,1,4,0:0:0:0:
0,378,30978,1,4,0:3:0:0:
2,270,31139,37,2,0:0:0:0:
27,295,31300,1,2,0:3:0:0:
204,288,31461,1,8,1:0:0:0:
184,370,31623,2,0,L|176:290,1,50,2|0,0:3|0:0,0:0:0:0:
233,211,31784,1,4,0:3:0:0:
385,377,31945,5,10,1:2:0:0:
366,250,32107,2,0,L|349:354,1,100,2|8,0:0|0:0,0:0:0:0:
457,178,32429,22,0,L|467:120,1,52.4999983978272,4|0,0:3|0:0,0:0:0:0:
474,118,32752,38,0,L|402:151,1,59.9999981689454,10|0,1:0|0:0,0:0:0:0:
102,46,33074,5,4,0:3:0:0:
102,46,33236,1,4,0:3:0:0:
94,290,33397,38,0,L|21:274,1,75.0000028610231,6|0,1:0|0:0,0:0:0:0:
39,355,33558,2,0,L|76:180,1,150.000005722046,4|0,3:0|0:0,0:0:0:0:
415,93,33881,2,0,L|488:77,1,75.0000028610231,6|0,1:2|0:0,0:0:0:0:
470,158,34042,2,0,L|433:-17,1,150.000005722046,8|0,1:0|0:0,0:0:0:0:
256,192,34365,5,4,3:0:0:0:
352,349,34526,5,2,1:2:0:0:
381,365,34687,1,2,0:0:0:0:
332,143,34849,5,4,0:3:0:0:
379,223,35010,1,4,0:3:0:0:
300,267,35171,1,4,0:3:0:0:
222,48,35332,37,8,1:0:0:0:
38,139,35494,1,2,0:0:0:0:
159,108,35655,5,2,0:3:0:0:
122,90,35816,1,4,0:3:0:0:
36,290,35978,37,4,0:3:0:0:
116,186,36139,1,4,0:3:0:0:
243,233,36300,1,6,3:0:0:0:
176,273,36461,5,4,0:3:0:0:
240,118,36623,1,8,1:0:0:0:
405,179,36784,21,2,0:0:0:0:
421,133,36945,1,6,3:0:0:0:
407,85,37107,1,10,1:2:0:0:
350,314,37268,6,0,L|500:340,1,150,4|0,0:0|0:0,0:0:0:0:
509,323,37590,2,0,L|383:366,1,100,4|0,3:0|0:0,0:0:0:0:
274,201,37913,22,0,L|360:216,1,75.0000028610231,10|0,1:0|0:0,0:0:0:0:
85,312,38236,37,4,0:3:0:0:
61,338,38397,1,4,0:3:0:0:
106,111,38558,6,0,L|33:95,1,75.0000028610231,6|0,1:0|0:0,0:0:0:0:
88,30,38720,2,0,L|51:205,1,150.000005722046,4|0,1:3|0:0,0:0:0:0:
410,298,39042,2,0,L|483:282,1,75.0000028610231,4|0,1:2|0:0,0:0:0:0:
428,217,39203,2,0,L|465:392,1,150.000005722046,8|0,1:0|0:0,0:0:0:0:
256,192,39526,5,4,0:3:0:0:
256,192,39687,1,4,0:3:0:0:
346,344,39849,5,10,0:0:0:0:
230,372,40010,1,4,0:3:0:0:
272,275,40171,1,4,0:3:0:0:
200,247,40332,1,4,0:3:0:0:
379,91,40494,1,8,1:0:0:0:
227,119,40655,1,2,0:0:0:0:
314,29,40816,5,2,0:3:0:0:
302,65,40978,1,4,0:3:0:0:
147,118,41139,1,4,0:3:0:0:
23,12,41300,1,4,0:3:0:0:
128,5,41461,37,2,0:0:0:0:
104,33,41623,1,4,0:3:0:0:
51,201,41784,1,8,1:0:0:0:
40,124,41945,2,0,L|74:196,1,50,2|0,0:0|0:0,0:0:0:0:
17,277,42107,1,12,3:0:0:0:
236,147,42268,5,12,0:0:0:0:
180,239,42429,2,0,L|200:127,1,100,2|0,0:0|0:0,0:0:0:0:
124,370,42752,22,0,P|116:330|112:314,1,52.4999983978272,14|0,3:0|0:0,0:0:0:0:
106,311,43074,38,0,L|184:332,1,59.9999981689454,10|0,1:0|0:0,0:0:0:0:
422,106,43397,5,4,0:3:0:0:
422,106,43558,1,4,0:3:0:0:
418,290,43720,38,0,L|491:274,1,75.0000028610231,6|0,1:0|0:0,0:0:0:0:
473,355,43881,2,0,L|436:180,1,150.000005722046,6|0,1:3|0:0,0:0:0:0:
97,93,44203,2,0,L|24:77,1,75.0000028610231,4|0,1:2|0:0,0:0:0:0:
42,158,44365,2,0,L|79:-17,1,150.000005722046,8|0,1:0|0:0,0:0:0:0:
256,192,44687,5,4,3:0:0:0:
305,370,44849,5,10,1:2:0:0:
298,330,45010,1,2,0:0:0:0:
188,177,45171,5,4,3:0:0:0:
280,127,45332,1,4,3:0:0:0:
321,224,45494,1,4,3:0:0:0:
198,91,45655,1,8,1:0:0:0:
364,12,45816,1,2,0:0:0:0:
394,172,45978,37,2,0:3:0:0:
355,148,46139,1,4,0:3:0:0:
462,109,46300,5,4,0:3:0:0:
488,241,46461,1,4,0:3:0:0:
372,311,46623,1,4,0:3:0:0:
449,355,46784,37,4,3:0:0:0:
337,232,46945,1,8,1:0:0:0:
218,346,47107,5,2,0:0:0:0:
240,306,47268,1,14,3:0:0:0:
284,297,47429,1,10,0:0:0:0:
148,319,47590,38,0,L|-2:345,1,150,6|0,0:0|0:0,0:0:0:0:
0,330,47913,2,0,L|94:362,1,100,4|0,3:0|0:0,0:0:0:0:
254,190,48236,22,0,L|180:202,1,75.0000028610231,10|0,1:0|0:0,0:0:0:0:
428,355,48558,5,6,0:3:0:0:
493,326,48720,1,6,0:3:0:0:
460,161,48881,6,0,L|436:241,1,75.0000028610231,6|0,1:2|0:0,0:0:0:0:
361,271,49203,1,0,0:0:0:0:
355,233,49365,1,4,0:3:0:0:
315,139,49526,2,0,L|239:183,1,75.0000028610231,8|0,0:0|0:0,0:0:0:0:
136,157,49849,1,6,0:3:0:0:
157,112,50010,1,0,0:0:0:0:
68,30,50171,5,2,0:0:0:0:
23,120,50332,1,0,0:0:0:0:
73,209,50494,1,2,0:0:0:0:
73,209,50816,37,10,1:2:0:0:
43,351,50978,1,2,0:0:0:0:
469,351,51300,1,2,0:0:0:0:
462,196,51461,6,0,P|438:231|424:271,1,75.0000028610231,4|0,0:0|0:0,0:0:0:0:
345,288,51784,1,0,0:0:0:0:
346,249,51945,1,4,0:3:0:0:
323,150,52107,2,0,P|287:155|240:180,1,75.0000028610231,8|0,0:0|0:0,0:0:0:0:
143,136,52429,1,12,3:0:0:0:
172,96,52590,1,0,0:0:0:0:
98,0,52752,37,2,0:0:0:0:
39,80,52913,1,0,0:0:0:0:
72,176,53074,1,6,0:3:0:0:
72,176,53397,5,10,1:2:0:0:
167,352,53558,1,2,0:3:0:0:
276,279,53720,1,8,0:0:0:0:
270,313,53881,1,2,0:3:0:0:
474,257,54042,38,0,B|442:280|442:280|424:323,1,75.0000028610231,4|0,0:0|0:0,0:0:0:0:
343,326,54365,1,0,0:0:0:0:
350,288,54526,1,6,0:3:0:0:
345,186,54687,2,0,B|306:184|306:184|264:205,1,75.0000028610231,8|0,0:0|0:0,0:0:0:0:
170,142,55010,1,14,3:0:0:0:
206,107,55171,1,0,0:0:0:0:
150,0,55332,5,2,0:0:0:0:
77,69,55494,1,2,0:3:0:0:
93,169,55655,1,6,0:3:0:0:
93,169,55978,37,10,1:2:0:0:
71,335,56139,1,0,0:0:0:0:
184,262,56300,5,2,0:0:0:0:
184,262,56461,1,0,0:0:0:0:
215,344,56623,1,4,0:0:0:0:
247,312,56784,1,0,0:0:0:0:
478,374,56945,37,10,1:0:0:0:
379,316,57107,1,4,0:3:0:0:
448,341,57268,1,2,0:0:0:0:
407,347,57429,1,0,0:0:0:0:
484,134,57590,5,14,3:0:0:0:
424,191,57752,1,10,0:3:0:0:
484,47,57913,37,12,0:3:0:0:
441,200,58074,1,2,0:0:0:0:
310,41,58236,2,0,L|406:75,1,75.0000028610231,10|0,3:0|0:0,0:0:0:0:
256,192,58558,5,4,0:3:0:0:
190,47,58720,2,0,L|94:13,1,75.0000028610231,12|0,3:0|0:0,0:0:0:0:
256,360,59203,37,6,1:0:0:0:
512,270,59365,1,4,0:3:0:0:
440,318,59526,1,2,0:0:0:0:
376,260,59687,1,4,0:3:0:0:
416,328,59849,5,10,1:0:0:0:
284,256,60010,1,2,0:0:0:0:
356,124,60171,2,0,P|404:140|464:160,1,100,2|10,0:0|1:2,0:0:0:0:
229,370,60655,37,4,0:3:0:0:
180,294,60816,1,4,0:3:0:0:
89,285,60978,1,4,0:3:0:0:
38,359,61139,1,10,1:0:0:0:
167,283,61300,1,2,0:0:0:0:
91,153,61461,2,0,P|40:154|31:207,1,100,2|4,0:3|0:3,0:0:0:0:
34,204,61784,1,4,0:3:0:0:
297,40,61945,5,4,0:0:0:0:
321,132,62107,1,2,0:0:0:0:
316,25,62268,1,4,0:3:0:0:
467,157,62429,37,10,1:0:0:0:
290,229,62590,1,2,0:0:0:0:
392,72,62752,1,4,0:3:0:0:
374,71,62913,1,10,1:2:0:0:
113,371,63236,5,8,0:0:0:0:
61,302,63397,1,4,0:3:0:0:
115,359,63558,1,6,3:0:0:0:
176,16,63720,6,0,L|184:76,1,50,14|0,1:0|0:0,0:0:0:0:
492,260,64042,5,4,3:0:0:0:
416,308,64203,1,4,3:0:0:0:
360,56,64365,5,6,1:0:0:0:
409,116,64526,1,4,0:3:0:0:
409,116,64687,1,4,0:3:0:0:
307,258,64849,5,4,3:0:0:0:
264,190,65010,1,10,1:0:0:0:
318,136,65171,1,2,0:0:0:0:
148,24,65332,37,6,1:2:0:0:
112,107,65494,1,10,1:2:0:0:
167,36,65655,1,2,0:0:0:0:
247,76,65816,1,4,0:3:0:0:
52,216,65978,5,4,3:0:0:0:
24,144,66139,1,4,3:0:0:0:
189,128,66300,37,10,1:0:0:0:
29,188,66461,1,2,0:3:0:0:
241,190,66623,1,2,0:0:0:0:
80,348,66784,5,12,3:0:0:0:
160,299,66945,1,12,3:0:0:0:
160,205,67107,1,12,3:0:0:0:
330,35,67268,5,4,0:3:0:0:
314,87,67349,1,4,0:3:0:0:
344,130,67429,1,4,0:3:0:0:
312,384,67590,21,4,0:3:0:0:
167,312,67752,1,4,0:3:0:0:
300,220,67913,1,6,1:3:0:0:
208,120,68074,1,4,0:3:0:0:
256,10,68236,38,0,P|251:75|234:188,1,179.999994506836,4|4,0:0|0:0,0:0:0:0:
256,380,69526,5,6,1:0:0:0:
332,340,69687,1,4,0:3:0:0:
244,360,69849,5,2,0:0:0:0:
168,320,70010,1,4,0:3:0:0:
332,308,70171,37,10,1:0:0:0:
388,232,70332,1,2,0:0:0:0:
168,284,70494,5,4,0:3:0:0:
113,205,70655,1,10,1:2:0:0:
140,296,70816,1,2,0:0:0:0:
384,200,70978,37,4,3:0:0:0:
428,92,71139,1,4,3:0:0:0:
336,16,71300,1,4,3:0:0:0:
265,242,71461,5,10,1:0:0:0:
313,186,71623,1,2,0:3:0:0:
290,120,71784,1,2,0:0:0:0:
140,16,71945,37,4,3:0:0:0:
168,100,72107,1,4,3:0:0:0:
164,8,72268,1,12,3:0:0:0:
390,39,72429,5,4,0:0:0:0:
358,130,72590,1,6,0:3:0:0:
159,118,72752,37,10,1:0:0:0:
71,156,72913,1,2,0:0:0:0:
362,152,73074,5,6,0:3:0:0:
444,204,73236,1,10,1:2:0:0:
153,220,73397,37,2,0:0:0:0:
129,316,73558,1,4,0:3:0:0:
133,228,73720,1,4,3:0:0:0:
390,348,73881,5,4,3:0:0:0:
358,260,74042,1,10,1:0:0:0:
370,366,74203,1,2,0:0:0:0:
256,192,74365,1,4,0:0:0:0:
256,192,74687,37,6,1:0:0:0:
320,44,74849,5,4,3:0:0:0:
247,97,75010,1,2,0:0:0:0:
166,56,75171,1,4,0:3:0:0:
256,110,75332,1,10,1:0:0:0:
137,202,75494,1,2,0:0:0:0:
72,13,75655,2,0,P|56:53|76:109,1,100,4|10,3:0|1:2,0:0:0:0:
34,370,76139,37,4,3:0:0:0:
102,290,76300,1,4,0:3:0:0:
202,306,76461,1,4,0:3:0:0:
91,307,76623,1,6,1:0:0:0:
168,176,76784,1,2,0:0:0:0:
308,339,76945,2,0,P|308:273|271:245,1,100,2|4,0:3|0:3,0:0:0:0:
280,260,77268,1,4,3:0:0:0:
479,153,77429,5,4,0:3:0:0:
427,248,77590,1,4,0:3:0:0:
475,349,77752,1,4,0:3:0:0:
405,239,77913,1,10,1:0:0:0:
502,81,78074,1,2,0:0:0:0:
322,4,78236,2,0,P|345:45|373:108,1,100,4|6,3:0|1:2,0:0:0:0:
380,351,78720,37,4,3:0:0:0:
304,331,78881,1,4,0:3:0:0:
391,342,79042,1,6,0:3:0:0:
40,371,79203,22,0,L|100:360,1,50,14|0,1:0|0:0,0:0:0:0:
443,21,79526,2,2,B|382:23|382:23|334:44|334:44|258:57|258:57|183:87|183:87|51:119,1,375,4|0,1:0|0:0,0:0:0:0:
70,115,79849,1,10,1:0:0:0:
467,365,80171,5,2,0:0:0:0:
467,365,80332,1,4,0:3:0:0:
433,295,80494,5,8,1:0:0:0:
442,265,80655,1,2,0:0:0:0:
505,199,80816,5,2,0:3:0:0:
474,146,80978,1,0,0:0:0:0:
400,88,81139,37,2,0:0:0:0:
425,15,81300,1,0,0:0:0:0:
394,191,81461,5,2,0:3:0:0:
320,147,81623,1,0,0:0:0:0:
216,233,81784,37,8,1:0:0:0:
216,233,82107,1,4,3:0:0:0:
45,365,82429,5,6,1:0:0:0:
45,365,82752,37,4,0:3:0:0:
45,365,82913,1,4,0:3:0:0:
79,295,83074,5,8,1:0:0:0:
70,265,83236,1,0,0:0:0:0:
7,199,83397,37,6,1:2:0:0:
38,146,83558,1,2,0:0:0:0:
112,88,83720,5,2,0:3:0:0:
87,15,83881,1,0,0:0:0:0:
118,191,84042,37,2,0:0:0:0:
192,147,84203,1,0,0:0:0:0:
296,233,84365,5,10,1:0:0:0:
296,233,84687,1,2,0:0:0:0:
256,20,85010,37,6,1:0:0:0:
256,364,85332,5,2,0:0:0:0:
256,364,85494,1,4,0:3:0:0:
216,300,85655,37,8,1:0:0:0:
176,296,85816,1,2,0:0:0:0:
300,264,85978,5,2,0:3:0:0:
364,236,86139,1,10,1:2:0:0:
208,212,86300,37,2,0:0:0:0:
124,196,86461,1,2,1:2:0:0:
296,168,86623,5,6,1:3:0:0:
380,132,86784,1,4,3:0:0:0:
216,120,86945,37,8,1:0:0:0:
88,88,87107,1,2,0:0:0:0:
304,72,87268,5,4,0:3:0:0:
432,20,87429,1,4,0:3:0:0:
256,12,87590,37,6,1:2:0:0:
256,12,87913,1,6,3:0:0:0:
254,381,88236,1,8,1:0:0:0:
275,310,88397,1,0,0:0:0:0:
273,383,88558,5,4,1:2:0:0:
210,293,88720,1,2,1:3:0:0:
312,244,88881,1,2,0:0:0:0:
208,125,89042,1,4,3:0:0:0:
289,13,89203,37,4,1:3:0:0:
256,188,89365,1,4,1:3:0:0:
204,372,89526,2,0,P|252:280|312:184,1,200,2|4,1:0|0:0,0:0:0:0:
360,151,90010,1,4,0:3:0:0:
195,13,90171,22,0,B|205:19|205:19|109:42,1,100,6|0,1:0|0:0,0:0:0:0:
45,57,90332,1,4,0:3:0:0:
342,65,90494,2,0,B|332:71|332:71|428:94,1,100,4|0,1:0|0:0,0:0:0:0:
494,113,90655,1,2,0:0:0:0:
210,286,90816,6,0,B|204:296|204:296|184:252|181:200,1,100,14|0,1:0|0:0,0:0:0:0:
302,216,91139,2,0,B|308:206|308:206|327:249|327:298,1,100,10|0,0:0|0:0,0:0:0:0:
482,366,91461,5,2,0:0:0:0:
423,285,91623,1,0,0:0:0:0:
322,307,91784,1,2,0:0:0:0:
243,152,91945,1,0,0:0:0:0:
25,371,92107,22,0,B|54:334|54:334|103:357,1,100,10|0,1:0|3:0,0:0:0:0:
101,356,92429,1,2,0:0:0:0:
352,371,92752,37,6,1:0:0:0:
276,345,92913,1,4,0:3:0:0:
256,267,93074,1,4,0:3:0:0:
176,259,93236,1,4,0:3:0:0:
270,273,93397,37,10,1:0:0:0:
346,247,93558,1,2,0:0:0:0:
366,169,93720,1,12,3:0:0:0:
446,161,93881,1,2,0:0:0:0:
358,153,94042,5,2,0:0:0:0:
282,127,94203,1,0,0:0:0:0:
262,49,94365,1,2,0:0:0:0:
182,41,94526,1,0,0:0:0:0:
126,178,94687,38,0,L|99:59,1,100,10|0,1:0|0:0,0:0:0:0:
349,327,95010,2,0,L|376:208,1,100,2|4,0:0|0:0,0:0:0:0:
252,364,95332,22,0,B|258:374|258:374|281:278,1,100,6|0,1:0|0:0,0:0:0:0:
304,184,95494,1,4,0:3:0:0:
76,272,95655,2,0,B|70:282|70:282|47:186,1,100,6|0,1:0|0:0,0:0:0:0:
20,58,95816,1,2,0:0:0:0:
185,254,95978,37,10,1:0:0:0:
175,285,96139,1,2,0:0:0:0:
270,98,96300,2,0,P|334:84|426:47,1,150,2|0,3:0|0:0,0:0:0:0:
428,44,96623,37,2,0:0:0:0:
337,51,96784,1,0,0:0:0:0:
356,175,96945,1,2,0:0:0:0:
178,145,97107,1,0,0:0:0:0:
54,365,97268,1,10,1:0:0:0:
25,266,97429,5,2,0:0:0:0:
77,369,97590,2,0,L|111:275,1,100,4|4,3:0|3:0,0:0:0:0:
28,48,97913,37,6,1:0:0:0:
112,77,98074,1,4,3:0:0:0:
128,165,98236,1,4,3:0:0:0:
215,144,98397,1,4,3:0:0:0:
327,25,98558,5,10,1:0:0:0:
395,177,98720,1,2,0:0:0:0:
501,43,98881,37,6,1:0:0:0:
408,78,99042,1,2,0:0:0:0:
510,206,99203,5,4,0:0:0:0:
510,206,99365,1,4,3:0:0:0:
311,119,99526,37,4,3:0:0:0:
311,119,99687,1,4,3:0:0:0:
312,359,99849,22,0,L|322:298,1,50,6|0,1:0|0:0,0:0:0:0:
388,257,100010,2,0,L|414:343,1,50,2|0,1:0|0:0,0:0:0:0:
258,241,100171,2,0,L|193:273,1,50,2|0,1:0|0:0,0:0:0:0:
460,368,100332,2,0,L|507:350,1,50,2|0,1:0|0:0,0:0:0:0:
502,124,100494,37,6,1:0:0:0:
415,76,100655,1,4,0:3:0:0:
403,147,100816,1,2,0:0:0:0:
289,107,100978,1,2,0:3:0:0:
273,20,101139,1,8,1:0:0:0:
112,45,101300,1,2,0:0:0:0:
142,112,101461,1,0,0:0:0:0:
186,55,101623,1,2,1:2:0:0:
75,195,101784,37,2,0:0:0:0:
150,221,101945,1,2,0:3:0:0:
70,214,102107,1,4,3:0:0:0:
267,140,102268,1,4,3:0:0:0:
144,346,102429,2,0,L|109:286,1,50,8|0,1:0|0:0,0:0:0:0:
242,282,102590,1,2,0:3:0:0:
232,315,102752,1,2,0:0:0:0:
340,365,102913,5,4,0:3:0:0:
369,268,103074,1,6,1:0:0:0:
267,137,103236,37,4,3:0:0:0:
298,213,103397,1,0,0:0:0:0:
247,157,103558,1,2,0:0:0:0:
457,109,103720,5,8,1:0:0:0:
468,31,103881,1,2,0:0:0:0:
391,28,104042,1,0,0:0:0:0:
377,104,104203,2,0,L|437:91,1,50,10|0,1:2|0:0,0:0:0:0:
254,54,104365,37,2,0:0:0:0:
177,17,104526,1,2,0:3:0:0:
267,45,104687,1,4,3:0:0:0:
150,123,104849,1,4,3:0:0:0:
51,12,105010,1,8,1:0:0:0:
33,93,105171,22,0,L|22:23,1,50,2|0,0:1|0:0,0:0:0:0:
41,174,105332,2,0,L|52:104,1,50,2|0,0:1|0:0,0:0:0:0:
38,235,105494,2,0,L|27:165,1,50,2|0,1:0|0:0,0:0:0:0:
111,273,105655,38,0,L|100:343,1,50,6|0,1:0|0:0,0:0:0:0:
46,371,105816,1,4,3:0:0:0:
165,208,105978,37,2,0:0:0:0:
197,281,106139,1,2,0:0:0:0:
153,192,106300,1,8,1:0:0:0:
276,201,106461,1,2,0:0:0:0:
323,90,106623,1,0,0:0:0:0:
425,91,106784,1,10,1:2:0:0:
459,22,106945,1,0,0:0:0:0:
421,188,107107,5,2,0:0:0:0:
509,235,107268,1,4,3:0:0:0:
430,172,107429,1,4,3:0:0:0:
402,309,107590,2,0,L|314:364,1,100,8|2,1:0|0:0,0:0:0:0:
495,375,107913,2,0,L|406:302,1,100,6|4,3:0|3:0,0:0:0:0:
126,380,108236,37,6,1:0:0:0:
126,380,108397,1,4,0:3:0:0:
175,314,108558,1,4,0:3:0:0:
175,314,108720,1,4,0:3:0:0:
45,137,108881,5,6,1:2:0:0:
125,150,109042,1,0,0:0:0:0:
34,154,109203,1,2,0:0:0:0:
136,132,109365,1,10,1:2:0:0:
267,204,109526,1,2,0:0:0:0:
390,121,109687,37,10,1:2:0:0:
307,86,109849,1,4,3:0:0:0:
231,140,110010,1,4,3:0:0:0:
247,233,110171,38,0,L|272:226,1,14.9999995422363,8|0,1:0|0:0,0:0:0:0:
278,269,110332,2,0,L|219:254,1,59.9999981689454,4|0,0:0|0:0,0:0:0:0:
256,208,120494,54,0,L|256:176,1,29.9999990844727,2|0,1:3|0:0,0:0:0:0:
300,277,120816,37,6,0:3:0:0:
212,107,120978,1,6,0:3:0:0:
176,352,121139,21,4,1:0:0:0:
176,352,121300,2,2,B|129:349|105:280|53:273,1,150,4|0,3:0|0:0,0:0:0:0:
33,284,121623,1,4,3:0:0:0:
265,188,121784,2,0,P|218:212|180:249,1,100,8|0,1:0|0:0,0:0:0:0:
421,275,122107,1,4,3:0:0:0:
364,359,122268,2,0,P|336:292|308:266,1,100,10|0,1:2|0:0,0:0:0:0:
363,57,122590,5,4,3:0:0:0:
418,125,122752,1,4,0:3:0:0:
493,80,122913,1,4,0:3:0:0:
345,65,123074,2,2,B|408:77|436:186|492:203,1,200,8|2,1:0|0:0,0:0:0:0:
486,200,123558,1,4,0:3:0:0:
332,371,123720,37,6,1:0:0:0:
331,188,123881,2,0,P|315:235|294:280,1,100,2|0,1:2|0:0,0:0:0:0:
121,270,124203,1,4,3:0:0:0:
103,379,124365,2,0,P|147:356|196:343,1,100,8|0,1:0|0:0,0:0:0:0:
25,303,124687,1,4,1:2:0:0:
41,189,124849,2,0,P|89:175|133:152,1,100,2|0,1:3|0:0,0:0:0:0:
17,186,125171,1,2,3:0:0:0:
288,83,125332,5,4,3:0:0:0:
202,77,125494,1,4,3:0:0:0:
387,12,125655,2,0,P|320:20|217:122,1,200,10|4,1:0|0:3,0:0:0:0:
129,25,126139,1,4,0:3:0:0:
185,274,126300,37,4,1:0:0:0:
185,274,126461,2,2,B|230:263|243:191|294:176,1,150,4|0,3:0|0:0,0:0:0:0:
315,188,126784,1,4,3:0:0:0:
392,354,126945,2,0,P|328:334|283:339,1,100,8|0,1:0|0:0,0:0:0:0:
512,168,127268,1,4,3:0:0:0:
435,252,127429,2,0,P|419:198|383:154,1,100,10|0,1:2|0:0,0:0:0:0:
148,11,127752,5,4,3:0:0:0:
214,81,127913,1,4,0:3:0:0:
291,25,128074,1,4,0:3:0:0:
137,20,128236,2,2,P|227:61|319:153,1,200,8|2,1:0|0:0,0:0:0:0:
302,129,128720,1,4,0:3:0:0:
430,40,128881,37,6,1:0:0:0:
402,292,129042,2,0,P|415:244|410:194,1,100,2|4,1:2|0:3,0:0:0:0:
230,217,129365,1,6,3:0:0:0:
240,370,129526,2,0,P|268:316|308:289,1,100,8|0,1:0|0:0,0:0:0:0:
125,378,129849,1,6,1:2:0:0:
108,221,130010,2,0,P|80:275|39:301,1,100,8|0,1:0|0:0,0:0:0:0:
127,234,130332,2,0,P|130:191|123:164,1,50,6|0,1:0|0:0,0:0:0:0:
12,84,130494,5,6,1:3:0:0:
99,99,130655,1,6,1:3:0:0:
159,33,130816,2,2,L|306:62,1,150,2|0,0:1|0:0,0:0:0:0:
294,75,131139,1,2,0:0:0:0:
349,372,131461,37,4,1:0:0:0:
349,372,131623,2,2,B|334:321|262:308|251:263,1,150,4|0,3:0|0:0,0:0:0:0:
254,242,131945,1,4,3:0:0:0:
474,283,132107,2,0,P|410:263|365:268,1,100,8|0,1:0|0:0,0:0:0:0:
385,50,132429,1,4,3:0:0:0:
357,149,132590,2,0,P|406:148|453:131,1,100,10|0,1:2|0:0,0:0:0:0:
291,65,132913,5,4,3:0:0:0:
218,119,133074,1,4,0:3:0:0:
268,195,133236,1,4,0:3:0:0:
281,42,133397,2,2,P|230:133|254:230,1,200,8|2,1:0|0:0,0:0:0:0:
249,222,133881,1,4,0:3:0:0:
41,277,134042,37,6,1:0:0:0:
196,383,134203,2,0,P|170:312|148:269,1,100,2|0,1:2|0:0,0:0:0:0:
149,118,134526,1,4,3:0:0:0:
41,93,134687,2,0,P|67:164|89:207,1,100,8|0,1:0|0:0,0:0:0:0:
106,11,135010,1,6,1:2:0:0:
252,124,135171,2,0,P|231:79|216:31,1,100,8|0,1:0|0:0,0:0:0:0:
272,146,135494,1,10,1:2:0:0:
393,16,135655,5,4,3:0:0:0:
466,63,135816,1,4,3:0:0:0:
389,205,135978,2,0,P|380:139|452:13,1,200,10|4,1:0|0:3,0:0:0:0:
438,23,136461,1,4,0:3:0:0:
490,317,136623,37,4,1:0:0:0:
490,317,136784,2,0,B|450:341|390:299|343:324,1,150,4|0,3:0|0:0,0:0:0:0:
341,358,137107,1,4,3:0:0:0:
218,242,137268,2,0,P|224:308|246:348,1,100,8|0,1:0|0:0,0:0:0:0:
396,167,137590,1,4,3:0:0:0:
304,140,137752,2,0,P|323:185|325:235,1,100,10|0,1:2|0:0,0:0:0:0:
221,88,138074,5,4,3:0:0:0:
271,21,138236,1,4,0:3:0:0:
351,65,138397,1,4,0:3:0:0:
198,78,138558,2,2,B|133:94|60:37|-5:57,1,200,8|2,1:0|0:0,0:0:0:0:
1,55,139042,1,4,3:0:0:0:
130,29,139203,37,6,1:0:0:0:
87,237,139365,2,0,P|61:166|39:123,1,100,2|4,1:2|3:0,0:0:0:0:
46,316,139687,1,4,3:0:0:0:
123,368,139849,2,0,P|149:297|171:254,1,100,8|0,1:0|0:0,0:0:0:0:
242,344,140171,1,4,1:2:0:0:
350,342,140332,2,0,P|324:271|302:228,1,100,8|0,1:0|0:0,0:0:0:0:
355,369,140655,1,10,1:2:0:0:
216,211,140816,5,4,3:0:0:0:
307,121,140978,1,4,3:0:0:0:
256,40,141139,1,12,1:0:0:0:
