osu file format v14

[General]
AudioFilename: audio.mp3
AudioLeadIn: 0
PreviewTime: 59123
Countdown: 0
SampleSet: Normal
StackLeniency: 0.4
Mode: 0
LetterboxInBreaks: 0
WidescreenStoryboard: 0

[Editor]
Bookmarks: 17752,28074,48720,59042,87590,100332,120332,140978
DistanceSpacing: 0.8
BeatDivisor: 4
GridSize: 4
TimelineZoom: 1.9

[Metadata]
Title:Levitate
TitleUnicode:Levitate
Artist:twenty one pilots
ArtistUnicode:twenty one pilots
Creator:Mao
Version:Gens' Expert
Source:
Tags:trench gens hectic hootowlstar RyoKazuka hip hop english rap h4d0uk3n1
BeatmapID:2146131
BeatmapSetID:1026205

[Difficulty]
HPDrainRate:5
CircleSize:4.5
OverallDifficulty:6
ApproachRate:9
SliderMultiplier:2.7
SliderTickRate:1

[Events]
//Background and Video events
0,0,"levitate.jpg",0,0
//Break Periods
2,110790,119793
//Storyboard Layer 0 (Background)
//Storyboard Layer 1 (Fail)
//Storyboard Layer 2 (Pass)
//Storyboard Layer 3 (Foreground)
//Storyboard Layer 4 (Overlay)
//Storyboard Sound Samples

[TimingPoints]
7591,322.58064516129,4,1,0,55,1,0
26300,-100,4,1,0,65,0,0
28236,-100,4,1,0,55,0,0
48881,-133.333333333333,4,1,0,45,0,0
59203,-100,4,1,0,55,0,0
66784,-80,4,1,0,65,0,0
68397,-80,4,1,0,15,0,0
68558,-80,4,1,0,25,0,0
68720,-80,4,1,0,35,0,0
68881,-80,4,1,0,45,0,0
69042,-80,4,1,0,55,0,0
69203,-80,4,1,0,65,0,0
69365,-100,4,1,0,55,0,0
79849,-100,4,1,0,45,0,0
81784,-200,4,1,0,35,0,0
82429,-100,4,1,0,45,0,0
84365,-200,4,1,0,35,0,0
85010,-100,4,1,0,45,0,0
87590,-200,4,1,0,40,0,0
88236,-100,4,1,0,45,0,0
89526,-133.333333333333,4,1,0,40,0,0
89849,-100,4,1,0,45,0,0
90171,-100,4,1,0,60,0,0
92429,-100,4,1,0,35,0,0
92752,-100,4,1,0,60,0,0
97590,-133.333333333333,4,1,0,55,0,0
97913,-100,4,1,0,60,0,0
100494,-111.111111111111,4,1,0,50,0,0
108881,-100,4,1,0,55,0,0
121139,-100,4,1,0,60,0,0
130494,-100,4,1,0,65,0,0
131461,-100,4,1,0,60,0,0
140816,-100,4,1,0,60,0,0

[Colours]
Combo1 : 255,217,0
Combo2 : 98,90,107

[HitObjects]
16,96,17913,5,4,0:0:0:0:
174,3,18074,1,0,0:0:0:0:
96,144,18236,1,0,0:0:0:0:
273,96,18397,1,8,0:0:0:0:
164,212,18558,1,0,0:0:0:0:
348,212,18720,1,2,0:0:0:0:
256,344,18881,1,0,0:0:0:0:
256,344,19042,1,4,0:0:0:0:
416,320,19203,1,0,0:0:0:0:
336,180,19365,1,0,0:0:0:0:
176,180,19526,1,0,0:0:0:0:
96,320,19687,1,8,0:0:0:0:
256,344,19849,6,0,P|317:318|355:264,1,135,0|2,0:0|2:0,0:0:0:0:
256,39,20171,2,0,P|194:65|156:119,2,135,0|4|0,0:0|0:0|0:0,0:0:0:0:
200,192,20655,1,8,0:0:0:0:
256,344,20816,1,0,0:0:0:0:
312,192,20978,1,2,0:0:0:0:
256,40,21139,1,0,0:0:0:0:
312,192,21300,2,0,P|350:246|411:271,1,135,8|0,0:0|0:0,0:0:0:0:
376,116,21623,2,0,B|336:72|288:80|272:172|240:172|224:80|176:72|136:116,1,270,4|2,0:0|2:0,0:0:0:0:
101,271,22107,5,0,0:0:0:0:
220,164,22268,1,4,0:0:0:0:
204,324,22429,1,0,0:0:0:0:
336,232,22590,1,8,0:0:0:0:
176,232,22752,1,0,0:0:0:0:
308,324,22913,1,2,2:0:0:0:
292,164,23074,1,0,0:0:0:0:
411,271,23236,1,4,0:0:0:0:
504,140,23397,5,0,0:0:0:0:
504,140,23558,1,8,0:0:0:0:
424,0,23720,2,0,P|363:27|336:87,1,135,2|0,0:0|0:0,0:0:0:0:
175,87,24042,2,0,P|148:27|88:0,1,135,8|0,0:0|0:0,0:0:0:0:
144,152,24365,1,4,0:0:0:0:
368,152,24526,1,0,0:0:0:0:
88,224,24687,2,0,L|223:224,1,135,2|0,2:0|0:0,0:0:0:0:
444,272,25010,2,0,L|309:272,1,135,8|0,0:0|0:0,0:0:0:0:
220,100,25332,2,0,P|256:289|292:100,1,540,6|2,0:0|2:0,0:0:0:0:
424,0,26300,5,2,0:0:0:0:
337,134,26461,1,0,0:0:0:0:
176,134,26623,1,8,0:0:0:0:
88,0,26784,1,0,0:0:0:0:
144,198,26945,1,4,0:0:0:0:
368,198,27107,1,0,0:0:0:0:
156,270,27268,1,2,2:0:0:0:
156,270,27429,1,0,0:0:0:0:
377,318,27590,1,8,0:0:0:0:
377,318,27752,1,0,0:0:0:0:
256,126,27913,1,6,0:0:0:0:
32,32,28236,6,0,L|155:86,1,135,2|0,0:0|0:0,0:0:0:0:
356,297,28720,2,0,L|480:352,1,135,2|4,0:0|0:0,0:0:0:0:
64,320,29526,5,8,0:0:0:0:
200,236,29687,1,0,0:0:0:0:
192,76,29849,2,0,P|256:57|320:76,1,135
312,236,30171,1,4,0:0:0:0:
448,320,30332,1,0,0:0:0:0:
487,163,30494,6,0,P|507:99|488:36,1,135,8|0,0:0|0:0,0:0:0:0:
333,76,30816,1,2,0:0:0:0:
177,117,30978,1,0,0:0:0:0:
332,160,31139,1,2,2:0:0:0:
176,201,31300,1,0,0:0:0:0:
24,163,31461,2,0,P|4:99|24:36,2,135,8|0|0,0:0|0:0|0:0,0:0:0:0:
120,292,31945,1,0,0:0:0:0:
120,292,32107,2,0,P|238:238|257:110,1,270,2|8,0:0|0:0,0:0:0:0:
257,110,32752,2,0,P|276:238|394:291,1,270,4|2,0:0|2:0,0:0:0:0:
32,352,33397,6,0,L|155:297,1,135,2|0,0:0|0:0,0:0:0:0:
356,86,33881,2,0,L|480:32,1,135,2|4,0:0|0:0,0:0:0:0:
128,288,34526,5,8,0:0:0:0:
256,192,34687,2,0,L|256:57,2,135,4|0|0,0:0|0:0|0:0,0:0:0:0:
384,288,35171,1,0,0:0:0:0:
332,80,35332,2,0,L|468:112,1,135,2|0,2:0|0:0,0:0:0:0:
180,152,35655,2,0,L|44:184,1,135,8|0,0:0|0:0,0:0:0:0:
256,321,35978,5,4,0:0:0:0:
348,192,36139,1,0,0:0:0:0:
256,62,36300,1,2,2:0:0:0:
164,192,36461,1,0,0:0:0:0:
348,192,36623,2,0,P|395:145|414:81,1,135,8|0,0:0|0:0,0:0:0:0:
164,192,36945,2,0,P|116:238|97:302,1,135,2|0,0:0|0:0,0:0:0:0:
256,192,37268,2,0,P|374:138|393:10,1,270,2|8,2:0|0:0,0:0:0:0:
118,10,37913,2,0,P|137:138|256:192,1,270,4|2,0:0|0:0,0:0:0:0:
480,32,38558,6,0,L|356:86,1,135,2|0,0:0|0:0,0:0:0:0:
156,297,39042,2,0,L|32:352,1,135,2|4,0:0|0:0,0:0:0:0:
448,320,39849,5,8,0:0:0:0:
312,236,40010,1,0,0:0:0:0:
336,76,40171,1,0,0:0:0:0:
176,76,40332,1,0,0:0:0:0:
200,236,40494,1,4,0:0:0:0:
64,320,40655,1,0,0:0:0:0:
24,163,40816,6,0,P|4:99|24:36,1,135,8|0,0:0|0:0,0:0:0:0:
179,76,41139,1,2,0:0:0:0:
335,117,41300,1,0,0:0:0:0:
180,160,41461,1,2,2:0:0:0:
336,201,41623,1,0,0:0:0:0:
492,168,41784,1,8,0:0:0:0:
432,20,41945,1,0,0:0:0:0:
416,180,42107,1,0,0:0:0:0:
400,340,42268,1,0,0:0:0:0:
400,340,42429,2,0,B|320:384|216:296|136:340,1,270,2|8,0:0|0:0,0:0:0:0:
112,44,43074,2,0,B|192:0|296:88|376:44,1,270,4|2,0:0|2:0,0:0:0:0:
480,352,43720,6,0,L|356:297,1,135,2|0,0:0|0:0,0:0:0:0:
156,86,44203,2,0,L|32:32,1,135,2|4,0:0|0:0,0:0:0:0:
344,296,44849,5,8,0:0:0:0:
220,192,45010,1,4,0:0:0:0:
256,36,45171,1,0,0:0:0:0:
292,192,45332,1,0,0:0:0:0:
168,296,45494,1,0,0:0:0:0:
114,95,45655,1,2,2:0:0:0:
114,95,45816,1,0,0:0:0:0:
397,167,45978,1,8,0:0:0:0:
397,167,46139,1,0,0:0:0:0:
256,321,46300,5,4,0:0:0:0:
164,192,46461,1,0,0:0:0:0:
256,62,46623,1,2,2:0:0:0:
348,192,46784,1,0,0:0:0:0:
164,192,46945,2,0,P|116:145|97:81,1,135,8|0,0:0|0:0,0:0:0:0:
348,192,47268,2,0,P|395:238|414:302,1,135,2|0,0:0|0:0,0:0:0:0:
256,192,47590,2,0,B|164:288|108:96|16:192,1,270,2|8,2:0|0:0,0:0:0:0:
496,192,48236,2,0,B|404:288|348:96|256:192,1,270,4|2,0:0|0:0,0:0:0:0:
496,192,48881,5,4,0:0:0:0:
408,192,49042,1,0,0:0:0:0:
332,236,49203,1,2,2:0:0:0:
332,236,49365,1,0,0:0:0:0:
256,192,49526,1,8,0:0:0:0:
217,271,49687,1,0,0:0:0:0:
172,160,49849,2,0,L|126:250,1,101.250003862381,4|0,0:3|0:0,0:0:0:0:
109,101,50171,1,2,0:0:0:0:
64,192,50332,1,0,0:0:0:0:
19,283,50494,1,0,0:0:0:0:
19,283,50816,1,4,0:3:0:0:
0,104,51300,5,0,0:0:0:0:
16,192,51461,1,2,2:0:0:0:
104,192,51623,1,0,0:0:0:0:
180,236,51784,1,0,0:0:0:0:
180,236,51945,1,0,0:0:0:0:
256,192,52107,1,8,0:0:0:0:
295,271,52268,1,0,0:0:0:0:
340,160,52429,2,0,L|385:250,1,101.250003862381,4|0,0:3|0:0,0:0:0:0:
403,101,52752,1,2,0:0:0:0:
448,192,52913,1,0,0:0:0:0:
493,283,53074,1,0,0:0:0:0:
358,10,53397,1,12,0:0:0:0:
490,341,53881,5,0,0:0:0:0:
490,341,54042,2,0,L|389:348,1,101.250003862381,12|0,0:0|0:0,0:0:0:0:
300,356,54365,1,0,0:0:0:0:
212,356,54526,1,0,0:0:0:0:
122,348,54687,2,0,L|22:341,1,101.250003862381,2|0,2:0|0:0,0:0:0:0:
72,268,55010,2,0,L|172:275,1,101.250003862381,8|0,0:0|0:0,0:0:0:0:
460,268,55332,1,2,0:0:0:0:
357,274,55494,1,0,0:0:0:0:
256,282,55655,1,0,0:0:0:0:
256,282,55978,1,4,0:3:0:0:
256,102,56300,5,2,2:0:0:0:
256,102,56461,1,0,0:0:0:0:
168,103,56623,2,0,P|174:153|211:186,1,101.250003862381,4|0,0:0|0:0,0:0:0:0:
300,186,56945,2,0,P|337:153|344:104,1,101.250003862381,8|0,0:0|0:0,0:0:0:0:
256,36,57268,1,2,0:0:0:0:
256,36,57429,1,0,0:0:0:0:
176,88,57590,1,0,0:0:0:0:
176,184,57752,1,0,0:0:0:0:
256,236,57913,1,12,0:0:0:0:
336,184,58074,1,0,0:0:0:0:
336,88,58236,1,0,0:0:0:0:
116,112,58558,2,0,L|180:192,1,101.250003862381
360,252,59203,5,4,0:0:0:0:
256,340,59365,1,0,0:0:0:0:
256,339,59526,2,0,P|190:330|146:281,1,135,2|0,2:0|0:0,0:0:0:0:
252,200,59849,1,8,0:0:0:0:
255,2,60010,1,0,0:0:0:0:
159,175,60171,1,6,0:0:0:0:
256,340,60655,5,0,0:0:0:0:
256,339,60816,2,0,P|321:330|365:281,1,135,2|0,2:0|0:0,0:0:0:0:
260,200,61139,1,8,0:0:0:0:
257,2,61300,1,0,0:0:0:0:
353,175,61461,1,6,0:0:0:0:
200,240,61945,5,0,0:0:0:0:
200,240,62107,2,0,L|336:240,1,135,2|0,2:0|0:0,0:0:0:0:
136,176,62429,1,8,0:0:0:0:
256,16,62590,1,0,0:0:0:0:
376,176,62752,1,6,0:0:0:0:
144,40,63236,5,0,0:0:0:0:
144,40,63397,2,0,L|272:80,1,135,2|0,2:0|0:0,0:0:0:0:
136,120,63720,1,8,0:0:0:0:
136,120,64042,1,0,0:0:0:0:
308,174,64203,1,0,0:0:0:0:
482,228,64365,1,4,0:0:0:0:
176,240,64526,5,0,0:0:0:0:
176,240,64687,1,2,2:0:0:0:
336,272,64849,1,0,0:0:0:0:
88,288,65010,2,0,L|217:326,1,135,8|0,0:0|0:0,0:0:0:0:
432,328,65332,2,0,L|302:366,1,135
192,192,65655,2,0,B|232:160|280:224|320:192,1,135,2|0,0:0|0:0,0:0:0:0:
128,143,65978,2,0,P|113:208|151:261,1,135
361,261,66300,1,8,0:0:0:0:
412,108,66461,1,0,0:0:0:0:
256,64,66623,1,2,0:0:0:0:
340,212,66784,5,0,0:0:0:0:
172,212,66945,1,4,0:0:0:0:
256,360,67107,1,0,0:0:0:0:
328,136,67268,1,0,0:0:0:0:
256,112,67349,1,0,0:0:0:0:
184,136,67429,1,0,0:0:0:0:
343,306,67590,2,0,P|403:248|424:168,1,168.75,8|0,0:0|0:0,0:0:0:0:
87,168,67913,2,0,P|108:248|168:306,1,168.75,2|0,2:0|0:0,0:0:0:0:
256,56,68236,5,4,0:0:0:0:
176,144,68397,1,0,0:0:0:0:
352,184,68558,1,0,0:0:0:0:
136,224,68720,1,0,0:0:0:0:
384,264,68881,1,0,0:0:0:0:
96,304,69042,1,0,0:0:0:0:
424,344,69203,1,2,2:0:0:0:
208,360,69365,5,2,0:0:0:0:
208,360,69526,2,0,P|148:332|120:272,1,135,4|0,0:0|0:0,0:0:0:0:
200,116,69849,1,2,2:0:0:0:
312,268,70010,1,0,0:0:0:0:
303,23,70171,2,0,P|363:51|391:111,1,135,8|0,0:0|0:0,0:0:0:0:
120,111,70494,1,0,0:0:0:0:
120,111,70655,2,0,P|148:51|208:23,1,135,2|0,0:0|0:0,0:0:0:0:
391,272,70978,1,0,0:0:0:0:
391,272,71139,2,0,P|363:332|303:360,1,135,8|0,0:0|0:0,0:0:0:0:
144,192,71461,1,2,2:0:0:0:
256,68,71623,1,0,0:0:0:0:
368,192,71784,1,4,0:0:0:0:
72,288,71945,5,0,0:0:0:0:
72,288,72107,2,0,B|112:256|160:320|200:288,1,135,4|0,0:0|0:0,0:0:0:0:
312,120,72429,2,0,P|256:88|200:120,1,135,2|0,2:0|0:0,0:0:0:0:
312,288,72752,2,0,B|352:320|400:256|440:288,1,135,8|0,0:0|0:0,0:0:0:0:
408,192,73074,1,2,0:0:0:0:
256,120,73236,1,4,0:0:0:0:
104,192,73397,1,0,0:0:0:0:
256,264,73558,1,0,0:0:0:0:
408,192,73720,1,0,0:0:0:0:
408,192,73881,1,0,0:0:0:0:
256,119,74042,2,0,P|195:144|168:205,1,135,2|8,2:0|0:0,0:0:0:0:
256,44,74365,2,0,P|135:96|90:219,1,270,2|4,0:0|0:0,0:0:0:0:
364,272,74849,5,0,0:0:0:0:
196,256,75010,1,2,2:0:0:0:
188,88,75171,1,8,0:0:0:0:
320,191,75332,2,0,P|377:158|399:96,1,135,2|0,0:0|0:0,0:0:0:0:
399,96,75655,2,0,L|520:344,1,270,0|4,0:0|0:0,0:0:0:0:
148,272,76139,5,0,0:0:0:0:
316,256,76300,1,2,2:0:0:0:
324,88,76461,1,8,0:0:0:0:
191,191,76623,2,0,P|134:158|112:96,1,135,2|0,0:0|0:0,0:0:0:0:
113,96,76945,2,0,L|-8:344,1,270,0|4,0:0|0:0,0:0:0:0:
336,264,77429,5,2,2:0:0:0:
172,304,77590,1,0,0:0:0:0:
336,344,77752,1,8,0:0:0:0:
319,175,77913,2,0,L|256:56,1,135,2|0,0:0|0:0,0:0:0:0:
256,56,78236,2,0,L|137:298,1,270,0|4,0:0|0:0,0:0:0:0:
336,120,78720,5,2,2:0:0:0:
172,80,78881,1,0,0:0:0:0:
336,40,79042,1,8,0:0:0:0:
500,0,79203,1,2,0:0:0:0:
256,192,79526,1,0,0:0:0:0:
12,0,79849,1,4,0:0:0:0:
256,0,80171,5,8,0:0:0:0:
336,136,80332,1,0,0:0:0:0:
176,136,80494,2,0,L|80:232,2,135,2|0|8,2:0|0:0|0:0,0:0:0:0:
408,160,80978,1,0,0:0:0:0:
256,204,81139,2,0,L|160:300,2,135,2|0|8,2:0|0:0|0:0,0:0:0:0:
488,228,81623,1,0,0:0:0:0:
302,251,81784,6,0,B|360:270|397:252|397:252|415:324|415:324|451:306|510:326,1,270,2|4,0:0|0:0,0:0:0:0:
256,0,82752,5,8,0:0:0:0:
176,136,82913,1,0,0:0:0:0:
336,136,83074,2,0,L|432:232,2,135,2|0|8,2:0|0:0|0:0,0:0:0:0:
104,160,83558,1,0,0:0:0:0:
256,204,83720,2,0,L|352:300,2,135,2|0|8,2:0|0:0|0:0,0:0:0:0:
24,228,84203,1,0,0:0:0:0:
210,251,84365,6,0,B|151:270|114:252|114:252|96:324|96:324|60:306|1:326,1,270,2|4,0:0|0:0,0:0:0:0:
136,376,85332,5,8,0:0:0:0:
49,242,85494,1,0,0:0:0:0:
172,142,85655,2,0,L|172:-2,1,135,2|0,2:0|0:0,0:0:0:0:
306,109,85978,2,0,L|450:109,1,135,8|0,0:0|0:0,0:0:0:0:
339,241,86300,2,0,L|339:385,1,135,2|0,0:0|0:0,0:0:0:0:
205,274,86623,2,0,L|61:274,1,135,8|0,0:0|0:0,0:0:0:0:
172,142,86945,1,2,2:0:0:0:
306,109,87107,1,0,0:0:0:0:
339,241,87268,1,8,0:0:0:0:
205,274,87429,1,0,0:0:0:0:
314,177,87590,6,0,B|270:200|270:250|270:250|247:206|197:206|197:206|241:183|241:133,1,270,6|2,0:0|2:0,0:0:0:0:
241,134,88397,1,0,0:0:0:0:
406,149,88558,6,0,P|392:214|346:262,1,135,8|0,0:0|0:0,0:0:0:0:
166,262,88881,2,0,P|120:214|106:149,1,135,6|0,0:0|0:0,0:0:0:0:
256,72,89203,2,0,L|256:208,1,135,8|0,0:0|0:0,0:0:0:0:
352,328,89526,2,0,P|256:356|160:328,1,202.500007724762,2|0,0:0|0:0,0:0:0:0:
403,134,90171,6,0,L|452:8,1,135,12|0,0:0|0:0,0:0:0:0:
204,0,90494,1,4,0:0:0:0:
108,249,90816,6,0,L|60:376,1,135,12|0,0:0|0:0,0:0:0:0:
308,384,91139,1,4,0:0:0:0:
48,192,91461,5,2,2:0:0:0:
125,77,91623,1,0,0:0:0:0:
256,34,91784,1,8,0:0:0:0:
386,78,91945,1,0,0:0:0:0:
463,192,92107,1,2,0:0:0:0:
463,192,92429,1,0,0:0:0:0:
88,192,92752,6,0,L|0:294,2,135,4|0|2,0:0|0:0|2:0,0:0:0:0:
192,72,93236,1,0,0:0:0:0:
320,312,93397,1,8,0:0:0:0:
424,192,93558,2,0,L|512:89,2,135,0|2|0,0:0|0:0|0:0,0:0:0:0:
216,72,94042,2,0,P|208:137|244:192,1,135,4|0,0:0|0:0,0:0:0:0:
364,259,94365,1,8,0:0:0:0:
128,288,94526,1,0,0:0:0:0:
403,316,94687,1,2,0:0:0:0:
296,120,94849,5,0,0:0:0:0:
296,120,95010,2,0,P|303:54|267:0,1,135,8|0,0:0|0:0,0:0:0:0:
192,268,95332,2,0,P|256:286|320:268,1,135,4|0,0:0|0:0,0:0:0:0:
176,192,95655,2,0,B|280:216|316:152|256:84|196:152|232:216|336:192,1,270,2|8,2:0|0:0,0:0:0:0:
112,224,96139,1,0,0:0:0:0:
112,223,96300,2,0,P|117:290|159:342,1,135,2|0,0:0|0:0,0:0:0:0:
256,76,96623,1,2,2:0:0:0:
352,341,96784,2,0,P|393:290|400:224,1,135,0|8,0:0|0:0,0:0:0:0:
164,80,97107,2,0,P|114:121|53:99,1,135,0|2,0:0|0:0,0:0:0:0:
301,136,97429,5,0,0:0:0:0:
301,136,97590,2,0,B|356:166|384:192|384:192|419:177|482:167,1,202.500007724762,8|4,0:0|0:0,0:0:0:0:
256,57,98074,6,0,L|256:192,2,135,0|2|8,0:0|2:0|0:0,0:0:0:0:
328,192,98558,2,0,L|463:192,1,135,2|0,0:0|0:0,0:0:0:0:
184,192,98881,2,0,L|49:192,1,135,8|0,0:0|0:0,0:0:0:0:
343,104,99203,2,0,L|438:9,1,135,2|0,2:0|0:0,0:0:0:0:
64,0,99526,2,0,L|159:95,1,135,8|0,0:0|0:0,0:0:0:0:
256,192,99849,1,4,0:0:0:0:
456,144,100494,5,4,0:0:0:0:
368,20,100655,1,0,0:0:0:0:
384,172,100816,1,0,0:0:0:0:
260,84,100978,1,8,0:0:0:0:
332,216,101139,1,0,0:0:0:0:
180,216,101300,1,2,0:0:0:0:
256,344,101461,1,0,0:0:0:0:
256,344,101623,1,4,0:0:0:0:
108,324,101784,1,0,0:0:0:0:
180,192,101945,1,0,0:0:0:0:
332,192,102107,1,0,0:0:0:0:
404,324,102268,1,8,0:0:0:0:
255,343,102429,6,0,P|202:318|172:266,1,121.499996292114,2|2,2:0|2:0,0:0:0:0:
320,112,102752,2,0,P|373:137|403:189,2,121.499996292114,2|4|0,2:0|0:0|0:0,0:0:0:0:
310,206,103236,1,8,0:0:0:0:
219,327,103397,1,0,0:0:0:0:
201,177,103558,1,2,0:0:0:0:
292,56,103720,1,0,0:0:0:0:
201,177,103881,2,0,P|161:222|105:244,1,121.499996292114,8|0,0:0|0:0,0:0:0:0:
148,112,104203,2,0,B|183:72|226:79|241:162|269:162|284:79|327:72|363:112,1,242.999992584229,4|2,0:0|2:0,0:0:0:0:
416,240,104687,5,0,0:0:0:0:
288,184,104849,1,4,0:0:0:0:
300,336,105010,1,0,0:0:0:0:
180,244,105171,1,8,0:0:0:0:
332,244,105332,1,0,0:0:0:0:
212,336,105494,1,2,2:0:0:0:
224,184,105655,1,0,0:0:0:0:
96,240,105816,1,4,0:0:0:0:
168,124,105978,5,0,0:0:0:0:
296,168,106139,1,8,0:0:0:0:
256,316,106300,1,2,0:0:0:0:
216,168,106461,1,0,0:0:0:0:
358,158,106623,1,8,0:0:0:0:
192,279,106784,1,0,0:0:0:0:
256,84,106945,1,4,0:0:0:0:
319,279,107107,1,0,0:0:0:0:
153,158,107268,1,2,2:0:0:0:
358,225,107429,1,0,0:0:0:0:
153,225,107590,1,8,0:0:0:0:
358,158,107752,1,0,0:0:0:0:
372,312,107913,2,0,P|256:342|140:312,1,242.999992584229,6|4,0:0|3:0,0:0:0:0:
373,152,108881,5,2,0:0:0:0:
180,292,109042,1,0,0:0:0:0:
256,65,109203,1,8,0:0:0:0:
328,292,109365,1,0,0:0:0:0:
134,152,109526,1,4,0:0:0:0:
373,228,109687,1,0,0:0:0:0:
134,228,109849,1,2,2:0:0:0:
373,152,110010,1,0,0:0:0:0:
134,152,110171,1,8,0:0:0:0:
373,228,110332,1,0,0:0:0:0:
256,368,110494,1,4,0:0:0:0:
39,56,120494,6,0,P|164:24|255:116,1,270,12|0,0:0|0:0,0:0:0:0:
255,116,120978,1,0,0:0:0:0:
512,192,121139,5,4,0:0:0:0:
424,296,121300,2,0,P|296:333|168:296,1,270
384,192,121784,2,0,B|296:128|216:256|128:192,1,270,8|0,0:0|0:0,0:0:0:0:
343,87,122268,2,0,P|215:51|88:88,1,270,8|0,0:0|0:0,0:0:0:0:
60,220,122752,1,0,0:0:0:0:
60,220,122913,1,0,0:0:0:0:
60,220,123074,2,0,B|148:156|228:284|316:220,1,270,12|0,0:0|0:0,0:0:0:0:
316,219,123558,1,0,0:0:0:0:
0,192,123720,5,4,0:0:0:0:
88,296,123881,2,0,P|216:333|344:296,1,270
128,192,124365,2,0,B|216:128|296:256|384:192,1,270,8|0,0:0|0:0,0:0:0:0:
168,87,124849,2,0,P|296:51|424:88,1,270,8|0,0:0|0:0,0:0:0:0:
452,220,125332,1,0,0:0:0:0:
452,220,125494,1,0,0:0:0:0:
452,220,125655,2,0,P|324:183|196:220,1,270,12|0,0:0|0:0,0:0:0:0:
196,220,126139,1,0,0:0:0:0:
384,328,126300,5,4,0:0:0:0:
384,328,126461,2,0,P|256:364|128:327,1,270
311,272,126945,2,0,P|426:206|472:82,1,270,8|0,0:0|0:0,0:0:0:0:
304,144,127429,2,0,P|256:46|208:144,1,270,8|0,0:0|0:0,0:0:0:0:
39,82,127913,1,0,0:0:0:0:
39,82,128074,1,0,0:0:0:0:
39,82,128236,2,0,P|85:206|200:272,1,270,12|0,0:0|0:0,0:0:0:0:
324,48,128720,5,0,0:0:0:0:
188,48,128881,1,0,0:0:0:0:
188,48,129042,1,0,0:0:0:0:
188,48,129203,1,0,0:0:0:0:
188,48,129365,1,0,0:0:0:0:
188,48,129526,2,0,P|116:152|188:256,1,270,8|0,0:0|0:0,0:0:0:0:
323,47,130010,2,0,P|395:152|323:256,1,270,8|8,0:0|0:0,0:0:0:0:
184,152,130494,1,0,2:0:0:0:
256,88,130655,1,0,2:0:0:0:
328,152,130816,1,2,2:0:0:0:
216,356,131461,5,4,0:0:0:0:
216,356,131623,2,0,P|92:315|51:191,1,270
277,321,132107,2,0,L|86:130,1,270,8|0,0:0|0:0,0:0:0:0:
312,259,132590,2,0,P|271:135|147:94,1,270,8|0,0:0|0:0,0:0:0:0:
182,225,133074,1,0,0:0:0:0:
182,225,133236,1,0,0:0:0:0:
182,225,133397,2,0,B|74:208|108:60|0:43,1,270,12|0,0:0|0:0,0:0:0:0:
1,44,133881,1,0,0:0:0:0:
296,356,134042,5,4,0:0:0:0:
296,356,134203,2,0,P|419:315|460:191,1,270
235,321,134687,2,0,L|425:130,1,270,8|0,0:0|0:0,0:0:0:0:
200,259,135171,2,0,P|240:135|364:94,1,270,8|0,0:0|0:0,0:0:0:0:
330,225,135655,1,0,0:0:0:0:
330,225,135816,1,0,0:0:0:0:
330,225,135978,2,0,P|446:160|511:43,1,270,12|0,0:0|0:0,0:0:0:0:
511,44,136461,1,0,0:0:0:0:
384,336,136623,5,4,0:0:0:0:
384,336,136784,2,0,P|256:372|128:335,1,270
346,282,137268,2,0,B|329:175|182:208|165:101,1,270,8|0,0:0|0:0,0:0:0:0:
384,48,137752,2,0,P|256:11|128:48,1,270,8|0,0:0|0:0,0:0:0:0:
165,282,138236,1,0,0:0:0:0:
165,282,138397,1,0,0:0:0:0:
165,282,138558,2,0,B|182:175|329:208|346:101,1,270,12|0,0:0|0:0,0:0:0:0:
346,101,139042,1,0,0:0:0:0:
166,101,139203,5,0,0:0:0:0:
166,101,139365,1,0,0:0:0:0:
166,101,139526,1,0,0:0:0:0:
166,101,139687,1,0,0:0:0:0:
166,101,139849,2,0,P|94:205|166:309,1,270,8|0,0:0|0:0,0:0:0:0:
346,101,140332,2,0,P|418:205|346:309,1,270,8|8,0:0|0:0,0:0:0:0:
160,192,140816,1,0,0:0:0:0:
352,192,140978,1,0,0:0:0:0:
256,356,141139,1,12,0:0:0:0:
