osu file format v14

[General]
AudioFilename: audio.mp3
AudioLeadIn: 0
PreviewTime: 110199
Countdown: 0
SampleSet: Soft
StackLeniency: 0.7
Mode: 0
LetterboxInBreaks: 0
WidescreenStoryboard: 1

[Editor]
Bookmarks: 66233,88302,88647,110371,110716,111061,132440,132785,133130,133475,154509,154854,155199,155544,155889,156233,156578,156923,157268,157613,157958,158302,158647,158992,159337,159682,160027,160371,160716,161061,161406,161751,162095,162440,162785,163130,163475,163820,164164,164509,164854,165199,165544,165889,166233,166578,166923,167268,167613,167958,168302,168647,168992,169337,169682,170027,170371,170716,171061,171406,171751,172095,172440,172785,173130,173475,173820,174164,174509,174854,175199,175544,175889,176233,176578,220716,221061,221406,221751,222095,242785,243130,243475,243820,244164,244509,264854,265199,265544,265889,266233,266578,266923,286923,287268,287613,287958,288302,288647,288992,289337,308992
DistanceSpacing: 1.2
BeatDivisor: 16
GridSize: 16
TimelineZoom: 4.799998

[Metadata]
Title:Heathens (Magnetude Bootleg)
TitleUnicode:Heathens (Magnetude Bootleg)
Artist:twenty one pilots
ArtistUnicode:twenty one pilots
Creator:funny
Version:Marathon
Source:Suicide Squad
Tags:sharu 0ppinosu halgoh enryotoki rorupan_l9 rorupan l9 xarr dooe -doodle the album neurofunk -hwangbo electronic dnb drum and bass remix english
BeatmapID:3802734
BeatmapSetID:1851103

[Difficulty]
HPDrainRate:5
CircleSize:4
OverallDifficulty:9
ApproachRate:9.5
SliderMultiplier:1.4
SliderTickRate:1

[Events]
//Background and Video events
0,0,"MOSHED-2022-7-26-21-2-27.jpg",0,0
//Break Periods
//Storyboard Layer 0 (Background)
//Storyboard Layer 1 (Fail)
//Storyboard Layer 2 (Pass)
//Storyboard Layer 3 (Foreground)
//Storyboard Layer 4 (Overlay)
//Storyboard Sound Samples

[TimingPoints]
27,344.827586206897,4,2,0,100,1,0
22095,-153.846153846154,4,2,0,50,0,0
44164,-66.6666666666667,4,2,0,70,0,0
66233,-333.333333333333,4,2,0,100,0,1
66578,-28.5714285714286,4,2,0,100,0,1
67268,-50,4,2,0,100,0,1
67613,-28.5714285714286,4,2,0,100,0,1
67958,-33.3333333333333,4,2,0,100,0,1
68216,-100,4,2,0,100,0,1
68647,-142.857142857143,4,2,0,100,0,1
68992,-28.5714285714286,4,2,0,100,0,1
69595,-33.3333333333333,4,2,0,100,0,1
70027,-25,4,2,0,100,0,1
70156,-25,4,2,0,5,0,1
70199,-25,4,2,0,100,0,1
70544,-100,4,2,0,100,0,1
70716,-25,4,2,0,100,0,1
71233,-33.3333333333333,4,2,0,100,0,1
71406,-28.5714285714286,4,2,0,100,0,1
71751,-333.333333333333,4,2,0,100,0,1
72095,-28.5714285714286,4,2,0,100,0,1
72785,-50,4,2,0,100,0,1
73130,-28.5714285714286,4,2,0,100,0,1
73475,-33.3333333333333,4,2,0,100,0,1
73733,-100,4,2,0,100,0,1
74164,-142.857142857143,4,2,0,100,0,1
74509,-28.5714285714286,4,2,0,100,0,1
75113,-25,4,2,0,100,0,1
75673,-25,4,2,0,5,0,1
75716,-25,4,2,0,100,0,1
76061,-100,4,2,0,100,0,1
76233,-28.5714285714286,4,2,0,100,0,1
76923,-28.5714285714286,4,2,0,100,0,1
77268,-333.333333333333,4,2,0,100,0,1
77613,-28.5714285714286,4,2,0,100,0,1
78302,-50,4,2,0,100,0,1
78647,-333.333333333333,4,2,0,100,0,1
78992,-28.5714285714286,4,2,0,100,0,1
79164,-33.3333333333333,4,2,0,100,0,1
79682,-142.857142857143,4,2,0,100,0,1
80027,-28.5714285714286,4,2,0,100,0,1
80630,-33.3333333333333,4,2,0,100,0,1
81061,-25,4,2,0,100,0,1
81190,-25,4,2,0,5,0,1
81233,-25,4,2,0,100,0,1
81320,-33.3333333333333,4,2,0,100,0,1
81578,-100,4,2,0,100,0,1
81751,-25,4,2,0,100,0,1
82268,-43.4782608695652,4,2,0,100,0,1
82440,-37.037037037037,4,2,0,100,0,1
82785,-333.333333333333,4,2,0,100,0,1
83130,-28.5714285714286,4,2,0,100,0,1
83820,-50,4,2,0,100,0,1
84164,-28.5714285714286,4,2,0,100,0,1
84768,-100,4,2,0,100,0,1
85199,-142.857142857143,4,2,0,100,0,1
85544,-28.5714285714286,4,2,0,100,0,1
85889,-33.3333333333333,4,2,0,100,0,1
86578,-28.5714285714286,4,2,0,100,0,1
86707,-28.5714285714286,4,2,0,5,0,1
86751,-28.5714285714286,4,2,0,100,0,1
87095,-100,4,2,0,100,0,1
87268,-28.5714285714286,4,2,0,100,0,1
87613,-50,4,2,0,100,0,1
88001,-50,4,2,0,5,0,1
88044,-50,4,2,0,100,0,1
88087,-50,4,2,0,5,0,1
88130,-50,4,2,0,100,0,1
88173,-50,4,2,0,5,0,1
88216,-50,4,2,0,100,0,1
88259,-50,4,2,0,5,0,1
88302,-50,4,2,0,100,0,1
88733,-250,4,2,0,100,0,1
88776,-250,4,2,0,5,0,1
88820,-83.3333333333333,4,2,0,100,0,1
88863,-83.3333333333333,4,2,0,5,0,1
88906,-62.5,4,2,0,100,0,1
88949,-62.5,4,2,0,5,0,1
88992,-62.5,4,2,0,100,0,1
89164,-28.5714285714286,4,2,0,100,0,1
89337,-23.8095238095238,4,2,0,100,0,1
89466,-23.8095238095238,4,2,0,5,0,1
89509,-33.3333333333333,4,2,0,100,0,1
89682,-20,4,2,0,100,0,1
90113,-250,4,2,0,100,0,1
90156,-250,4,2,0,5,0,1
90199,-83.3333333333333,4,2,0,100,0,1
90242,-83.3333333333333,4,2,0,5,0,1
90285,-62.5,4,2,0,100,0,1
90328,-62.5,4,2,0,5,0,1
90371,-62.5,4,2,0,100,0,1
90716,-28.5714285714286,4,2,0,100,0,1
90889,-62.5,4,2,0,100,0,1
91406,-28.5714285714286,4,2,0,100,0,1
91751,-40,4,2,0,100,0,1
92052,-40,4,2,0,5,0,1
92095,-23.8095238095238,4,2,0,100,0,1
92396,-23.8095238095238,4,2,0,5,0,1
92440,-33.3333333333333,4,2,0,100,0,1
93302,-50,4,2,0,100,0,1
93475,-23.8095238095238,4,2,0,100,0,1
93820,-50,4,2,0,100,0,1
94251,-250,4,2,0,100,0,1
94294,-250,4,2,0,5,0,1
94337,-83.3333333333333,4,2,0,100,0,1
94380,-83.3333333333333,4,2,0,5,0,1
94423,-62.5,4,2,0,100,0,1
94466,-62.5,4,2,0,5,0,1
94509,-62.5,4,2,0,100,0,1
94682,-28.5714285714286,4,2,0,100,0,1
94854,-23.8095238095238,4,2,0,100,0,1
94983,-23.8095238095238,4,2,0,5,0,1
95027,-33.3333333333333,4,2,0,100,0,1
95199,-20,4,2,0,100,0,1
95630,-250,4,2,0,100,0,1
95673,-250,4,2,0,5,0,1
95716,-83.3333333333333,4,2,0,100,0,1
95759,-83.3333333333333,4,2,0,5,0,1
95802,-62.5,4,2,0,100,0,1
95845,-62.5,4,2,0,5,0,1
95888,-62.5,4,2,0,100,0,1
96061,-28.5714285714286,4,2,0,100,0,1
96406,-62.5,4,2,0,100,0,1
96923,-28.5714285714286,4,2,0,100,0,1
97268,-40,4,2,0,100,0,1
97569,-40,4,2,0,5,0,1
97613,-23.8095238095238,4,2,0,100,0,1
97914,-23.8095238095238,4,2,0,5,0,1
97958,-33.3333333333333,4,2,0,100,0,1
98820,-50,4,2,0,100,0,1
98992,-166.666666666667,4,2,0,100,0,1
99035,-166.666666666667,4,2,0,5,0,1
99078,-71.4285714285714,4,2,0,100,0,1
99121,-71.4285714285714,4,2,0,5,0,1
99164,-50,4,2,0,100,0,1
99207,-50,4,2,0,5,0,1
99251,-41.6666666666667,4,2,0,100,0,1
99294,-41.6666666666667,4,2,0,5,0,1
99337,-50,4,2,0,100,0,1
99768,-250.000000000001,4,2,0,100,0,1
99811,-250.000000000001,4,2,0,5,0,1
99854,-83.3333333333333,4,2,0,100,0,1
99897,-83.3333333333333,4,2,0,5,0,1
99940,-62.5,4,2,0,100,0,1
99983,-62.5,4,2,0,5,0,1
100027,-62.5,4,2,0,100,0,1
100199,-28.5714285714286,4,2,0,100,0,1
100371,-23.8095238095238,4,2,0,100,0,1
100500,-23.8095238095238,4,2,0,5,0,1
100544,-40,4,2,0,100,0,1
100716,-20,4,2,0,100,0,1
101147,-250.000000000001,4,2,0,100,0,1
101190,-250.000000000001,4,2,0,5,0,1
101233,-83.3333333333335,4,2,0,100,0,1
101276,-83.3333333333335,4,2,0,5,0,1
101320,-62.5,4,2,0,100,0,1
101363,-62.5,4,2,0,5,0,1
101406,-62.5,4,2,0,100,0,1
101751,-28.5714285714286,4,2,0,100,0,1
101923,-62.5,4,2,0,100,0,1
102440,-28.5714285714286,4,2,0,100,0,1
102785,-40,4,2,0,100,0,1
103087,-40,4,2,0,5,0,1
103130,-23.8095238095238,4,2,0,100,0,1
103431,-23.8095238095238,4,2,0,5,0,1
103475,-33.3333333333333,4,2,0,100,0,1
104337,-50,4,2,0,100,0,1
104509,-23.8095238095238,4,2,0,100,0,1
104854,-50,4,2,0,100,0,1
105285,-250,4,2,0,100,0,1
105328,-250,4,2,0,5,0,1
105371,-83.3333333333333,4,2,0,100,0,1
105414,-83.3333333333333,4,2,0,5,0,1
105458,-62.5,4,2,0,100,0,1
105501,-62.5,4,2,0,5,0,1
105544,-62.5,4,2,0,100,0,1
105716,-28.5714285714286,4,2,0,100,0,1
105889,-23.8095238095238,4,2,0,100,0,1
106018,-23.8095238095238,4,2,0,5,0,1
106061,-33.3333333333333,4,2,0,100,0,1
106233,-40,4,2,0,100,0,1
106664,-250,4,2,0,100,0,1
106707,-250,4,2,0,5,0,1
106751,-83.3333333333333,4,2,0,100,0,1
106794,-83.3333333333333,4,2,0,5,0,1
106837,-62.5,4,2,0,100,0,1
106880,-62.5,4,2,0,5,0,1
106923,-62.5,4,2,0,100,0,1
107095,-40,4,2,0,100,0,1
107268,-28.5714285714286,4,2,0,100,0,1
107440,-66.6666666666667,4,2,0,100,0,1
107958,-400,4,2,0,100,0,1
108302,-50,4,2,0,100,0,1
108948,-50,4,2,0,5,0,1
108992,-200,4,2,0,100,0,1
109337,-100,4,2,0,100,0,1
110371,-45.045045045045,4,2,0,100,0,1
110716,-22.5225225225225,4,2,0,100,0,1
111406,-30.03003003003,4,2,0,100,0,1
111707,-30.03003003003,4,2,0,5,0,1
111751,-45.045045045045,4,2,0,100,0,1
112095,-22.5225225225225,4,2,0,100,0,1
112785,-30.03003003003,4,2,0,100,0,1
113475,-45.045045045045,4,2,0,100,0,1
113647,-30.03003003003,4,2,0,100,0,1
113949,-30.03003003003,4,2,0,5,0,1
113992,-90.0900900900901,4,2,0,100,0,1
114164,-30.03003003003,4,2,0,100,0,1
114509,-22.5225225225225,4,2,0,100,0,1
115328,-22.5225225225225,4,2,0,5,0,1
115371,-30.03003003003,4,2,0,100,0,1
115544,-22.5225225225225,4,2,0,100,0,1
115889,-45.045045045045,4,2,0,100,0,1
116233,-22.5225225225225,4,2,0,100,0,1
116923,-30.03003003003,4,2,0,100,0,1
117052,-30.03003003003,4,2,0,5,0,1
117095,-90.0900900900901,4,2,0,100,0,1
117268,-30.03003003003,4,2,0,100,0,1
117613,-22.5225225225225,4,2,0,100,0,1
117958,-30.03003003003,4,2,0,100,0,1
118475,-45.045045045045,4,2,0,100,0,1
118647,-22.5225225225225,4,2,0,100,0,1
119164,-45.045045045045,4,2,0,100,0,1
119337,-30.03003003003,4,2,0,100,0,1
119983,-30.03003003003,4,2,0,5,0,1
120027,-22.5225225225225,4,2,0,100,0,1
120328,-22.5225225225225,4,2,0,5,0,1
120371,-30.03003003003,4,2,0,100,0,1
120544,-45.045045045045,4,2,0,100,0,1
120716,-22.5225225225225,4,2,0,100,0,1
122224,-22.5225225225225,4,2,0,5,0,1
122268,-30.03003003003,4,2,0,100,0,1
122440,-45.045045045045,4,2,0,100,0,1
122785,-22.5225225225225,4,2,0,100,0,1
123302,-30.03003003003,4,2,0,100,0,1
123647,-90.0900900900901,4,2,0,100,0,1
123820,-30.03003003003,4,2,0,100,0,1
124682,-45.045045045045,4,2,0,100,0,1
124854,-30.03003003003,4,2,0,100,0,1
124983,-30.03003003003,4,2,0,5,0,1
125027,-90.0900900900901,4,2,0,100,0,1
125371,-45.024763619991,4,2,0,100,0,1
125544,-22.5225225225225,4,2,0,100,0,1
125889,-30.03003003003,4,2,0,100,0,1
126362,-30.03003003003,4,2,0,5,0,1
126406,-45.045045045045,4,2,0,100,0,1
126578,-22.5225225225225,4,2,0,100,0,1
126923,-454.545454545455,4,2,0,100,0,1
127267,-22.5225225225225,4,2,0,100,0,1
127958,-227.272727272727,4,2,0,100,0,1
128130,-45.045045045045,4,2,0,100,0,1
128647,-22.5225225225225,4,2,0,100,0,1
129337,-30.03003003003,4,2,0,100,0,1
130156,-30.03003003003,4,2,0,5,0,1
130199,-45.045045045045,4,2,0,100,0,1
130716,-30.03003003003,4,2,0,100,0,1
131018,-30.03003003003,4,2,0,5,0,1
131061,-22.5225225225225,4,2,0,100,0,1
132440,-25,4,2,0,100,0,1
132785,-40,4,2,0,100,0,1
133130,-33.3333333333333,4,2,0,100,0,1
133302,-133.333333333333,4,2,0,100,0,1
133475,-30.7692307692308,4,2,0,100,0,1
133647,-44.4444444444445,4,2,0,100,0,1
133992,-57.1428571428571,4,2,0,100,0,1
134164,-40,4,2,0,100,0,1
134294,-40,4,2,0,5,0,1
134337,-66.6666666666667,4,2,0,100,0,1
134509,-33.3333333333333,4,2,0,100,0,1
134854,-22.2222222222222,4,2,0,100,0,1
135199,-25,4,2,0,100,0,1
135544,-40,4,2,0,100,0,1
135889,-28.5714285714286,4,2,0,100,0,1
136061,-133.333333333333,4,2,0,100,0,1
136234,-30.7692307692308,4,2,0,100,0,1
136406,-44.4444444444445,4,2,0,100,0,1
136578,-28.5714285714286,4,2,0,100,0,1
136708,-28.5714285714286,4,2,0,5,0,1
136751,-44.4444444444445,4,2,0,100,0,1
136923,-33.3333333333333,4,2,0,100,0,1
137224,-33.3333333333333,4,2,0,5,0,1
137268,-27.7777777777778,4,2,0,100,0,1
137570,-27.7777777777778,4,2,0,5,0,1
137613,-277.777777777778,4,2,0,100,0,1
137958,-25,4,2,0,100,0,1
138647,-33.3333333333333,4,2,0,100,0,1
138992,-50,4,2,0,100,0,1
139337,-40,4,2,0,100,0,1
139509,-80,4,2,0,100,0,1
139682,-31.25,4,2,0,100,0,1
140027,-27.7777777777778,4,2,0,100,0,1
140371,-41.6666666666667,4,2,0,100,0,1
140716,-25,4,2,0,100,0,1
141061,-35.7142857142857,4,2,0,100,0,1
141406,-133.333333333333,4,2,0,100,0,1
141578,-66.6666666666667,4,2,0,100,0,1
141751,-44.4444444444445,4,2,0,100,0,1
141923,-100,4,2,0,100,0,1
142095,-28.5714285714286,4,2,0,100,0,1
142225,-28.5714285714286,4,2,0,5,0,1
142268,-44.4444444444445,4,2,0,100,0,1
142440,-22.2222222222222,4,2,0,100,0,1
142958,-44.4444444444445,4,2,0,100,0,1
143130,-33.3333333333333,4,2,0,100,0,1
143475,-25,4,2,0,100,0,1
143820,-133.333333333333,4,2,0,100,0,1
143992,-50,4,2,0,100,0,1
144164,-66.6666666666667,4,2,0,100,0,1
144337,-50,4,2,0,100,0,1
144509,-33.3333333333333,4,2,0,100,0,1
144682,-40,4,2,0,100,0,1
145027,-57.1428571428571,4,2,0,100,0,1
145199,-40,4,2,0,100,0,1
145329,-40,4,2,0,5,0,1
145372,-66.6666666666667,4,2,0,100,0,1
145544,-33.3333333333333,4,2,0,100,0,1
145889,-22.2222222222222,4,2,0,100,0,1
146233,-23.8095238095238,4,2,0,100,0,1
146578,-35.7142857142857,4,2,0,100,0,1
146923,-28.5714285714286,4,2,0,100,0,1
147095,-133.333333333333,4,2,0,100,0,1
147268,-30.7692307692308,4,2,0,100,0,1
147440,-44.4444444444445,4,2,0,100,0,1
147612,-28.5714285714286,4,2,0,100,0,1
147742,-28.5714285714286,4,2,0,5,0,1
147785,-44.4444444444445,4,2,0,100,0,1
147958,-33.3333333333333,4,2,0,100,0,1
148259,-33.3333333333333,4,2,0,5,0,1
148302,-27.7777777777778,4,2,0,100,0,1
148604,-27.7777777777778,4,2,0,5,0,1
148647,-277.777777777778,4,2,0,100,0,1
148992,-25,4,2,0,100,0,1
149337,-44.4444444444445,4,2,0,100,0,1
149509,-57.1428571428571,4,2,0,100,0,1
149682,-33.3333333333333,4,2,0,100,0,1
150027,-50,4,2,0,100,0,1
150544,-80,4,2,0,100,0,1
150716,-31.25,4,2,0,100,0,1
151061,-27.7777777777778,4,2,0,100,0,1
153130,-83.3333333333333,4,2,0,100,0,1
153475,-66.6666666666667,4,2,0,100,0,1
154466,-66.6666666666667,4,2,0,5,0,1
154509,-100,4,2,0,50,0,0
165544,-500,4,2,0,50,0,0
175889,-50,4,2,0,70,0,0
176578,-100,4,2,0,70,0,0
177958,-200,4,2,0,70,0,0
178647,-62.5,4,2,0,70,0,0
179337,-100,4,2,0,70,0,0
181406,-62.5,4,2,0,70,0,0
181751,-100,4,2,0,70,0,0
183475,-200,4,2,0,70,0,0
184164,-62.5,4,2,0,70,0,0
184854,-100,4,2,0,70,0,0
186923,-62.5,4,2,0,70,0,0
187613,-100,4,2,0,70,0,0
188992,-200,4,2,0,70,0,0
189682,-62.5,4,2,0,70,0,0
190371,-100,4,2,0,70,0,0
192440,-62.5,4,2,0,70,0,0
192785,-100,4,2,0,70,0,0
194509,-200,4,2,0,70,0,0
195199,-62.5,4,2,0,70,0,0
195889,-100,4,2,0,70,0,0
215199,-142.857142857143,4,2,0,70,0,0
217958,-200,4,2,0,70,0,0
220371,-50,4,2,0,70,0,0
220716,-1000,4,2,0,100,0,1
221061,-32.258064516129,4,2,0,100,0,1
222052,-32.258064516129,4,2,0,5,0,1
222095,-32.2580645161291,4,2,0,100,0,1
222268,-500,4,2,0,100,0,1
223475,-32.258064516129,4,2,0,100,0,1
223690,-32.258064516129,4,2,0,5,0,1
223733,-32.258064516129,4,2,0,100,0,1
223820,-37.037037037037,4,2,0,100,0,1
224337,-55.5555555555556,4,2,0,100,0,1
224509,-29.4117647058824,4,2,0,100,0,1
224638,-29.4117647058824,4,2,0,5,0,1
224682,-29.4117647058824,4,2,0,100,0,1
224768,-43.4782608695652,4,2,0,100,0,1
225027,-37.037037037037,4,2,0,100,0,1
225199,-28.5714285714286,4,2,0,100,0,1
225414,-28.5714285714286,4,2,0,5,0,1
225458,-76.9230769230769,4,2,0,100,0,1
225716,-37.037037037037,4,2,0,100,0,1
225889,-33.3333333333333,4,2,0,100,0,1
226190,-33.3333333333333,4,2,0,5,0,1
226233,-250,4,2,0,100,0,1
226578,-25,4,2,0,100,0,1
227224,-25,4,2,0,5,0,1
227268,-125,4,2,0,100,0,1
227440,-62.5,4,2,0,100,0,1
227613,-28.5714285714286,4,2,0,100,0,1
227914,-28.5714285714286,4,2,0,5,0,1
227958,-37.037037037037,4,2,0,100,0,1
228216,-66.6666666666667,4,2,0,100,0,1
228647,-142.857142857143,4,2,0,100,0,1
228948,-142.857142857143,4,2,0,5,0,1
228992,-32.258064516129,4,2,0,100,0,1
229293,-32.258064516129,4,2,0,5,0,1
229337,-29.4117647058824,4,2,0,100,0,1
229595,-55.5555555555556,4,2,0,100,0,1
230027,-29.4117647058824,4,2,0,100,0,1
230156,-29.4117647058824,4,2,0,5,0,1
230199,-40.0000000000002,4,2,0,100,0,1
230544,-43.4782608695652,4,2,0,100,0,1
230716,-28.5714285714286,4,2,0,100,0,1
230931,-28.5714285714286,4,2,0,5,0,1
230975,-66.6666666666667,4,2,0,100,0,1
231233,-35.7142857142857,4,2,0,100,0,1
231362,-35.7142857142857,4,2,0,5,0,1
231406,-32.258064516129,4,2,0,100,0,1
231578,-100,4,2,0,100,0,1
231621,-100,4,2,0,5,0,1
231664,-41.6666666666667,4,2,0,100,0,1
231707,-41.6666666666667,4,2,0,5,0,1
231751,-166.666666666667,4,2,0,100,0,1
232052,-166.666666666667,4,2,0,5,0,1
232095,-32.258064516129,4,2,0,100,0,1
232268,-23.8095238095238,4,2,0,100,0,1
232742,-23.8095238095238,4,2,0,5,0,1
232785,-35.7142857142857,4,2,0,100,0,1
232958,-32.258064516129,4,2,0,100,0,1
233130,-166.666666666667,4,2,0,100,0,1
233475,-37.037037037037,4,2,0,100,0,1
233604,-37.037037037037,4,2,0,5,0,1
233647,-41.6666666666667,4,2,0,100,0,1
234164,-100,4,2,0,100,0,1
234509,-32.258064516129,4,2,0,100,0,1
234810,-32.258064516129,4,2,0,5,0,1
234854,-37.037037037037,4,2,0,100,0,1
235371,-55.5555555555556,4,2,0,100,0,1
235544,-29.4117647058824,4,2,0,100,0,1
235673,-29.4117647058824,4,2,0,5,0,1
235716,-29.4117647058824,4,2,0,100,0,1
235802,-43.4782608695652,4,2,0,100,0,1
236061,-37.037037037037,4,2,0,100,0,1
236233,-28.5714285714286,4,2,0,100,0,1
236448,-28.5714285714286,4,2,0,5,0,1
236492,-41.6666666666667,4,2,0,100,0,1
236880,-41.6666666666667,4,2,0,5,0,1
236923,-37.037037037037,4,2,0,100,0,1
237268,-250,4,2,0,100,0,1
237569,-250,4,2,0,5,0,1
237613,-25,4,2,0,100,0,1
238259,-25,4,2,0,5,0,1
238302,-125,4,2,0,100,0,1
238475,-62.5,4,2,0,100,0,1
238647,-28.5714285714286,4,2,0,100,0,1
238862,-28.5714285714286,4,2,0,5,0,1
238906,-28.5714285714286,4,2,0,100,0,1
238992,-37.037037037037,4,2,0,100,0,1
239251,-66.6666666666667,4,2,0,100,0,1
239682,-142.857142857143,4,2,0,100,0,1
239983,-142.857142857143,4,2,0,5,0,1
240027,-32.258064516129,4,2,0,100,0,1
240328,-32.258064516129,4,2,0,5,0,1
240371,-29.4117647058824,4,2,0,100,0,1
240630,-55.5555555555556,4,2,0,100,0,1
241061,-29.4117647058824,4,2,0,100,0,1
241233,-40,4,2,0,100,0,1
241578,-29.4117647058824,4,2,0,100,0,1
241707,-29.4117647058824,4,2,0,5,0,1
241751,-166.666666666667,4,2,0,100,0,1
242440,-500,4,2,0,100,0,1
242483,-500,4,2,0,5,0,1
242527,-166.666666666667,4,2,0,100,0,1
242570,-166.666666666667,4,2,0,5,0,1
242613,-100,4,2,0,100,0,1
242656,-100,4,2,0,5,0,1
242699,-41.6666666666667,4,2,0,100,0,1
242742,-41.6666666666667,4,2,0,5,0,1
242785,-166.666666666667,4,2,0,100,0,1
243389,-40.0000000000002,4,2,0,100,0,1
243647,-41.6666666666668,4,2,0,100,0,1
243820,-28.5714285714287,4,2,0,100,0,1
244164,-52.6315789473687,4,2,0,100,0,1
244465,-52.6315789473687,4,2,0,5,0,1
244509,-52.6315789473687,4,2,0,100,0,1
244768,-39.2156862745098,4,2,0,100,0,1
245027,-29.8507462686567,4,2,0,100,0,1
245199,-55.5555555555556,4,2,0,100,0,1
245889,-23.8095238095239,4,2,0,100,0,1
246233,-32.2580645161292,4,2,0,100,0,1
246406,-33.3333333333336,4,2,0,100,0,1
246578,-40.0000000000003,4,2,0,100,0,1
246879,-40.0000000000003,4,2,0,5,0,1
246923,-34.4827586206899,4,2,0,100,0,1
247268,-35.714285714286,4,2,0,100,0,1
247613,-38.4615384615388,4,2,0,100,0,1
247785,-31.2500000000002,4,2,0,100,0,1
247958,-28.5714285714287,4,2,0,100,0,1
248302,-33.3333333333336,4,2,0,100,0,1
248647,-37.0370370370373,4,2,0,100,0,1
248906,-41.666666666667,4,2,0,100,0,1
249337,-33.3333333333333,4,2,0,100,0,1
249638,-33.3333333333333,4,2,0,5,0,1
249682,-33.3333333333333,4,2,0,100,0,1
250285,-35.7142857142857,4,2,0,100,0,1
250544,-31.25,4,2,0,100,0,1
250716,-45.4545454545455,4,2,0,100,0,1
251406,-27.027027027027,4,2,0,100,0,1
251751,-37.037037037037,4,2,0,100,0,1
251923,-31.25,4,2,0,100,0,1
252095,-27.027027027027,4,2,0,100,0,1
252440,-40,4,2,0,100,0,1
252613,-55.5555555555556,4,2,0,100,0,1
252785,-35.7142857142857,4,2,0,100,0,1
253130,-41.6666666666667,4,2,0,100,0,1
253302,-32.258064516129,4,2,0,100,0,1
253820,-28.5714285714287,4,2,0,100,0,1
254423,-40.0000000000002,4,2,0,100,0,1
254682,-29.4117647058824,4,2,0,100,0,1
254854,-38.4615384615386,4,2,0,100,0,1
255199,-100.000000000001,4,2,0,100,0,1
255500,-100.000000000001,4,2,0,5,0,1
255544,-100.000000000001,4,2,0,100,0,1
255802,-35.7142857142858,4,2,0,100,0,1
256061,-45.4545454545457,4,2,0,100,0,1
256233,-166.666666666669,4,2,0,100,0,1
256923,-25.0000000000002,4,2,0,100,0,1
257268,-52.6315789473687,4,2,0,100,0,1
257440,-30.3030303030304,4,2,0,100,0,1
257613,-33.3333333333334,4,2,0,100,0,1
257958,-41.6666666666668,4,2,0,100,0,1
258302,-35.7142857142858,4,2,0,100,0,1
258647,-37.0370370370372,4,2,0,100,0,1
258820,-31.2500000000001,4,2,0,100,0,1
258992,-32.2580645161291,4,2,0,100,0,1
259337,-30.3030303030304,4,2,0,100,0,1
259682,-41.6666666666668,4,2,0,100,0,1
259940,-47.6190476190478,4,2,0,100,0,1
260371,-37.0370370370373,4,2,0,100,0,1
260672,-37.0370370370373,4,2,0,5,0,1
260716,-31.2500000000001,4,2,0,100,0,1
261320,-34.4827586206899,4,2,0,100,0,1
261578,-29.4117647058825,4,2,0,100,0,1
261751,-26.3157894736844,4,2,0,100,0,1
262052,-26.3157894736844,4,2,0,5,0,1
262095,-26.3157894736844,4,2,0,100,0,1
262440,-333.333333333356,4,2,0,100,0,1
262785,-200.000000000008,4,2,0,100,0,1
263130,-125.000000000003,4,2,0,100,0,1
264854,-333.333333333333,4,2,0,100,0,1
265199,-23.2558139534883,4,2,0,100,0,1
265889,-28.5714285714286,4,2,0,100,0,1
266061,-13.8888888888889,4,2,0,100,0,1
266233,-38.4615384615385,4,2,0,100,0,1
266578,-22.7272727272728,4,2,0,100,0,1
267268,-21.2765957446809,4,2,0,100,0,1
267397,-21.2765957446809,4,2,0,5,0,1
267440,-21.2765957446809,4,2,0,100,0,1
267613,-27.7777777777778,4,2,0,100,0,1
267914,-27.7777777777778,4,2,0,5,0,1
267958,-27.7777777777778,4,2,0,100,0,1
268130,-45.4545454545455,4,2,0,100,0,1
268302,-33.3333333333333,4,2,0,100,0,1
268647,-18.1818181818181,4,2,0,100,0,1
268820,-30.3030303030303,4,2,0,100,0,1
268992,-40,4,2,0,100,0,1
269337,-20.8333333333334,4,2,0,100,0,1
269682,-27.0270270270271,4,2,0,100,0,1
269811,-27.0270270270271,4,2,0,5,0,1
269854,-28.5714285714286,4,2,0,100,0,1
270371,-333.333333333333,4,2,0,100,0,1
270672,-333.333333333333,4,2,0,5,0,1
270716,-17.5438596491227,4,2,0,100,0,1
271406,-21.2765957446809,4,2,0,100,0,1
271578,-25.6410256410257,4,2,0,100,0,1
271751,-125,4,2,0,100,0,1
272095,-18.5185185185185,4,2,0,100,0,1
272785,-28.5714285714286,4,2,0,100,0,1
273130,-26.3157894736842,4,2,0,100,0,1
273475,-34.4827586206897,4,2,0,100,0,1
273820,-25.6410256410256,4,2,0,100,0,1
273992,-100,4,2,0,100,0,1
274164,-32.258064516129,4,2,0,100,0,1
274337,-23.2558139534884,4,2,0,100,0,1
274509,-23.8095238095238,4,2,0,100,0,1
274854,-25,4,2,0,100,0,1
275199,-33.3333333333333,4,2,0,100,0,1
275544,-41.6666666666667,4,2,0,100,0,1
275889,-20.8333333333333,4,2,0,100,0,1
276190,-20.8333333333333,4,2,0,5,0,1
276233,-20.8333333333333,4,2,0,100,0,1
276406,-28.5714285714286,4,2,0,100,0,1
276923,-32.258064516129,4,2,0,100,0,1
277095,-333.333333333333,4,2,0,100,0,1
277268,-30.3030303030303,4,2,0,100,0,1
277613,-23.2558139534884,4,2,0,100,0,1
277785,-27.027027027027,4,2,0,100,0,1
278086,-27.027027027027,4,2,0,5,0,1
278130,-100,4,2,0,100,0,1
278302,-24.390243902439,4,2,0,100,0,1
278647,-20,4,2,0,100,0,1
278948,-20,4,2,0,5,0,1
278992,-33.3333333333333,4,2,0,100,0,1
279509,-23.8095238095238,4,2,0,100,0,1
279682,-30.3030303030303,4,2,0,100,0,1
280027,-27.7777777777778,4,2,0,100,0,1
280371,-21.7391304347826,4,2,0,100,0,1
280716,-34.4827586206897,4,2,0,100,0,1
280845,-34.4827586206897,4,2,0,5,0,1
280889,-50,4,2,0,100,0,1
281061,-40,4,2,0,100,0,1
281406,-333.333333333333,4,2,0,100,0,1
281751,-21.2765957446809,4,2,0,100,0,1
282440,-21.7391304347826,4,2,0,100,0,1
282569,-21.7391304347826,4,2,0,5,0,1
282613,-29.4117647058824,4,2,0,100,0,1
282785,-200,4,2,0,100,0,1
283130,-23.2558139534884,4,2,0,100,0,1
283431,-23.2558139534884,4,2,0,5,0,1
283475,-25.6410256410256,4,2,0,100,0,1
283820,-35.7142857142857,4,2,0,100,0,1
284164,-45.4545454545455,4,2,0,100,0,1
285199,-33.3333333333333,4,2,0,100,0,1
285328,-33.3333333333333,4,2,0,5,0,1
285371,-66.6666666666667,4,2,0,100,0,1
285544,-30.3030303030303,4,2,0,100,0,1
285889,-26.3157894736842,4,2,0,100,0,1
286233,-38.4615384615385,4,2,0,100,0,1
286362,-38.4615384615385,4,2,0,5,0,1
286406,-38.4615384615385,4,2,0,100,0,1
286578,-32.258064516129,4,2,0,100,0,1
286793,-32.258064516129,4,2,0,5,0,1
286837,-32.258064516129,4,2,0,100,0,1
286923,-26.3157894736842,4,2,0,100,0,1
287268,-50,4,2,0,100,0,1
287613,-33.3333333333333,4,2,0,100,0,1
287742,-33.3333333333333,4,2,0,5,0,1
287785,-100,4,2,0,100,0,1
287958,-57.1428571428571,4,2,0,100,0,1
288130,-40,4,2,0,100,0,1
288302,-50,4,2,0,100,0,1
288647,-28.5714285714286,4,2,0,100,0,1
288948,-28.5714285714286,4,2,0,5,0,1
288992,-66.6666666666667,4,2,0,100,0,1
289337,-40,4,2,0,100,0,1
290371,-80,4,2,0,100,0,1
290544,-50,4,2,0,100,0,1
290716,-40,4,2,0,100,0,1
290889,-33.3333333333333,4,2,0,100,0,1
291018,-33.3333333333333,4,2,0,5,0,1
291061,-66.6666666666667,4,2,0,100,0,1
291406,-33.3333333333333,4,2,0,100,0,1
291751,-25,4,2,0,100,0,1
292095,-33.3333333333333,4,2,0,100,0,1
292785,-50,4,2,0,100,0,1
293130,-100,4,2,0,100,0,1
293475,-66.6666666666667,4,2,0,100,0,1
293820,-133.333333333333,4,2,0,100,0,1
294164,-33.3333333333333,4,2,0,100,0,1
294509,-50,4,2,0,100,0,1
294638,-50,4,2,0,5,0,1
294682,-100,4,2,0,100,0,1
294854,-33.3333333333333,4,2,0,100,0,1
295889,-100,4,2,0,100,0,1
296061,-66.6666666666667,4,2,0,100,0,1
296233,-44.4444444444445,4,2,0,100,0,1
296406,-33.3333333333333,4,2,0,100,0,1
296578,-66.6666666666667,4,2,0,100,0,1
296923,-22.5225225225225,4,2,0,100,0,1
297397,-22.5225225225225,4,2,0,5,0,1
297440,-33.3333333333333,4,2,0,100,0,1
297958,-28.5714285714286,4,2,0,100,0,1
298302,-40,4,2,0,100,0,1
298475,-66.6666666666667,4,2,0,100,0,1
298647,-100,4,2,0,100,0,1
298820,-66.6666666666667,4,2,0,100,0,1
298992,-50,4,2,0,100,0,1
299164,-40,4,2,0,100,0,1
299337,-50,4,2,0,100,0,1
299682,-28.5714285714286,4,2,0,100,0,1
299983,-28.5714285714286,4,2,0,5,0,1
300027,-50,4,2,0,100,0,1
300199,-100,4,2,0,100,0,1
300371,-28.5714285714286,4,2,0,100,0,1
300672,-28.5714285714286,4,2,0,5,0,1
300716,-33.3333333333333,4,2,0,100,0,1
301061,-50,4,2,0,100,0,1
301406,-66.6666666666667,4,2,0,100,0,1
301578,-50,4,2,0,100,0,1
301751,-33.3333333333333,4,2,0,100,0,1
302095,-66.6666666666667,4,2,0,100,0,1
302440,-40,4,2,0,100,0,1
302914,-40,4,2,0,5,0,1
302958,-50,4,2,0,100,0,1
303130,-40,4,2,0,100,0,1
303475,-28.5714285714286,4,2,0,100,0,1
303820,-50,4,2,0,100,0,1
304164,-66.6666666666667,4,2,0,100,0,1
304293,-66.6666666666667,4,2,0,5,0,1
304337,-66.6666666666667,4,2,0,100,0,1
304682,-33.3333333333333,4,2,0,100,0,1
304854,-50,4,2,0,100,0,1
305199,-28.5714285714286,4,2,0,100,0,1
305544,-50,4,2,0,100,0,1
305716,-40,4,2,0,100,0,1
305845,-40,4,2,0,5,0,1
305889,-66.6666666666667,4,2,0,100,0,1
306233,-33.3333333333333,4,2,0,100,0,1
306578,-100,4,2,0,60,0,1
308561,-100,4,2,0,5,0,1
308647,-100,4,2,0,60,0,1
308863,-66.6666666666667,4,2,0,5,0,1
308992,-500,4,2,0,70,0,0
310371,-500,4,2,0,50,0,0
330371,-50,4,2,0,70,0,0

[Colours]
Combo1 : 255,128,0
Combo2 : 192,192,192

[HitObjects]
256,192,20716,12,0,21923,0:0:0:0:
294,152,22095,6,0,B|250:209|227:126|237:31|354:-14|461:-31|523:43|669:-123|466:69|316:63|295:154|313:197|337:215|337:215|351:223|374:210|399:173|431:187|584:58|467:204|500:339|500:339|503:327|503:327|490:271|429:167|393:204|395:226,1,1182.99994584656,0|0,0:2|0:0,0:0:0:0:
395,219,26923,2,0,P|388:245|384:268,1,45.4999979171754,0|0,3:0|3:0,0:0:0:0:
166,281,27613,6,0,B|213:358|233:293|282:368|282:368|285:337|251:274|203:315|136:345|61:291|71:211|71:211|76:181|115:155|130:195|157:170|157:170|178:158|212:207|291:203|300:57|108:-23|-7:38|-7:38|3:38|3:38|51:-14|168:74|110:149,1,1182.99994584656
120,131,32440,2,0,P|98:123|76:116,1,45.4999979171754,0|0,3:0|3:0,0:0:0:0:
41,46,32785,1,2,0:2:0:0:
30,221,33130,6,0,B|-11:366|-11:366|-26:353|4:275|35:210|126:155|173:200|173:200|145:169|177:144|177:144|184:136|184:136|203:134|203:134|228:86|311:46|364:75|364:75|382:94|415:93|415:93|250:118|266:220|284:280|505:282|399:144|403:107|360:112|341:144,1,1182.99994584656
427,68,37958,2,0,P|431:44|441:24,1,45.4999979171754,0|0,3:0|3:0,0:0:0:0:
512,0,38302,1,2,0:2:0:0:
270,199,38647,6,0,B|299:236|268:297|270:233|207:260|207:357|207:357|207:259|257:226|334:162|427:175|489:226|489:226|474:205|482:202|482:202|402:193|188:51|436:101|472:-15|472:-15|389:112|309:146|275:116,1,1228.49994376374
370,231,43475,2,0,P|362:252|356:274,1,45.4999979171754,0|0,3:0|3:0,0:0:0:0:
33,373,44164,6,0,B|48:330|88:355|113:281,1,105.000004005432,0|0,1:0|0:0,0:0:0:0:
86,182,44509,2,0,P|41:175|28:234,1,105.000004005432,8|0,0:2|0:0,0:0:0:0:
116,282,44768,1,8,0:2:0:0:
134,294,44854,2,0,L|151:226,1,52.5000020027161,0|8,0:0|0:2,0:0:0:0:
284,207,45027,1,0,1:0:0:0:
284,207,45371,2,0,L|267:139,1,52.5000020027161,8|0,0:2|0:2,0:0:0:0:
206,29,45544,6,0,P|132:52|85:114,1,157.500006008148,0|0,1:0|0:0,0:0:0:0:
4,107,45889,2,0,B|-26:93|-9:51|-9:51|0:81|26:103,1,105.000004005432,8|0,0:2|0:0,0:0:0:0:
134,183,46147,1,8,0:2:0:0:
158,192,46233,1,0,0:0:0:0:
205,179,46320,1,8,0:2:0:0:
248,119,46406,1,0,1:0:0:0:
248,119,46751,2,0,L|316:136,1,52.5000020027161,8|0,0:2|0:2,0:0:0:0:
353,74,46923,5,0,1:0:0:0:
427,123,47095,1,0,3:0:0:0:
471,12,47268,1,8,3:2:0:0:
356,201,47440,5,0,0:0:0:0:
392,197,47527,1,8,0:2:0:0:
400,237,47613,1,0,0:0:0:0:
445,272,47699,1,8,0:2:0:0:
496,243,47785,1,0,1:0:0:0:
370,350,47958,1,0,3:0:0:0:
512,384,48130,1,8,0:2:0:0:
455,328,48302,6,0,B|445:308|445:308|495:242,2,105.000004005432,0|0|8,1:0|0:0|0:2,0:0:0:0:
323,276,48820,1,0,0:0:0:0:
310,302,48906,1,8,0:2:0:0:
286,304,48992,1,0,0:0:0:0:
249,266,49078,1,8,0:2:0:0:
197,280,49164,1,0,1:0:0:0:
160,361,49337,5,0,3:0:0:0:
76,255,49509,1,8,0:2:0:0:
13,382,49682,6,0,P|33:347|10:380,1,105.000004005432,0|0,1:0|0:0,0:0:0:0:
156,261,50027,2,0,P|100:241|94:164,1,105.000004005432,8|0,0:2|0:0,0:0:0:0:
157,172,50285,1,8,0:2:0:0:
221,124,50372,1,0,0:0:0:0:
228,78,50458,1,8,0:2:0:0:
214,68,50544,1,0,1:0:0:0:
214,68,50889,2,0,L|160:54,1,52.5000020027161,8|0,0:2|0:0,0:0:0:0:
12,174,51061,6,0,B|76:149|34:129|97:105,1,105.000004005432,0|0,1:0|0:0,0:0:0:0:
308,102,51406,2,0,P|317:51|338:3,1,105.000004005432,8|0,0:2|0:0,0:0:0:0:
238,151,51664,1,8,0:2:0:0:
229,165,51751,2,0,P|237:194|251:219,1,52.5000020027161,0|8,0:0|0:2,0:0:0:0:
326,229,51923,1,0,1:0:0:0:
326,229,52268,2,0,L|394:214,1,52.5000020027161,8|0,0:2|0:0,0:0:0:0:
512,195,52440,5,0,1:0:0:0:
452,245,52613,1,0,3:0:0:0:
439,166,52785,1,8,2:2:0:0:
512,384,52958,5,0,0:0:0:0:
492,343,53044,1,8,0:2:0:0:
455,342,53130,1,0,0:0:0:0:
430,323,53216,1,8,0:2:0:0:
392,341,53303,1,0,1:0:0:0:
262,282,53475,1,0,3:0:0:0:
377,217,53647,1,8,3:2:0:0:
241,72,53820,5,0,1:0:0:0:
301,123,53993,1,0,3:0:0:0:
315,45,54165,1,8,2:2:0:0:
456,69,54337,5,0,0:0:0:0:
443,71,54423,1,8,0:2:0:0:
443,78,54509,1,0,0:0:0:0:
449,85,54595,1,8,0:2:0:0:
458,82,54682,2,0,L|431:148,1,52.5000020027161,0|0,1:0|0:0,0:0:0:0:
485,197,54854,2,0,L|429:241,1,52.5000020027161,2|0,3:2|0:0,0:0:0:0:
452,311,55027,2,0,L|381:321,1,52.5000020027161,8|0,0:2|0:0,0:0:0:0:
359,379,55199,6,0,P|352:327|329:281,1,105.000004005432,2|0,1:2|0:0,0:0:0:0:
220,193,55544,2,0,B|223:171|251:161|251:161|251:195|219:205,1,105.000004005432,10|0,0:2|0:2,0:0:0:0:
243,284,55802,1,8,0:2:0:0:
235,303,55889,2,0,L|169:324,1,52.5000020027161
116,277,56061,1,0,1:0:0:0:
30,338,56233,5,2,0:2:0:0:
108,283,56406,1,8,0:2:0:0:
19,117,56578,6,0,B|-7:209|71:249|91:194|52:184,1,157.500006008148,2|0,1:2|0:0,0:0:0:0:
158,35,56923,2,0,P|186:14|163:42,1,105.000004005432,10|0,0:2|0:0,0:0:0:0:
187,159,57182,1,8,0:2:0:0:
172,159,57268,1,0,0:0:0:0:
158,122,57354,1,8,0:2:0:0:
113,118,57440,1,0,1:0:0:0:
48,19,57613,5,2,0:2:0:0:
118,125,57785,1,0,3:0:0:0:
232,83,57958,5,2,1:2:0:0:
308,66,58130,1,0,3:0:0:0:
362,122,58302,1,10,3:2:0:0:
473,13,58475,5,0,0:0:0:0:
440,18,58561,1,8,0:2:0:0:
425,47,58647,1,0,0:0:0:0:
463,73,58733,1,8,0:2:0:0:
451,124,58820,2,0,B|459:149|459:149|414:169|400:214,2,105.000004005432,0|0|8,1:0|3:0|0:2,0:0:0:0:
315,300,59337,5,0,1:0:0:0:
255,250,59510,1,0,3:0:0:0:
242,329,59682,1,8,2:2:0:0:
344,217,59854,5,0,0:0:0:0:
383,219,59940,1,8,0:2:0:0:
398,255,60027,1,0,0:0:0:0:
404,308,60113,1,8,0:2:0:0:
463,321,60199,2,0,P|494:300|472:227,1,105.000004005432,0|2,1:0|0:2,0:0:0:0:
352,375,60544,1,8,0:2:0:0:
173,288,60716,6,0,B|16:288|74:384|-15:385,1,210.000008010865,2|10,0:2|0:2,0:0:0:0:
0,384,61751,2,0,P|18:335|77:335,1,105.000004005432,2|0,0:2|0:0,0:0:0:0:
179,203,62095,6,0,P|175:100|107:23,1,210.000008010865,2|2,0:2|0:2,0:0:0:0:
107,23,62785,6,0,B|61:33|62:71|62:71|81:58|110:62,1,105.000004005432,2|0,0:2|0:0,0:0:0:0:
0,116,63130,2,0,B|-14:160|19:178|19:178|17:156|35:132,1,105.000004005432,2|0,0:2|0:0,0:0:0:0:
195,99,63475,1,2,0:2:0:0:
256,192,63561,12,0,65371,0:0:0:0:
405,191,65544,6,0,L|507:213,1,105.000004005432,2|2,0:3|0:3,0:0:0:0:
46,113,66233,6,0,L|56:143,1,31.4999990386963,4|0,1:0|0:0,0:0:0:0:
109,67,66578,6,0,B|98:31|21:49|-18:141|-18:141|11:-38|232:5|232:5|215:-3|215:-3|135:83|208:178|291:181|344:141|319:41|267:77,1,857.500008177757,4|0,1:2|0:0,0:0:0:0:
172,116,67268,6,0,P|160:149|151:182,1,70,8|0,1:2|0:0,0:0:0:0:
58,370,67440,1,0,3:0:0:0:
72,373,67527,1,0,3:0:0:0:
59,383,67613,6,0,B|38:344|92:241|155:362|249:315|207:192|100:191|69:204|69:204|87:217|95:237,1,367.500003504753,0|0,1:0|0:0,0:0:0:0:
192,309,67958,2,0,B|241:302|289:345|289:345|252:288|210:283,1,210.000008010865,8|0,1:2|3:0,0:0:0:0:
30,302,68216,6,0,L|22:267,2,35,8|0|8,1:2|0:0|1:2,0:0:0:0:
181,198,68475,1,0,3:0:0:0:
170,193,68561,1,0,1:0:0:0:
172,205,68647,6,0,L|196:135,1,73.4999977569581,8|0,1:2|3:0,0:0:0:0:
285,2,68992,6,0,B|325:131|105:54|32:179|100:242,1,367.500003504753,0|0,1:0|0:0,0:0:0:0:
91,367,69337,5,8,1:2:0:0:
149,308,69423,1,0,3:0:0:0:
198,292,69509,1,0,3:0:0:0:
224,296,69595,2,0,P|250:320|220:301,1,105.000004005432,0|0,1:0|0:0,0:0:0:0:
54,147,69768,1,0,3:0:0:0:
39,158,69854,2,0,P|12:181|42:162,1,105.000004005432,0|0,1:0|0:0,0:0:0:0:
131,211,70027,6,0,P|227:193|383:161,1,210,8|0,1:2|0:0,0:0:0:0:
324,188,70199,5,0,3:0:0:0:
254,141,70285,2,0,B|225:49|320:41|320:41,1,140,0|0,1:0|0:0,0:0:0:0:
512,120,70458,5,0,3:0:0:0:
442,140,70544,2,0,L|406:126,1,35,0|0,1:0|0:0,0:0:0:0:
324,57,70716,6,0,B|393:32|420:-4|420:-4|427:-3|427:-3|364:101|321:273,1,420,8|0,1:2|3:0,0:0:0:0:
406,337,71061,1,0,3:0:0:0:
417,352,71147,1,0,3:0:0:0:
407,353,71233,6,0,P|432:307|467:267,1,105.000004005432,0|0,1:0|0:0,0:0:0:0:
512,120,71406,6,0,B|452:112|354:129|345:229|369:301|459:270|495:221|430:174|343:162,1,367.500003504753,8|0,1:2|0:0,0:0:0:0:
167,100,71751,6,0,L|157:70,1,31.4999990386963,4|0,1:0|0:0,0:0:0:0:
237,58,72095,6,0,B|242:18|178:-33|102:7|102:7|233:-81|448:41|290:189|210:167|186:225|202:299|202:299|195:302|195:302|210:240|272:210|323:241,1,857.500008177757,8|0,1:2|0:0,0:0:0:0:
270,347,72785,6,0,P|264:313|241:267,1,70,8|0,1:2|0:0,0:0:0:0:
438,165,72958,1,0,3:0:0:0:
446,177,73044,1,0,3:0:0:0:
433,180,73130,6,0,B|413:193|413:193|260:113|104:124|104:124|88:105,1,367.500003504753,0|0,1:0|0:0,0:0:0:0:
73,22,73475,2,0,P|75:99|69:22,1,210.000008010865,8|0,1:2|3:0,0:0:0:0:
178,149,73733,6,0,L|165:186,2,35,8|0|8,1:2|0:0|1:2,0:0:0:0:
80,307,73992,1,0,3:0:0:0:
78,313,74078,1,0,1:0:0:0:
85,315,74164,6,0,L|110:393,1,73.4999977569581,8|0,1:2|3:0,0:0:0:0:
11,193,74509,6,0,B|181:154|264:302|154:370|54:292|95:212,1,367.500003504753,0|0,1:0|0:0,0:0:0:0:
26,369,74854,5,8,1:2:0:0:
85,315,74940,1,0,3:0:0:0:
139,308,75027,1,0,3:0:0:0:
183,310,75113,2,0,B|206:334|240:338|240:338|199:357|170:329,1,140,0|0,1:0|0:0,0:0:0:0:
11,193,75285,1,0,3:0:0:0:
21,146,75371,2,0,B|49:130|62:98|62:98|70:142|35:163,1,140,0|0,1:0|0:0,0:0:0:0:
87,232,75544,6,0,P|190:212|293:191,1,210,8|0,1:2|0:0,0:0:0:0:
313,211,75716,5,0,3:0:0:0:
236,174,75802,1,0,3:0:0:0:
248,96,75889,1,0,1:0:0:0:
260,81,75975,1,0,0:0:0:0:
264,91,76061,2,0,L|229:85,1,35,0|0,3:0|0:0,0:0:0:0:
62,0,76233,6,0,B|15:146|276:121|210:296,1,367.500003504753,8|0,1:2|3:0,0:0:0:0:
95,246,76578,1,0,3:0:0:0:
87,232,76664,1,0,3:0:0:0:
78,245,76750,6,0,B|50:276|50:276|155:243,1,122.500001168251,0|0,1:0|0:0,0:0:0:0:
354,341,76923,6,0,P|242:289|344:357,1,367.500003504753,8|0,1:2|0:0,0:0:0:0:
456,367,77268,6,0,L|426:377,1,31.4999990386963,4|0,1:0|0:0,0:0:0:0:
296,285,77613,2,0,B|310:224|353:258|366:191,1,122.500001168251,8|0,1:2|0:0,0:0:0:0:
438,33,77785,6,0,B|450:10|457:8|457:8|449:0|449:0|386:54|278:52|278:52|273:56|273:56|309:163|406:22|496:147|494:200|494:200|495:159|447:129|411:136,1,612.500005841255,0|0,3:0|0:0,0:0:0:0:
359,128,78302,6,0,P|372:160|380:195,1,70,8|0,1:2|0:0,0:0:0:0:
408,355,78475,1,0,3:0:0:0:
408,379,78561,1,0,3:0:0:0:
422,371,78647,6,0,L|392:361,1,31.4999990386963,4|0,1:0|0:0,0:0:0:0:
293,230,78992,2,0,B|260:255|260:255|360:277,1,122.500001168251,8|0,1:2|0:0,0:0:0:0:
481,301,79164,6,0,B|492:257|539:230|539:230|410:270|410:270|405:267|405:267|402:272|402:272|233:324|233:324|227:319|227:319|226:326|226:326|125:357,1,525.000020027161
25,245,79682,2,0,P|0:235|20:251,1,73.4999977569581,8|0,1:2|0:0,0:0:0:0:
99,213,80027,6,0,B|134:204|134:204|161:271|225:317|225:317|134:313|77:355|77:355|54:311,1,367.500003504753,0|0,1:0|0:0,0:0:0:0:
20,251,80371,5,8,1:2:0:0:
102,255,80458,1,0,3:0:0:0:
151,221,80544,1,0,3:0:0:0:
144,198,80630,2,0,B|149:156|107:153|118:91,1,105.000004005432,0|0,1:0|0:0,0:0:0:0:
348,88,80802,1,0,3:0:0:0:
329,71,80888,2,0,B|312:32|274:50|252:-9,1,105.000004005432,0|0,1:0|0:0,0:0:0:0:
11,122,81061,6,0,P|147:106|198:15,1,210,8|0,1:2|0:0,0:0:0:0:
170,39,81233,5,0,3:0:0:0:
89,10,81320,2,0,B|72:59|72:59|126:112,1,105.000004005432,0|0,1:0|0:0,0:0:0:0:
265,176,81492,5,0,3:0:0:0:
247,164,81578,2,0,L|254:126,1,35,0|0,1:0|0:0,0:0:0:0:
271,294,81751,6,0,B|297:204|477:294|495:182|471:151|405:53|261:156|387:205,1,420,8|0,1:2|3:0,0:0:0:0:
377,351,82095,1,0,0:0:0:0:
392,354,82182,1,0,0:0:0:0:
384,364,82268,6,0,P|363:314|354:265,1,80.5000015354157,0|0,1:0|0:0,0:0:0:0:
375,44,82440,6,0,B|471:36|498:-14|498:-14|501:-3|501:-3|483:37|514:134,1,283.500001081467,8|0,1:2|0:0,0:0:0:0:
491,135,82785,6,0,L|460:126,1,31.4999990386963,4|0,1:0|0:0,0:0:0:0:
218,255,83130,6,0,B|376:250|493:362|493:362|495:374|495:374|545:278|480:217|480:217|472:219|472:219|451:262|376:314|283:219|314:158|383:124|383:124|372:167|404:187,1,857.500008177757,8|0,1:2|0:0,0:0:0:0:
460,272,83820,6,0,P|440:300|428:333,1,70,8|0,1:2|0:0,0:0:0:0:
322,378,83992,1,0,3:0:0:0:
334,372,84078,1,0,3:0:0:0:
336,383,84164,6,0,P|249:279|233:48,1,367.500003504753,0|0,1:0|0:0,0:0:0:0:
288,0,84509,6,0,B|357:20|396:-20|396:-20|381:51|288:68,1,245.000002336502,8|0,1:2|3:0,0:0:0:0:
165,104,84768,2,0,L|127:90,2,35,8|0|8,1:2|0:0|1:2,0:0:0:0:
267,189,85027,1,0,0:0:0:0:
262,194,85113,1,0,3:0:0:0:
268,200,85199,2,0,B|272:182|272:182|250:122,1,73.4999977569581,8|0,1:2|3:0,0:0:0:0:
30,61,85544,6,0,P|138:128|55:31,1,367.500003504753,0|0,1:0|0:0,0:0:0:0:
73,171,85889,5,8,1:2:0:0:
78,246,85975,1,0,3:0:0:0:
122,270,86061,1,0,3:0:0:0:
146,278,86147,2,0,B|190:247|190:247|140:256,1,105.000004005432,0|0,1:0|0:0,0:0:0:0:
95,383,86320,1,0,3:0:0:0:
18,376,86406,2,0,B|-26:345|-26:345|23:354,1,105.000004005432,0|0,1:0|0:0,0:0:0:0:
42,277,86578,6,0,L|253:338,1,183.750001752377,8|0,1:2|0:0,0:0:0:0:
235,346,86751,5,0,3:0:0:0:
271,275,86837,1,0,3:0:0:0:
216,220,86923,1,0,1:0:0:0:
204,205,87009,1,0,0:0:0:0:
200,215,87095,2,0,L|236:205,1,35,0|0,3:0|0:0,0:0:0:0:
511,383,87268,6,0,B|461:217|273:204|272:331|383:351|423:308,1,367.500003504753,8|0,1:2|0:0,0:0:0:0:
371,40,87613,2,0,B|437:29|454:-14|454:-14|446:39|478:86,1,210,8|0,1:2|0:0,0:0:0:0:
392,155,87958,6,0,P|395:138|402:122,1,35,2|0,0:2|0:0,0:0:0:0:
381,151,88044,6,0,P|375:134|373:117,1,35,2|0,0:2|0:0,0:0:0:0:
370,159,88130,6,0,P|356:147|346:133,1,35,2|0,0:2|0:0,0:0:0:0:
368,172,88216,6,0,P|350:168|334:161,1,35,2|0,0:2|0:0,0:0:0:0:
302,242,88302,6,0,P|394:191|496:167,1,210,2|0,0:2|0:0,0:0:0:0:
499,175,88647,5,8,1:2:0:0:
512,221,88733,6,0,L|510:231,1,7,0|0,3:0|0:0,0:0:0:0:
460,249,88820,6,0,L|455:269,1,20.9999993591309,0|0,3:0|0:0,0:0:0:0:
494,316,88906,6,0,L|485:363,1,28,0|0,3:0|0:0,0:0:0:0:
486,354,88992,5,2,3:2:0:0:
411,371,89078,1,0,3:0:0:0:
337,379,89164,2,0,B|317:344|317:344|343:247,1,122.500001168251,0|0,1:0|0:0,0:0:0:0:
441,44,89337,2,0,B|425:12|366:6|366:6|443:40|443:103,1,220.499993270874,8|0,1:2|0:0,0:0:0:0:
275,208,89509,2,0,B|279:183|279:183|333:165|333:165|350:179,1,105.000004005432,0|0,3:0|0:0,0:0:0:0:
430,271,89682,6,0,B|407:326|438:307|462:350|462:350|490:249|404:139|286:115|286:115|287:159|368:128|358:224,1,525,4|0,1:0|0:0,0:0:0:0:
339,271,90027,5,8,1:2:0:0:
302,301,90113,6,0,L|302:307,1,7,2|0,3:2|0:0,0:0:0:0:
231,304,90199,6,0,L|222:323,1,20.9999993591309,2|0,3:2|0:0,0:0:0:0:
165,267,90285,6,0,L|144:284,1,28,2|0,3:2|0:0,0:0:0:0:
140,192,90371,6,0,P|115:178|72:169,1,56,2|0,3:2|0:0,0:0:0:0:
111,42,90544,1,0,3:0:0:0:
116,38,90630,1,0,3:0:0:0:
121,33,90716,2,0,P|53:57|38:141,1,122.500001168251,8|0,1:2|0:0,0:0:0:0:
23,279,90889,6,0,B|44:284|56:308|56:308|62:271|28:230,1,112,0|0,3:0|3:0,0:0:0:0:
5,287,91406,6,0,B|-9:341|82:388|82:388|67:200|191:168,1,367.500003504753,8|0,1:2|1:0,0:0:0:0:
183,105,91751,6,0,P|234:160|230:198,1,87.5,0|0,3:0|0:0,0:0:0:0:
271,327,91923,2,0,B|239:348|239:348|190:329|190:329|184:290,1,131.25,0|0,1:0|0:0,0:0:0:0:
159,188,92095,6,0,B|208:166|142:79|104:111|104:111|95:120|95:120|79:115|79:115|-6:176|7:15|159:-21|159:-21|128:22|146:61,1,514.499984298707,8|0,1:2|0:0,0:0:0:0:
231,28,92440,6,0,P|258:53|240:20,1,105.000004005432,0|0,1:0|0:0,0:0:0:0:
28,157,92613,1,0,3:0:0:0:
20,201,92699,1,0,3:0:0:0:
43,241,92785,6,0,P|108:199|260:178,1,210.000008010865,8|0,1:2|3:0,0:0:0:0:
373,168,93044,1,0,3:0:0:0:
363,151,93130,6,0,P|323:183|315:234,1,105.000004005432,0|0,3:0|0:0,0:0:0:0:
132,112,93302,2,0,P|118:143|126:177,1,70,0|0,1:0|0:0,0:0:0:0:
264,384,93475,6,0,B|381:366|439:282|449:142|304:300|154:349|181:168|263:156,1,440.999986541749,8|0,1:2|0:0,0:0:0:0:
378,55,93820,6,0,B|416:37|425:-6|425:-6|457:75|367:115,1,210,4|0,1:0|0:0,0:0:0:0:
387,111,94164,5,8,1:2:0:0:
341,137,94251,6,0,L|334:133,1,7,2|0,3:2|0:0,0:0:0:0:
310,190,94337,6,0,L|288:186,1,20.9999993591309,2|0,3:2|0:0,0:0:0:0:
318,258,94423,6,0,L|289:266,1,28,2|0,3:2|0:0,0:0:0:0:
324,262,94509,5,2,3:2:0:0:
392,287,94595,1,0,3:0:0:0:
453,328,94682,2,0,B|479:339|479:339|503:285|451:235,1,122.500001168251,0|0,1:0|0:0,0:0:0:0:
291,55,94854,2,0,B|245:71|178:40|178:40|254:85|244:162,1,220.499993270874,8|0,1:2|0:0,0:0:0:0:
189,185,95027,2,0,P|159:207|182:177,1,105.000004005432,0|0,3:0|0:0,0:0:0:0:
459,247,95199,6,0,B|478:242|478:242|495:182|495:182|487:173|487:173|305:257|349:22|452:29|452:29|391:113|472:165,1,525,4|0,1:0|0:0,0:0:0:0:
462,48,95544,5,8,1:2:0:0:
423,9,95630,6,0,L|422:3,1,7,2|0,3:2|0:0,0:0:0:0:
352,17,95716,6,0,L|340:0,1,20.9999993591309,2|0,3:2|0:0,0:0:0:0:
293,64,95802,6,0,L|269:50,1,28,2|0,3:2|0:0,0:0:0:0:
280,142,95888,6,0,P|257:159|216:175,1,56,2|0,3:2|0:0,0:0:0:0:
231,323,96061,1,0,1:0:0:0:
234,330,96147,1,0,3:0:0:0:
237,336,96233,2,0,P|305:312|320:228,1,122.500001168251,8|0,1:2|0:0,0:0:0:0:
450,224,96406,6,0,B|469:133|378:160|378:160,1,112,0|0,3:0|3:0,0:0:0:0:
360,134,96923,6,0,B|361:159|342:227|216:236|216:236|309:181|311:62|221:90,1,367.500003504753,8|0,1:2|1:0,0:0:0:0:
240,11,97268,6,0,B|194:13|194:13|187:69,1,87.5,0|0,3:0|0:0,0:0:0:0:
12,31,97440,2,0,B|18:61|18:61|81:70|118:98,1,131.25,0|0,1:0|0:0,0:0:0:0:
203,139,97613,6,0,B|370:198|381:39|288:5|426:-73|534:-7|566:55|453:237|362:115,1,514.499984298707,8|0,1:2|0:0,0:0:0:0:
371,77,97958,6,0,P|346:49|384:64,1,105.000004005432,0|0,1:0|0:0,0:0:0:0:
262,265,98130,1,0,3:0:0:0:
296,293,98216,1,0,3:0:0:0:
345,293,98302,6,0,P|344:206|252:104,1,210.000008010865,8|0,1:2|3:0,0:0:0:0:
269,32,98561,1,0,3:0:0:0:
247,23,98647,6,0,P|204:44|195:109,1,105.000004005432,0|0,3:0|0:0,0:0:0:0:
423,158,98820,2,0,P|393:174|383:206,1,70,0|0,1:0|0:0,0:0:0:0:
366,366,98992,6,0,L|358:383,1,10.4999996795654,8|0,1:2|0:0,0:0:0:0:
389,361,99078,6,0,L|397:386,1,24.4999992523194,2|0,3:2|0:0,0:0:0:0:
413,341,99164,6,0,L|456:364,1,35,2|0,3:2|0:0,0:0:0:0:
426,303,99251,6,0,L|475:288,1,41.9999987182618,2|0,3:2|0:0,0:0:0:0:
351,293,99337,6,0,B|349:245|398:218|398:218|388:209|388:209|314:225|312:295,1,210,4|0,1:0|0:0,0:0:0:0:
308,268,99682,5,8,1:2:0:0:
260,234,99768,6,0,L|250:238,1,7,2|0,3:2|0:0,0:0:0:0:
248,171,99854,6,0,L|223:165,1,20.9999993591309,2|0,3:2|0:0,0:0:0:0:
284,118,99940,6,0,L|259:73,1,28,2|0,3:2|0:0,0:0:0:0:
276,89,100027,5,2,3:2:0:0:
350,75,100113,1,0,3:0:0:0:
421,60,100199,2,0,B|462:48|462:48|382:36,1,122.500001168251,0|0,1:0|0:0,0:0:0:0:
100,0,100371,2,0,B|186:32|187:110|187:110|166:79|110:85,1,220.499993270874,8|0,1:2|0:0,0:0:0:0:
45,103,100544,2,0,B|22:105|5:124|5:124|12:90|25:91,1,87.5,0|0,3:0|0:0,0:0:0:0:
377,39,100716,6,0,B|335:-15|525:-50|479:90|544:24|401:220|406:122|406:122|400:111|400:111|391:107|391:107|360:56|237:124|288:199,1,525,4|0,1:0|0:0,0:0:0:0:
297,290,101061,5,8,1:2:0:0:
342,304,101147,6,0,L|343:308,1,7,2|0,3:2|0:0,0:0:0:0:
409,281,101233,6,0,L|423:295,1,20.9999993591309,2|0,3:2|0:0,0:0:0:0:
457,223,101320,6,0,L|482:230,1,28,2|0,3:2|0:0,0:0:0:0:
454,144,101406,6,0,P|471:121|508:97,1,56,2|0,3:2|0:0,0:0:0:0:
358,191,101578,1,0,1:0:0:0:
364,197,101664,1,0,3:0:0:0:
366,206,101751,2,0,B|342:143|241:155|302:220,1,122.500001168251,8|0,1:2|0:0,0:0:0:0:
27,68,101923,6,0,B|106:116|117:24|117:24,1,112,0|0,3:0|3:0,0:0:0:0:
113,10,102440,6,0,B|31:76|53:193|53:193|117:122|165:147|165:147|193:114|140:69,1,367.500003504753,8|0,1:2|1:0,0:0:0:0:
139,223,102785,6,0,P|158:265|209:287,1,87.5,0|0,3:0|0:0,0:0:0:0:
36,322,102958,2,0,P|6:282|46:306,1,131.25,0|0,1:2|0:0,0:0:0:0:
123,361,103130,6,0,B|170:176|386:185|386:185|296:241|293:333,1,514.499984298707,8|0,1:2|0:0,0:0:0:0:
445,360,103475,6,0,B|453:335|453:335|417:291|417:291|385:297,1,105.000004005432,0|0,1:0|0:0,0:0:0:0:
142,216,103647,1,0,3:0:0:0:
91,214,103733,1,0,3:0:0:0:
60,171,103820,6,0,B|-2:114|-2:114|41:38|41:38|77:89,1,210.000008010865,8|0,1:2|3:0,0:0:0:0:
205,55,104078,1,0,3:0:0:0:
180,39,104164,6,0,P|142:85|152:158,1,105.000004005432,0|0,3:0|0:0,0:0:0:0:
14,249,104337,2,0,P|24:281|52:301,1,70,0|0,1:0|0:0,0:0:0:0:
194,288,104509,6,0,B|278:307|345:187|213:130|138:162|131:275|183:367|45:385,1,440.999986541749,8|0,1:2|0:0,0:0:0:0:
59,301,104854,6,0,B|60:281|60:281|177:310|227:399,1,210,4|0,1:0|0:0,0:0:0:0:
223,382,105199,5,8,1:2:0:0:
279,366,105285,6,0,L|287:373,1,7,2|0,3:2|0:0,0:0:0:0:
333,333,105371,6,0,L|354:344,1,20.9999993591309,2|0,3:2|0:0,0:0:0:0:
375,283,105458,6,0,L|422:292,1,28,2|0,3:2|0:0,0:0:0:0:
412,291,105544,5,2,3:2:0:0:
483,306,105630,1,0,3:0:0:0:
512,375,105716,2,0,B|499:363|499:363|476:205,1,122.500001168251,0|0,1:0|0:0,0:0:0:0:
384,44,105889,2,0,B|290:29|290:29|368:183,1,220.499993270874,8|0,1:2|0:0,0:0:0:0:
454,159,106061,2,0,P|479:132|448:155,1,105.000004005432,0|0,3:0|0:0,0:0:0:0:
481,253,106233,6,0,L|221:212,1,262.5,4|0,1:0|0:0,0:0:0:0:
146,152,106578,5,8,1:2:0:0:
183,122,106664,6,0,L|183:116,1,7,2|0,3:2|0:0,0:0:0:0:
254,119,106751,6,0,L|263:100,1,20.9999993591309,2|0,3:2|0:0,0:0:0:0:
320,156,106837,6,0,L|341:139,1,28,2|0,3:2|0:0,0:0:0:0:
345,231,106923,6,0,P|370:245|413:254,1,56,0|0,3:0|0:0,0:0:0:0:
471,282,107095,2,0,B|474:300|474:300|438:334|438:334|407:324,1,87.5,0|0,1:0|0:0,0:0:0:0:
121,272,107268,6,0,P|171:238|231:223,1,122.500001168251,8|0,1:2|0:0,0:0:0:0:
431,53,107440,2,0,L|441:9,3,26.2500010013581,0|0|0|0,3:0|0:0|3:0|0:0,0:0:0:0:
414,129,107613,5,0,3:0:0:0:
2,176,107958,6,0,L|-2:171,6,4.375,0|0|0|0|0|0|0,3:0|3:0|3:0|3:0|3:0|3:0|3:0,3:0:0:0:
35,218,108302,6,0,B|88:246|99:287|99:287|118:169|-16:113|49:-9|126:-15|188:42|209:117|115:156|112:125,1,525
107,121,108992,6,0,L|103:109,6,8.75,0|0|0|0|0|0|0,3:0|3:0|3:0|3:0|3:0|3:0|3:0,3:0:0:0:
257,96,109337,6,0,L|260:76,16,17.5,0|0|0|0|0|0|0|0|0|0|0|0|0|0|0|0|0,3:0|3:0|3:0|3:0|3:0|3:0|3:0|3:0|3:0|3:0|3:0|3:0|3:0|3:0|3:0|3:0|3:0,3:0:0:0:
33,302,110371,6,0,B|46:325|15:365|15:365|14:379|14:379|43:320|132:296,1,233.100005690918,4|0,3:1|0:0,0:0:0:0:
165,224,110716,6,0,B|308:266|97:569|323:270|316:274|197:160|272:143|272:143|282:87|230:37|230:37|269:131|157:228|152:188|152:188|29:278|-21:151|-21:151|46:225|67:166|114:177,1,1087.80002655762,8|0,1:2|3:0,3:0:0:0:
138,108,111406,6,0,B|151:102|151:102|151:56|151:56|124:91|124:91|129:101,1,116.550002845459,8|0,1:2|0:0,0:0:0:0:
289,311,111578,2,0,B|319:325|319:325|469:285,1,174.825004268189,2|0,3:0|0:0,0:0:0:0:
437,232,111751,6,0,B|484:240|510:317|510:317|521:237|460:229,1,233.100005690918,4|0,3:2|3:0,3:0:0:0:
418,155,112095,6,0,B|306:119|267:356|505:408|620:303|386:425|298:293|203:195|368:169|283:97|283:97|291:60|272:35|178:-7|178:-7|427:-1|347:130|460:141,1,1087.80002655762,8|0,1:2|0:0,0:0:0:0:
494,0,112785,6,0,B|450:8|439:58|439:58|280:100,1,233.100005690918,8|0,1:2|0:0,0:0:0:0:
101,141,113044,1,8,0:0:0:0:
125,70,113130,6,0,B|107:112|195:160|195:160|25:189|18:50,1,349.650008536377,4|0,3:0|3:0,3:0:0:0:
202,72,113475,6,0,B|217:72|217:72|236:31|236:31|221:-1,1,77.7000018969727,8|0,1:2|0:0,0:0:0:0:
19,69,113647,2,0,P|37:99|75:216,1,116.550002845459,4|0,3:0|3:0,0:0:0:0:
115,343,113820,2,0,B|78:336|76:295|76:295|170:286|173:188,1,174.825004268189,4|0,3:0|0:0,0:0:0:0:
179,195,113992,6,0,L|132:209,1,38.8500009484863,0|0,1:0|0:0,3:0:0:0:
10,231,114164,2,0,B|23:249|23:249|131:260|195:357,1,233.100005690918,8|4,1:2|3:0,0:0:0:0:
413,299,114423,1,0,0:0:0:0:
335,314,114509,6,0,B|344:400|432:439|609:352|558:103|410:123|424:231,1,466.200011381836,4|0,1:2|3:0,3:0:0:0:
339,234,114854,6,0,B|282:227|232:280|120:425|247:171|342:216,1,310.800007587891,8|0,2:2|0:0,0:0:0:0:
512,257,115113,1,8,0:0:0:0:
495,256,115199,6,0,B|484:236|484:236|354:175|388:44,1,233.100005690918,2|0,0:0|0:0,0:0:0:0:
426,5,115371,2,0,B|450:5|506:27|457:103,1,116.550002845459,0|0,1:0|0:0,0:0:0:0:
126,327,115544,6,0,B|135:270|38:227|38:227|95:244|95:244|106:239|106:239|113:249|113:249|151:260|151:260|159:253|159:253|162:262|162:262|335:314,1,466.200011381836,8|0,1:2|0:0,0:0:0:0:
452,319,115889,6,0,B|469:354|401:443|293:366|389:256|435:303,1,233.100005690918,4|0,1:0|0:0,0:0:0:0:
504,156,116233,6,0,B|606:270|473:349|548:221|438:188|352:206|352:206|365:233|285:255|287:353|287:353|241:269|290:95|471:95|358:244|378:247|553:228|606:52|437:-28|336:-9|385:76,1,1087.80002655762,8|0,1:2|0:0,0:0:0:0:
280,68,116923,6,0,B|376:94|376:94|377:99|377:99|380:95|380:95|444:112,1,174.825004268189,8|0,1:2|0:0,0:0:0:0:
492,82,117095,2,0,L|503:44,1,38.8500009484863,2|0,0:0|0:0,0:0:0:0:
202,74,117268,6,0,B|200:117|240:141|240:141|229:259|19:308|37:169|103:155,1,349.650008536377,4|0,3:0|3:0,3:0:0:0:
26,288,117613,6,0,B|40:259|40:259|208:161|129:3,1,310.800007587891,8|0,1:2|0:0,0:0:0:0:
38,109,117871,1,0,0:0:0:0:
23,118,117958,2,0,B|-20:136|-71:284|75:160|184:226|197:353,1,349.650008536377
264,292,118302,6,0,B|315:269|315:269|251:262,1,116.550002845459,8|0,1:2|0:0,0:0:0:0:
102,328,118475,2,0,B|94:348|94:348|7:374,1,77.7000018969727,2|0,0:3|0:0,0:0:0:0:
67,185,118647,2,0,B|47:264|123:329|203:297|203:297|446:354,1,466.200011381836,4|0,1:1|0:0,0:0:0:0:
440,314,118992,6,0,B|465:283|465:283|443:211|443:211|375:202,1,155.400003793945,8|0,0:0|3:0,3:0:0:0:
327,243,119164,6,0,P|350:276|357:314,1,77.7000018969727,4|0,3:0|3:0,3:0:0:0:
512,112,119337,2,0,B|554:124|511:177|444:167|380:74|445:2,1,233.100005690918,4|0,3:3|1:3,3:3:0:0:
299,239,119682,6,0,B|305:219|305:219|361:207|384:145,1,116.550002845459,8|0,1:2|0:0,0:0:0:0:
448,59,119854,2,0,L|266:112,1,174.825004268189,0|0,1:0|0:0,0:0:0:0:
271,152,120027,6,0,B|243:31|-1:-47|-40:174|142:-33|281:88|212:278|177:271|65:248|87:201,1,543.900013278809,4|0,1:2|0:0,0:0:0:0:
16,164,120371,2,0,B|17:163|51:108|121:136,1,116.550002845459,8|0,1:2|0:0,0:0:0:0:
345,296,120544,6,8,B|342:285|342:285|303:271|295:225,1,77.7000018969727,4|0,3:0|3:0,0:0:0:0:
21,6,120716,2,0,B|-91:213|381:128|221:331,1,466.200011381836,2|0,0:2|0:0,0:0:0:0:
148,266,121061,6,0,B|71:317|2:222|-14:386|-14:386|68:260|115:406|160:272,1,466.200011381836,8|0,1:2|0:0,0:0:0:0:
436,372,121406,6,0,P|221:280|0:209,1,466.200011381836,4|0,1:2|0:0,0:0:0:0:
141,345,121751,2,0,B|149:366|149:366|197:383|197:383|235:349|235:349|229:319,1,155.400003793945,8|0,1:2|0:0,0:0:0:0:
495,176,121923,6,0,B|423:219|314:92|314:92|285:81|285:81|384:314|478:266,1,543.900013278809,4|0,1:2|0:0,0:0:0:0:
503,272,122268,2,0,B|540:239|540:239|479:266,1,116.550002845459,2|0,0:3|0:3,0:3:0:0:
329,361,122440,6,0,P|318:323|308:282,1,77.7000018969727,8|0,1:2|0:0,0:0:0:0:
166,207,122613,2,0,B|177:199|177:199|182:161|221:147,1,77.7000018969727,4|0,3:3|0:0,0:0:0:0:
417,30,122785,6,0,B|422:90|506:82|506:82|528:101|528:101|321:71|249:244,1,466.200011381836,4|0,1:2|0:0,0:0:0:0:
308,285,123130,2,0,B|302:304|302:304|341:348|341:348|340:291|340:291|321:282,1,155.400003793945,8|0,1:2|0:0,0:0:0:0:
62,220,123302,6,0,B|26:246|-21:234|-21:234|45:252|45:252|49:261|49:261|56:255|56:255|85:263|85:263|88:271|88:271|94:266|94:266|226:303,1,349.650008536377,0|0,1:0|0:0,0:0:0:0:
428,349,123647,2,0,L|458:356,2,19.4250004742432,0|0|0,3:0|3:0|3:0,0:0:0:0:
471,248,123820,6,0,B|518:257|518:257|427:282,1,116.550002845459,8|0,0:0|0:0,0:0:0:0:
280,353,123992,1,0,0:0:0:0:
271,368,124078,1,8,0:0:0:0:
288,369,124164,2,0,B|410:318|359:178|359:178|265:174|275:70,1,349.650008536377,4|0,1:0|0:0,0:0:0:0:
442,68,124509,6,0,B|424:48|424:48|362:63|362:63|354:106,1,116.550002845459,8|0,1:2|0:0,0:0:0:0:
429,147,124682,2,0,P|454:120|499:99,1,77.7000018969727,4|0,3:0|3:0,0:0:0:0:
277,83,124854,2,0,B|248:90|248:90|188:30|93:43,1,174.825004268189,4|0,3:0|0:0,0:0:0:0:
142,68,125027,6,0,L|160:114,1,38.8500009484863,0|0,1:0|0:0,0:0:0:0:
272,1,125199,1,8,1:2:0:0:
69,104,125371,2,0,B|62:138|62:138|60:134|60:134|62:137|62:137|55:181,1,77.7349975921319,4|0,3:0|0:0,0:0:0:0:
201,294,125544,6,0,B|87:297|17:114|17:114|46:132|46:132|81:247|135:183|134:251,1,466.200011381836,4|0,1:2|0:0,0:0:0:0:
52,309,125889,6,0,B|70:287|70:287|178:277|244:152,1,233.100005690918,8|0,1:2|3:0,0:0:0:0:
332,303,126147,1,0,3:0:0:0:
333,304,126233,2,0,B|348:316|348:316|434:310|484:375,1,174.825004268189,2|0,0:0|0:0,0:0:0:0:
505,346,126406,2,0,B|402:381,1,77.7000018969727,0|0,1:0|0:0,0:0:0:0:
277,354,126578,6,0,B|184:387|214:212|427:37|465:336|267:368,1,466.200011381836,8|0,1:2|0:2,1:2:0:0:
191,97,126923,6,0,L|185:75,1,23.1000007049561,4|0,1:1|0:0,0:0:0:0:
451,126,127268,2,0,B|488:151|488:151|458:207|516:268|516:268|486:261|486:261|421:68|267:142|267:142|267:49|110:2|110:2|295:-42|466:28|374:93,1,1087.80002655762,8|0,1:2|0:0,0:0:0:0:
492,50,127958,6,0,B|473:55|473:55,1,15.4000004699707,8|0,1:2|0:0,0:0:0:0:
391,164,128130,2,0,B|375:173|375:173|304:147,1,77.7000018969727,4|0,3:0|0:0,0:0:0:0:
29,89,128302,6,0,B|64:52|39:-21|39:-21|54:-18|54:-18|73:51|117:51,1,233.100005690918,4|0,3:2|3:0,3:0:0:0:
185,290,128647,2,0,B|246:305|296:232|296:232|209:199|194:94|250:42|250:42|243:24|243:24|132:75|249:202|127:210|127:210|44:377|44:377|117:225|70:192|70:192|113:179|97:128,1,1087.80002655762,8|0,1:2|0:0,0:0:0:0:
0,275,129337,6,0,B|19:300|19:300|226:271,1,233.100005690918,8|0,3:2|3:0,3:0:0:0:
478,125,129595,1,0,0:0:0:0:
478,125,129682,6,0,B|481:176|340:147|382:241|478:304|478:304|492:302|492:302|482:230|418:246,1,349.650008536377,4|0,1:2|0:0,0:0:0:0:
220,384,130027,6,0,B|232:355|232:355|317:318|306:224,1,174.825004268189,8|0,0:0|0:0,3:0:0:0:
322,252,130199,6,0,P|345:285|352:323,1,77.7000018969727,4|0,3:0|3:0,3:0:0:0:
267,172,130371,2,0,P|261:120|272:169,1,155.400003793945,8|0,3:0|1:3,0:0:0:0:
444,243,130717,6,0,B|434:207|434:207|336:175,1,116.550002845459,8|0,1:2|0:0,0:0:0:0:
196,54,130889,2,0,B|65:99|233:32|14:107,1,174.825004268189,0|0,1:0|0:0,0:0:0:0:
38,112,131061,6,0,B|-69:122|116:355|243:310|139:25|4:59,1,466.200011381836,4|0,1:0|0:0,0:0:0:0:
23,236,131406,2,0,B|59:270|-7:367|-7:367|0:385|0:385|75:238|300:208,1,466.200011381836,8|0,1:2|0:0,0:0:0:0:
419,129,131751,6,0,B|388:80|455:5|455:5|456:-22|456:-22|386:120|178:137,1,466.200011381836,8|0,1:2|0:0,0:0:0:0:
121,238,132095,6,0,B|6:272|-84:7|34:-54|200:170|126:236,1,466.200011381836,4|0,1:0|0:0,0:0:0:0:
471,265,132440,6,0,B|490:287|481:320|481:320|497:336|497:336|484:287|517:250|517:250|485:196|401:186|360:254|360:254|304:264,1,420,4|0,1:0|0:0,0:0:0:0:
242,219,132785,6,0,B|231:159|279:110|345:101|345:101|312:157|312:157|290:161,1,262.5,8|0,1:2|0:0,0:0:0:0:
424,380,133130,6,0,B|417:364|417:364|380:360|360:333|360:333|340:337,1,105.000004005432,0|0,3:0|0:0,0:0:0:0:
261,351,133302,2,0,L|254:318,1,26.2500010013581,0|0,1:0|0:0,0:0:0:0:
192,284,133475,2,0,L|303:264,1,113.750003254414,10|0,1:2|0:0,0:0:0:0:
365,176,133647,2,0,B|383:180|383:180|390:219|390:219|373:233,1,78.7500030040742,2|0,3:2|0:0,0:0:0:0:
185,361,133820,5,0,1:0:0:0:
25,167,133992,6,0,B|39:171|39:171|49:194|71:202,1,61.2500005841255
71,202,134164,2,0,B|94:114|94:114|91:107|91:107|99:75,1,131.25,8|0,1:2|0:0,0:0:0:0:
168,33,134337,2,0,B|184:53|184:53|176:83,1,52.5000020027161
165,178,134509,6,0,B|192:114|153:17|35:18|35:18|16:84,1,315.000012016297,0|0,3:0|0:0,0:0:0:0:
0,263,134854,6,0,B|31:274|56:253|56:253|62:253|62:253|89:229|82:197|82:197|229:141|229:141|239:129|239:129|315:103|364:159|360:208,1,472.500018024445,8|0,1:2|0:0,0:0:0:0:
351,294,135199,6,0,B|341:317|355:341|355:341|348:366|348:366|308:308|323:236|389:222|433:251|443:299|443:299|506:273|496:218,1,420,4|0,1:2|0:0,0:0:0:0:
473,141,135544,2,0,B|410:40|395:73|395:73|396:79|396:79|375:127|407:184|358:206,1,262.5,8|0,1:2|3:0,0:0:0:0:
205,265,135889,6,0,B|203:221|161:196|161:196|168:158,1,122.500001168251,0|0,3:0|0:0,0:0:0:0:
177,78,136061,2,0,L|205:67,1,26.2500010013581,0|0,1:0|0:0,0:0:0:0:
117,279,136234,6,0,L|0:248,1,113.750003254414,10|0,1:2|0:0,0:0:0:0:
82,115,136406,2,0,B|95:136|95:136|83:188,1,78.7500030040742,2|0,3:2|0:0,0:0:0:0:
68,373,136578,6,0,B|101:358|106:332|99:321|120:293|155:282|155:282|159:277|159:277|204:265,1,183.750001752377,0|0,1:0|0:0,0:0:0:0:
211,277,136751,2,0,B|219:292|219:292|252:300|269:328,1,78.7500030040742,0|0,3:0|0:0,0:0:0:0:
199,374,136923,6,0,L|99:4,1,367.500014019013,8|0,1:2|0:0,0:0:0:0:
29,10,137268,6,0,P|-20:36|12:82,1,125.999996154785,0|0,3:0|0:0,0:0:0:0:
82,115,137440,6,0,B|122:101|133:68|114:52|146:9|189:17|189:17|230:26,1,188.999994232178,0|0,1:0|0:0,0:0:0:0:
296,42,137613,6,0,L|333:50,1,37.8000009228516,12|0,1:2|0:0,0:0:0:0:
490,64,137958,6,0,B|477:38|436:23|397:45|386:90|413:132|456:137|456:137|299:183|299:183|322:160|323:128,1,420,4|0,1:0|0:0,0:0:0:0:
244,124,138302,5,8,1:2:0:0:
240,108,138475,1,0,0:0:0:0:
40,284,138647,6,0,B|-2:297|-2:297|29:240,1,105.000004005432,0|0,3:0|0:0,0:0:0:0:
90,199,138820,2,0,L|233:233,1,105.000004005432,0|0,1:0|0:0,0:0:0:0:
148,294,138992,6,0,B|115:308|115:308|110:325|97:338,1,70,10|0,1:2|0:0,0:0:0:0:
90,199,139164,2,0,B|123:185|123:185|128:168|141:156,1,70,2|0,3:2|0:0,0:0:0:0:
259,294,139337,6,0,B|279:320|279:320|225:308,1,87.5,0|0,1:0|0:0,0:0:0:0:
43,84,139509,2,0,L|60:124,1,43.75,0|0,3:0|0:0,0:0:0:0:
0,382,139682,6,0,B|33:369|39:341|23:314|71:291|71:291|73:287|73:287|193:233|193:233|152:252|148:296,1,336,8|0,1:2|0:0,0:0:0:0:
174,367,140027,6,0,B|186:366|198:389|177:425|113:397|121:321|145:290|193:280|235:291|235:291|241:297|241:297|399:335,1,377.999988464356,0|0,3:0|0:0,0:0:0:0:
505,182,140371,6,0,B|529:140|529:140|394:204|394:204|423:276,1,251.999992309571,12|0,1:2|0:0,0:0:0:0:
322,356,140716,6,0,B|424:381|424:381|300:84,1,420,4|0,1:0|0:0,0:0:0:0:
303,91,141061,2,0,B|410:12|410:12|370:168,1,293.999991027832,8|0,1:2|3:0,0:0:0:0:
500,322,141406,6,0,L|468:313,1,26.2500010013581,0|0,3:0|0:0,0:0:0:0:
247,171,141578,2,0,L|268:220,1,52.5000020027161,0|0,1:0|0:0,0:0:0:0:
183,307,141751,6,0,B|201:312|201:312|258:296,1,78.7500030040742,10|0,1:2|0:0,0:0:0:0:
418,254,141923,2,0,L|460:241,1,35,2|0,3:2|0:0,0:0:0:0:
370,167,142095,6,0,B|389:209|389:209|388:215|388:215|402:249|394:283|381:285|364:305|374:340,1,183.750001752377,0|0,1:0|0:0,0:0:0:0:
395,347,142268,2,0,B|389:330|389:330|358:317|346:285,1,78.7500030040742
451,79,142440,6,0,B|472:64|474:40|474:40|532:62|559:120|548:207|482:274|427:253|384:197|425:141|425:141|448:106|404:54|329:40|250:81|218:173|282:261|351:232|377:194|367:156,1,787.500030040742,8|0,1:2|0:0,0:0:0:0:
343,30,142958,6,0,B|350:24|356:10|356:10|355:42|375:63,1,78.7500030040742,0|0,1:0|0:0,0:0:0:0:
451,243,143130,6,0,B|417:239|400:203|400:203|152:148,1,315.000012016297,12|0,1:2|0:0,0:0:0:0:
68,129,143475,6,0,B|32:176|56:233|138:214|131:150|80:126|80:126|33:103|36:41|67:-4|117:6|117:6|93:17|83:41,1,420,4|0,1:0|0:0,0:0:0:0:
172,61,143820,6,0,B|169:69|169:69|145:76,1,26.2500010013581,8|0,1:2|0:0,0:0:0:0:
0,295,143992,2,0,L|66:274,1,70
180,258,144164,6,0,B|174:252|174:252|171:234|171:234|180:250|180:250|180:258,1,52.5000020027161,0|0,3:0|0:0,0:0:0:0:
280,279,144337,6,0,B|279:265|279:265|283:257|283:257|293:249|293:249|294:262|294:262|290:270|290:270|280:279,1,70,0|0,1:0|0:0,0:0:0:0:
424,373,144509,6,0,B|404:387|404:387|329:360,1,105.000004005432,10|0,1:2|0:0,0:0:0:0:
327,176,144682,6,0,B|322:159|322:159|342:140|342:140|341:167|341:167|327:176,1,87.5,2|0,3:2|0:0,0:0:0:0:
209,359,144854,5,0,1:0:0:0:
369,245,145027,6,0,B|383:242|383:242|395:220|417:214,1,61.2500005841255,0|0,3:0|3:0,0:0:0:0:
487,157,145199,2,0,B|456:242|456:242|458:249|458:249|448:281,1,131.25,8|0,1:2|0:0,0:0:0:0:
489,295,145372,2,0,B|463:301|463:301|448:280,1,52.5000020027161
237,146,145544,6,0,B|259:118|251:82|251:82|363:87|387:194|387:194|368:212|369:246,1,315.000012016297,0|0,3:0|0:0,0:0:0:0:
180,258,145889,6,0,B|154:236|160:204|160:204|157:199|157:199|164:163|196:153|196:153|198:148|198:148|246:103|191:52|191:52|185:53|185:53|134:11|91:41|87:74|87:74|90:78|90:78|73:129|116:156,1,472.500018024445,12|0,1:2|0:0,0:0:0:0:
263,250,146233,6,0,B|281:259|281:259|286:301|323:320|323:320|265:325|240:279|240:279|233:277|233:277|211:231|123:241|94:306|94:306|96:346|66:368,1,440.999986541749,4|0,1:0|0:0,0:0:0:0:
17,309,146578,2,0,B|18:278|-3:257|-3:257|91:239|173:288|172:372,1,293.999991027832,8|0,1:2|3:0,0:0:0:0:
117,156,146923,6,0,B|139:110|191:106|191:106|204:77,1,122.500001168251,0|0,3:0|0:0,0:0:0:0:
212,5,147095,2,0,L|186:0,1,26.2500010013581,0|0,1:0|0:0,0:0:0:0:
41,170,147268,6,0,B|34:136|53:110|53:110|43:60,1,113.750003254414,10|0,1:2|0:0,0:0:0:0:
108,2,147440,2,0,L|128:91,1,78.7500030040742,2|0,3:2|0:0,0:0:0:0:
194,285,147613,6,0,B|186:217|110:209|110:209|93:237|62:244,1,183.750001752377,0|0,1:0|0:0,0:0:0:0:
17,309,147786,2,0,B|28:337|59:350|59:350|65:367,1,78.7500030040742,0|0,3:0|0:0,0:0:0:0:
171,367,147958,6,0,B|141:357|141:357|126:302|126:302|399:199,1,367.500014019013,8|0,1:2|0:0,0:0:0:0:
457,237,148302,2,0,P|465:298|413:300,1,125.999996154785,0|0,3:0|0:0,0:0:0:0:
349,345,148475,6,0,B|308:339|290:309|305:289|265:257|224:272|224:272|187:286,1,188.999994232178,0|0,1:0|0:0,0:0:0:0:
65,367,148648,6,0,L|54:327,1,37.8000009228516,12|0,1:2|0:0,0:0:0:0:
63,243,148992,6,0,B|62:275|103:310|143:297|170:260|161:216|133:188|133:188|354:106,1,420,4|0,1:0|0:0,0:0:0:0:
419,8,149337,6,0,B|409:32|409:32|420:58|411:83,1,78.7500030040742,8|0,1:2|0:0,0:0:0:0:
490,65,149509,2,0,P|486:98|474:128,1,61.2500005841255
437,193,149682,6,0,B|452:225|452:225|383:202,1,105.000004005432,0|0,3:0|0:0,0:0:0:0:
271,309,149854,2,0,L|313:192,1,105.000004005432,0|0,1:0|0:0,0:0:0:0:
340,111,150027,6,0,B|315:89|315:89|330:145,1,70,10|0,1:2|0:0,0:0:0:0:
351,315,150199,2,0,B|364:320|364:320|401:304|401:304|406:290,1,70,2|0,3:2|0:0,0:0:0:0:
247,157,150371,6,0,L|171:131,1,70,0|0,1:0|0:0,0:0:0:0:
193,284,150544,2,0,L|152:300,1,43.75
1,75,150716,6,0,B|25:124|83:98|83:98|85:94|85:94|205:40|205:40|162:79|182:141,1,336,8|0,1:2|0:0,0:0:0:0:
93,252,151061,6,0,B|65:132|65:132|160:160|160:160|166:166|166:166|314:212,1,377.999988464356,0|0,3:0|0:0,0:0:0:0:
470,225,151406,6,0,B|478:194|478:194|483:191|483:191|494:148|494:148|491:143|491:143|502:105|459:93|472:47|472:47|459:93|417:82|406:121|406:121|401:123|401:123|390:166|390:166|393:171|393:171|382:209,1,377.999988464356,8|0,1:2|0:0,0:0:0:0:
377,384,151751,5,4,1:2:0:0:
351,315,152095,5,8,3:1:0:0:
269,278,152440,5,0,3:0:0:0:
179,134,152785,5,8,3:1:0:0:
79,365,153130,6,0,L|69:392,6,20.9999993591309,2|0|0|0|0|0|0,3:2|3:0|3:0|3:0|3:0|3:0|3:0,3:0:0:0:
157,347,153475,6,0,B|152:302|118:279|73:270|40:310|4:194|98:55|157:34|157:34|145:61|145:61|113:76|90:107|87:150|119:168|90:224,1,603.750023031236,8|0,3:1|0:0,0:0:0:0:
91,220,154509,5,0,0:0:0:0:
41,166,155889,5,0,0:0:0:0:
18,235,157268,5,0,0:0:0:0:
26,238,158647,1,2,0:2:0:0:
480,0,160027,5,0,0:0:0:0:
419,80,161406,5,0,0:0:0:0:
495,145,162785,5,0,0:0:0:0:
340,215,165544,6,0,B|393:172|419:236|419:236,1,98
343,292,166923,6,0,B|279:266|321:212|321:212,1,98
409,251,168302,6,0,B|418:318|350:309|350:309,1,98
351,309,169682,1,2,0:2:0:0:
98,367,171061,6,0,B|58:355|79:338|14:320,1,98
189,298,172440,6,0,B|148:307|158:282|92:299,1,98
233,192,173820,6,0,B|202:220|198:193|150:241,1,98
72,120,175889,6,0,P|36:69|-7:-27,1,140,2|2,3:3|3:3,0:0:0:0:
8,377,176578,6,0,B|25:292|207:358|235:249,1,280,4|10,1:0|1:2,0:0:0:0:
171,207,177440,1,0,3:0:0:0:
136,274,177613,2,0,L|157:346,1,70,2|0,3:2|0:0,0:0:0:0:
324,372,177958,6,0,L|330:333,1,35,2|0,3:2|0:2,0:0:0:0:
252,342,178302,1,2,1:2:0:0:
463,353,178647,6,0,B|568:272|432:254,1,168,10|0,1:2|0:0,0:0:0:0:
411,266,178992,2,0,B|375:245|375:245|390:174,1,112,2|0,0:2|0:0,0:0:0:0:
448,17,179337,6,0,B|443:35|443:35|379:46|343:101,2,140,2|0|8,1:2|3:0|1:2,0:0:0:0:
422,92,180199,1,0,3:0:0:0:
470,155,180371,2,0,P|507:144|545:139,1,70
451,295,180716,6,0,P|416:287|382:284,1,70,0|8,3:0|0:2,0:0:0:0:
328,228,181061,1,0,1:0:0:0:
260,268,181233,1,0,1:0:0:0:
111,174,181406,2,0,B|128:158|128:158|101:61,1,112,8|0,1:2|0:0,0:0:0:0:
65,10,181751,2,0,P|21:21|32:74,1,105,0|0,3:0|0:0,0:0:0:0:
115,82,182095,6,0,B|197:70|282:116|313:172|287:238|249:241,1,280,4|10,1:0|1:2,0:0:0:0:
199,193,182958,1,0,3:0:0:0:
156,259,183130,2,0,P|176:319|180:347,1,70,2|0,0:2|0:0,0:0:0:0:
64,311,183475,6,0,P|75:324|82:341,1,35,2|0,3:2|0:0,0:0:0:0:
8,368,183820,1,2,1:2:0:0:
43,108,184164,6,0,B|52:132|52:132|134:130|197:203,1,168,10|0,1:2|0:0,0:0:0:0:
209,198,184509,2,0,P|266:171|258:128,1,112,2|0,0:2|0:0,0:0:0:0:
196,0,184854,6,0,B|188:81|152:36|134:128,2,140,2|0|8,1:2|3:0|1:2,0:0:0:0:
127,39,185716,1,0,3:0:0:0:
245,119,185889,2,0,P|290:107|318:105,1,70,0|0,3:0|0:0,0:0:0:0:
366,49,186233,5,0,3:0:0:0:
277,204,186578,1,0,1:0:0:0:
381,368,186923,2,0,B|398:365|398:365|417:293|417:293|409:274,1,112,8|0,1:2|3:0,0:0:0:0:
496,350,187182,1,0,3:0:0:0:
481,358,187268,2,0,P|411:312|329:317,1,168,2|0,3:2|0:0,0:0:0:0:
425,280,187613,6,0,B|417:188|551:216|515:46|476:26,1,280,4|8,1:0|1:2,0:0:0:0:
413,66,188475,1,0,3:0:0:0:
446,137,188647,2,0,P|479:145|512:158,1,70,2|0,3:2|3:0,0:0:0:0:
328,232,188992,6,0,P|350:225|363:223,1,35,2|0,3:2|0:0,0:0:0:0:
416,278,189337,1,2,1:2:0:0:
280,363,189682,6,0,B|267:284|187:274|154:318|190:335,1,168,8|0,1:2|0:0,0:0:0:0:
242,275,190027,2,0,P|226:212|217:128,1,112,2|0,0:2|0:0,0:0:0:0:
205,15,190371,6,0,P|226:74|281:46,2,140,2|0|8,1:2|3:0|1:2,0:0:0:0:
224,108,191233,1,0,3:0:0:0:
149,129,191406,2,0,P|96:108|60:99,1,70,0|0,3:0|0:0,0:0:0:0:
0,208,191751,6,0,P|33:223|46:252,1,70,0|8,0:0|0:2,0:0:0:0:
22,327,192095,1,0,1:0:0:0:
100,306,192268,1,0,1:0:0:0:
265,373,192440,2,0,B|342:359|301:319|438:303,1,168,8|0,1:2|0:0,0:0:0:0:
445,322,192785,2,0,P|430:283|425:243,1,70,2|0,3:2|0:0,0:0:0:0:
466,44,193130,6,0,B|513:92|477:154|320:109|305:215|348:238,1,280,4|8,1:0|1:2,0:0:0:0:
402,181,193992,1,0,3:0:0:0:
354,116,194164,2,0,P|305:129|275:138,1,70,2|0,3:2|0:0,0:0:0:0:
166,56,194509,6,0,L|125:66,1,35,2|0,0:2|0:0,0:0:0:0:
63,28,194854,1,2,1:2:0:0:
239,15,195199,6,0,B|224:71|224:71|183:102|183:102|168:160,1,168,10|0,1:2|0:0,0:0:0:0:
151,173,195544,2,0,P|192:216|206:265,1,112,2|0,3:2|0:0,0:0:0:0:
64,342,195889,6,0,L|-20:379,2,70,0|0|8,1:0|3:0|0:2,0:0:0:0:
64,342,196406,2,0,L|28:306,1,35,0|0,3:0|3:0,0:0:0:0:
104,270,196578,2,0,L|99:224,1,35,0|0,3:0|3:0,0:0:0:0:
9,207,196751,1,0,3:0:0:0:
70,160,196923,1,0,3:0:0:0:
31,84,197095,1,8,0:2:0:0:
96,36,197268,6,0,L|201:82,1,105,0|0,1:0|0:0,0:0:0:0:
188,90,197613,2,0,L|266:69,1,70,8|0,0:2|3:0,0:0:0:0:
294,141,197871,1,0,3:0:0:0:
294,141,197958,2,0,L|346:158,1,35,0|0,3:0|0:0,0:0:0:0:
459,88,198130,1,0,3:0:0:0:
432,71,198216,1,0,3:0:0:0:
431,99,198302,1,0,3:0:0:0:
422,219,198475,1,8,0:2:0:0:
508,349,198647,6,0,P|500:311|500:274,2,70,0|0|8,1:0|3:0|3:2,0:0:0:0:
431,383,199164,2,0,P|403:344|392:313,2,70,0|0|0,3:0|3:0|1:0,0:0:0:0:
508,349,199682,5,0,3:0:0:0:
335,257,199854,1,8,3:2:0:0:
223,328,200027,6,0,P|195:310|161:299,1,70,0|0,1:0|3:0,0:0:0:0:
172,208,200371,2,0,P|138:215|106:231,1,70,8|0,3:2|3:0,0:0:0:0:
49,159,200716,2,0,P|30:187|19:221,1,70,0|0,3:2|1:0,0:0:0:0:
82,305,201061,5,0,3:0:0:0:
0,384,201233,1,8,3:2:0:0:
174,207,201406,6,0,L|194:123,2,70,0|0|8,1:0|3:0|3:2,0:0:0:0:
32,135,201923,2,0,L|52:51,2,70,0|0|0,3:0|3:0|1:0,0:0:0:0:
0,6,202440,5,0,3:0:0:0:
115,127,202613,1,8,3:2:0:0:
235,76,202785,5,0,1:0:0:0:
314,61,202958,1,0,3:0:0:0:
362,126,203130,1,8,3:2:0:0:
285,138,203302,1,0,3:0:0:0:
235,76,203475,1,0,3:0:0:0:
314,61,203647,5,0,1:0:0:0:
335,199,203820,1,0,3:0:0:0:
442,121,203992,1,8,3:2:0:0:
507,68,204164,6,0,P|498:34|498:0,2,70,0|0|8,1:0|3:0|3:2,0:0:0:0:
362,126,204682,2,0,P|337:101|319:71,2,70,0|0|0,3:0|3:0|1:0,0:0:0:0:
497,208,205199,5,0,3:0:0:0:
374,313,205371,1,8,3:2:0:0:
493,369,205544,6,0,B|482:331|462:344|448:297,1,70,0|0,1:0|3:0,0:0:0:0:
469,228,205889,2,0,B|430:218|431:242|384:230,1,70,8|0,3:2|3:0,0:0:0:0:
337,180,206233,2,0,B|309:208|330:219|297:254,1,70,0|0,3:0|1:0,0:0:0:0:
371,314,206578,5,0,3:2:0:0:
223,261,206751,1,8,3:2:0:0:
112,373,206923,6,0,L|29:354,2,70,0|0|8,1:0|3:0|3:2,0:0:0:0:
93,204,207440,2,0,L|10:185,2,70,0|0|0,3:0|3:0|1:2,0:0:0:0:
70,281,207958,5,0,3:0:0:0:
207,154,208130,1,8,3:2:0:0:
46,48,208302,5,0,1:0:0:0:
69,122,208475,1,0,3:0:0:0:
143,99,208647,1,8,3:2:0:0:
122,25,208820,1,0,3:0:0:0:
95,75,208992,1,0,3:0:0:0:
208,154,209164,5,0,1:0:0:0:
284,90,209337,1,0,3:0:0:0:
235,0,209509,1,8,1:2:0:0:
389,78,209682,6,0,L|467:52,2,70,0|0|8,1:0|3:0|1:2,0:0:0:0:
389,78,210199,2,0,L|366:128,1,35,0|0,3:0|3:0,0:0:0:0:
496,148,210371,2,0,L|473:198,1,35,0|0,3:0|3:0,0:0:0:0:
406,187,210544,5,0,1:0:0:0:
353,247,210716,1,0,3:0:0:0:
411,301,210889,1,8,3:2:0:0:
286,351,211061,6,0,P|248:335|216:323,1,70,0|0,1:0|3:0,0:0:0:0:
433,281,211406,2,0,P|471:297|503:309,1,70,8|0,3:2|3:0,0:0:0:0:
505,320,211664,1,0,3:0:0:0:
495,331,211751,2,0,L|475:373,1,35,0|0,3:0|3:0,0:0:0:0:
397,346,211923,5,0,1:0:0:0:
387,200,212095,1,0,3:0:0:0:
251,244,212268,1,8,3:2:0:0:
324,279,212440,6,0,P|299:236|291:211,2,70,0|0|8,1:0|3:0|3:2,0:0:0:0:
324,279,212958,2,0,L|313:332,1,35,0|0,3:0|3:0,0:0:0:0:
172,291,213130,2,0,L|161:344,1,35,0|0,3:0|3:0,0:0:0:0:
225,379,213302,5,0,1:0:0:0:
93,286,213475,1,0,3:0:0:0:
3,344,213647,1,8,3:2:0:0:
82,271,213820,6,0,L|102:188,1,70,0|0,1:0|3:0,0:0:0:0:
16,0,214164,2,0,L|-4:83,1,70,8|0,3:2|3:0,0:0:0:0:
12,85,214423,1,0,3:0:0:0:
50,93,214509,1,0,3:0:0:0:
67,84,214595,1,0,3:0:0:0:
76,70,214682,5,0,1:0:0:0:
92,196,214854,1,0,3:0:0:0:
224,138,215027,1,8,1:2:0:0:
139,129,215199,5,2,3:2:0:0:
0,225,215544,2,0,P|37:229|108:311,1,146.999995513916,2|2,3:2|0:2,0:0:0:0:
50,361,216233,2,0,P|23:369|-1:378,1,48.9999985046387,0|0,3:0|0:0,0:0:0:0:
135,233,216578,5,2,3:2:0:0:
315,349,216923,2,0,B|388:327|349:297|440:274,1,146.999995513916,2|2,3:2|2:0,0:0:0:0:
491,384,217958,6,0,P|435:295|274:22,1,420,2|0,3:2|3:0,0:0:0:0:
300,36,220113,1,0,3:0:0:0:
276,75,220199,1,0,3:0:0:0:
347,104,220285,1,0,3:0:0:0:
352,190,220371,6,0,P|313:249|341:184,1,210,2|0,0:2|0:0,0:0:0:0:
394,314,220716,6,0,L|403:318,1,10.5,4|0,1:0|0:0,0:0:0:0:
511,352,221061,6,0,B|512:345|512:345|504:341|504:341|487:390|406:380|406:380|479:290|401:193|401:193|382:233|334:228|334:228|346:233|354:243|354:243|317:126|188:86|92:167|92:167|82:106|26:91|26:91|20:67|-17:45|-17:45|47:93|114:165|268:78|156:2,1,1247.75000951958,12|0,1:2|0:0,0:0:0:0:
99,32,222095,6,0,B|90:41|90:41|34:49|14:122,1,108.500000827789,0|0,1:0|0:0,0:0:0:0:
6,323,222268,2,0,L|25:376,1,56,0|0,3:3|0:0,0:0:0:0:
19,97,223130,5,2,0:3:0:0:
134,197,223475,6,0,B|143:201|143:201|137:211|137:211|99:183|10:159|-44:290|47:346|92:307|79:281,1,271.250002069473,4|0,1:0|0:0,0:0:0:0:
93,285,223733,5,0,0:0:0:0:
63,218,223820,2,0,B|58:186|28:180|28:180|23:206|52:225,1,94.5000003604889,8|0,1:2|3:0,0:0:0:0:
150,349,223992,1,0,3:0:0:0:
170,365,224078,1,0,1:0:0:0:
235,366,224164,1,0,0:0:0:0:
276,305,224251,5,0,3:0:0:0:
202,289,224337,2,0,P|226:294|254:329,1,62.9999980773926,0|0,1:0|0:0,0:0:0:0:
512,214,224509,6,1,B|488:208|488:208|461:235|461:235|457:267|457:267|416:290|416:290|380:274,1,178.500003404617,8|0,1:2|0:0,0:0:0:0:
400,266,224682,5,0,3:0:0:0:
455,311,224768,2,0,P|434:331|445:304,1,80.5000015354157,0|0,1:0|3:0,0:0:0:0:
252,135,224940,5,0,3:0:0:0:
320,200,225027,2,0,P|298:227|304:193,1,94.5000003604889,0|0,1:0|0:0,0:0:0:0:
364,17,225199,6,0,B|420:-12|493:52|493:52|474:52|453:64|453:64|391:65|351:116|371:138,1,306.250002920628,8|0,1:2|0:0,0:0:0:0:
374,143,225458,1,0,1:0:0:0:
395,165,225544,1,0,3:0:0:0:
446,168,225630,1,0,3:0:0:0:
493,123,225716,6,0,B|500:104|500:104|478:59|478:59|447:57,1,94.5000003604889,0|0,1:0|0:0,0:0:0:0:
221,20,225889,6,0,P|181:138|257:33,1,367.500014019013,8|0,1:2|0:0,0:0:0:0:
119,75,226233,6,0,L|79:87,1,42,4|0,1:0|0:0,0:0:0:0:
156,211,226578,6,0,B|227:220|254:285|254:285|271:287|271:287|203:204|230:110|230:110|205:140|175:139|175:139|136:202|47:266|-83:150|-50:31|40:9|40:9|0:27|3:65|3:65|-24:127|7:193|78:192|87:149,1,1050,4|0,1:2|0:0,0:0:0:0:
152,66,227268,6,0,P|148:53|140:42,1,28,8|0,1:2|0:0,0:0:0:0:
191,253,227440,6,0,P|180:278|162:300,1,56,0|0,3:0|3:0,0:0:0:0:
270,0,227613,6,0,B|335:23|316:78|386:79|386:79|377:86|377:86|287:37|160:99|217:204|271:204|282:184,1,428.750004088879,0|0,1:0|0:0,0:0:0:0:
386,185,227958,2,0,B|365:120|306:115|306:115|355:132|350:188,1,189.000000720978,8|0,1:2|3:0,0:0:0:0:
377,47,228216,6,0,B|377:30|377:30|405:-16,2,52.5000020027161,8|0|8,1:2|0:0|1:2,0:0:0:0:
275,189,228475,1,0,3:0:0:0:
267,199,228561,1,0,1:0:0:0:
275,201,228647,6,0,L|298:284,1,85.7499973831178,8|0,1:2|0:0,0:0:0:0:
232,361,228992,6,0,B|242:371|242:371|255:363|255:363|222:284|294:180|444:219|447:389|339:382|326:347,1,379.750002897263,0|0,1:0|0:0,0:0:0:0:
372,238,229337,2,0,B|383:215|423:217|423:217|389:224|372:265,1,119.000002269745,8|0,1:2|0:0,0:0:0:0:
450,308,229509,5,0,3:0:0:0:
489,370,229595,2,0,P|447:350|434:320,1,62.9999980773926,0|0,1:0|0:0,0:0:0:0:
301,182,229768,1,0,3:0:0:0:
256,153,229854,1,0,1:0:0:0:
189,166,229940,1,0,3:0:0:0:
146,224,230027,6,0,B|118:222|118:222|88:246|88:246|78:295|78:295|42:316|42:316|2:305,1,178.500003404617,8|0,1:2|0:0,0:0:0:0:
47,240,230199,2,0,P|74:222|56:245,1,87.5,0|0,3:0|3:0,0:0:0:0:
187,350,230371,5,0,1:0:0:0:
115,384,230458,1,0,3:0:0:0:
145,377,230544,6,0,L|170:288,1,80.5000015354157,0|0,1:0|0:0,0:0:0:0:
78,4,230716,2,0,B|70:9|70:9|37:-19|-25:44|-25:44|52:4|140:54|105:118,1,306.250002920628,8|0,1:2|0:0,0:0:0:0:
81,149,230975,1,0,3:0:0:0:
13,159,231061,6,0,P|10:132|26:104,1,52.5000020027161,0|0,3:0|3:0,0:0:0:0:
173,10,231233,2,0,B|208:-16|240:-4|240:-4|195:9|180:57,1,146.999995513916,0|0,1:0|0:0,0:0:0:0:
207,44,231406,5,8,1:2:0:0:
218,79,231492,1,2,3:2:0:0:
275,119,231578,2,0,P|281:115|288:106,1,17.5,2|0,3:2|0:0,0:0:0:0:
360,149,231664,2,0,P|368:130|367:95,1,41.9999987182618,2|0,3:2|0:0,0:0:0:0:
512,138,231751,6,0,P|507:102|490:70,1,73.4999977569581,4|0,1:0|0:0,0:0:0:0:
433,0,232095,6,0,B|451:-12|478:-3|478:-3|444:0|424:33,1,108.500000827789,8|0,1:2|0:0,0:0:0:0:
125,291,232268,2,0,B|109:298|109:298|61:275|13:315|40:388|40:388|28:387|28:387|-5:259|74:221|161:266|184:147|-24:16|-24:16|-17:15|-17:15|19:55|64:61|64:61|63:135,1,808.499975326539,0|0,3:0|0:0,0:0:0:0:
0,163,232785,2,0,B|23:227|82:193|82:193,1,97.9999970092774,8|0,1:2|0:0,0:0:0:0:
96,0,232958,6,0,B|19:-13|18:64|18:64,1,108.500000827789,0|0,3:0|3:0,0:0:0:0:
274,315,233130,2,0,L|337:333,1,62.9999980773926,4|0,1:0|0:0,0:0:0:0:
215,357,233475,6,0,B|139:389|139:389|182:334,1,141.750000540733,8|0,1:2|0:0,0:0:0:0:
148,271,233647,6,0,B|199:289|222:369|222:369|267:314|354:336,1,251.999992309571,0|0,3:0|0:0,0:0:0:0:
481,322,233992,1,0,3:0:0:0:
486,326,234078,1,0,3:0:0:0:
478,331,234164,2,0,L|484:363,6,17.5,8|0|0|0|0|0|0,1:2|0:0|0:0|0:0|3:0|0:0|3:0,0:0:0:0:
486,243,234509,6,0,B|475:281|509:305|509:305|505:308|505:308|430:239|343:258|277:352|389:429|409:368,1,379.750002897263,4|0,1:0|0:0,0:0:0:0:
409,282,234854,2,0,B|415:256|415:256|384:190,1,94.5000003604889,8|0,1:2|3:0,0:0:0:0:
512,0,235027,1,0,3:0:0:0:
497,26,235113,1,0,1:0:0:0:
451,43,235199,1,0,3:0:0:0:
400,100,235285,5,0,0:0:0:0:
461,165,235371,2,0,B|475:163|475:163|488:130|488:130|476:117,1,62.9999980773926,0|0,1:0|0:0,0:0:0:0:
247,9,235544,2,0,B|187:19|187:84|187:84|210:45|248:50,1,178.500003404617,8|0,1:2|0:0,0:0:0:0:
299,92,235716,5,0,3:0:0:0:
241,145,235802,2,0,P|202:99|207:68,1,80.5000015354157,0|0,1:0|3:0,0:0:0:0:
96,242,235975,5,0,3:0:0:0:
38,295,236061,2,0,P|-1:249|6:201,1,94.5000003604889,0|0,1:0|0:0,0:0:0:0:
95,0,236233,6,0,B|124:24|168:31|168:31|172:40|186:54|186:54|125:11|18:75|66:131,1,306.250002920628,8|0,1:2|0:0,0:0:0:0:
93,127,236492,5,0,1:0:0:0:
34,70,236578,2,0,B|28:38|28:38|2:54|2:54|9:74|9:74|19:77,1,83.9999974365235,0|0,3:0|3:0,0:0:0:0:
140,306,236751,2,0,B|171:332|211:314|211:314|171:306|152:270,1,125.999996154785,0|0,1:0|0:0,0:0:0:0:
96,242,236923,6,0,P|106:215|134:197,6,47.2500001802444,8|0|0|0|0|0|0,1:2|0:0|0:0|0:0|3:2|0:0|0:0,0:0:0:0:
412,384,237268,6,0,B|420:387|420:387|462:372,1,49,4|0,1:0|0:0,0:0:0:0:
440,267,237613,6,0,B|446:388|471:295|520:358|515:390|515:390|523:379|523:379|527:302|313:199|405:355|304:405|167:348|191:53|407:100|407:100|406:108|406:108|290:101|256:232|362:259|377:218,1,1050,12|0,1:2|0:0,0:0:0:0:
367,155,238302,6,0,L|354:130,1,28,8|0,1:2|0:0,0:0:0:0:
234,268,238475,6,0,L|209:213,1,56,0|0,3:0|3:0,0:0:0:0:
400,54,238647,6,0,B|448:-5|541:17|541:17|443:5|413:106,1,306.250002920628,0|0,1:0|0:0,0:0:0:0:
389,128,238906,1,0,3:0:0:0:
321,147,238992,2,0,P|260:158|312:92,1,189.000000720978,8|0,1:2|3:0,0:0:0:0:
453,175,239251,6,0,B|456:187|456:187|483:196|483:196|499:185,2,52.5000020027161,8|0|8,1:2|0:0|1:2,0:0:0:0:
237,45,239509,1,0,3:0:0:0:
237,38,239595,1,0,1:0:0:0:
242,41,239682,6,0,B|226:54|226:54|192:51|158:76,1,85.7499973831178,8|0,1:2|0:0,0:0:0:0:
71,121,240027,6,0,B|76:82|46:50|1:62|1:62|-6:56|-6:56|108:12|197:101|143:182,1,379.750002897263,4|0,1:0|0:0,0:0:0:0:
176,249,240371,6,0,B|233:280|233:280|205:222,1,119.000002269745,8|0,1:2|3:0,0:0:0:0:
16,173,240544,1,0,3:0:0:0:
13,253,240630,6,0,P|37:250|68:222,1,62.9999980773926,0|0,1:0|0:0,0:0:0:0:
253,155,240802,1,0,3:0:0:0:
306,155,240889,1,0,1:0:0:0:
354,217,240975,1,0,3:0:0:0:
375,313,241061,6,0,B|501:376|501:376|471:283,1,238.00000453949,8|0,1:2|3:0,0:0:0:0:
496,299,241320,5,0,3:0:0:0:
433,359,241406,2,0,L|333:388,1,87.5,0|0,1:0|3:0,0:0:0:0:
396,147,241578,2,0,B|417:90|481:102|481:102|438:117|436:155,1,178.500003404617,0|0,1:0|0:0,0:0:0:0:
488,201,241751,6,0,L|468:136,1,62.9999980773926,8|0,1:2|0:0,0:0:0:0:
211,384,242095,2,0,L|191:319,1,62.9999980773926,8|0,1:2|0:0,0:0:0:0:
325,378,242440,6,0,L|322:381,1,3.5,2|0,0:2|0:0,0:0:0:0:
280,311,242527,2,0,P|275:315|273:320,1,10.4999996795654,2|0,0:2|0:0,0:0:0:0:
210,273,242613,2,0,P|204:277|197:286,1,17.5,2|0,0:2|0:0,0:0:0:0:
103,263,242699,2,0,P|95:282|96:317,1,41.9999987182618,2|0,0:2|0:0,0:0:0:0:
0,356,242785,6,0,P|23:365|11:348,1,62.9999980773926,2|0,0:2|0:0,0:0:0:0:
118,252,243130,1,8,1:2:0:0:
85,239,243216,1,0,3:0:0:0:
67,165,243302,1,0,3:0:0:0:
110,78,243389,6,0,B|143:59|143:59|105:119,1,87.5,0|2,3:0|3:0,0:0:0:0:
162,332,243561,1,0,3:0:0:0:
219,348,243647,2,0,B|238:372|238:372|168:353,1,83.9999974365235,0|0,1:0|0:0,0:0:0:0:
0,218,243820,6,0,B|77:93|247:82|247:82|248:86|248:86|210:114|219:166,1,367.500003504753,8|0,1:2|0:0,0:0:0:0:
378,99,244164,2,0,B|435:100|460:163|460:163|465:159|465:159|456:91|396:72,1,232.749993784905,4|0,1:0|0:0,0:0:0:0:
355,82,244509,5,8,1:2:0:0:
335,127,244595,1,2,3:2:0:0:
384,185,244682,1,2,3:2:0:0:
488,89,244768,6,0,B|462:80|462:80|406:114,1,89.249998808384,2|2,3:2|3:2,0:0:0:0:
127,119,244940,1,0,3:0:0:0:
154,45,245027,2,0,B|203:27|203:27|165:98,1,117.250000447273,0|0,3:0|3:0,0:0:0:0:
0,233,245199,6,0,B|-58:142|76:63|142:119|58:200|17:101,1,251.999992309571,8|0,1:2|3:0,0:0:0:0:
472,384,245889,6,0,B|526:341|496:281|449:310|449:310|443:306|443:306|363:365|312:239|437:137|546:144|476:244,1,440.999986541749,8|0,1:2|1:0,0:0:0:0:
415,231,246233,2,0,B|394:234|394:234|368:204|313:198,1,108.500000827789,0|0,3:0|0:0,0:0:0:0:
236,313,246406,2,0,B|201:341|201:341|267:313,1,105.000004005432,0|0,1:0|0:0,0:0:0:0:
470,44,246578,6,0,B|337:1|337:1|435:155,1,306.25,8|0,1:2|0:0,0:0:0:0:
507,162,246923,2,0,B|513:181|513:181|349:177|254:320,1,304.500009292603,0|0,1:0|3:0,0:0:0:0:
385,332,247268,2,0,B|399:337|408:358|408:358|405:315|345:300,1,97.9999970092774,8|0,1:2|0:0,0:0:0:0:
50,246,247440,5,0,3:0:0:0:
37,270,247527,1,0,3:0:0:0:
64,307,247613,2,0,B|132:327|132:327|161:311,1,90.9999958343508,0|0,3:0|0:0,0:0:0:0:
155,80,247785,6,0,P|109:94|122:161,1,112,0|0,1:0|0:0,0:0:0:0:
243,359,247958,2,0,B|310:212|213:154|98:118|52:248|135:280|190:202,1,367.500003504753,8|0,1:2|0:0,0:0:0:0:
0,378,248302,6,0,B|14:388|14:388|154:309|337:297,1,315.000012016297,4|0,1:0|0:0,0:0:0:0:
273,384,248647,2,0,P|224:376|209:329,1,94.5000003604889,8|2,1:2|3:2,0:0:0:0:
394,215,248820,5,2,3:2:0:0:
382,237,248906,2,0,B|378:246|378:246|329:251|319:283,1,83.9999974365235,2|2,3:2|3:2,0:0:0:0:
309,379,249078,5,0,1:0:0:0:
339,299,249164,1,0,3:0:0:0:
296,35,249337,6,0,B|311:5|311:5|303:4|302:0|302:0|234:-3|159:54|176:145|176:145|187:145|191:152|191:152|213:100|281:99,1,367.500014019013,8|0,1:2|0:0,0:0:0:0:
344,151,249682,2,0,P|241:35|89:7,1,315.000012016297,4|0,1:0|0:0,0:0:0:0:
0,160,250027,1,8,1:2:0:0:
30,180,250113,1,2,3:2:0:0:
93,141,250199,1,2,3:2:0:0:
163,180,250285,6,0,B|192:227|192:227|156:205,1,97.9999970092774,2|2,3:2|3:2,0:0:0:0:
0,62,250458,1,0,3:0:0:0:
77,40,250544,2,0,B|65:12|23:0|23:0|50:20|44:48,1,112,0|0,1:0|3:0,0:0:0:0:
307,104,250716,6,0,B|348:26|348:26|184:77,1,231.000007049561,8|0,1:2|0:0,0:0:0:0:
205,87,251061,1,0,3:0:0:0:
423,383,251406,6,0,B|562:297|495:151|341:132|332:316|467:288,1,388.49999851799,8|0,1:2|1:0,0:0:0:0:
282,204,251751,2,0,B|250:159|250:159|285:175,1,94.5000003604889,0|0,3:0|0:0,0:0:0:0:
368,312,251923,2,0,B|312:352|312:352|338:275,1,112,0|0,1:0|0:0,0:0:0:0:
411,36,252095,6,0,B|406:13|396:0|396:0|510:14|511:137|511:137|506:142|506:142|437:84|350:171,1,388.49999851799,8|0,1:2|0:0,0:0:0:0:
426,216,252440,2,0,P|459:182|441:138,1,87.5,0|0,1:0|0:0,0:0:0:0:
301,33,252613,2,0,B|280:18|280:18|302:62,1,62.9999980773926,0|0,3:0|3:0,0:0:0:0:
332,279,252785,6,0,B|353:291|353:291|421:246|503:263|503:263|511:251,1,195.999994018555,8|0,1:2|3:0,0:0:0:0:
465,375,253044,5,0,3:0:0:0:
445,381,253130,2,0,P|418:350|445:301,1,83.9999974365235,0|0,3:0|0:0,0:0:0:0:
321,194,253302,2,0,B|323:175|295:152|295:152|335:164|336:199,1,108.500000827789,0|0,1:0|0:0,0:0:0:0:
231,384,253475,1,8,1:2:0:0:
0,235,253647,5,2,3:2:0:0:
8,257,253733,1,2,3:2:0:0:
37,274,253820,2,0,B|153:235|186:99|55:0|-45:143|34:215|105:144,1,367.500003504753,4|0,1:0|0:0,0:0:0:0:
251,117,254164,1,8,1:2:0:0:
235,129,254251,1,2,3:2:0:0:
199,83,254337,1,2,3:2:0:0:
247,22,254423,6,0,B|244:11|263:-4|263:-4|232:2|221:28,1,87.5,2|2,3:2|3:2,0:0:0:0:
175,202,254595,1,0,3:0:0:0:
158,278,254682,2,0,B|215:280|237:235|237:235|175:208,1,119.000002269745,0|0,1:0|0:0,0:0:0:0:
7,290,254854,6,0,B|21:313|21:313|137:290|227:349|227:349|263:328,1,272.999987503052,8|0,1:2|0:0,0:0:0:0:
446,154,255199,6,0,B|443:125|480:93|480:93|473:89|473:89|461:103|440:114,1,122.5,4|0,1:0|0:0,0:0:0:0:
421,169,255544,5,8,1:2:0:0:
396,225,255630,1,2,3:2:0:0:
423,297,255716,1,2,3:2:0:0:
504,336,255802,6,0,P|493:289|443:283,1,97.9999970092774,2|2,3:2|3:2,0:0:0:0:
280,313,255975,5,0,3:0:0:0:
234,377,256061,2,0,B|187:353|187:353|212:353,1,77.0000023498536,0|0,1:0|3:0,0:0:0:0:
508,205,256233,2,0,P|513:179|494:197,1,62.9999980773926,8|0,1:2|0:0,0:0:0:0:
507,192,256578,5,0,3:0:0:0:
116,30,256923,6,0,B|84:21|84:21|69:81|3:108|3:108|8:115|8:115|110:93|168:177|168:177|141:121|169:98,1,420,8|0,1:2|1:0,0:0:0:0:
7,4,257268,2,0,P|1:36|23:65,1,66.4999982242585,0|0,3:0|0:0,0:0:0:0:
232,76,257440,2,0,B|262:37|262:37|192:83,1,115.500001101494,0|0,1:2|0:0,0:0:0:0:
32,338,257613,6,0,B|-44:310|-44:151|79:127|156:214|89:297|2:230,1,315.000012016297,8|0,1:2|0:0,0:0:0:0:
7,357,257958,2,0,B|23:369|23:369|127:304|243:319,1,251.999992309571,0|0,1:0|3:0,0:0:0:0:
293,384,258302,2,0,P|229:351|239:313,1,97.9999970092774,8|0,1:2|0:0,0:0:0:0:
414,107,258475,5,0,3:0:0:0:
422,122,258561,1,0,3:0:0:0:
405,145,258647,2,0,B|332:164|332:164|317:195,1,94.5000003604889,0|0,3:0|0:0,0:0:0:0:
384,285,258820,6,0,B|432:339|432:339|417:300,1,112,0|0,1:0|0:0,0:0:0:0:
375,38,258992,2,0,B|495:-4|495:-4|495:4|495:4|456:80,1,217.000001655579,8|0,1:2|0:0,0:0:0:0:
503,205,259251,5,0,3:0:0:0:
511,219,259337,2,0,B|484:234|484:234|372:143|219:175|219:175|197:132,1,346.500003304482,4|0,1:0|0:0,0:0:0:0:
247,12,259682,2,0,P|284:50|271:83,1,83.9999974365235,8|2,1:2|3:2,0:0:0:0:
72,81,259854,5,2,3:2:0:0:
0,62,259940,2,0,B|10:25|10:25|66:52,1,73.4999977569581,2|2,3:2|3:2,0:0:0:0:
299,116,260113,5,0,3:0:0:0:
274,204,260199,1,0,1:0:0:0:
0,266,260371,6,0,B|87:327|197:244|183:96|40:121|52:221|124:241,1,330.750001261711,8|0,1:2|0:0,0:0:0:0:
90,365,260716,2,0,P|62:199|11:39,1,336,4|0,1:0|0:0,0:0:0:0:
113,45,261061,5,8,1:2:0:0:
127,71,261147,1,2,3:2:0:0:
187,92,261233,1,2,3:2:0:0:
259,53,261320,6,0,B|284:26|311:18|311:18|288:9|267:18,1,101.500003097534,2|0,3:2|3:0,0:0:0:0:
131,156,261492,1,0,3:0:0:0:
60,203,261578,2,0,B|36:242|36:242|100:203,1,119.000002269745,0|0,1:0|0:0,0:0:0:0:
309,19,261751,6,0,B|247:-23|159:22|159:22|165:30|155:44|155:44|203:9|263:12|332:53|323:162|288:202|245:200,1,465.499987569809,8|0,1:2|0:0,0:0:0:0:
271,161,262095,1,0,3:0:0:0:
239,384,262440,6,0,L|243:352,1,31.4999990386963,2|0,0:3|3:0,0:0:0:0:
268,359,262785,2,0,L|219:378,1,52.5,2|0,0:3|0:0,0:0:0:0:
202,354,263130,2,0,L|280:384,1,84,2|0,0:3|0:0,0:0:0:0:
256,192,263475,12,0,264423,2:2:0:0:
359,349,264509,5,0,3:0:0:0:
351,346,264854,6,0,L|360:377,1,31.4999990386963,4|0,1:0|0:0,0:0:0:0:
404,264,265199,6,0,B|445:278|504:208|411:100|411:100|625:276|484:355|398:385|387:341|387:341|364:332|356:343|356:343|331:301|261:295|231:372|231:372|218:381|218:381|189:284|210:234|315:198|327:240,1,1053.50001607513,12|0,1:2|0:0,0:0:0:0:
322,232,265889,6,0,B|322:262|322:262|265:282|265:282|238:257,1,122.500001168251,8|0,1:2|0:0,0:0:0:0:
19,278,266061,2,0,B|-10:324|14:380|14:380|58:272|131:296,1,251.999992309571
180,222,266233,6,0,P|165:313|189:225,1,272.999987503052,4|0,1:0|0:0,0:0:0:0:
38,134,266578,6,0,B|17:130|17:130|-12:89|53:-23|205:-69|342:29|342:29|184:-50|-24:55|161:117|161:117|56:138|160:209|46:200|83:123|-19:149|-39:229|21:264,1,1078.00003289795,12|0,1:2|0:0,0:0:0:0:
22,327,267268,2,0,B|68:354|68:354|83:316|126:313|126:313|74:193,1,246.749996234894,8|0,1:2|0:0,0:0:0:0:
13,243,267440,5,0,1:0:0:0:
367,209,267613,2,0,B|411:228|399:299|375:268|373:323|410:349|410:349|336:325|343:278|385:216|250:191|191:243|177:284|221:299,1,440.999986541748,4|0,1:0|0:0,0:0:0:0:
196,365,267958,2,0,B|275:421|299:324|299:324,1,125.999996154785,8|0,1:2|0:0,0:0:0:0:
228,298,268130,1,0,0:0:0:0:
235,289,268216,1,0,1:0:0:0:
222,285,268302,6,0,P|126:249|-12:217,1,210.000008010865,0|0,1:0|1:0,0:0:0:0:
442,185,268647,2,0,B|418:210|477:267|477:267|420:290|382:245,1,192.500001835823,8|0,1:2|0:0,0:0:0:0:
434,105,268820,6,0,B|460:85|460:85|507:108|507:108|509:161,1,115.500001101494,0|0,1:0|0:0,0:0:0:0:
391,254,268992,2,0,L|341:271,6,43.75,4|0|0|0|0|0|0,1:0|0:0|0:0|0:0|0:0|0:0|0:0,0:0:0:0:
325,348,269337,6,0,B|342:365|374:352|388:334|427:328|453:373|453:373|451:311|393:292|319:348|236:284|269:171|358:130|390:155|398:193,1,503.999984619141,12|0,1:2|0:0,0:0:0:0:
512,85,269682,2,0,B|483:55|415:102|415:102|486:133|469:195,1,194.249999258995
392,178,269854,5,0,1:0:0:0:
425,380,270027,2,0,P|474:269|436:384,1,367.500003504753,12|0,1:2|0:0,0:0:0:0:
344,118,270371,6,0,L|333:83,1,36.749998878479,4|0,1:0|0:0,0:0:0:0:
344,118,270716,6,0,B|378:112|429:84|397:20|349:-8|349:-8|354:-19|354:-19|399:31|464:90|529:67|529:67|432:129|448:229|510:262|510:262|441:239|450:169|417:121|309:110|135:200|239:263|239:263|139:252|166:373|166:373|32:280|135:228,1,1400,12|0,1:2|0:0,0:0:0:0:
219,171,271406,6,0,B|207:143|144:144|144:144|199:157|191:196,1,164.499997489929,8|0,1:2|0:0,0:0:0:0:
94,342,271578,2,0,B|69:366|69:366|32:361|32:361|11:335|11:335|18:301,1,136.500000520706,0|0,1:0|0:0,0:0:0:0:
114,231,271751,6,0,P|124:260|101:239,1,84,4|0,1:0|0:0,0:0:0:0:
113,241,272095,6,0,B|18:219|-28:320|-24:429|-25:426|24:305|142:263|217:356|217:356|176:283|239:221|319:206|357:257|357:257|326:208|224:236|203:264|138:200|126:127|202:-34|410:-52|480:47|393:108|232:71|234:172|302:206,1,1323.00000504684,12|0,1:2|0:0,0:0:0:0:
379,169,272785,2,0,P|400:134|377:166,1,122.500001168251,8|0,1:2|0:0,0:0:0:0:
453,41,272958,1,0,0:0:0:0:
455,28,273044,1,0,0:0:0:0:
462,32,273130,6,0,B|499:42|499:42|487:68|507:99|507:99|471:95|456:130|456:130|330:58|233:123|250:181,1,398.999989345551,0|0,1:0|0:0,0:0:0:0:
196,102,273475,6,0,B|121:127|120:45|120:45,1,101.500003097534,8|0,1:2|0:0,0:0:0:0:
302,80,273647,1,0,1:0:0:0:
296,89,273733,1,0,1:0:0:0:
301,87,273820,6,0,P|349:10|291:80,1,273.000001041412,0|0,1:0|1:0,0:0:0:0:
307,214,274078,5,0,0:0:0:0:
246,164,274164,2,0,B|222:189|222:228|222:228|183:231,1,108.500000827789,8|0,1:2|0:0,0:0:0:0:
307,214,274337,6,0,P|368:288|391:367,1,150.500002296448,0|0,1:0|0:0,0:0:0:0:
162,158,274509,2,0,B|210:95|107:94|92:122|92:122|87:117|87:117|56:112|30:199|-93:160|-7:34|105:-37|139:11,1,440.999986541749,4|0,1:2|0:0,0:0:0:0:
207,105,274854,6,0,B|228:117|228:117|355:-43|453:27,1,280,8|0,1:2|0:0,0:0:0:0:
323,129,275113,1,0,1:0:0:0:
397,128,275199,2,0,B|399:150|399:150|462:155|469:233,1,105.000004005432,0|0,1:0|0:0,0:0:0:0:
420,24,275371,6,0,B|430:90|502:67|502:67,1,105.000004005432,0|0,1:0|1:0,0:0:0:0:
491,334,275544,2,0,P|446:260|506:321,1,251.999992309571,8|0,1:2|0:0,0:0:0:0:
326,312,275889,6,0,B|337:247|495:266|516:365|516:365|505:251|380:137|294:192|294:192|297:212,1,587.999982055665,4|0,1:0|0:0,0:0:0:0:
354,253,276233,5,8,1:2:0:0:
64,24,276406,2,0,B|-41:109|-65:277|6:175|155:-3|268:66|280:111,1,490.000004673004,4|0,1:0|0:0,0:0:0:0:
279,110,276923,6,0,B|262:125|262:125|229:128|229:128|211:101|211:101|208:56,1,108.500000827789,8|0,1:2|0:0,0:0:0:0:
442,41,277095,2,0,L|456:37,1,10.4999996795654,0|0,1:0|0:0,0:0:0:0:
498,98,277268,6,0,B|326:34|326:34|413:187,1,346.500003304482,4|0,1:0|0:0,0:0:0:0:
480,220,277613,2,0,B|503:214|513:276|513:276|463:225|421:244,1,150.500002296448,8|0,1:2|0:0,0:0:0:0:
423,314,277785,2,0,B|208:386|208:386|336:180,1,453.249998270989,4|0,1:0|0:0,0:0:0:0:
330,269,278130,5,0,0:0:0:0:
456,382,278302,2,0,B|494:379|494:379|520:320|520:320|488:280,1,143.500002189636,8|0,1:2|0:0,0:0:0:0:
411,307,278475,1,0,0:0:0:0:
405,315,278561,1,0,0:0:0:0:
415,318,278647,6,0,B|430:251|293:193|116:183|116:183|333:259|284:352,1,612.5,4|0,1:0|0:0,0:0:0:0:
209,328,278992,6,0,B|215:342|215:342|194:367|194:367|158:365|158:365|146:343|146:343|99:334|99:334|75:365|75:365|83:395,1,210.000008010865,8|0,1:2|0:0,0:0:0:0:
122,373,279251,1,0,1:0:0:0:
140,314,279337,5,0,1:0:0:0:
302,360,279509,2,0,B|316:382|316:382|365:375|365:375|332:338|332:338|311:344,1,146.999995513916,0|0,1:0|0:0,0:0:0:0:
0,251,279682,6,0,B|-43:288|25:381|25:381|30:375|30:375|62:208|168:234,1,346.500003304482,8|0,1:2|0:0,0:0:0:0:
279,97,280027,2,0,B|334:97|366:162|366:162|368:147|368:147|336:69|380:-17,1,251.999992309571,4|0,1:0|0:0,0:0:0:0:
436,0,280285,5,0,0:0:0:0:
363,28,280371,2,0,B|413:25|516:88|516:88|527:107|527:107|360:56|257:166|296:205,1,483.000009212494,12|0,1:2|0:0,0:0:0:0:
212,182,280716,2,0,B|206:208|206:208|315:239|290:309,1,152.250004646301
318,300,280889,6,0,L|250:317,1,70,0|0,1:0|0:0,0:0:0:0:
15,245,281061,2,0,L|-4:190,6,43.75,8|0|0|0|0|0|0,1:2|0:0|0:0|0:0|0:0|0:0|0:0,0:0:0:0:
153,254,281406,6,0,L|143:287,1,31.4999990386963,4|0,1:0|0:0,0:0:0:0:
144,285,281751,6,0,B|85:232|14:285|3:385|3:385|-5:375|-5:375|4:277|21:225|176:145|61:223|118:218|118:218|204:220|165:404|260:363|336:261|262:154|209:90|119:73|24:140|24:140|72:104|77:49|77:49|120:58,1,1151.4999824295,12|0,1:2|0:0,0:0:0:0:
198,0,282440,2,0,B|230:27|282:41|282:41|285:49|285:49|167:37|142:131,1,241.500004606247,8|0,1:2|0:0,0:0:0:0:
132,66,282613,6,0,B|105:148|33:95|33:95,1,119.000002269745
354,20,282785,2,0,L|407:-1,1,52.5,4|0,1:0|0:0,0:0:0:0:
265,0,283130,6,0,B|146:66|158:219|317:290|408:252|450:166|359:116|250:104|272:176,1,526.750008037567,8|0,1:2|0:0,0:0:0:0:
253,106,283475,2,0,B|221:119|221:119|38:-25|-19:56,1,273.000001041412
49,108,283733,5,0,0:0:0:0:
118,138,283820,2,0,B|138:124|138:124|130:72|130:72|95:53,1,97.9999970092774,8|0,1:2|0:0,0:0:0:0:
15,255,283992,1,0,0:0:0:0:
3,270,284078,1,0,0:0:0:0:
2,256,284164,6,0,B|48:146|139:238|139:238,1,154.000004699707,4|0,1:0|0:0,0:0:0:0:
175,310,284423,5,0,0:0:0:0:
118,276,284509,2,0,L|202:255,1,77.0000023498536,8|0,1:2|0:0,0:0:0:0:
406,293,284682,1,0,1:0:0:0:
460,294,284768,1,0,1:0:0:0:
510,354,284854,5,0,0:0:0:0:
352,157,285027,2,0,B|314:198|339:231|339:231,1,77.0000023498536,0|0,1:0|0:0,0:0:0:0:
510,354,285199,2,0,B|495:363|495:363|335:304,1,157.500006008148,8|0,1:2|0:0,0:0:0:0:
372,342,285371,5,0,1:0:0:0:
512,260,285544,2,0,B|377:284|297:86|414:29|474:108|381:152,1,346.500003304482,0|0,1:0|0:0,0:0:0:0:
225,166,285889,2,0,B|168:156|126:249|126:249|132:256|132:256|298:151|365:236,1,398.999989345551,12|0,1:2|0:0,0:0:0:0:
386,278,286233,2,0,B|274:315|279:179|279:179,1,136.499993751526,12|0,1:2|0:0,0:0:0:0:
261,242,286406,6,0,L|280:181,2,45.4999979171754,0|0|0,1:0|0:0|0:0,0:0:0:0:
0,31,286578,2,0,P|45:106|4:27,1,271.250002069473,12|0,1:2|0:0,0:0:0:0:
114,42,286837,5,0,3:0:0:0:
121,40,286923,2,0,B|183:14|264:-12|264:-12|157:93|121:186,1,398.999989345551,4|0,1:0|0:0,0:0:0:0:
146,367,287268,6,0,B|60:384|12:279|95:212|128:272|78:294,1,210,8|0,1:2|0:0,0:0:0:0:
18,214,287613,6,0,B|-8:159|-8:159|63:240,1,157.500006008148,0|0,3:0|0:0,0:0:0:0:
114,286,287785,2,0,L|147:274,1,35,0|0,1:0|0:0,0:0:0:0:
215,167,287958,6,0,L|288:134,1,61.2500005841255,10|0,1:2|0:0,0:0:0:0:
45,351,288130,2,0,L|128:375,1,87.5,2|0,3:2|0:0,0:0:0:0:
351,279,288302,6,0,B|339:260|421:369|299:365,1,140,0|0,1:0|0:0,0:0:0:0:
290,374,288647,6,0,B|258:307|402:284|378:312|564:272|552:109|368:138|345:234|380:267,1,428.750004088879,8|0,1:2|0:0,0:0:0:0:
472,342,288992,6,0,L|498:351,2,26.2500010013581,0|0|0,3:0|3:0|3:0,0:0:0:0:
482,355,289164,1,0,1:0:0:0:
265,46,289337,6,0,B|260:119|343:205|443:184|425:121,1,262.5,8|0,1:2|0:0,0:0:0:0:
435,112,289682,6,0,B|452:43|534:33|534:33|531:27|531:27|446:13|434:74,1,262.5,4|0,1:2|0:0,0:0:0:0:
355,75,290027,2,0,B|348:96|348:96|207:155,1,175,8|0,1:2|3:0,0:0:0:0:
239,154,290285,5,0,3:0:0:0:
213,124,290371,2,0,P|222:103|231:78,1,43.75,0|0,3:0|0:0,0:0:0:0:
323,199,290544,2,0,P|332:233|344:266,1,70,0|0,1:0|0:0,0:0:0:0:
150,71,290716,6,0,P|108:57|58:27,1,87.5,10|0,1:2|0:0,0:0:0:0:
420,199,290889,2,0,P|369:212|266:266,1,157.500006008148,2|0,3:2|0:0,0:0:0:0:
184,323,291061,6,0,P|163:344|150:370,2,52.5000020027161,0|0|0,1:0|3:0|3:0,0:0:0:0:
158,334,291406,6,0,B|123:215|0:233|0:233|49:240|70:277|70:277|90:269,1,315.000012016297,8|0,1:2|0:0,0:0:0:0:
127,169,291751,6,0,B|119:149|119:149|142:137|153:115|153:115|146:139|147:165|147:165|128:168,1,140,0|0,3:0|0:0,0:0:0:0:
60,363,291923,1,0,1:0:0:0:
93,16,292095,6,0,B|110:123|171:164|171:164|122:139|50:139|50:139|48:123,1,315.000012016297,12|0,1:2|0:0,0:0:0:0:
4,27,292440,6,0,B|124:49|258:115|258:115|288:81,1,315.000012016297,4|0,1:0|0:0,0:0:0:0:
392,30,292785,6,0,B|474:2|474:2|414:39|384:85,1,210,8|0,1:2|0:0,0:0:0:0:
363,69,293130,6,0,L|374:102,1,35,0|0,3:0|0:0,0:0:0:0:
462,139,293302,2,0,L|473:172,1,35,0|0,1:0|0:0,0:0:0:0:
493,2,293475,6,0,L|479:52,1,52.5000020027161,10|0,1:2|0:0,0:0:0:0:
351,198,293647,2,0,L|337:248,1,52.5000020027161,2|0,3:2|0:0,0:0:0:0:
477,359,293820,6,0,L|451:366,1,26.2500010013581,0|0,1:0|0:0,0:0:0:0:
458,291,293992,2,0,L|432:298,1,26.2500010013581,0|0,3:0|0:0,0:0:0:0:
312,367,294164,6,0,B|290:384|135:350|173:303|22:268|5:306,1,315.000012016297,8|0,1:2|0:0,0:0:0:0:
111,326,294509,6,0,B|103:344|118:366|161:377|188:367,1,105,0|0,3:0|0:0,0:0:0:0:
260,329,294682,2,0,L|299:308,1,35,0|0,1:0|0:0,0:0:0:0:
363,156,294854,6,0,B|383:113|347:46|226:29|226:29|217:34|217:34|269:68|264:107,1,315.000012016297,12|0,1:2|0:0,0:0:0:0:
188,151,295199,6,0,B|239:171|239:171|328:90|437:76|437:76|451:43,1,315.000012016297,4|0,1:0|0:0,0:0:0:0:
438,33,295544,6,0,B|515:2|515:2|431:129,1,210.000008010865,8|0,1:2|3:0,0:0:0:0:
490,172,295802,5,0,3:0:0:0:
508,197,295889,2,0,L|466:185,1,35,0|0,3:0|0:0,0:0:0:0:
415,256,296061,2,0,L|366:218,1,52.5000020027161,0|0,1:0|0:0,0:0:0:0:
330,381,296233,2,0,L|283:304,1,78.7500030040742,10|0,1:2|0:0,0:0:0:0:
184,339,296406,2,0,L|143:217,1,105.000004005432,2|0,3:2|0:0,0:0:0:0:
18,81,296578,6,0,B|1:71|-22:85|-22:85|-2:124|33:111,1,105.000004005432,0|0,1:0|0:0,0:0:0:0:
31,76,296923,6,0,B|-27:130|-8:195|-28:214|-28:214|-25:217|-25:217|4:172|52:164|52:164|59:173|76:169|76:169|62:107|194:93|241:194|241:194|230:179|230:179|246:43|72:1|72:1|96:11|117:34|113:47,1,854.7000208667,8|0,1:2|0:0,0:0:0:0:
214,49,297440,6,0,P|236:21|219:52,1,105.000004005432,0|0,1:0|0:0,0:0:0:0:
213,310,297613,6,0,B|262:144|360:25,1,315.000012016297,12|0,1:2|0:0,0:0:0:0:
368,213,297958,6,0,B|361:238|515:320|478:200|587:136|556:323|440:344|440:344|426:367,1,367.500014019013,4|0,1:0|0:0,0:0:0:0:
448,368,298302,6,0,P|433:326|407:291,1,87.5,8|0,1:2|0:0,0:0:0:0:
299,298,298475,2,0,P|313:318|341:324,1,52.5000020027161
497,282,298647,6,0,L|516:244,1,35,0|0,3:0|0:0,0:0:0:0:
459,196,298820,2,0,L|477:131,1,52.5000020027161,0|0,1:0|0:0,0:0:0:0:
297,216,298992,2,0,L|307:133,1,70,10|0,1:2|0:0,0:0:0:0:
201,101,299164,2,0,L|201:-6,1,87.5,2|0,3:2|0:0,0:0:0:0:
0,272,299337,6,0,B|45:316|92:285|81:223,1,140,0|0,1:0|3:0,0:0:0:0:
78,213,299595,5,0,3:0:0:0:
71,219,299682,2,0,B|41:281|41:281|44:284|44:284|15:338|15:338|11:342|11:342|-8:385|-8:385|84:281|202:269,1,428.750004088879,8|0,1:2|0:0,0:0:0:0:
161,240,300027,6,0,P|181:221|205:178,1,70,0|0,3:0|0:0,0:0:0:0:
226,344,300199,2,0,P|249:352|267:368,1,35,0|0,1:0|0:0,0:0:0:0:
357,259,300371,6,0,B|345:246|366:164|440:173|453:258|499:252|509:148|427:89|427:89|463:115|449:175|417:209,1,428.750004088879,12|0,1:2|0:0,0:0:0:0:
511,294,300716,6,0,B|479:302|479:302|397:198|284:172|284:172|267:124,1,315.000012016297,4|0,1:0|0:0,0:0:0:0:
185,62,301061,6,0,B|201:66|201:66|313:16,1,140,8|0,1:2|3:0,0:0:0:0:
400,11,301320,5,0,3:0:0:0:
445,1,301406,2,0,L|497:42,1,52.5000020027161,0|0,3:0|0:0,0:0:0:0:
367,167,301578,2,0,L|339:85,1,70,0|0,1:0|0:0,0:0:0:0:
473,115,301751,6,0,B|460:163|460:163|457:165|457:165|439:233,1,105.000004005432,10|0,1:2|0:0,0:0:0:0:
272,53,301923,2,0,B|256:103|256:103|258:105|258:105|238:171,1,105.000004005432,2|0,3:2|0:0,0:0:0:0:
295,316,302095,6,0,P|318:336|331:353,2,52.5000020027161,0|0|0,1:0|3:0|3:0,0:0:0:0:
304,343,302440,6,0,B|341:239|510:194|513:279|498:298,1,262.5,8|0,1:2|0:0,0:0:0:0:
411,293,302785,6,0,B|378:394|490:369|490:369,1,131.25,0|0,3:0|0:0,0:0:0:0:
496,295,302958,2,0,P|514:280|491:290,1,70,0|0,1:0|0:0,0:0:0:0:
495,0,303130,6,0,B|546:82|442:100|448:83|325:112|374:174,1,262.5,12|0,1:2|0:0,0:0:0:0:
347,255,303475,6,0,B|394:250|448:270|505:359|505:359|514:356|514:356|514:350|514:350|428:288|434:228,1,367.500003504753,4|0,1:0|0:0,0:0:0:0:
493,156,303820,6,0,B|408:151|382:69|409:3|468:46|428:79,1,210,8|0,1:2|0:0,0:0:0:0:
427,60,304164,6,0,L|339:39,1,78.7500030040742,0|0,3:0|0:0,0:0:0:0:
321,11,304337,2,0,L|310:62,1,52.5000020027161,0|0,1:0|0:0,0:0:0:0:
132,217,304509,6,0,B|139:207|139:207|127:168,1,52.5000020027161,10|0,1:2|0:0,0:0:0:0:
239,207,304682,2,0,B|218:200|218:200|192:114,1,105.000004005432,2|0,3:2|0:0,0:0:0:0:
48,32,304854,6,0,B|-4:19|-4:19|69:63,1,140,0|0,1:0|0:0,0:0:0:0:
77,36,305199,6,0,B|12:77|-17:219|41:250|86:69|218:99,1,367.500003504753,8|0,1:2|0:0,0:0:0:0:
154,57,305544,6,0,P|118:41|86:4,1,70,0|0,3:0|0:0,0:0:0:0:
268,162,305716,2,0,P|302:215|370:260,1,131.25,0|0,1:0|0:0,0:0:0:0:
364,262,305889,6,0,P|409:288|360:268,1,157.500006008148,8|0,1:2|0:0,0:0:0:0:
472,338,306233,6,0,P|490:356|496:382,6,52.5000020027161,4|0|0|0|0|0|0,1:2|3:0|3:0|3:0|3:0|3:0|3:0,0:0:0:0:
504,349,306578,5,8,3:1:0:0:
462,370,306923,1,0,3:0:0:0:
512,312,307268,1,8,3:1:0:0:
340,239,307613,6,0,L|334:222,6,17.5,2|0|0|0|0|0|0,3:2|3:0|3:0|3:0|3:0|3:0|3:0,0:0:0:0:
407,204,307958,2,0,B|396:184|444:121|437:165|564:49|510:3,1,245,8|0,3:1|0:0,0:0:0:0:
436,34,308647,6,0,P|386:15|332:0,1,105,2|0,0:0|0:0,0:0:0:0:
137,123,308992,5,4,1:0:0:0:
207,62,310371,5,0,0:0:0:0:
222,150,311751,5,0,0:0:0:0:
228,154,313130,1,0,0:0:0:0:
9,233,314509,5,0,0:0:0:0:
109,224,315889,5,0,0:0:0:0:
149,316,317268,5,0,0:0:0:0:
440,347,320027,6,0,P|453:295|468:253,1,98
370,273,321406,6,0,P|355:221|347:177,1,98
332,355,322785,6,0,P|293:317|264:283,1,98
264,283,324164,1,0,0:0:0:0:
24,48,325544,6,0,P|51:63|24:47,1,98
164,61,326923,6,0,P|179:89|163:62,1,98
258,165,328302,6,0,P|258:202|257:165,1,112
255,166,330371,6,0,L|238:329,1,140
