osu file format v14

[General]
AudioFilename: audio.mp3
AudioLeadIn: 0
PreviewTime: -1
Countdown: 1
SampleSet: Normal
StackLeniency: 0.7
Mode: 0
LetterboxInBreaks: 0
WidescreenStoryboard: 0

[Editor]
Bookmarks: 43338
DistanceSpacing: 1.7
BeatDivisor: 4
GridSize: 16
TimelineZoom: 2.899999

[Metadata]
Title:Heathens (DISTO Remix)
TitleUnicode:Heathens (DISTO Remix)
Artist:twenty one pilots
ArtistUnicode:twenty one pilots
Creator:RealXantoo
Version:Psychopath.
Source:
Tags:
BeatmapID:1245155
BeatmapSetID:588098

[Difficulty]
HPDrainRate:5
CircleSize:3.5
OverallDifficulty:5
ApproachRate:9.5
SliderMultiplier:1.4
SliderTickRate:1

[Events]
//Background and Video events
0,0,"Heathens storyboard psycho.png",0,0
//Break Periods
//Storyboard Layer 0 (Background)
//Storyboard Layer 1 (Fail)
//Storyboard Layer 2 (Pass)
//Storyboard Layer 3 (Foreground)
//Storyboard Sound Samples

[TimingPoints]
10630.1293666635,337.074416722859,4,1,0,100,1,0
21765,-200,4,1,0,100,0,0
32046,-100,4,1,0,100,0,0
45697,-200,4,1,0,100,0,0
53787,-66.6666666666667,4,1,0,100,0,0
64574,-66.6666666666667,4,1,0,100,0,0
64899,-66.6666666666667,4,1,0,100,0,1
87483,-66.6666666666667,4,1,0,80,0,0
88831,-66.6666666666667,4,1,0,60,0,0
90179,-66.6666666666667,4,1,0,30,0,0

[Colours]
Combo1 : 166,0,0
Combo2 : 166,0,0
Combo3 : 255,255,255
Combo4 : 164,0,0
Combo5 : 255,255,255

[HitObjects]
240,80,10632,6,0,P|336:112|352:128,1,105
400,176,10967,2,0,P|320:224|288:240,1,105
208,272,11304,2,0,P|160:240|144:160,1,140
272,32,11978,1,0,0:0:0:0:
176,256,12315,1,0,0:0:0:0:
352,112,12652,1,0,0:0:0:0:
112,160,12989,1,0,0:0:0:0:
368,208,13326,1,0,0:0:0:0:
112,96,13663,6,0,P|208:32|368:48,1,280
400,256,15012,2,0,P|304:320|144:304,1,280
112,192,16023,6,0,P|112:112|128:80,1,105
192,32,16360,2,0,P|240:80|240:128,1,105
256,240,16697,2,0,P|352:208|400:176,1,140
368,32,17371,1,0,0:0:0:0:
176,80,17708,6,0,P|176:144|192:192,1,105
288,160,18045,2,0,P|288:224|256:288,1,105
176,304,18382,2,0,P|128:240|128:176,1,140
176,80,19056,2,0,B|304:32|304:32|304:80|304:80|416:32,1,280
336,304,20405,2,0,B|208:352|208:352|208:304|208:304|96:352,1,280
96,256,21753,5,0,0:0:0:0:
288,80,22090,1,0,0:0:0:0:
208,304,22427,1,0,0:0:0:0:
400,80,22764,1,0,0:0:0:0:
144,208,23101,1,0,0:0:0:0:
384,288,23438,1,0,0:0:0:0:
160,112,23776,1,0,0:0:0:0:
336,320,24113,1,0,0:0:0:0:
80,128,24450,6,0,P|160:64|208:48,1,140
448,272,25798,2,0,P|368:336|320:352,1,140
187,112,27146,1,0,0:0:0:0:
58,250,27483,1,0,0:0:0:0:
244,214,27820,1,0,0:0:0:0:
73,134,28157,1,0,0:0:0:0:
165,300,28495,5,0,0:0:0:0:
327,201,28832,1,0,0:0:0:0:
141,34,29169,1,0,0:0:0:0:
193,278,29506,1,0,0:0:0:0:
304,48,29843,2,0,P|192:64|176:80,1,140
224,352,31191,2,0,P|336:336|352:320,1,140
384,128,32202,6,0,L|272:64,1,105
208,80,32539,2,0,L|256:176,1,105
208,256,32877,2,0,L|80:160,1,140
224,80,33551,6,0,L|352:48,1,105
400,112,33888,2,0,L|320:192,1,105
208,176,34225,2,0,L|112:288,1,140
304,272,34899,1,0,0:0:0:0:
384,192,35236,2,0,P|432:144|336:176,1,280
128,192,36584,2,0,P|80:144|176:176,1,280
304,128,37596,6,0,P|384:96|416:112,1,105
320,192,37933,2,0,P|400:160|432:176,1,105
448,256,38270,2,0,P|384:304|320:288,1,140
48,64,38944,1,0,0:0:0:0:
192,352,39281,1,0,0:0:0:0:
80,64,39618,1,0,0:0:0:0:
320,32,39955,1,0,0:0:0:0:
64,128,40292,1,0,0:0:0:0:
464,160,40629,2,0,P|464:96|288:64,1,280
256,192,41978,5,0,0:0:0:0:
256,264,43326,5,0,0:0:0:0:
274,90,43494,1,0,0:0:0:0:
157,220,43663,1,0,0:0:0:0:
327,183,43831,1,0,0:0:0:0:
168,113,44000,1,0,0:0:0:0:
240,304,44169,5,0,0:0:0:0:
261,59,44337,1,0,0:0:0:0:
139,233,44506,1,0,0:0:0:0:
361,130,44674,1,0,0:0:0:0:
150,111,44843,1,0,0:0:0:0:
351,252,45011,1,0,0:0:0:0:
121,93,45180,5,0,0:0:0:0:
307,350,45348,1,0,0:0:0:0:
307,33,45517,1,0,0:0:0:0:
121,290,45685,1,0,0:0:0:0:
422,192,45854,1,0,0:0:0:0:
144,304,46022,6,0,P|96:256|80:176,1,140
368,80,47371,2,0,P|416:128|432:208,1,140
144,32,48719,5,0,0:0:0:0:
368,368,49056,1,0,0:0:0:0:
16,144,49393,1,0,0:0:0:0:
432,32,49730,1,0,0:0:0:0:
144,368,50067,1,0,0:0:0:0:
96,16,50404,1,0,0:0:0:0:
496,304,50741,1,0,0:0:0:0:
16,240,51079,1,0,0:0:0:0:
368,32,51416,2,0,P|432:64|464:128,1,140
144,352,52764,2,0,P|80:320|48:256,1,140
320,80,54112,6,0,L|416:16,1,105.000004005432
352,128,54449,2,0,L|448:64,1,105.000004005432
224,320,54786,1,0,0:0:0:0:
112,240,54955,1,0,0:0:0:0:
240,192,55123,1,0,0:0:0:0:
144,320,55292,6,0,L|32:368,1,105.000004005432
112,272,55629,2,0,L|0:320,1,105.000004005432
176,112,55966,1,0,0:0:0:0:
288,32,56135,1,0,0:0:0:0:
304,176,56303,1,0,0:0:0:0:
144,96,56472,5,0,0:0:0:0:
336,48,56640,1,0,0:0:0:0:
272,208,56809,2,0,L|192:288,1,105.000004005432
208,208,57146,2,0,L|128:288,1,105.000004005432
112,96,57483,1,0,0:0:0:0:
224,192,57652,5,0,0:0:0:0:
256,32,57820,1,0,0:0:0:0:
144,128,57989,1,0,0:0:0:0:
352,32,58157,1,0,0:0:0:0:
208,160,58326,1,0,0:0:0:0:
384,240,58494,1,0,0:0:0:0:
224,144,58663,2,0,L|128:64,1,105.000004005432
192,192,59000,2,0,L|96:112,1,105.000004005432
304,208,59337,1,0,0:0:0:0:
160,256,59505,5,0,0:0:0:0:
175,289,59589,1,0,0:0:0:0:
200,315,59673,1,0,0:0:0:0:
233,331,59757,1,0,0:0:0:0:
270,335,59842,1,0,0:0:0:0:
305,327,59926,1,0,0:0:0:0:
336,307,60010,1,0,0:0:0:0:
359,278,60094,1,0,0:0:0:0:
384,240,60180,1,0,0:0:0:0:
347,226,60264,5,0,0:0:0:0:
319,200,60348,1,0,0:0:0:0:
303,165,60432,1,0,0:0:0:0:
300,126,60517,1,0,0:0:0:0:
320,80,60601,1,0,0:0:0:0:
355,53,60685,1,0,0:0:0:0:
400,49,60769,1,0,0:0:0:0:
439,70,60853,1,0,0:0:0:0:
464,112,60938,1,0,0:0:0:0:
459,153,61022,5,0,0:0:0:0:
434,190,61106,1,0,0:0:0:0:
393,207,61190,1,0,0:0:0:0:
349,200,61275,1,0,0:0:0:0:
320,176,61359,1,0,0:0:0:0:
298,132,61443,1,0,0:0:0:0:
263,98,61527,1,0,0:0:0:0:
219,78,61611,1,0,0:0:0:0:
170,75,61696,1,0,0:0:0:0:
124,88,61780,5,0,0:0:0:0:
85,117,61864,1,0,0:0:0:0:
64,160,61949,1,0,0:0:0:0:
57,208,62033,1,0,0:0:0:0:
66,255,62117,1,0,0:0:0:0:
90,298,62201,1,0,0:0:0:0:
126,330,62286,1,0,0:0:0:0:
171,349,62370,1,0,0:0:0:0:
219,353,62454,1,0,0:0:0:0:
266,342,62538,5,0,0:0:0:0:
304,320,62623,1,0,0:0:0:0:
264,282,62708,1,0,0:0:0:0:
257,229,62792,1,0,0:0:0:0:
286,183,62876,1,0,0:0:0:0:
337,166,62961,1,0,0:0:0:0:
387,185,63045,1,0,0:0:0:0:
414,232,63129,1,0,0:0:0:0:
406,285,63213,1,0,0:0:0:0:
348,306,63298,1,0,0:0:0:0:
288,288,63382,1,0,0:0:0:0:
176,112,63550,1,4,0:0:0:0:
320,96,64899,6,0,P|368:64|352:128,1,157.500006008148
304,144,65236,1,0,0:0:0:0:
288,288,65404,2,0,P|240:320|192:320,1,105.000004005432
80,144,65741,1,0,0:0:0:0:
64,112,65910,1,0,0:0:0:0:
288,96,66247,6,0,P|320:64|304:128,1,157.500006008148
320,224,66584,2,0,P|343:268|306:242,1,105.000004005432
224,320,66837,2,0,L|176:352,1,52.5000020027161
80,80,67258,1,0,0:0:0:0:
224,272,67595,6,0,L|176:240,1,52.5000020027161
128,208,67764,1,0,0:0:0:0:
304,224,67932,1,0,0:0:0:0:
336,192,68017,1,0,0:0:0:0:
336,144,68101,1,0,0:0:0:0:
160,96,68269,2,0,P|144:32|176:96,1,210.000008010865
96,240,68944,5,0,0:0:0:0:
112,256,69028,1,0,0:0:0:0:
128,272,69112,1,0,0:0:0:0:
288,336,69281,1,0,0:0:0:0:
176,160,69449,2,0,P|144:112|192:144,1,157.500006008148
208,192,69786,1,0,0:0:0:0:
352,80,69955,2,0,P|400:32|368:32,1,157.500006008148
336,304,70292,2,0,L|432:80,1,210.000008010865
384,48,70797,6,0,L|288:144,1,105.000004005432
240,160,71134,2,0,L|176:64,2,105.000004005432
224,304,71640,5,0,0:0:0:0:
256,320,71724,1,0,0:0:0:0:
288,304,71809,1,0,0:0:0:0:
288,80,71977,1,0,0:0:0:0:
256,64,72061,1,0,0:0:0:0:
224,80,72146,1,0,0:0:0:0:
224,240,72314,5,0,0:0:0:0:
256,256,72398,1,0,0:0:0:0:
288,240,72483,1,0,0:0:0:0:
384,96,72651,2,0,L|432:48,1,52.5000020027161
160,192,72988,6,0,P|128:144|80:208,1,157.500006008148
128,224,73325,1,0,0:0:0:0:
320,288,73663,6,0,L|336:304,1,13.125000500679
160,224,73831,2,0,L|144:240,1,13.125000500679
368,144,74000,2,0,L|384:160,1,13.125000500679
192,80,74337,2,0,B|128:32|128:32|144:112,1,157.500006008148
192,128,74674,1,0,0:0:0:0:
320,224,74842,2,0,B|368:288|368:288|320:224|352:272,1,105.000004005432
128,96,75348,6,0,L|112:80,1,13.125000500679
288,48,75685,1,0,0:0:0:0:
352,64,75854,1,0,0:0:0:0:
416,176,76022,2,0,P|400:240|320:240,1,157.500006008148
336,176,76359,1,0,0:0:0:0:
256,64,76528,2,0,B|192:32|192:32|176:64,1,105.000004005432
128,176,76865,5,0,0:0:0:0:
144,192,76949,1,0,0:0:0:0:
160,208,77033,1,0,0:0:0:0:
256,144,77202,1,0,0:0:0:0:
256,272,77370,2,0,B|256:336|256:336|288:304,2,105.000004005432
352,32,78045,1,0,0:0:0:0:
368,128,78382,6,0,P|432:112|384:160,1,157.500006008148
336,176,78719,1,0,0:0:0:0:
320,192,78803,1,0,0:0:0:0:
304,208,78888,1,0,0:0:0:0:
112,112,79056,2,0,L|80:64,1,52.5000020027161
96,208,79224,2,0,L|48:256,1,52.5000020027161
224,160,79393,2,0,L|288:160,1,52.5000020027161
368,320,79730,6,0,L|448:224,1,105.000004005432
432,128,80067,1,0,0:0:0:0:
256,224,80235,1,0,0:0:0:0:
400,64,80404,1,0,0:0:0:0:
224,112,80741,2,0,P|192:64|176:128,1,157.500006008148
208,160,81078,1,0,0:0:0:0:
352,48,81415,6,0,P|400:80|368:112,1,105.000004005432
320,96,81668,2,0,L|256:128,1,52.5000020027161
144,176,81921,1,0,0:0:0:0:
160,208,82005,1,0,0:0:0:0:
192,224,82089,1,0,0:0:0:0:
368,192,82258,1,0,0:0:0:0:
224,128,82426,2,0,P|192:80|240:112,1,157.500006008148
256,144,82764,1,0,0:0:0:0:
352,224,82932,1,0,0:0:0:0:
448,304,83101,1,0,0:0:0:0:
448,208,83438,5,0,0:0:0:0:
336,112,83606,1,0,0:0:0:0:
240,32,83775,2,0,P|192:48|240:64,2,105.000004005432
384,144,84449,6,0,P|416:128|400:160,1,52.5000020027161
368,192,84617,2,0,P|400:176|384:208,1,52.5000020027161
368,240,84786,2,0,P|416:240|368:272,2,105.000004005432
272,320,85292,1,0,0:0:0:0:
256,304,85376,1,0,0:0:0:0:
240,288,85460,1,0,0:0:0:0:
224,272,85544,1,0,0:0:0:0:
208,256,85629,1,0,0:0:0:0:
192,240,85713,1,0,0:0:0:0:
176,224,85797,1,0,0:0:0:0:
96,64,86134,6,0,L|80:48,1,13.125000500679
256,192,86471,12,0,90853,0:0:0:0:
