osu file format v14

[General]
AudioFilename: audio.mp3
AudioLeadIn: 0
PreviewTime: -1
Countdown: 1
SampleSet: Normal
StackLeniency: 0.7
Mode: 0
LetterboxInBreaks: 0
WidescreenStoryboard: 1

[Editor]
Bookmarks: 43338,59505,63550
DistanceSpacing: 1.7
BeatDivisor: 4
GridSize: 16
TimelineZoom: 2.899999

[Metadata]
Title:Heathens (DISTO Remix)
TitleUnicode:Heathens (DISTO Remix)
Artist:twenty one pilots
ArtistUnicode:twenty one pilots
Creator:RealXantoo
Version:Murder.
Source:
Tags:
BeatmapID:1439743
BeatmapSetID:588098

[Difficulty]
HPDrainRate:6
CircleSize:4
OverallDifficulty:7
ApproachRate:10
SliderMultiplier:1.4
SliderTickRate:1

[Events]
//Background and Video events
0,0,"Heathens storyboard psycho.png",0,0
//Break Periods
//Storyboard Layer 0 (Background)
//Storyboard Layer 1 (Fail)
//Storyboard Layer 2 (Pass)
//Storyboard Layer 3 (Foreground)
//Storyboard Sound Samples

[TimingPoints]
10630.1293666635,337.074416722859,4,1,0,100,1,0
21765,-200,4,1,0,100,0,0
32046,-100,4,1,0,100,0,0
45697,-200,4,1,0,100,0,0
53787,-66.6666666666667,4,1,0,100,0,0
64574,-66.6666666666667,4,1,0,100,0,0
64899,-66.6666666666667,4,1,0,100,0,1
87483,-66.6666666666667,4,1,0,80,0,0
88831,-66.6666666666667,4,1,0,60,0,0
90179,-66.6666666666667,4,1,0,30,0,0

[Colours]
Combo1 : 166,0,0
Combo2 : 166,0,0
Combo3 : 255,255,255
Combo4 : 164,0,0
Combo5 : 255,255,255

[HitObjects]
256,192,41978,5,0,0:0:0:0:
357,104,43326,5,0,0:0:0:0:
139,293,43494,1,0,0:0:0:0:
416,177,43663,1,0,0:0:0:0:
95,162,43831,1,0,0:0:0:0:
372,264,44000,1,0,0:0:0:0:
168,60,44169,1,0,0:0:0:0:
197,323,44337,1,0,0:0:0:0:
328,46,44506,1,0,0:0:0:0:
285,323,44674,5,0,0:0:0:0:
95,90,44843,1,0,0:0:0:0:
430,177,45011,1,0,0:0:0:0:
81,293,45180,1,0,0:0:0:0:
372,46,45348,1,0,0:0:0:0:
328,337,45517,1,0,0:0:0:0:
124,46,45685,1,0,0:0:0:0:
448,256,46022,6,0,L|384:288,1,70
368,128,46697,2,0,L|304:80,1,70
208,288,47371,2,0,L|144:336,1,70
144,96,48045,2,0,L|96:16,1,70
480,224,48719,5,0,0:0:0:0:
64,176,49056,1,0,0:0:0:0:
320,128,49225,1,0,0:0:0:0:
192,352,49393,1,0,0:0:0:0:
432,64,49730,5,0,0:0:0:0:
224,304,50067,1,0,0:0:0:0:
176,48,50236,1,0,0:0:0:0:
432,160,50404,1,0,0:0:0:0:
96,320,50741,5,0,0:0:0:0:
464,96,51079,1,0,0:0:0:0:
112,128,51416,2,0,L|80:48,1,70
160,256,52090,2,0,L|128:336,1,70
304,96,52764,2,0,L|384:32,1,70
304,272,53438,2,0,L|352:336,1,70
448,336,54112,6,0,L|448:208,1,105.000004005432
272,32,54449,1,0,0:0:0:0:
144,320,54618,1,0,0:0:0:0:
400,96,54786,1,0,0:0:0:0:
48,160,54955,1,0,0:0:0:0:
400,256,55123,1,0,0:0:0:0:
128,48,55292,6,0,L|48:128,1,105.000004005432
304,352,55629,1,0,0:0:0:0:
176,48,55798,1,0,0:0:0:0:
48,320,55966,1,0,0:0:0:0:
384,112,56135,1,0,0:0:0:0:
32,176,56303,1,0,0:0:0:0:
416,256,56472,2,0,B|480:272|480:272|448:208,1,105.000004005432
336,32,56809,5,0,0:0:0:0:
128,272,56977,1,0,0:0:0:0:
432,128,57146,1,0,0:0:0:0:
80,64,57314,1,0,0:0:0:0:
464,336,57483,1,0,0:0:0:0:
32,208,57652,1,0,0:0:0:0:
480,48,57820,1,0,0:0:0:0:
176,320,57989,1,0,0:0:0:0:
112,32,58157,6,0,L|240:48,1,105.000004005432
352,320,58494,1,0,0:0:0:0:
96,128,58662,1,0,0:0:0:0:
448,64,58831,1,0,0:0:0:0:
128,352,59000,1,0,0:0:0:0:
400,48,59168,1,0,0:0:0:0:
48,32,59337,1,0,0:0:0:0:
302,68,59505,5,0,0:0:0:0:
343,104,59589,1,0,0:0:0:0:
348,159,59673,1,0,0:0:0:0:
312,201,59757,1,0,0:0:0:0:
257,207,59842,1,0,0:0:0:0:
215,173,59926,1,0,0:0:0:0:
207,118,60010,1,0,0:0:0:0:
241,74,60094,1,0,0:0:0:0:
194,53,60180,5,0,0:0:0:0:
142,74,60264,1,0,0:0:0:0:
104,116,60348,1,0,0:0:0:0:
86,169,60432,1,0,0:0:0:0:
92,225,60517,1,0,0:0:0:0:
121,273,60601,1,0,0:0:0:0:
167,305,60685,1,0,0:0:0:0:
222,316,60769,1,0,0:0:0:0:
271,284,60854,5,0,0:0:0:0:
311,238,60938,1,0,0:0:0:0:
297,179,61022,1,0,0:0:0:0:
241,157,61106,1,0,0:0:0:0:
190,190,61191,1,0,0:0:0:0:
188,250,61275,1,0,0:0:0:0:
256,284,61359,5,0,0:0:0:0:
312,251,61443,1,0,0:0:0:0:
345,194,61527,1,0,0:0:0:0:
344,129,61611,1,0,0:0:0:0:
310,73,61696,1,0,0:0:0:0:
254,41,61780,1,0,0:0:0:0:
188,43,61864,1,0,0:0:0:0:
117,53,61949,5,0,0:0:0:0:
180,70,62033,1,0,0:0:0:0:
232,110,62117,1,0,0:0:0:0:
267,166,62201,1,0,0:0:0:0:
279,231,62286,1,0,0:0:0:0:
286,299,62371,5,0,0:0:0:0:
217,301,62455,1,0,0:0:0:0:
152,279,62539,1,0,0:0:0:0:
100,235,62623,1,0,0:0:0:0:
67,174,62708,1,0,0:0:0:0:
59,106,62792,1,0,0:0:0:0:
86,38,62876,5,0,0:0:0:0:
124,90,62960,1,0,0:0:0:0:
187,97,63044,1,0,0:0:0:0:
237,57,63128,1,0,0:0:0:0:
302,38,63213,5,0,0:0:0:0:
309,116,63297,1,0,0:0:0:0:
292,192,63381,1,0,0:0:0:0:
252,259,63465,1,0,0:0:0:0:
192,310,63550,1,0,0:0:0:0:
320,144,64562,6,0,P|352:80|368:160,1,157.500006008148
352,112,64899,1,0,0:0:0:0:
352,256,65067,1,0,0:0:0:0:
320,304,65151,1,0,0:0:0:0:
304,256,65236,1,0,0:0:0:0:
480,80,65404,1,0,0:0:0:0:
144,320,65573,6,0,L|48:144,1,157.500006008148
48,144,65910,1,0,0:0:0:0:
320,208,66078,1,0,0:0:0:0:
112,48,66247,1,0,0:0:0:0:
192,288,66584,5,0,0:0:0:0:
400,64,66753,1,0,0:0:0:0:
416,304,66921,2,0,L|416:384,1,52.5000020027161
176,80,67258,6,0,P|112:64|160:112,1,157.500006008148
144,80,67595,1,0,0:0:0:0:
112,96,67679,1,0,0:0:0:0:
160,112,67763,1,0,0:0:0:0:
400,64,67932,1,0,0:0:0:0:
208,288,68101,2,0,L|80:288,1,105.000004005432
272,224,68438,1,0,0:0:0:0:
96,48,68606,2,0,L|16:48,1,52.5000020027161
128,96,68775,1,0,0:0:0:0:
176,128,68859,1,0,0:0:0:0:
176,192,68944,1,0,0:0:0:0:
368,320,69112,5,0,0:0:0:0:
240,64,69281,1,0,0:0:0:0:
96,304,69449,1,0,0:0:0:0:
416,144,69618,2,0,P|432:96|368:96,2,105.000004005432
160,144,70123,1,0,0:0:0:0:
432,224,70292,1,0,0:0:0:0:
16,112,70460,1,0,0:0:0:0:
432,80,70629,1,0,0:0:0:0:
80,272,70797,2,0,L|0:304,1,52.5000020027161
256,176,70966,1,0,0:0:0:0:
48,304,71134,6,0,L|48:160,1,105.000004005432
448,80,71640,1,0,0:0:0:0:
176,320,71809,1,0,0:0:0:0:
336,80,71977,1,0,0:0:0:0:
400,320,72146,1,0,0:0:0:0:
96,128,72314,2,0,L|32:80,1,52.5000020027161
144,96,72483,1,0,0:0:0:0:
416,256,72651,6,0,L|480:128,1,105.000004005432
16,32,72988,1,0,0:0:0:0:
496,352,73325,1,0,0:0:0:0:
176,64,73641,6,0,L|160:48,1,13.125000500679
416,176,73831,2,0,L|416:192,1,13.125000500679
80,48,74000,1,0,0:0:0:0:
384,288,74337,6,0,L|384:368,1,52.5000020027161
384,240,74505,1,0,0:0:0:0:
96,240,74674,1,0,0:0:0:0:
400,64,74842,1,0,0:0:0:0:
48,64,75011,2,0,L|48:128,1,52.5000020027161
480,304,75348,5,0,0:0:0:0:
80,96,75685,6,0,B|80:64|80:64|160:80|176:32,2,105.000004005432
240,336,76191,1,0,0:0:0:0:
400,80,76359,1,0,0:0:0:0:
80,240,76528,1,0,0:0:0:0:
400,240,76696,1,0,0:0:0:0:
432,192,76780,1,0,0:0:0:0:
416,144,76865,1,0,0:0:0:0:
128,80,77033,2,0,L|64:48,1,52.5000020027161
304,304,77370,6,0,L|304:368,1,52.5000020027161
240,304,77539,1,0,0:0:0:0:
464,176,77707,1,0,0:0:0:0:
80,32,78045,2,0,L|16:32,1,52.5000020027161
416,176,78382,6,0,L|352:160,1,52.5000020027161
352,128,78550,2,0,L|384:208,1,52.5000020027161
368,160,78719,1,0,0:0:0:0:
112,320,78887,1,0,0:0:0:0:
352,80,79056,1,0,0:0:0:0:
64,256,79224,2,0,L|-16:256,1,52.5000020027161
64,192,79393,2,0,L|160:192,1,52.5000020027161
464,336,79730,5,0,0:0:0:0:
256,128,79898,1,0,0:0:0:0:
48,336,80067,2,0,L|48:256,1,52.5000020027161
112,336,80235,1,0,0:0:0:0:
448,32,80404,1,0,0:0:0:0:
48,192,80741,6,0,L|48:256,1,52.5000020027161
352,176,81078,6,0,L|480:144,2,105.000004005432
304,192,81500,1,0,0:0:0:0:
256,208,81584,1,0,0:0:0:0:
352,80,81752,1,0,0:0:0:0:
240,272,81921,1,0,0:0:0:0:
256,48,82089,1,0,0:0:0:0:
320,272,82258,2,0,L|336:352,1,52.5000020027161
304,224,82426,1,0,0:0:0:0:
96,80,82764,5,0,0:0:0:0:
96,288,82932,1,0,0:0:0:0:
272,176,83101,1,0,0:0:0:0:
208,336,83438,5,0,0:0:0:0:
476,336,83606,1,0,0:0:0:0:
336,112,83775,2,0,L|272:112,1,52.5000020027161
240,112,83943,1,0,0:0:0:0:
368,304,84112,1,0,0:0:0:0:
112,80,84280,1,0,0:0:0:0:
400,96,84449,5,0,0:0:0:0:
64,304,84617,1,0,0:0:0:0:
448,96,84786,1,0,0:0:0:0:
448,96,85123,5,0,0:0:0:0:
64,192,85292,1,0,0:0:0:0:
464,112,85460,1,0,0:0:0:0:
48,224,85629,1,0,0:0:0:0:
480,128,85797,1,0,0:0:0:0:
160,320,86134,5,0,0:0:0:0:
256,192,86471,12,0,90853,0:0:0:0:
