osu file format v14

[General]
AudioFilename: audio.mp3
AudioLeadIn: 0
PreviewTime: -1
Countdown: 1
SampleSet: Normal
StackLeniency: 0.7
Mode: 0
LetterboxInBreaks: 0
WidescreenStoryboard: 1

[Editor]
Bookmarks: 43338,59505,63550
DistanceSpacing: 1.7
BeatDivisor: 4
GridSize: 16
TimelineZoom: 2.899999

[Metadata]
Title:Heathens (DISTO Remix)
TitleUnicode:Heathens (DISTO Remix)
Artist:twenty one pilots
ArtistUnicode:twenty one pilots
Creator:RealXantoo
Version:Death.
Source:
Tags:
BeatmapID:1582417
BeatmapSetID:588098

[Difficulty]
HPDrainRate:7
CircleSize:4.5
OverallDifficulty:8
ApproachRate:10
SliderMultiplier:2.3
SliderTickRate:1

[Events]
//Background and Video events
0,0,"Heathens storyboard psycho.png",0,0
//Break Periods
//Storyboard Layer 0 (Background)
//Storyboard Layer 1 (Fail)
//Storyboard Layer 2 (Pass)
//Storyboard Layer 3 (Foreground)
//Storyboard Sound Samples

[TimingPoints]
10630.1293666635,337.074416722859,4,1,0,100,1,0
21765,-200,4,1,0,100,0,0
32046,-100,4,1,0,100,0,0
45697,-200,4,1,0,100,0,0
53787,-66.6666666666667,4,1,0,100,0,0
64574,-66.6666666666667,4,1,0,100,0,0
64899,-66.6666666666667,4,1,0,100,0,1
87483,-66.6666666666667,4,1,0,80,0,0
88831,-66.6666666666667,4,1,0,60,0,0
90179,-66.6666666666667,4,1,0,30,0,0

[Colours]
Combo1 : 166,0,0
Combo2 : 166,0,0
Combo3 : 255,255,255
Combo4 : 164,0,0
Combo5 : 255,255,255

[HitObjects]
80,112,43326,6,0,L|208:64,1,115
160,336,43663,2,0,L|80:224,1,115
176,32,44000,1,0,0:0:0:0:
432,208,44168,1,0,0:0:0:0:
96,208,44337,1,0,0:0:0:0:
368,32,44505,1,0,0:0:0:0:
208,304,44674,6,0,L|80:224,1,115
416,96,45011,2,0,L|432:256,1,115
112,112,45348,1,0,0:0:0:0:
432,48,45517,1,0,0:0:0:0:
224,320,45685,1,0,0:0:0:0:
64,64,45854,1,0,0:0:0:0:
368,96,46022,6,0,L|384:192,1,86.25
240,160,46360,2,0,P|272:128|336:128,1,86.25
352,288,46697,2,0,P|320:272|304:208,1,86.25
304,176,47034,1,0,0:0:0:0:
480,304,47202,1,0,0:0:0:0:
112,192,47371,2,0,L|48:128,1,86.25
112,192,47708,2,0,L|96:96,1,86.25
112,192,48045,2,0,L|160:288,1,86.25
320,336,48382,1,0,0:0:0:0:
240,32,48551,1,0,0:0:0:0:
80,288,48719,5,0,0:0:0:0:
48,352,48888,1,0,0:0:0:0:
160,336,49056,5,0,0:0:0:0:
128,256,49225,1,0,0:0:0:0:
208,192,49393,5,0,0:0:0:0:
224,288,49562,1,0,0:0:0:0:
304,272,49730,5,0,0:0:0:0:
272,112,49899,1,0,0:0:0:0:
352,80,50067,5,0,0:0:0:0:
176,288,50236,1,0,0:0:0:0:
416,144,50404,5,0,0:0:0:0:
80,240,50573,1,0,0:0:0:0:
464,224,50741,5,0,0:0:0:0:
32,160,50910,1,0,0:0:0:0:
416,304,51079,5,0,0:0:0:0:
16,64,51247,1,0,0:0:0:0:
416,192,51416,6,0,L|368:272,1,86.25
336,176,51753,2,0,L|272:96,1,86.25
208,240,52090,2,0,L|144:320,1,86.25
80,112,52427,1,0,0:0:0:0:
416,32,52595,1,0,0:0:0:0:
352,352,52764,1,0,0:0:0:0:
96,32,52932,1,0,0:0:0:0:
480,96,53101,1,0,0:0:0:0:
208,352,53270,1,0,0:0:0:0:
80,48,53438,1,0,0:0:0:0:
480,128,53607,1,0,0:0:0:0:
128,352,53775,1,4,0:0:0:0:
320,64,54112,6,0,P|400:48|448:192,1,258.75000987053
112,240,54449,2,0,L|272:0,1,258.75000987053
144,352,54786,2,0,L|240:64,1,258.75000987053
240,64,55123,1,0,0:0:0:0:
368,320,55292,1,0,0:0:0:0:
48,112,55461,6,0,B|144:48|144:48|320:112,1,258.75000987053
144,320,55798,2,0,B|64:192|64:192|176:112,1,258.75000987053
448,272,56135,2,0,B|368:352|368:352|208:320,1,258.75000987053
176,304,56472,1,0,0:0:0:0:
80,32,56640,1,0,0:0:0:0:
464,112,56809,1,0,0:0:0:0:
224,352,56977,1,0,0:0:0:0:
128,32,57146,1,0,0:0:0:0:
480,176,57314,1,0,0:0:0:0:
112,320,57483,2,0,P|48:256|48:160,1,172.500006580353
416,32,57820,2,0,P|480:96|480:192,1,172.500006580353
112,288,58157,5,0,0:0:0:0:
416,160,58326,1,0,0:0:0:0:
48,176,58494,1,0,0:0:0:0:
464,224,58663,1,0,0:0:0:0:
32,80,58831,1,0,0:0:0:0:
464,304,59000,1,0,0:0:0:0:
96,16,59168,1,0,0:0:0:0:
368,368,59337,1,0,0:0:0:0:
87,57,59505,5,0,0:0:0:0:
127,28,59589,1,0,0:0:0:0:
175,17,59673,1,0,0:0:0:0:
225,22,59757,1,0,0:0:0:0:
269,45,59842,1,0,0:0:0:0:
302,83,59926,1,0,0:0:0:0:
319,129,60010,1,0,0:0:0:0:
319,179,60094,1,0,0:0:0:0:
301,225,60179,1,0,0:0:0:0:
267,262,60263,1,0,0:0:0:0:
223,285,60347,1,0,0:0:0:0:
254,330,60432,1,0,0:0:0:0:
302,358,60516,1,0,0:0:0:0:
357,362,60600,1,0,0:0:0:0:
407,343,60685,5,0,0:0:0:0:
417,283,60769,1,0,0:0:0:0:
410,222,60853,1,0,0:0:0:0:
388,166,60937,1,0,0:0:0:0:
351,118,61022,1,0,0:0:0:0:
303,82,61106,1,0,0:0:0:0:
246,60,61190,1,0,0:0:0:0:
186,55,61274,1,0,0:0:0:0:
121,57,61359,5,0,0:0:0:0:
167,95,61443,1,0,0:0:0:0:
213,134,61527,1,0,0:0:0:0:
261,173,61611,1,0,0:0:0:0:
307,212,61696,1,0,0:0:0:0:
354,250,61780,1,0,0:0:0:0:
309,300,61865,1,0,0:0:0:0:
247,324,61949,1,0,0:0:0:0:
181,319,62033,1,0,0:0:0:0:
124,285,62118,1,0,0:0:0:0:
86,230,62202,1,0,0:0:0:0:
76,164,62286,1,0,0:0:0:0:
94,99,62370,1,0,0:0:0:0:
140,50,62455,1,0,0:0:0:0:
205,25,62539,1,0,0:0:0:0:
272,32,62623,5,0,0:0:0:0:
339,84,62707,1,0,0:0:0:0:
373,163,62791,1,0,0:0:0:0:
365,248,62875,1,0,0:0:0:0:
318,319,62960,1,0,0:0:0:0:
241,358,63044,1,0,0:0:0:0:
157,357,63128,1,0,0:0:0:0:
82,314,63212,1,0,0:0:0:0:
38,240,63297,1,0,0:0:0:0:
48,157,63382,1,0,0:0:0:0:
118,105,63466,1,0,0:0:0:0:
203,87,63550,1,0,0:0:0:0:
256,64,64562,5,0,0:0:0:0:
256,224,64730,2,0,L|256:320,1,172.500006580353
256,64,65067,1,0,0:0:0:0:
128,288,65236,1,0,0:0:0:0:
400,288,65404,1,0,0:0:0:0:
240,176,65741,6,0,L|144:112,1,86.2500032901765
48,64,65910,2,0,L|128:96,1,86.2500032901765
368,96,66247,6,0,L|464:144,1,86.2500032901765
384,240,66415,2,0,L|352:128,1,86.2500032901765
240,224,66584,2,0,L|320:256,1,86.2500032901765
384,240,66753,1,0,0:0:0:0:
224,64,66921,1,0,0:0:0:0:
112,352,67258,6,0,L|208:352,1,86.2500032901765
160,64,67595,6,0,L|96:176,1,86.2500032901765
48,256,67764,2,0,L|96:176,1,86.2500032901765
96,48,67932,2,0,L|96:160,1,86.2500032901765
112,272,68101,2,0,L|112:144,1,86.2500032901765
64,144,68269,1,0,0:0:0:0:
256,144,68354,1,0,0:0:0:0:
480,160,68438,6,0,L|272:176,1,172.500006580353
416,64,68775,2,0,L|464:144,1,86.2500032901765
480,176,68944,1,0,0:0:0:0:
448,256,69028,1,0,0:0:0:0:
368,304,69112,1,0,0:0:0:0:
112,80,69281,2,0,L|224:32,1,86.2500032901765
192,304,69449,2,0,L|96:272,1,86.2500032901765
416,128,69618,2,0,L|416:224,1,86.2500032901765
112,192,69955,1,0,0:0:0:0:
416,272,70292,6,0,P|352:336|240:352,1,172.500006580353
336,144,70629,2,0,L|416:192,1,86.2500032901765
304,272,70797,2,0,L|384:160,1,86.2500032901765
368,160,70966,1,0,0:0:0:0:
352,80,71050,1,0,0:0:0:0:
288,32,71134,1,0,0:0:0:0:
64,128,71303,1,0,0:0:0:0:
416,304,71472,1,0,0:0:0:0:
240,48,71640,2,0,L|224:16,1,21.5625008225441
128,256,71977,6,0,L|112:272,1,21.5625008225441
400,96,72146,2,0,L|432:96,1,21.5625008225441
48,160,72314,1,0,0:0:0:0:
368,336,72651,5,0,0:0:0:0:
128,64,72988,6,0,L|32:112,1,86.2500032901765
112,128,73157,1,0,0:0:0:0:
160,96,73241,1,0,0:0:0:0:
208,64,73325,1,0,0:0:0:0:
336,304,73494,2,0,L|304:320,2,21.5625008225441
416,192,73663,2,0,L|432:208,2,21.5625008225441
256,176,73831,2,0,L|240:160,2,21.5625008225441
432,304,74000,1,0,0:0:0:0:
400,48,74168,1,0,0:0:0:0:
64,272,74337,1,0,0:0:0:0:
432,144,74674,5,0,0:0:0:0:
32,352,74842,1,0,0:0:0:0:
336,320,75011,1,0,0:0:0:0:
112,32,75179,1,0,0:0:0:0:
48,128,75348,2,0,P|224:144|304:80,1,258.75000987053
160,48,75685,5,0,0:0:0:0:
128,336,75854,1,0,0:0:0:0:
464,208,76022,1,0,0:0:0:0:
112,32,76191,2,0,L|48:144,1,86.2500032901765
256,144,76359,2,0,L|256:32,1,86.2500032901765
400,32,76528,2,0,L|464:144,1,86.2500032901765
256,144,76696,1,0,0:0:0:0:
80,320,76865,1,0,0:0:0:0:
480,176,77033,1,0,0:0:0:0:
80,32,77370,5,0,0:0:0:0:
80,352,77539,1,0,0:0:0:0:
352,192,77707,2,0,L|384:192,1,21.5625008225441
176,112,77876,2,0,L|256:208,1,86.2500032901765
272,208,78045,1,0,0:0:0:0:
288,128,78129,1,0,0:0:0:0:
224,64,78213,1,0,0:0:0:0:
128,80,78297,1,0,0:0:0:0:
80,192,78382,1,0,0:0:0:0:
320,336,78550,5,0,0:0:0:0:
448,64,78719,1,0,0:0:0:0:
64,272,78887,2,0,L|144:304,1,86.2500032901765
256,352,79056,2,0,L|192:256,1,86.2500032901765
80,208,79224,2,0,L|208:192,1,86.2500032901765
448,128,79393,1,0,0:0:0:0:
480,192,79561,1,0,0:0:0:0:
448,256,79730,1,0,0:0:0:0:
128,80,80067,1,0,0:0:0:0:
192,48,80235,1,0,0:0:0:0:
256,80,80404,1,0,0:0:0:0:
96,304,80741,6,0,L|64:336,2,43.1250016450883
160,224,80910,1,0,0:0:0:0:
256,160,81078,1,0,0:0:0:0:
384,144,81247,1,0,0:0:0:0:
384,336,81415,5,0,0:0:0:0:
263,293,81584,1,0,0:0:0:0:
186,191,81752,1,0,0:0:0:0:
175,64,81921,1,0,0:0:0:0:
432,96,82089,5,0,0:0:0:0:
337,198,82258,1,0,0:0:0:0:
224,256,82426,2,0,L|192:272,4,21.5625008225441
75,284,82595,1,0,0:0:0:0:
96,64,82764,5,0,0:0:0:0:
320,144,82932,1,0,0:0:0:0:
96,320,83101,1,0,0:0:0:0:
448,64,83438,5,0,0:0:0:0:
160,336,83775,6,0,L|48:224,1,86.2500032901765
16,192,83943,2,0,L|128:224,1,86.2500032901765
144,240,84112,1,0,0:0:0:0:
432,160,84280,1,0,0:0:0:0:
96,64,84449,1,0,0:0:0:0:
384,288,84617,2,0,L|464:352,1,86.2500032901765
416,240,84786,2,0,L|336:176,1,86.2500032901765
320,144,84955,1,0,0:0:0:0:
192,64,85039,1,0,0:0:0:0:
48,96,85123,1,8,0:0:0:0:
256,320,85292,5,0,0:0:0:0:
448,32,85460,1,0,0:0:0:0:
16,176,85629,1,0,0:0:0:0:
480,272,85797,1,0,0:0:0:0:
256,192,86134,5,0,0:0:0:0:
256,192,86471,12,0,90961,0:0:0:0:
