osu file format v14

[General]
AudioFilename: audio.ogg
AudioLeadIn: 0
PreviewTime: 49546
Countdown: 0
SampleSet: Soft
StackLeniency: 0.1
Mode: 0
LetterboxInBreaks: 0
WidescreenStoryboard: 0

[Editor]
DistanceSpacing: 1
BeatDivisor: 4
GridSize: 8
TimelineZoom: 1.4

[Metadata]
Title:Take A Hike
TitleUnicode:Take A Hike
Artist:tv room
ArtistUnicode:tv room
Creator:DigiDrake
Version:the cool reprieve of a summer sunset
Source:
Tags:english electronic indie alternative deskpop hyperpop hyper pop ep portland the great state of maine lake attitash multimedia commission watershed association
BeatmapID:4510857
BeatmapSetID:2142850

[Difficulty]
HPDrainRate:5
CircleSize:4.2
OverallDifficulty:9
ApproachRate:9.4
SliderMultiplier:1.8
SliderTickRate:1

[Events]
//Background and Video events
0,0,"dog5.jpg",0,0
Video,450,"oh yeah.mp4"
//Break Periods
//Storyboard Layer 0 (Background)
//Storyboard Layer 1 (Fail)
//Storyboard Layer 2 (Pass)
//Storyboard Layer 3 (Foreground)
//Storyboard Layer 4 (Overlay)
//Storyboard Sound Samples

[TimingPoints]
495,394.736842105263,4,2,2,60,1,0
495,-100,4,2,2,60,0,0
4837,-76.9230769230769,4,2,2,60,0,0
12731,-76.9230769230769,4,2,2,65,0,0
13126,-76.9230769230769,4,2,2,70,0,1
19047,-76.9230769230769,4,2,2,70,0,0
19442,-76.9230769230769,4,2,2,70,0,1
25758,390.879478827362,4,2,1,50,1,0
25758,-100,4,2,1,50,0,0
26539,428.571428571429,4,2,1,50,1,0
26967,431.654676258993,4,2,1,50,1,0
27335,392.156862745098,4,2,1,50,1,0
28119,372.670807453416,4,2,1,50,1,0
28491,428.571428571429,4,2,1,50,1,0
28909,394.736842105263,4,2,1,50,1,0
29698,408.163265306122,4,2,1,50,1,0
30106,382.165605095541,4,2,1,50,1,0
30106,-333.333333333333,4,2,1,50,0,0
30392,-333.333333333333,4,2,1,5,0,0
30488,394.736842105263,4,2,1,50,1,0
30488,-76.9230769230769,4,2,1,50,0,1
30784,-76.9230769230769,4,2,1,5,0,1
30882,-76.9230769230769,4,2,1,50,0,1
31178,-76.9230769230769,4,2,1,5,0,1
31277,405.405405405405,4,2,1,50,1,0
31277,-76.9230769230769,4,2,1,50,0,1
31581,-76.9230769230769,4,2,1,5,0,1
31682,387.096774193548,4,2,1,50,1,0
31682,-76.9230769230769,4,2,1,50,0,0
32456,405.405405405405,4,2,1,50,1,0
32861,400,4,2,1,50,1,0
33261,382.165605095541,4,2,1,50,1,0
33643,397.350993377483,4,2,1,50,1,0
34040,394.736842105263,4,2,1,50,1,0
34434,400,4,2,1,50,1,0
34834,394.736842105263,4,2,1,50,1,0
35228,394.736842105263,4,2,1,50,1,0
36017,397.350993377483,4,2,1,50,1,0
36811,393.44262295082,4,2,1,50,1,0
37991,359.281437125748,4,2,1,50,1,0
37991,-100,4,2,1,50,0,0
38383,397.350993377483,4,2,1,50,1,0
39177,400,4,2,1,50,1,0
39577,382.165605095541,4,2,1,50,1,0
39959,394.736842105263,4,2,1,50,1,0
40748,402.684563758389,4,2,1,50,1,0
41150,392.156862745098,4,2,1,50,1,0
41542,387.096774193548,4,2,1,50,1,0
41929,408.163265306122,4,2,1,50,1,0
42337,387.096774193548,4,2,1,50,1,0
42724,397.350993377483,4,2,1,50,1,0
43916,392.156862745098,4,2,1,50,1,0
44308,394.736842105263,4,2,1,50,1,0
45492,392.156862745098,4,2,1,50,1,0
45884,394.736842105263,4,2,1,50,1,0
47856,402.684563758389,4,2,1,50,1,0
47906,-100,4,2,1,5,0,0
48258,413.793103448276,4,2,1,50,1,0
48258,-100,4,2,1,50,0,0
48671,437.956204379562,4,2,1,50,1,0
49546,468.75,4,2,1,50,1,0
49604,-100,4,2,1,5,0,0
50011,-100,4,2,1,50,0,0
50952,394.088669950738,4,2,1,50,1,0
50952,-100,4,2,1,60,0,1
51149,-71.4285714285714,4,2,1,60,0,0
51346,394.736842105263,4,2,2,70,1,0
51346,-52.6315789473684,4,2,2,70,0,1
51740,-76.9230769230769,4,2,2,70,0,1
52924,-66.6666666666667,4,2,2,70,0,1
53319,-76.9230769230769,4,2,2,70,0,1
57267,-76.9230769230769,4,2,2,70,0,0
57661,-66.6666666666667,4,2,2,70,0,1
58056,-76.9230769230769,4,2,2,70,0,1
59240,-66.6666666666667,4,2,2,70,0,1
59635,-76.9230769230769,4,2,2,70,0,1
63582,-76.9230769230769,4,2,2,70,0,0
63977,-66.6666666666667,4,2,2,75,0,1
65951,-76.9230769230769,4,2,2,75,0,1
76609,-66.6666666666667,4,2,1,60,0,0
77201,-90.9090909090909,4,2,1,60,0,0
77398,-90.9090909090909,4,2,1,55,0,0
79366,-90.9090909090909,4,2,1,55,0,0
79767,370.37037037037,4,2,1,55,1,0
79767,-64.5161290322581,4,2,1,55,0,0
80013,468.75,4,2,1,55,1,0
80169,392.156862745098,4,2,1,55,1,0
80169,-66.6666666666667,4,2,1,55,0,0
80430,447.761194029851,4,2,1,55,1,0
80579,431.654676258993,4,2,1,55,1,0
80579,-161.290322580645,4,2,1,55,0,0
80866,491.803278688525,4,2,1,55,1,0
81029,451.127819548873,4,2,1,55,1,0
81329,508.474576271187,4,2,1,55,1,0
81498,495.867768595042,4,2,1,55,1,0
81498,-142.857142857143,4,2,1,55,0,0
81828,530.973451327434,4,2,1,55,1,0
82004,521.739130434783,4,2,1,55,1,0
82525,530.973451327434,4,2,1,55,1,0
83055,600.000000000001,4,2,1,55,1,0
83626,437.956204379562,4,2,1,55,1,0
84063,402.684563758389,4,2,1,55,1,0
84465,394.736842105263,4,2,1,55,1,0
84859,393.44262295082,4,2,1,55,1,0
86825,454.545454545455,4,2,1,55,1,0

[Colours]
Combo1 : 205,243,254
Combo2 : 196,252,154
Combo3 : 120,190,97
Combo4 : 109,182,235

[HitObjects]
67,272,495,5,10,0:3:0:0:
55,198,593,1,0,0:0:0:0:
97,133,692,1,2,0:0:0:0:
173,105,791,1,0,0:0:0:0:
267,135,889,5,8,0:1:0:0:
248,54,988,1,0,0:0:0:0:
475,324,1284,5,8,0:3:0:0:
487,250,1383,1,0,0:0:0:0:
445,185,1481,1,0,0:0:0:0:
369,157,1580,1,0,0:0:0:0:
271,194,1679,5,8,0:1:0:0:
286,120,1777,1,0,0:0:0:0:
256,352,1975,5,0,0:0:0:0:
198,314,2073,1,8,0:3:0:0:
220,316,2172,1,0,0:0:0:0:
242,318,2271,1,0,0:0:0:0:
264,319,2369,1,0,0:0:0:0:
316,293,2468,5,8,0:1:0:0:
266,298,2567,1,0,0:0:0:0:
216,301,2666,1,0,0:0:0:0:
166,301,2764,1,0,0:0:0:0:
124,216,2863,5,8,0:3:0:0:
205,260,2962,1,0,0:0:0:0:
296,237,3060,1,0,0:0:0:0:
321,136,3159,1,0,0:0:0:0:
267,154,3258,5,8,0:1:0:0:
378,184,3356,1,0,0:0:0:0:
490,28,3554,5,0,0:0:0:0:
425,78,3652,1,8,0:3:0:0:
412,84,3751,1,0,0:0:0:0:
475,139,3850,1,0,0:0:0:0:
491,148,3948,1,0,0:0:0:0:
369,20,4047,5,8,0:1:0:0:
366,25,4146,1,0,0:0:0:0:
335,47,4442,5,8,0:3:0:0:
321,118,4541,1,0,0:0:0:0:
354,196,4639,1,0,0:0:0:0:
436,258,4738,1,0,0:0:0:0:
453,207,4837,5,8,0:1:0:0:
362,238,4935,1,0,0:0:0:0:
77,298,5133,5,0,0:0:0:0:
137,266,5231,1,8,0:3:0:0:
114,274,5330,1,0,0:0:0:0:
87,265,5429,1,0,0:0:0:0:
77,248,5527,1,0,0:0:0:0:
37,182,5626,5,8,0:1:0:0:
110,171,5725,1,0,0:0:0:0:
182,204,5823,1,0,0:0:0:0:
213,275,5922,1,0,0:0:0:0:
138,373,6021,5,8,0:3:0:0:
114,299,6119,1,0,0:0:0:0:
101,221,6218,1,0,0:0:0:0:
105,136,6317,1,0,0:0:0:0:
244,120,6416,5,8,0:1:0:0:
183,171,6514,1,0,0:0:0:0:
127,53,6613,5,0,0:0:0:0:
209,40,6712,1,0,0:0:0:0:
325,174,6810,6,0,P|332:145|322:117,1,58.4999973220826,10|0,0:3|0:0,0:0:0:0:
332,277,7008,6,0,P|389:193|432:225,1,175.499991966248,2|0,0:0|0:0,0:0:0:0:
512,65,7402,1,0,1:0:0:0:
482,152,7501,1,0,0:0:0:0:
466,128,7600,2,0,P|439:124|401:117,1,58.4999973220826,8|0,3:3|0:0,0:0:0:0:
312,63,7797,1,0,3:0:0:0:
305,55,7896,1,0,0:0:0:0:
377,50,7994,5,8,0:1:0:0:
320,93,8093,1,0,0:0:0:0:
239,110,8192,1,0,0:0:0:0:
156,86,8291,1,0,0:0:0:0:
46,186,8389,5,8,0:3:0:0:
112,162,8488,1,0,0:0:0:0:
71,152,8587,1,0,0:0:0:0:
113,207,8685,1,0,0:0:0:0:
106,82,8784,6,0,P|108:46|101:11,1,58.4999973220826,8|0,1:1|0:0,0:0:0:0:
72,221,8981,2,0,P|69:256|35:301,1,58.4999973220826,0|0,1:0|0:0,0:0:0:0:
321,316,9179,6,0,L|245:305,1,58.4999973220826,8|0,3:3|0:0,0:0:0:0:
340,272,9376,2,0,L|276:233,1,58.4999973220826,0|0,3:0|0:0,0:0:0:0:
402,358,9573,5,8,0:1:0:0:
377,287,9672,1,0,0:0:0:0:
417,217,9771,1,0,0:0:0:0:
495,217,9869,1,0,0:0:0:0:
463,290,9968,5,8,0:3:0:0:
463,290,10067,1,0,0:0:0:0:
463,290,10166,1,0,0:0:0:0:
463,290,10264,1,0,0:0:0:0:
343,186,10363,6,0,L|284:136,1,58.4999973220826,8|0,1:1|0:0,0:0:0:0:
454,138,10560,2,0,L|437:63,1,58.4999973220826,0|0,1:0|0:0,0:0:0:0:
229,106,10758,6,0,P|220:150|233:182,1,58.4999973220826,8|0,3:3|0:0,0:0:0:0:
475,12,10955,2,0,P|508:40|515:73,1,58.4999973220826,0|0,3:0|0:0,0:0:0:0:
405,87,11152,5,8,0:1:0:0:
331,92,11251,1,0,0:0:0:0:
249,72,11350,1,0,0:0:0:0:
186,18,11448,1,0,0:0:0:0:
101,140,11547,5,8,0:3:0:0:
99,157,11646,1,0,0:0:0:0:
101,174,11744,1,0,0:0:0:0:
108,189,11843,1,0,0:0:0:0:
138,262,11942,5,8,1:1:0:0:
224,258,12041,1,0,0:0:0:0:
268,189,12139,1,0,1:0:0:0:
222,114,12238,1,0,0:0:0:0:
358,140,12337,5,8,3:3:0:0:
319,205,12435,1,0,0:0:0:0:
350,278,12534,1,0,3:0:0:0:
428,290,12633,1,0,0:0:0:0:
477,165,12731,5,10,1:1:0:0:
490,239,12830,1,0,0:0:0:0:
496,139,12929,5,2,1:0:0:0:
509,212,13027,1,0,0:0:0:0:
506,56,13126,6,0,B|475:55|449:40|449:40|370:27|313:59,1,175.499991966248,10|0,3:3|0:0,0:0:0:0:
250,91,13521,2,0,L|263:11,1,58.4999973220826,10|0,1:1|0:0,0:0:0:0:
257,306,13718,6,0,L|268:363,1,58.4999973220826,2|0,1:0|0:0,0:0:0:0:
355,195,13916,1,8,3:3:0:0:
281,202,14014,1,0,0:0:0:0:
207,180,14113,1,0,3:0:0:0:
134,195,14212,1,0,0:0:0:0:
47,278,14310,6,0,P|75:282|118:277,1,58.4999973220826,10|0,0:1|0:0,0:0:0:0:
24,135,14508,2,0,P|54:124|89:120,1,58.4999973220826,2|0,0:0|0:0,0:0:0:0:
259,33,14705,2,0,P|323:68|307:173,1,175.499991966248,8|0,0:3|0:0,0:0:0:0:
404,249,15100,5,10,1:1:0:0:
435,254,15198,1,0,0:0:0:0:
466,259,15297,1,2,1:0:0:0:
498,264,15396,1,0,0:0:0:0:
406,341,15494,6,0,B|344:345|278:315|278:315|350:295,1,175.499991966248,8|0,3:3|0:0,0:0:0:0:
373,250,15889,5,10,1:1:0:0:
326,187,15988,1,0,0:0:0:0:
237,162,16087,1,2,1:0:0:0:
143,199,16185,1,0,0:0:0:0:
118,328,16284,6,0,L|248:306,1,116.999994644165,10|0,0:3|0:0,0:0:0:0:
84,309,16580,1,0,0:0:0:0:
77,315,16679,2,0,L|-3:307,1,58.4999973220826,8|0,1:1|0:0,0:0:0:0:
227,335,16876,2,0,L|154:327,1,58.4999973220826,0|0,1:0|0:0,0:0:0:0:
79,113,17073,5,8,3:3:0:0:
79,113,17172,1,0,0:0:0:0:
79,113,17271,1,2,3:0:0:0:
79,113,17369,1,0,0:0:0:0:
94,57,17468,5,10,0:1:0:0:
126,132,17567,1,0,0:0:0:0:
59,182,17666,1,2,0:0:0:0:
27,133,17764,1,0,0:0:0:0:
129,219,17863,6,0,B|127:255|101:312|101:312|75:267,1,116.999994644165,8|0,0:3|0:0,0:0:0:0:
279,316,18159,1,0,0:0:0:0:
197,350,18258,2,0,P|151:378|117:379,1,58.4999973220826,8|0,1:1|0:0,0:0:0:0:
370,283,18455,2,0,P|365:342|349:364,1,58.4999973220826,0|0,1:0|0:0,0:0:0:0:
234,66,18652,6,0,L|247:-10,1,58.4999973220826,8|0,3:3|0:0,0:0:0:0:
263,307,18850,6,0,L|280:373,1,58.4999973220826,0|0,3:0|0:0,0:0:0:0:
163,136,19047,5,10,1:1:0:0:
263,90,19146,5,0,0:0:0:0:
333,173,19244,5,2,1:0:0:0:
280,267,19343,5,0,0:0:0:0:
172,247,19442,6,0,B|101:280|27:263|27:263|46:283,1,175.499991966248,10|0,0:3|0:0,0:0:0:0:
74,188,19837,2,0,P|69:158|50:120,1,58.4999973220826,10|0,1:1|0:0,0:0:0:0:
118,299,20034,2,0,P|117:330|107:364,1,58.4999973220826,2|0,1:0|0:0,0:0:0:0:
256,174,20231,2,0,B|383:142|383:142|330:174,1,175.499991966248,8|0,3:3|0:0,0:0:0:0:
407,103,20626,5,10,0:1:0:0:
509,129,20725,1,0,0:0:0:0:
482,180,20823,5,2,0:0:0:0:
445,192,20922,1,0,0:0:0:0:
490,272,21021,2,0,P|418:279|371:242,1,116.999994644165,8|0,0:3|0:0,0:0:0:0:
273,322,21317,1,0,0:0:0:0:
346,337,21416,2,0,L|392:388,1,58.4999973220826,10|0,1:1|0:0,0:0:0:0:
230,253,21613,2,0,L|178:301,1,58.4999973220826,2|0,1:0|0:0,0:0:0:0:
427,113,21810,2,0,B|464:72|464:72|389:75|354:122,1,175.499991966248,8|0,3:3|0:0,0:0:0:0:
266,13,22205,5,10,1:1:0:0:
287,90,22304,1,0,0:0:0:0:
240,169,22402,1,2,1:0:0:0:
147,188,22501,1,0,0:0:0:0:
82,99,22600,6,0,B|115:105|115:105|10:128,1,116.999994644165,10|0,0:3|0:0,0:0:0:0:
45,161,22896,1,0,0:0:0:0:
36,171,22994,2,0,L|3:109,1,58.4999973220826,8|0,1:1|0:0,0:0:0:0:
42,278,23192,2,0,L|-2:341,1,58.4999973220826,0|0,1:0|0:0,0:0:0:0:
36,353,23389,5,8,3:3:0:0:
36,353,23488,1,0,0:0:0:0:
36,353,23587,1,2,3:0:0:0:
36,353,23685,1,0,0:0:0:0:
118,309,23784,5,10,0:1:0:0:
162,382,23883,1,0,0:0:0:0:
221,315,23981,1,2,0:0:0:0:
286,350,24080,1,0,0:0:0:0:
380,329,24179,6,0,L|391:252,1,58.4999973220826,8|0,0:3|0:0,0:0:0:0:
503,69,24376,1,0,0:0:0:0:
418,126,24475,1,0,0:0:0:0:
427,78,24573,6,0,L|410:23,1,58.4999973220826,8|0,1:1|0:0,0:0:0:0:
357,308,24771,2,0,L|433:287,1,58.4999973220826,0|0,1:0|0:0,0:0:0:0:
144,99,24968,6,0,L|110:79,1,29.2499986610413,8|0,3:3|0:0,0:0:0:0:
208,255,25166,6,0,L|220:287,1,29.2499986610413,0|0,3:0|0:0,0:0:0:0:
315,136,25363,6,0,L|339:113,1,29.2499986610413,8|0,1:1|0:0,0:0:0:0:
223,159,25560,5,0,1:0:0:0:
223,159,25758,6,0,B|162:202|90:166|90:166|64:176|60:212,2,180,14|10|10,0:3|0:0|0:0,0:0:0:0:
247,71,26967,1,0,1:0:0:0:
156,81,27182,5,0,1:0:0:0:
151,75,27236,5,0,1:0:0:0:
221,49,27335,5,2,0:0:0:0:
202,161,27727,1,10,0:0:0:0:
181,272,28119,1,10,0:0:0:0:
191,172,28491,5,0,1:0:0:0:
356,191,28705,5,0,1:0:0:0:
352,197,28758,5,0,1:0:0:0:
448,214,28909,6,0,P|452:164|410:127,1,90,2|0,0:0|0:0,0:0:0:0:
359,218,29303,2,0,P|400:246|453:228,1,90,10|0,0:0|0:0,0:0:0:0:
403,139,29698,2,0,P|357:160|346:215,1,90,10|0,0:0|0:0,0:0:0:0:
408,220,30106,6,0,L|403:178,1,40.4999987640381,2|0,0:0|0:0,0:0:0:0:
79,213,30488,6,0,P|122:280|204:244,1,175.499991966248,2|0,1:0|0:0,0:0:0:0:
186,91,30882,6,0,P|106:94|96:183,1,175.499991966248,10|0,1:2|0:0,0:0:0:0:
243,246,31277,6,0,P|279:175|207:122,1,175.499991966248,10|0,1:2|0:0,0:0:0:0:
168,182,31682,5,2,0:0:0:0:
175,197,31875,1,0,1:0:0:0:
379,131,32069,1,2,0:0:0:0:
70,65,32456,1,10,0:0:0:0:
269,3,32861,1,10,0:0:0:0:
187,115,33261,5,2,0:0:0:0:
261,200,33452,1,0,1:0:0:0:
201,323,33643,5,2,0:0:0:0:
220,159,34040,1,10,0:0:0:0:
243,9,34434,1,10,0:0:0:0:
174,134,34834,5,2,0:0:0:0:
268,187,35031,1,0,1:0:0:0:
16,192,35228,5,2,0:0:0:0:
213,177,35622,1,8,0:0:0:0:
415,163,36017,1,8,0:0:0:0:
22,175,36811,6,0,L|34:144,1,22.5
225,191,37204,2,0,L|237:216,1,22.5,8|0,0:0|0:0,0:0:0:0:
443,160,37597,2,0,L|479:156,1,22.5,8|0,0:0|0:0,0:0:0:0:
366,172,37991,5,0,1:0:0:0:
438,76,38170,5,0,1:0:0:0:
442,84,38215,5,0,1:0:0:0:
511,122,38383,6,0,P|489:187|441:147,1,135,6|0,0:0|0:0,0:0:0:0:
356,129,38780,2,0,P|379:168|414:141,1,90,10|0,0:0|0:0,0:0:0:0:
249,152,39177,2,0,L|103:132,1,135,10|0,0:0|0:0,0:0:0:0:
40,121,39577,1,2,0:0:0:0:
40,121,39959,6,0,B|49:193|49:193|56:172,1,90,2|0,0:0|0:0,0:0:0:0:
138,48,40353,2,0,L|149:13,1,22.5,10|0,0:0|0:0,0:0:0:0:
129,154,40748,2,0,L|140:120,1,22.5,10|0,0:0|0:0,0:0:0:0:
127,39,41150,6,0,L|138:1,1,22.5,2|0,1:2|0:0,0:0:0:0:
199,78,41297,1,8,3:0:0:0:
281,63,41395,1,8,3:0:0:0:
312,139,41542,2,0,P|299:185|345:240,1,112.5,2|0,1:0|3:0,0:0:0:0:
503,341,41929,2,0,B|508:351|508:351|472:341,1,45,10|0,1:0|0:0,0:0:0:0:
431,257,42184,5,0,3:0:0:0:
480,197,42337,2,0,B|500:86|500:86|476:107,1,135,10|0,0:0|0:0,0:0:0:0:
473,110,42724,1,2,0:0:0:0:
410,155,43121,1,2,1:2:0:0:
332,93,43518,1,10,1:2:0:0:
256,191,43916,1,10,1:2:0:0:
186,92,44308,1,2,0:0:0:0:
121,158,44702,1,2,0:0:0:0:
62,107,45097,2,0,P|45:172|60:210,1,90,10|0,0:0|0:0,0:0:0:0:
38,111,45492,2,0,P|16:201|82:252,1,180,10|2,0:0|0:0,0:0:0:0:
75,250,46278,5,2,0:0:0:0:
258,210,46673,1,10,0:0:0:0:
131,164,47068,1,10,0:0:0:0:
187,355,47462,1,2,0:0:0:0:
390,165,47856,6,0,L|400:131,1,22.5,2|0,0:0|0:0,0:0:0:0:
368,245,48258,1,8,0:0:0:0:
343,325,48671,1,8,0:0:0:0:
406,49,49546,6,0,L|417:17,1,22.5
357,211,50014,5,8,0:0:0:0:
307,371,50483,5,8,0:1:0:0:
307,371,50952,6,0,L|359:364,1,45,2|0,0:0|0:0,0:0:0:0:
419,346,51149,6,0,L|353:340,1,62.9999980773926,2|0,0:0|0:0,0:0:0:0:
97,298,51346,1,10,3:0:0:0:
83,315,51444,2,0,B|16:210|99:142|89:242,1,170.999995433807,0|0,1:0|1:0,0:0:0:0:
174,313,51740,2,0,P|172:338|156:376,1,58.4999973220826,10|0,1:1|0:0,0:0:0:0:
259,84,51938,6,0,L|238:18,1,58.4999973220826,2|0,1:0|0:0,0:0:0:0:
339,209,52135,1,8,3:3:0:0:
395,218,52234,1,0,0:0:0:0:
451,206,52332,1,0,3:0:0:0:
492,162,52431,1,0,0:0:0:0:
417,137,52530,5,10,0:1:0:0:
404,130,52628,1,0,0:0:0:0:
429,230,52727,5,2,0:0:0:0:
439,247,52826,1,0,0:0:0:0:
506,180,52924,6,0,B|424:168|355:233|355:233|333:176,1,202.500007724762,8|0,0:3|0:0,0:0:0:0:
290,114,53319,2,0,P|304:73|303:36,1,58.4999973220826,10|0,1:1|0:0,0:0:0:0:
262,332,53517,6,0,L|295:398,1,58.4999973220826,2|0,1:0|0:0,0:0:0:0:
162,175,53714,1,8,3:3:0:0:
111,164,53813,1,0,0:0:0:0:
56,154,53911,1,0,3:0:0:0:
5,142,54010,1,0,0:0:0:0:
39,206,54109,5,10,1:1:0:0:
110,193,54207,5,0,0:0:0:0:
118,120,54306,5,2,1:0:0:0:
54,85,54405,5,0,0:0:0:0:
0,149,54503,6,0,B|-18:197|10:247|51:262|51:262|35:281|27:314,1,175.499991966248,10|0,0:3|0:0,0:0:0:0:
141,333,54898,2,0,L|70:360,1,58.4999973220826,8|0,1:1|0:0,0:0:0:0:
141,200,55096,2,0,L|78:186,1,58.4999973220826,0|0,1:0|0:0,0:0:0:0:
332,308,55293,1,8,3:3:0:0:
332,308,55392,1,0,0:0:0:0:
332,308,55490,1,2,3:0:0:0:
332,308,55589,1,0,0:0:0:0:
305,275,55688,5,10,0:1:0:0:
250,264,55786,1,0,0:0:0:0:
368,235,55885,5,2,0:0:0:0:
442,216,55984,1,0,0:0:0:0:
314,161,56082,6,0,B|280:111|303:71|303:71|354:95,1,116.999994644165,8|0,0:3|0:0,0:0:0:0:
454,90,56378,1,0,0:0:0:0:
416,129,56477,5,8,1:1:0:0:
424,110,56576,1,0,0:0:0:0:
423,89,56674,1,0,1:0:0:0:
414,72,56773,1,0,0:0:0:0:
358,6,56872,5,8,3:3:0:0:
280,13,56971,1,0,0:0:0:0:
237,81,57069,1,0,3:0:0:0:
276,151,57168,1,0,0:0:0:0:
318,82,57267,5,10,1:1:0:0:
238,43,57365,1,0,0:0:0:0:
141,61,57464,1,2,1:0:0:0:
78,154,57563,1,0,0:0:0:0:
103,276,57661,6,0,B|259:255|259:255|207:232,1,202.500007724762,10|0,0:3|0:0,0:0:0:0:
82,321,58056,2,0,P|41:341|2:343,1,58.4999973220826,10|0,1:1|0:0,0:0:0:0:
195,310,58253,2,0,P|196:337|178:378,1,58.4999973220826,2|0,1:0|0:0,0:0:0:0:
459,318,58451,2,0,P|432:327|338:265,1,116.999994644165,8|0,3:3|3:0,0:0:0:0:
369,223,58747,1,0,0:0:0:0:
417,251,58845,5,10,0:1:0:0:
428,231,58944,1,0,0:0:0:0:
424,146,59043,5,2,0:0:0:0:
436,127,59141,1,0,0:0:0:0:
444,40,59240,6,0,P|404:40|358:49,1,67.5000025749208,8|0,0:3|0:0,0:0:0:0:
166,98,59438,1,0,0:0:0:0:
224,163,59536,1,0,0:0:0:0:
248,120,59635,2,0,L|261:57,1,58.4999973220826,10|0,1:1|0:0,0:0:0:0:
178,171,59832,2,0,L|245:235,1,58.4999973220826,2|0,1:0|0:0,0:0:0:0:
167,46,60030,6,0,L|128:1,1,58.4999973220826,8|0,3:3|0:0,0:0:0:0:
294,157,60227,6,0,L|351:146,1,58.4999973220826,0|0,3:0|0:0,0:0:0:0:
111,211,60424,6,0,L|91:266,1,58.4999973220826,10|0,1:1|0:0,0:0:0:0:
219,149,60622,5,2,1:0:0:0:
113,114,60721,1,0,0:0:0:0:
221,255,60819,6,0,B|246:309|220:363|220:363|278:348|277:305,1,175.499991966248,10|0,0:3|0:0,0:0:0:0:
418,257,61214,1,8,1:1:0:0:
418,257,61313,1,0,0:0:0:0:
418,257,61411,1,0,1:0:0:0:
418,257,61510,1,0,0:0:0:0:
384,287,61609,5,8,3:3:0:0:
461,304,61707,1,0,0:0:0:0:
462,213,61806,1,2,3:0:0:0:
378,235,61905,1,0,0:0:0:0:
512,249,62003,5,10,0:1:0:0:
493,165,62102,1,0,0:0:0:0:
409,123,62201,1,2,0:0:0:0:
323,178,62299,1,0,0:0:0:0:
231,167,62398,6,0,L|92:149,1,116.999994644165,8|0,0:3|0:0,0:0:0:0:
39,159,62694,1,0,0:0:0:0:
0,92,62793,2,0,P|10:52|36:34,1,58.4999973220826,8|0,1:1|0:0,0:0:0:0:
32,268,62990,2,0,P|25:298|4:328,1,58.4999973220826,0|0,1:0|0:0,0:0:0:0:
125,172,63188,5,8,3:3:0:0:
202,156,63286,1,0,0:0:0:0:
271,203,63385,1,0,3:0:0:0:
283,287,63484,1,0,0:0:0:0:
230,353,63582,5,10,1:1:0:0:
198,269,63681,1,0,0:0:0:0:
355,245,63780,5,2,1:0:0:0:
344,341,63878,1,0,0:0:0:0:
267,193,63977,6,0,B|280:172|282:145|282:145|234:74|234:74|321:99,1,202.500007724762,10|0,0:3|0:0,0:0:0:0:
471,94,64372,2,0,P|431:112|397:118,1,67.5000025749208,10|0,1:1|0:0,0:0:0:0:
83,51,64569,6,0,P|123:69|157:75,1,67.5000025749208,2|0,1:0|0:0,0:0:0:0:
391,45,64767,1,8,3:3:0:0:
405,39,64865,1,0,0:0:0:0:
418,30,64964,1,0,3:0:0:0:
426,17,65063,1,0,0:0:0:0:
311,2,65161,5,10,0:1:0:0:
271,67,65260,1,0,0:0:0:0:
273,151,65359,1,2,0:0:0:0:
333,221,65457,1,0,0:0:0:0:
436,245,65556,6,0,B|439:223|439:223|386:302|411:370,1,135.000005149842,8|0,0:3|0:0,0:0:0:0:
491,356,65852,1,0,0:0:0:0:
511,350,65951,2,0,L|502:270,1,58.4999973220826,10|0,1:1|0:0,0:0:0:0:
410,376,66148,2,0,L|424:307,1,58.4999973220826,2|0,1:0|0:0,0:0:0:0:
259,298,66346,2,0,L|113:312,1,116.999994644165,8|0,3:3|3:0,0:0:0:0:
15,317,66642,5,0,0:0:0:0:
45,253,66740,1,10,1:1:0:0:
50,285,66839,1,0,0:0:0:0:
55,317,66937,1,2,1:0:0:0:
61,349,67036,1,0,0:0:0:0:
118,210,67135,6,0,B|123:147|143:93|143:93|75:168,1,175.499991966248,10|0,0:3|0:0,0:0:0:0:
219,194,67530,2,0,L|236:267,1,58.4999973220826,8|0,1:1|0:0,0:0:0:0:
45,76,67727,6,0,L|9:18,1,58.4999973220826,0|0,1:0|0:0,0:0:0:0:
183,93,67924,1,8,3:3:0:0:
183,93,68023,1,0,0:0:0:0:
183,93,68122,1,2,3:0:0:0:
183,93,68221,1,0,0:0:0:0:
256,155,68319,5,10,0:1:0:0:
262,173,68418,1,0,0:0:0:0:
307,54,68517,5,2,0:0:0:0:
315,35,68615,1,0,0:0:0:0:
398,90,68714,6,0,B|415:167|357:211|357:211|342:144,1,175.499991966248,8|0,0:3|0:0,0:0:0:0:
446,224,69109,6,0,L|513:241,1,58.4999973220826,8|0,1:1|0:0,0:0:0:0:
80,196,69306,2,0,P|52:213|17:220,1,58.4999973220826,0|0,1:0|0:0,0:0:0:0:
263,360,69503,6,0,L|277:294,1,58.4999973220826,8|0,3:3|0:0,0:0:0:0:
234,33,69701,2,0,P|234:89|261:119,1,58.4999973220826,0|0,3:0|0:0,0:0:0:0:
503,163,69898,5,10,1:1:0:0:
107,224,70096,1,2,1:0:0:0:
220,229,70293,6,0,B|280:217|342:193|342:193|278:184,1,175.499991966248,10|0,0:3|0:0,0:0:0:0:
175,296,70688,2,0,P|204:310|255:306,1,58.4999973220826,10|0,1:1|0:0,0:0:0:0:
371,178,70885,6,0,L|389:108,1,58.4999973220826,2|0,1:0|0:0,0:0:0:0:
349,39,71082,1,8,3:3:0:0:
380,36,71181,1,0,0:0:0:0:
415,48,71280,1,0,3:0:0:0:
448,44,71378,1,0,0:0:0:0:
448,15,71477,5,10,0:1:0:0:
369,49,71576,1,0,0:0:0:0:
296,10,71674,1,2,0:0:0:0:
221,47,71773,1,0,0:0:0:0:
118,30,71872,6,0,B|65:23|65:23|106:77,1,116.999994644165,8|0,0:3|0:0,0:0:0:0:
159,162,72168,1,0,0:0:0:0:
265,188,72267,2,0,B|283:166|283:166|239:168,1,58.4999973220826,10|0,1:1|0:0,0:0:0:0:
91,222,72464,2,0,B|64:234|64:234|20:228,1,58.4999973220826,2|0,1:0|0:0,0:0:0:0:
253,212,72661,6,0,L|324:194,1,58.4999973220826,8|0,3:3|0:0,0:0:0:0:
5,120,72859,2,0,L|104:149,1,58.4999973220826,0|0,3:0|0:0,0:0:0:0:
338,236,73056,5,10,1:1:0:0:
414,277,73155,1,0,0:0:0:0:
497,288,73253,1,2,1:0:0:0:
422,367,73352,1,0,0:0:0:0:
333,384,73451,6,0,B|282:241|302:239|366:343,1,175.499991966248,10|0,0:3|0:0,0:0:0:0:
409,225,73846,2,0,L|448:165,1,58.4999973220826,8|0,1:1|0:0,0:0:0:0:
365,160,74043,2,0,L|446:129,1,58.4999973220826,0|0,1:0|0:0,0:0:0:0:
254,99,74240,1,8,3:3:0:0:
318,40,74339,6,0,P|289:26|253:23,1,58.4999973220826,0|2,0:0|3:0,0:0:0:0:
199,195,74536,1,0,0:0:0:0:
255,236,74635,1,10,0:1:0:0:
172,229,74734,1,0,0:0:0:0:
117,283,74832,2,0,P|119:314|137:347,1,58.4999973220826,2|0,0:0|0:0,0:0:0:0:
136,77,75030,5,8,0:3:0:0:
122,39,75128,1,0,0:0:0:0:
85,18,75227,1,0,0:0:0:0:
41,21,75326,1,0,0:0:0:0:
64,96,75424,5,8,1:1:0:0:
196,120,75523,1,0,0:0:0:0:
127,149,75622,1,0,1:0:0:0:
195,22,75720,1,0,0:0:0:0:
187,194,75819,6,0,P|188:205|203:225,1,29.2499986610413,8|0,3:0|0:0,0:0:0:0:
58,180,76017,6,0,L|6:166,1,29.2499986610413,0|0,3:0|0:0,0:0:0:0:
266,97,76214,6,0,L|292:54,1,29.2499986610413,10|0,1:3|0:0,0:0:0:0:
233,313,76411,5,10,1:3:0:0:
449,203,76609,6,0,P|471:215|524:210,3,67.5000025749208,14|0|0|0,0:3|0:0|0:0|0:0,0:0:0:0:
367,54,77003,5,10,0:0:0:0:
424,122,77201,2,0,P|448:116|469:105,1,49.5000015106202
209,167,77398,5,10,0:0:0:0:
314,130,77793,5,2,0:0:0:0:
67,117,78188,5,2,0:0:0:0:
297,206,78582,1,10,0:0:0:0:
102,307,78977,1,10,0:0:0:0:
206,149,79372,6,0,L|229:141,1,24.7500007553101,2|0,1:2|0:0,0:0:0:0:
134,194,79520,1,8,3:0:0:0:
207,245,79619,1,8,3:0:0:0:
127,290,79767,6,0,B|134:309|117:337|117:337|152:350|182:332,1,93.0000007095337,2|0,1:0|0:0,0:0:0:0:
254,366,80013,1,0,3:0:0:0:
349,326,80169,2,0,L|459:316,1,90.0000034332277,10|0,0:1|0:0,0:0:0:0:
301,263,80430,1,0,3:0:0:0:
414,287,80579,6,0,L|491:297,1,74.39999704834,10|0,0:0|0:0,0:0:0:0:
508,298,81029,1,2,0:0:0:0:
428,335,81329,1,0,3:0:0:0:
428,335,81498,6,0,P|386:329|356:300,1,83.9999974365235,2|0,0:0|3:0,0:0:0:0:
285,121,82004,1,10,1:2:0:0:
364,211,82525,5,2,0:0:0:0:
309,364,83055,5,2,0:0:0:0:
341,284,83280,5,0,3:0:0:0:
289,339,83430,1,0,3:0:0:0:
316,261,83626,5,2,0:0:0:0:
181,263,83790,1,8,3:0:0:0:
171,242,83899,1,8,3:0:0:0:
48,301,84063,5,10,0:2:0:0:
114,139,84465,1,10,0:0:0:0:
265,203,84859,1,2,0:0:0:0:
39,207,85252,5,2,0:0:0:0:
138,304,85645,1,10,0:0:0:0:
200,115,86039,1,10,0:0:0:0:
285,296,86432,1,2,0:0:0:0:
366,196,86825,1,2,1:2:0:0:
439,252,86938,1,0,0:2:0:0:
453,246,87052,1,0,0:2:0:0:
