osu file format v14

[General]
AudioFilename: audio.ogg
AudioLeadIn: 0
PreviewTime: 49546
Countdown: 0
SampleSet: Soft
StackLeniency: 0.4
Mode: 0
LetterboxInBreaks: 0
WidescreenStoryboard: 1

[Editor]
DistanceSpacing: 0.8
BeatDivisor: 4
GridSize: 8
TimelineZoom: 1.4

[Metadata]
Title:Take A Hike
TitleUnicode:Take A Hike
Artist:tv room
ArtistUnicode:tv room
Creator:DigiDrake
Version:normal
Source:
Tags:english electronic indie alternative deskpop hyperpop hyper pop ep portland the great state of maine lake attitash multimedia commission watershed association
BeatmapID:4519471
BeatmapSetID:2142850

[Difficulty]
HPDrainRate:3
CircleSize:3.2
OverallDifficulty:4
ApproachRate:5
SliderMultiplier:1.2
SliderTickRate:1

[Events]
//Background and Video events
0,0,"dog1.jpg",0,0
Video,450,"oh yeah.mp4"
//Break Periods
//Storyboard Layer 0 (Background)
//Storyboard Layer 1 (Fail)
//Storyboard Layer 2 (Pass)
//Storyboard Layer 3 (Foreground)
//Storyboard Layer 4 (Overlay)
//Storyboard Sound Samples

[TimingPoints]
495,394.736842105263,4,2,2,60,1,0
495,-100,4,2,2,60,0,0
4837,-100,4,2,2,60,0,0
12731,-100,4,2,2,65,0,0
13126,-100,4,2,2,70,0,1
19047,-100,4,2,2,70,0,0
19442,-100,4,2,2,70,0,1
25758,390.879478827362,4,2,1,50,1,0
25758,-100,4,2,1,50,0,0
26539,428.571428571429,4,2,1,50,1,0
26967,431.654676258993,4,2,1,50,1,0
26967,-100,4,2,1,50,0,0
27335,392.156862745098,4,2,1,50,1,0
27335,-100,4,2,1,50,0,0
27727,-100,4,2,1,50,0,0
28119,372.670807453416,4,2,1,50,1,0
28491,428.571428571429,4,2,1,50,1,0
28510,-100,4,2,1,50,0,0
28909,394.736842105263,4,2,1,50,1,0
28909,-100,4,2,1,50,0,0
29698,408.163265306122,4,2,1,50,1,0
30106,382.165605095541,4,2,1,50,1,0
30106,-100,4,2,1,50,0,0
30409,-100,4,2,1,5,0,0
30488,394.736842105263,4,2,1,50,1,0
30488,-100,4,2,1,50,0,1
30791,-100,4,2,1,5,0,1
30882,-100,4,2,1,50,0,1
31183,-100,4,2,1,5,0,1
31277,405.405405405405,4,2,1,50,1,0
31277,-100,4,2,1,50,0,1
31575,-100,4,2,1,5,0,1
31682,387.096774193548,4,2,1,50,1,0
31682,-100,4,2,1,50,0,0
32065,-100,4,2,1,50,0,0
32456,405.405405405405,4,2,1,50,1,0
32861,400,4,2,1,50,1,0
33261,382.165605095541,4,2,1,50,1,0
33643,397.350993377483,4,2,1,50,1,0
34040,394.736842105263,4,2,1,50,1,0
34434,400,4,2,1,50,1,0
34834,394.736842105263,4,2,1,50,1,0
35228,394.736842105263,4,2,1,50,1,0
36017,397.350993377483,4,2,1,50,1,0
36811,393.44262295082,4,2,1,50,1,0
37986,-100,4,2,1,50,0,0
37991,359.281437125748,4,2,1,50,1,0
38383,397.350993377483,4,2,1,50,1,0
39177,400,4,2,1,50,1,0
39577,382.165605095541,4,2,1,50,1,0
39959,394.736842105263,4,2,1,50,1,0
40748,402.684563758389,4,2,1,50,1,0
41150,392.156862745098,4,2,1,50,1,0
41542,387.096774193548,4,2,1,50,1,0
41929,408.163265306122,4,2,1,50,1,0
42337,387.096774193548,4,2,1,50,1,0
42724,397.350993377483,4,2,1,50,1,0
43916,392.156862745098,4,2,1,50,1,0
44308,394.736842105263,4,2,1,50,1,0
45492,392.156862745098,4,2,1,50,1,0
45884,394.736842105263,4,2,1,50,1,0
47856,402.684563758389,4,2,1,50,1,0
48249,-100,4,2,1,50,0,0
48258,413.793103448276,4,2,1,50,1,0
48671,437.956204379562,4,2,1,50,1,0
49546,468.75,4,2,1,50,1,0
50952,394.088669950738,4,2,1,50,1,0
50952,-100,4,2,1,60,0,1
51149,-100,4,2,1,60,0,0
51346,394.736842105263,4,2,2,70,1,0
51346,-100,4,2,2,70,0,1
51439,-100,4,2,2,70,0,1
51735,-100,4,2,2,70,0,1
52924,-100,4,2,2,70,0,1
53319,-100,4,2,2,70,0,1
57267,-100,4,2,2,70,0,0
57661,-100,4,2,2,70,0,1
58055,-100,4,2,2,70,0,1
59239,-100,4,2,2,70,0,1
63582,-100,4,2,2,70,0,0
63977,-100,4,2,2,75,0,1
65950,-100,4,2,2,75,0,1
76609,-100,4,2,1,60,0,0
77195,-100,4,2,1,60,0,0
77398,-100,4,2,1,55,0,0
79383,-100,4,2,1,55,0,0
79767,370.37037037037,4,2,1,55,1,0
79767,-100,4,2,1,55,0,0
80013,468.75,4,2,1,55,1,0
80169,392.156862745098,4,2,1,55,1,0
80430,447.761194029851,4,2,1,55,1,0
80579,431.654676258993,4,2,1,55,1,0
80579,-88.4955752212389,4,2,1,55,0,0
80866,491.803278688525,4,2,1,55,1,0
81029,451.127819548873,4,2,1,55,1,0
81329,508.474576271187,4,2,1,55,1,0
81498,495.867768595042,4,2,1,55,1,0
81498,-113.636363636364,4,2,1,55,0,0
81828,530.973451327434,4,2,1,55,1,0
82004,521.739130434783,4,2,1,55,1,0
82525,530.973451327434,4,2,1,55,1,0
83042,-100,4,2,1,55,0,0
83055,600.000000000001,4,2,1,55,1,0
83623,-90.9090909090909,4,2,1,55,0,0
83626,437.956204379562,4,2,1,55,1,0
84063,402.684563758389,4,2,1,55,1,0
84103,-100,4,2,1,55,0,0
84465,394.736842105263,4,2,1,55,1,0
84859,393.44262295082,4,2,1,55,1,0
86825,454.545454545455,4,2,1,55,1,0

[Colours]
Combo1 : 205,243,254
Combo2 : 196,252,154
Combo3 : 120,190,97
Combo4 : 109,182,235

[HitObjects]
112,34,495,5,10,0:3:0:0:
139,122,889,1,8,0:1:0:0:
217,176,1284,5,8,0:3:0:0:
179,266,1679,1,8,0:1:0:0:
262,312,2073,6,0,P|259:344|247:379,2,60,8|0|8,0:3|0:0|0:1,0:0:0:0:
352,279,2863,1,8,0:3:0:0:
332,185,3258,1,8,0:1:0:0:
404,122,3652,6,0,L|480:144,2,60,8|0|8,0:3|0:0|0:1,0:0:0:0:
328,62,4442,2,0,L|240:75,1,60,8|0,0:3|0:0,0:0:0:0:
220,76,4837,1,8,0:1:0:0:
133,34,5231,5,8,0:3:0:0:
80,115,5626,1,8,0:1:0:0:
80,115,5823,2,0,B|78:141|87:162|87:162|74:179,1,60,0|8,0:0|0:3,0:0:0:0:
44,261,6416,1,8,0:1:0:0:
91,269,6613,1,0,0:0:0:0:
138,276,6810,6,0,P|188:232|197:172,1,120,10|8,0:3|1:1,0:0:0:0:
178,87,7600,2,0,L|249:99,1,60,8|0,3:3|3:0,0:0:0:0:
284,106,7994,1,8,0:1:0:0:
374,75,8389,5,8,0:3:0:0:
427,161,8784,1,8,1:1:0:0:
427,161,8981,2,0,P|463:160|500:145,2,60,0|8|0,1:0|3:3|3:0,0:0:0:0:
399,200,9573,2,0,B|384:239|351:268|351:268|389:313,1,120,8|8,0:1|0:3,0:0:0:0:
284,320,10363,5,8,1:1:0:0:
284,320,10560,2,0,L|292:385,2,60,0|8|0,1:0|3:3|3:0,0:0:0:0:
245,290,11152,2,0,L|119:275,1,120,8|8,0:1|0:3,0:0:0:0:
56,209,11942,5,8,1:1:0:0:
56,209,12139,2,0,P|41:175|42:139,2,60,0|8|0,1:0|3:3|3:0,0:0:0:0:
103,216,12731,1,10,1:1:0:0:
148,200,12929,1,2,1:0:0:0:
173,159,13126,6,0,B|187:99|160:66|160:66|129:81,1,120,10|10,3:3|1:1,0:0:0:0:
38,67,13916,1,8,3:0:0:0:
38,67,14113,2,0,P|27:105|53:141,1,60,0|10,3:0|0:1,0:0:0:0:
81,214,14705,2,0,L|101:344,1,120,8|10,0:3|1:1,0:0:0:0:
153,323,15297,1,2,1:0:0:0:
153,323,15494,2,0,B|159:275|199:244|177:201,1,120,8|10,3:3|1:1,0:0:0:0:
227,242,16087,5,2,1:0:0:0:
227,242,16284,2,0,B|277:237|277:237|327:272|327:272|400:279|460:253,1,240,10|8,0:3|3:3,0:0:0:0:
486,215,17271,1,2,3:0:0:0:
493,163,17468,2,0,P|495:125|480:97,1,60,10|2,0:1|0:0,0:0:0:0:
461,59,17863,1,8,0:3:0:0:
380,124,18258,2,0,P|348:134|313:129,1,60,8|0,1:1|1:0,0:0:0:0:
270,122,18652,1,8,3:0:0:0:
214,34,19047,1,10,1:1:0:0:
161,31,19244,1,2,1:0:0:0:
117,65,19442,6,0,B|98:116|123:163|123:163|149:146,1,120,10|10,0:3|1:1,0:0:0:0:
242,185,20231,1,8,3:3:0:0:
242,185,20429,2,0,P|279:182|316:166,1,60,0|10,3:0|0:1,0:0:0:0:
402,200,21021,2,0,L|380:347,1,120,8|10,0:3|1:1,0:0:0:0:
342,348,21613,1,2,1:0:0:0:
342,348,21810,2,0,B|317:295|267:292|267:292|259:254,1,120,8|10,3:3|1:1,0:0:0:0:
211,258,22402,5,2,1:0:0:0:
211,258,22600,2,0,B|165:268|149:309|149:309|78:288|66:220|103:182,1,240,10|8,0:3|3:3,0:0:0:0:
62,149,23587,1,2,3:0:0:0:
62,149,23784,2,0,P|48:91|57:75,1,60,10|2,0:1|0:0,0:0:0:0:
78,52,24179,1,8,0:3:0:0:
173,9,24573,2,0,P|193:47|196:82,1,60,8|0,1:1|1:0,0:0:0:0:
239,91,24968,5,8,0:3:0:0:
291,94,25166,1,0,3:0:0:0:
332,63,25363,2,0,B|353:64|353:64|374:79|375:101,1,60,8|0,1:1|1:0,0:0:0:0:
376,152,25758,5,14,0:3:0:0:
479,167,26148,1,10,0:0:0:0:
467,62,26539,1,10,0:0:0:0:
268,92,27335,5,2,0:0:0:0:
279,194,27727,1,10,0:0:0:0:
288,297,28119,1,10,0:0:0:0:
97,342,28909,5,2,0:0:0:0:
109,238,29303,1,10,0:0:0:0:
42,157,29698,1,10,0:0:0:0:
100,72,30106,1,2,0:0:0:0:
200,101,30488,1,2,1:0:0:0:
209,204,30882,1,10,1:2:0:0:
110,238,31277,1,10,1:2:0:0:
43,157,31682,5,2,0:0:0:0:
43,157,31875,2,0,P|42:118|53:85,1,60,0|2,1:0|0:0,0:0:0:0:
132,38,32456,1,10,0:0:0:0:
234,59,32861,2,0,P|259:122|245:183,1,120,10|2,0:0|0:0,0:0:0:0:
325,244,33643,5,2,0:0:0:0:
422,207,34040,1,10,0:0:0:0:
348,133,34434,1,10,0:0:0:0:
425,63,34834,1,2,0:0:0:0:
425,63,35031,2,0,B|417:15|417:15|390:37,1,60,0|2,1:0|0:0,0:0:0:0:
304,35,35622,5,8,0:0:0:0:
200,48,36017,1,8,0:0:0:0:
401,76,36811,5,0,0:0:0:0:
297,88,37204,1,8,0:0:0:0:
193,99,37597,1,8,0:0:0:0:
44,245,38383,6,0,B|33:300|66:339|66:339|91:327,2,120,6|10|10,0:0|0:0|0:0,0:0:0:0:
88,150,39577,1,2,0:0:0:0:
165,219,39959,5,2,0:0:0:0:
269,221,40353,1,10,0:0:0:0:
214,310,40748,1,10,0:0:0:0:
315,334,41150,2,0,P|327:306|328:283,1,45,2|8,1:2|3:0,0:0:0:0:
385,260,41542,5,2,1:0:0:0:
316,181,41929,2,0,P|303:146|319:103,1,60,10|0,1:0|0:0,0:0:0:0:
339,83,42337,1,10,0:0:0:0:
239,53,42724,1,2,0:0:0:0:
140,17,43121,5,2,1:2:0:0:
58,82,43518,1,10,1:2:0:0:
112,171,43916,1,10,1:2:0:0:
215,155,44308,1,2,0:0:0:0:
181,254,44702,6,0,P|162:331|120:352,2,120,2|10|10,0:0|0:0|0:0,0:0:0:0:
282,230,45884,1,2,0:0:0:0:
358,300,46278,2,0,P|384:254|446:262,1,120,2|10,0:0|0:0,0:0:0:0:
505,175,47068,1,10,0:0:0:0:
403,151,47462,1,2,0:0:0:0:
424,48,47856,2,0,L|358:27,1,60,2|0,0:0|0:0,0:0:0:0:
323,54,48258,5,8,0:0:0:0:
223,61,48671,1,8,0:0:0:0:
419,86,49546,5,0,0:0:0:0:
312,97,50014,5,8,0:0:0:0:
204,105,50483,5,8,0:1:0:0:
145,216,50952,5,2,0:0:0:0:
138,267,51149,1,2,0:0:0:0:
165,305,51346,2,0,B|220:318|254:300|254:300|249:326|281:347,1,120,10|10,3:0|1:1,0:0:0:0:
367,348,52135,1,8,3:3:0:0:
367,348,52332,2,0,P|376:309|355:274,1,60,0|10,0:0|0:1,0:0:0:0:
388,190,52925,2,0,B|387:154|369:137|369:137|376:86|408:75,1,120,8|10,0:3|1:1,0:0:0:0:
435,48,53517,1,2,1:0:0:0:
435,48,53714,2,0,L|303:26,1,120,8|10,3:3|1:1,0:0:0:0:
269,50,54306,5,2,1:0:0:0:
269,50,54504,2,0,B|230:96|256:167|256:167|196:119|137:116,1,240,10|8,0:3|3:3,0:0:0:0:
118,78,55490,1,2,3:0:0:0:
65,80,55687,2,0,P|43:104|39:140,1,60,10|2,0:1|0:0,0:0:0:0:
57,178,56082,1,8,0:3:0:0:
19,275,56477,2,0,L|103:262,1,60,8|0,1:1|1:0,0:0:0:0:
129,256,56871,1,8,3:0:0:0:
189,341,57267,1,10,1:1:0:0:
240,346,57464,1,2,1:0:0:0:
277,308,57662,6,0,B|268:253|295:211|295:211|313:233,1,120,10|10,0:3|1:1,0:0:0:0:
413,247,58451,1,8,3:3:0:0:
413,247,58649,2,0,P|444:223|455:178,1,60,0|10,3:0|0:1,0:0:0:0:
375,140,59241,2,0,B|341:143|297:120|242:121,1,120,8|10,0:3|1:1,0:0:0:0:
210,96,59833,1,2,1:0:0:0:
210,96,60030,2,0,P|225:150|175:193,1,120,8|10,3:3|1:1,0:0:0:0:
135,187,60622,5,2,1:0:0:0:
135,187,60820,2,0,B|118:277|171:349|171:349|216:315|212:273,1,240,10|8,0:3|3:3,0:0:0:0:
232,247,61806,1,2,3:0:0:0:
280,229,62003,2,0,P|304:223|345:239,1,60,10|2,0:1|0:0,0:0:0:0:
364,277,62398,1,8,0:3:0:0:
467,266,62793,2,0,P|477:224|480:189,1,60,8|0,1:1|1:0,0:0:0:0:
463,157,63187,1,8,3:0:0:0:
454,52,63583,5,10,1:1:0:0:
402,59,63780,1,2,1:0:0:0:
350,63,63977,2,0,B|332:59|313:48|313:48|258:104|230:49,1,120,10|10,0:3|1:1,0:0:0:0:
145,52,64767,1,8,3:3:0:0:
145,52,64965,2,0,P|129:93|143:127,1,60,0|10,3:0|0:1,0:0:0:0:
187,189,65556,2,0,L|175:257,1,60,8|0,0:3|0:0,0:0:0:0:
143,289,65951,1,10,1:1:0:0:
115,333,66149,1,2,1:0:0:0:
161,357,66346,2,0,L|301:338,1,120,8|10,3:3|1:1,0:0:0:0:
335,350,66938,5,2,1:0:0:0:
335,350,67135,2,0,B|448:371|448:371|358:254,1,240,10|8,0:3|3:3,0:0:0:0:
388,222,68122,1,2,3:0:0:0:
436,202,68319,1,10,0:1:0:0:
409,99,68714,2,0,B|361:110|311:81|311:81|331:119,1,120,8|8,0:3|1:1,0:0:0:0:
243,171,69504,1,8,3:3:0:0:
193,189,69701,1,0,3:0:0:0:
141,179,69899,2,0,P|116:134|120:116,1,60,10|2,1:1|1:0,0:0:0:0:
98,78,70293,6,0,B|140:85|140:85|173:79|173:79|237:93,1,120,10|10,0:3|1:1,0:0:0:0:
323,101,71082,1,8,3:3:0:0:
323,101,71280,2,0,L|397:86,1,60,0|10,3:0|0:1,0:0:0:0:
467,148,71872,2,0,P|481:192|468:223,1,60,8|0,0:3|0:0,0:0:0:0:
444,244,72267,1,10,1:1:0:0:
472,287,72464,1,2,1:0:0:0:
432,321,72662,2,0,L|292:336,1,120,8|10,3:3|1:1,0:0:0:0:
261,343,73254,5,2,1:0:0:0:
261,343,73451,2,0,B|283:259|243:188|243:188|236:246|200:265,1,240,10|8,0:3|3:3,0:0:0:0:
127,190,74635,1,10,0:1:0:0:
77,174,74833,1,2,0:0:0:0:
27,194,75030,2,0,P|4:128|28:84,1,120,8|8,0:3|1:1,0:0:0:0:
130,83,75819,6,0,P|126:46|120:20,2,60,8|0|10,3:0|3:0|1:3,0:0:0:0:
153,130,76411,1,10,1:3:0:0:
203,146,76609,6,0,B|229:173|227:215|227:215|206:234|195:263,2,120,14|10|10,0:3|0:0|0:0,0:0:0:0:
223,52,77793,1,2,0:0:0:0:
311,14,78188,5,2,0:0:0:0:
375,87,78582,1,10,0:0:0:0:
287,125,78977,1,10,0:0:0:0:
223,52,79372,2,0,L|169:46,1,45,2|0,1:2|0:0,0:0:0:0:
141,99,79767,5,2,1:0:0:0:
186,187,80169,1,10,0:1:0:0:
120,266,80579,2,0,B|102:326|102:326|182:307,1,141.599995030518,10|2,0:0|0:0,0:0:0:0:
238,321,81329,5,0,3:0:0:0:
238,321,81498,2,0,L|350:333,1,108,2|10,0:0|1:2,0:0:0:0:
498,344,82525,1,2,0:0:0:0:
452,217,83055,5,2,0:0:0:0:
312,243,83626,2,0,P|301:209|304:190,1,45,2|8,0:0|3:0,0:0:0:0:
332,142,84063,1,10,0:2:0:0:
256,66,84465,1,10,0:0:0:0:
176,116,84859,1,2,0:0:0:0:
97,60,85252,6,0,P|62:103|67:169,1,120,2|10,0:0|0:0,0:0:0:0:
115,246,86039,1,10,0:0:0:0:
208,266,86432,1,2,0:0:0:0:
294,224,86825,2,0,P|306:245|315:286,1,60,2|0,1:2|0:0,0:0:0:0:
