osu file format v14

[General]
AudioFilename: audio.ogg
AudioLeadIn: 0
PreviewTime: 49546
Countdown: 0
SampleSet: Soft
StackLeniency: 0.3
Mode: 0
LetterboxInBreaks: 0
WidescreenStoryboard: 1

[Editor]
DistanceSpacing: 1
BeatDivisor: 8
GridSize: 4
TimelineZoom: 2.5

[Metadata]
Title:Take A Hike
TitleUnicode:Take A Hike
Artist:tv room
ArtistUnicode:tv room
Creator:DigiDrake
Version:insane
Source:
Tags:english electronic indie alternative deskpop hyperpop hyper pop ep portland the great state of maine lake attitash multimedia commission watershed association
BeatmapID:4535289
BeatmapSetID:2142850

[Difficulty]
HPDrainRate:5
CircleSize:4
OverallDifficulty:8
ApproachRate:8
SliderMultiplier:1.6
SliderTickRate:1

[Events]
//Background and Video events
0,0,"dog4.jpg",0,0
Video,450,"oh yeah.mp4"
//Break Periods
//Storyboard Layer 0 (Background)
//Storyboard Layer 1 (Fail)
//Storyboard Layer 2 (Pass)
//Storyboard Layer 3 (Foreground)
//Storyboard Layer 4 (Overlay)
//Storyboard Sound Samples

[TimingPoints]
495,394.736842105263,4,2,2,60,1,0
495,-100,4,2,2,60,0,0
6810,-100,4,2,2,60,0,0
7205,-76.9230769230769,4,2,2,60,0,0
12731,-66.6666666666667,4,2,2,65,0,0
13126,-76.9230769230769,4,2,2,70,0,1
19047,-76.9230769230769,4,2,2,70,0,0
19442,-76.9230769230769,4,2,2,70,0,1
25758,390.879478827362,4,2,1,50,1,0
25763,-100,4,2,1,50,0,0
26539,428.571428571429,4,2,1,50,1,0
26967,431.654676258993,4,2,1,50,1,0
26968,-100,4,2,1,50,0,0
27335,392.156862745098,4,2,1,50,1,0
27335,-100,4,2,1,50,0,0
27725,-100,4,2,1,50,0,0
28119,372.670807453416,4,2,1,50,1,0
28491,428.571428571429,4,2,1,50,1,0
28491,-100,4,2,1,50,0,0
28909,394.736842105263,4,2,1,50,1,0
28909,-100,4,2,1,50,0,0
29698,408.163265306122,4,2,1,50,1,0
30100,-100,4,2,1,50,0,0
30106,382.165605095541,4,2,1,50,1,0
30398,-100,4,2,1,5,0,0
30488,394.736842105263,4,2,1,50,1,0
30488,-76.9230769230769,4,2,1,50,0,1
30784,-76.9230769230769,4,2,1,5,0,1
30882,-76.9230769230769,4,2,1,50,0,1
31178,-76.9230769230769,4,2,1,5,0,1
31277,405.405405405405,4,2,1,50,1,0
31277,-76.9230769230769,4,2,1,50,0,1
31581,-76.9230769230769,4,2,1,5,0,1
31682,387.096774193548,4,2,1,50,1,0
31682,-100,4,2,1,50,0,0
32065,-100,4,2,1,50,0,0
32456,405.405405405405,4,2,1,50,1,0
32861,400,4,2,1,50,1,0
33261,382.165605095541,4,2,1,50,1,0
33643,397.350993377483,4,2,1,50,1,0
34040,394.736842105263,4,2,1,50,1,0
34434,400,4,2,1,50,1,0
34834,394.736842105263,4,2,1,50,1,0
35228,394.736842105263,4,2,1,50,1,0
36017,397.350993377483,4,2,1,50,1,0
36811,393.44262295082,4,2,1,50,1,0
37986,-100,4,2,1,50,0,0
37991,359.281437125748,4,2,1,50,1,0
38383,397.350993377483,4,2,1,50,1,0
39177,400,4,2,1,50,1,0
39577,382.165605095541,4,2,1,50,1,0
39959,394.736842105263,4,2,1,50,1,0
40748,402.684563758389,4,2,1,50,1,0
41150,392.156862745098,4,2,1,50,1,0
41542,387.096774193548,4,2,1,50,1,0
41929,408.163265306122,4,2,1,50,1,0
42337,387.096774193548,4,2,1,50,1,0
42724,397.350993377483,4,2,1,50,1,0
43916,392.156862745098,4,2,1,50,1,0
44308,394.736842105263,4,2,1,50,1,0
45492,392.156862745098,4,2,1,50,1,0
45884,394.736842105263,4,2,1,50,1,0
47856,402.684563758389,4,2,1,50,1,0
48249,-100,4,2,1,50,0,0
48258,413.793103448276,4,2,1,50,1,0
48671,437.956204379562,4,2,1,50,1,0
49546,468.75,4,2,1,50,1,0
50011,-100,4,2,1,50,0,0
50952,394.088669950738,4,2,1,50,1,0
50952,-100,4,2,1,60,0,1
51149,-100,4,2,1,60,0,0
51346,394.736842105263,4,2,2,70,1,0
51346,-66.6666666666667,4,2,2,70,0,1
51740,-76.9230769230769,4,2,2,70,0,1
52924,-76.9230769230769,4,2,2,70,0,1
53319,-76.9230769230769,4,2,2,70,0,1
57267,-76.9230769230769,4,2,2,70,0,0
57661,-76.9230769230769,4,2,2,70,0,1
58056,-76.9230769230769,4,2,2,70,0,1
59241,-76.9230769230769,4,2,2,70,0,1
59635,-76.9230769230769,4,2,2,70,0,1
63582,-76.9230769230769,4,2,2,70,0,0
63977,-66.6666666666667,4,2,2,75,0,1
64372,-76.9230769230769,4,2,2,75,0,1
64569,-76.9230769230769,4,2,2,75,0,1
65951,-76.9230769230769,4,2,2,75,0,1
75820,-66.6666666666667,4,2,2,75,0,1
76609,-100,4,2,1,60,0,0
77195,-100,4,2,1,60,0,0
77393,-100,4,2,1,55,0,0
79366,-100,4,2,1,55,0,0
79761,-100,4,2,1,55,0,0
79767,370.37037037037,4,2,1,55,1,0
80013,468.75,4,2,1,55,1,0
80169,392.156862745098,4,2,1,55,1,0
80169,-76.3358778625954,4,2,1,55,0,0
80430,447.761194029851,4,2,1,55,1,0
80579,431.654676258993,4,2,1,55,1,0
80579,-117.647058823529,4,2,1,55,0,0
80866,491.803278688525,4,2,1,55,1,0
81029,451.127819548873,4,2,1,55,1,0
81329,508.474576271187,4,2,1,55,1,0
81498,495.867768595042,4,2,1,55,1,0
81498,-129.87012987013,4,2,1,55,0,0
81828,530.973451327434,4,2,1,55,1,0
82004,521.739130434783,4,2,1,55,1,0
82525,530.973451327434,4,2,1,55,1,0
83042,-76.9230769230769,4,2,1,55,0,0
83055,600.000000000001,4,2,1,55,1,0
83623,-100,4,2,1,55,0,0
83626,437.956204379562,4,2,1,55,1,0
84063,402.684563758389,4,2,1,55,1,0
84064,-100,4,2,1,55,0,0
84465,394.736842105263,4,2,1,55,1,0
84859,393.44262295082,4,2,1,55,1,0
86825,454.545454545455,4,2,1,55,1,0

[Colours]
Combo1 : 205,243,254
Combo2 : 196,252,154
Combo3 : 120,190,97
Combo4 : 109,182,235

[HitObjects]
340,130,495,5,10,0:3:0:0:
330,167,593,1,0,0:0:0:0:
323,205,692,1,2,0:0:0:0:
364,194,791,1,0,0:0:0:0:
398,183,889,2,0,L|461:158,1,40,8|0,0:1|0:0,0:0:0:0:
242,189,1284,5,8,0:3:0:0:
207,195,1383,1,0,0:0:0:0:
177,176,1481,1,0,0:0:0:0:
145,161,1580,1,0,0:0:0:0:
110,165,1679,2,0,P|95:192|94:227,1,40,8|0,0:1|0:0,0:0:0:0:
161,300,1975,1,0,0:0:0:0:
175,320,2073,5,8,0:3:0:0:
172,329,2172,1,0,0:0:0:0:
168,338,2271,1,0,0:0:0:0:
164,348,2369,1,0,0:0:0:0:
191,368,2468,2,0,L|241:375,3,40,8|0|0|0,0:1|0:0|0:0|0:0,0:0:0:0:
324,301,2863,5,8,0:3:0:0:
359,313,2962,1,0,0:0:0:0:
388,348,3060,1,0,0:0:0:0:
400,303,3159,1,0,0:0:0:0:
442,281,3258,2,0,P|475:285|490:302,1,40,8|0,0:1|0:0,0:0:0:0:
414,187,3554,1,0,0:0:0:0:
375,176,3652,5,8,0:3:0:0:
371,168,3751,1,0,0:0:0:0:
369,160,3850,1,0,0:0:0:0:
372,152,3948,1,0,0:0:0:0:
345,109,4047,2,0,P|327:117|292:110,1,40,8|0,0:1|0:0,0:0:0:0:
207,230,4442,5,8,0:3:0:0:
166,242,4541,1,0,0:0:0:0:
120,233,4639,1,0,0:0:0:0:
87,197,4738,1,0,0:0:0:0:
82,148,4837,2,0,P|84:127|95:101,1,40,8|0,0:1|0:0,0:0:0:0:
46,271,5133,1,0,0:0:0:0:
24,308,5231,5,8,0:3:0:0:
24,308,5330,1,0,0:0:0:0:
24,308,5429,1,0,0:0:0:0:
24,308,5527,1,0,0:0:0:0:
24,308,5626,2,0,P|11:341|-11:354,3,40,8|0|0|0,0:1|0:0|0:0|0:0,0:0:0:0:
116,312,6021,5,8,0:3:0:0:
170,299,6119,1,0,0:0:0:0:
209,343,6218,2,0,P|230:360|271:364,1,40
323,313,6416,1,8,0:1:0:0:
382,332,6514,1,0,0:0:0:0:
430,291,6613,2,0,P|439:262|429:230,1,40
363,199,6810,5,10,0:3:0:0:
363,199,7008,1,2,0:0:0:0:
426,123,7205,2,0,B|377:94|306:111,1,103.999995239258,8|0,1:1|1:0,0:0:0:0:
304,120,7501,1,0,0:0:0:0:
286,136,7600,1,8,3:3:0:0:
109,119,7797,1,0,3:0:0:0:
188,161,7994,2,0,P|194:194|190:241,2,51.999997619629,8|0|0,0:1|0:0|0:0,0:0:0:0:
73,196,8291,1,0,0:0:0:0:
52,239,8389,6,0,B|39:293|78:345,1,103.999995239258,8|0,0:3|0:0,0:0:0:0:
104,347,8685,1,0,0:0:0:0:
130,341,8784,1,8,1:1:0:0:
156,335,8883,1,0,0:0:0:0:
181,326,8981,2,0,L|170:380,1,51.999997619629,0|0,1:0|0:0,0:0:0:0:
258,275,9179,2,0,L|241:204,1,51.999997619629,8|0,3:3|0:0,0:0:0:0:
355,277,9376,2,0,L|331:338,1,51.999997619629,0|0,3:0|0:0,0:0:0:0:
453,338,9573,5,8,0:1:0:0:
509,272,9771,1,0,0:0:0:0:
509,272,9869,1,0,0:0:0:0:
509,272,9968,2,0,B|536:220|508:168,1,103.999995239258,8|0,0:3|0:0,0:0:0:0:
485,176,10264,1,0,0:0:0:0:
464,178,10363,1,8,1:1:0:0:
508,78,10560,1,0,1:0:0:0:
382,218,10758,1,8,3:3:0:0:
399,115,10955,1,0,3:0:0:0:
302,134,11152,2,0,P|326:146|371:140,2,51.999997619629,8|0|0,0:1|0:0|0:0,0:0:0:0:
198,184,11448,1,0,0:0:0:0:
156,175,11547,6,0,B|95:166|95:166|63:181|68:223,1,103.999995239258,8|0,0:3|0:0,0:0:0:0:
44,236,11843,1,0,0:0:0:0:
50,261,11942,1,8,1:1:0:0:
63,286,12041,1,0,0:0:0:0:
83,303,12139,2,0,P|74:331|51:355,1,51.999997619629,0|0,1:0|0:0,0:0:0:0:
177,308,12337,2,0,L|156:245,1,51.999997619629,8|0,3:3|0:0,0:0:0:0:
273,299,12534,2,0,P|280:343|266:371,1,51.999997619629,0|0,3:0|0:0,0:0:0:0:
354,223,12731,6,0,L|346:143,1,60.0000022888184,10|0,1:1|0:0,0:0:0:0:
446,79,12929,1,2,1:0:0:0:
446,79,13126,6,0,B|486:178|486:178|476:186|432:147,1,155.999992858887,10|0,3:3|0:0,0:0:0:0:
357,141,13521,1,10,1:1:0:0:
239,130,13718,1,2,1:0:0:0:
257,124,13817,1,0,0:0:0:0:
274,118,13916,2,0,L|209:102,1,51.999997619629,8|0,3:3|0:0,0:0:0:0:
136,85,14113,2,0,L|67:66,1,51.999997619629,0|0,3:0|0:0,0:0:0:0:
41,188,14310,1,10,0:1:0:0:
41,188,14409,1,0,0:0:0:0:
41,188,14508,1,2,0:0:0:0:
41,188,14606,1,0,0:0:0:0:
41,188,14705,6,0,B|70:248|40:305,1,103.999995239258,8|0,0:3|0:0,0:0:0:0:
92,300,15001,1,0,0:0:0:0:
109,344,15100,2,0,B|153:303|224:313,1,103.999995239258,10|2,1:1|1:0,0:0:0:0:
374,315,15494,2,0,L|348:372,1,51.999997619629,8|0,3:3|0:0,0:0:0:0:
463,328,15692,2,0,L|438:383,1,51.999997619629,0|0,3:0|0:0,0:0:0:0:
458,246,15889,1,10,1:1:0:0:
479,223,15988,1,0,0:0:0:0:
484,192,16087,1,2,1:0:0:0:
472,163,16185,1,0,0:0:0:0:
399,137,16284,6,0,B|274:146|274:146|224:192,1,155.999992858887,10|0,0:3|0:0,0:0:0:0:
297,228,16679,2,0,L|376:233,1,51.999997619629,8|0,1:1|0:0,0:0:0:0:
389,214,16876,1,0,1:0:0:0:
367,56,17073,2,0,B|277:75|277:75|322:139,1,155.999992858887,8|0,3:3|0:0,0:0:0:0:
266,256,17468,2,0,L|340:284,1,51.999997619629,10|0,0:1|0:0,0:0:0:0:
160,282,17666,5,2,0:0:0:0:
111,266,17764,1,0,0:0:0:0:
69,293,17863,2,0,B|40:330|40:330|45:268|16:227,1,155.999992858887,8|0,0:3|0:0,0:0:0:0:
16,121,18258,2,0,L|38:58,1,51.999997619629,8|0,1:1|0:0,0:0:0:0:
98,155,18455,2,0,L|164:122,1,51.999997619629,0|0,1:0|0:0,0:0:0:0:
205,60,18652,5,8,3:3:0:0:
205,60,18850,1,0,3:0:0:0:
324,158,19047,6,0,L|258:125,1,51.999997619629,10|0,1:1|0:0,0:0:0:0:
406,124,19244,2,0,L|384:61,1,51.999997619629,2|0,1:0|0:0,0:0:0:0:
477,190,19442,2,0,B|493:252|473:297|473:297|417:279,1,155.999992858887,10|0,0:3|0:0,0:0:0:0:
346,332,19837,1,10,1:1:0:0:
240,269,20034,1,2,1:0:0:0:
250,258,20133,1,0,0:0:0:0:
260,247,20231,2,0,L|270:311,1,51.999997619629,8|0,3:3|0:0,0:0:0:0:
183,370,20429,1,0,3:0:0:0:
72,295,20626,1,10,0:1:0:0:
72,295,20725,1,0,0:0:0:0:
72,295,20823,1,2,0:0:0:0:
72,295,20922,1,0,0:0:0:0:
72,295,21021,6,0,P|58:196|73:176,1,103.999995239258,8|0,0:3|0:0,0:0:0:0:
87,161,21317,1,0,0:0:0:0:
139,139,21416,2,0,L|11:120,1,103.999995239258,10|2,1:1|1:0,0:0:0:0:
223,83,21810,2,0,P|206:46|194:33,1,51.999997619629,8|0,3:3|0:0,0:0:0:0:
328,102,22008,2,0,P|355:71|385:58,1,51.999997619629,0|0,3:0|0:0,0:0:0:0:
372,191,22205,1,10,1:1:0:0:
401,200,22304,1,0,0:0:0:0:
431,207,22402,1,2,1:0:0:0:
461,215,22501,1,0,0:0:0:0:
471,294,22600,6,0,B|465:355|396:376|396:376|380:319,1,155.999992858887,10|0,0:3|0:0,0:0:0:0:
305,314,22994,2,0,P|320:279|344:263,1,51.999997619629,8|0,1:1|0:0,0:0:0:0:
371,261,23192,1,0,1:0:0:0:
461,342,23389,2,0,B|417:376|357:374|357:374|392:332,1,155.999992858887,8|0,3:3|0:0,0:0:0:0:
281,210,23784,2,0,P|302:196|344:194,1,51.999997619629,10|0,0:1|0:0,0:0:0:0:
335,278,23981,5,2,0:0:0:0:
293,320,24080,1,0,0:0:0:0:
239,312,24179,2,0,B|202:321|173:300|173:300|118:290|93:326,1,155.999992858887,8|0,0:3|0:0,0:0:0:0:
36,253,24573,2,0,P|25:212|37:184,1,51.999997619629,8|0,1:1|0:0,0:0:0:0:
94,323,24771,2,0,P|63:353|33:356,1,51.999997619629,0|0,1:0|0:0,0:0:0:0:
131,240,24968,5,8,3:3:0:0:
177,174,25166,5,0,3:0:0:0:
264,141,25363,5,8,1:1:0:0:
364,151,25560,5,0,1:0:0:0:
447,231,25758,5,14,0:3:0:0:
413,51,26148,1,10,0:0:0:0:
413,51,26539,1,10,0:0:0:0:
333,174,26967,5,0,1:0:0:0:
407,197,27182,2,0,L|436:187,1,20,0|0,1:0|1:0,0:0:0:0:
240,117,27335,5,2,0:0:0:0:
196,276,27727,1,10,0:0:0:0:
196,276,28119,1,10,0:0:0:0:
164,188,28491,5,0,1:0:0:0:
84,192,28705,6,0,L|83:167,1,20,0|0,1:0|1:0,0:0:0:0:
5,198,28909,6,0,P|-6:144|11:108,1,80,2|0,0:0|0:0,0:0:0:0:
50,262,29303,2,0,P|36:293|47:345,1,80,10|0,0:0|0:0,0:0:0:0:
186,197,29698,2,0,L|84:211,1,80,10|0,0:0|0:0,0:0:0:0:
255,256,30106,1,2,0:0:0:0:
447,188,30488,6,0,B|485:163|483:113|483:113|437:120|421:155,1,155.999992858887,2|0,1:0|0:0,0:0:0:0:
348,270,30882,6,0,B|349:315|394:338|394:338|411:295|388:264,1,155.999992858887,10|0,1:2|0:0,0:0:0:0:
325,146,31277,6,0,B|284:125|242:151|242:151|271:187|309:183,1,155.999992858887,10|0,1:2|0:0,0:0:0:0:
377,203,31682,5,2,0:0:0:0:
377,203,31875,1,0,1:0:0:0:
264,49,32069,5,2,0:0:0:0:
172,99,32456,1,10,0:0:0:0:
192,200,32861,1,10,0:0:0:0:
295,213,33261,1,2,0:0:0:0:
339,119,33452,1,0,1:0:0:0:
254,136,33643,5,2,0:0:0:0:
176,206,34040,1,10,0:0:0:0:
220,299,34434,1,10,0:0:0:0:
323,287,34834,1,2,0:0:0:0:
343,185,35031,1,0,1:0:0:0:
263,220,35228,5,2,0:0:0:0:
343,334,35622,1,8,0:0:0:0:
473,284,36017,1,8,0:0:0:0:
510,167,36811,5,0,0:0:0:0:
430,53,37204,1,8,0:0:0:0:
300,103,37597,1,8,0:0:0:0:
336,210,37991,5,0,1:0:0:0:
260,187,38170,6,0,P|258:198|250:211,1,20,0|0,1:0|1:0,0:0:0:0:
182,173,38383,5,6,0:0:0:0:
259,280,38780,2,0,P|260:322|223:360,1,80,10|0,0:0|0:0,0:0:0:0:
238,351,39177,1,10,0:0:0:0:
289,178,39577,1,2,0:0:0:0:
253,104,39959,6,0,P|252:62|289:24,1,80,2|0,0:0|0:0,0:0:0:0:
273,32,40354,1,10,0:0:0:0:
294,185,40748,2,0,P|275:249|245:187,1,160,10|2,0:0|1:2,0:0:0:0:
251,123,41297,5,8,3:0:0:0:
327,97,41395,1,8,3:0:0:0:
327,97,41542,6,0,P|372:127|386:169,1,100,2|0,1:0|3:0,0:0:0:0:
142,213,41929,2,0,P|145:159|174:125,1,100,10|0,1:0|3:0,0:0:0:0:
281,268,42337,2,0,B|284:338|244:375|244:375|228:343|248:303,1,160,10|2,0:0|0:0,0:0:0:0:
238,334,43121,5,2,1:2:0:0:
266,246,43518,1,10,1:2:0:0:
365,182,43916,1,10,1:2:0:0:
500,195,44308,1,2,0:0:0:0:
383,271,44702,5,2,0:0:0:0:
287,243,45097,1,10,0:0:0:0:
208,164,45492,1,10,0:0:0:0:
188,41,45884,1,2,0:0:0:0:
278,99,46278,5,2,0:0:0:0:
243,170,46673,1,10,0:0:0:0:
150,204,47068,1,10,0:0:0:0:
41,158,47462,1,2,0:0:0:0:
19,39,47856,5,2,0:0:0:0:
175,72,48258,1,8,0:0:0:0:
338,106,48671,1,8,0:0:0:0:
35,71,49546,5,0,0:0:0:0:
207,107,50014,5,8,0:0:0:0:
384,142,50483,5,8,0:1:0:0:
103,112,50952,5,2,0:0:0:0:
252,139,51149,1,2,0:0:0:0:
398,164,51346,1,10,3:0:0:0:
408,177,51444,6,0,B|411:209|423:225|423:225|406:275|359:238,1,120.000004577637,0|0,1:0|1:0,0:0:0:0:
300,277,51740,1,10,1:1:0:0:
487,315,51938,1,2,1:0:0:0:
454,331,52037,1,0,0:0:0:0:
423,327,52135,2,0,P|415:349|398:373,1,51.999997619629,8|0,3:3|0:0,0:0:0:0:
238,354,52333,2,0,P|261:363|290:355,1,51.999997619629,0|0,3:0|0:0,0:0:0:0:
137,284,52530,1,10,0:1:0:0:
107,274,52629,1,0,0:0:0:0:
77,284,52727,1,2,0:0:0:0:
59,309,52826,1,0,0:0:0:0:
96,345,52925,6,0,P|110:279|90:216,1,103.999995239258,8|0,0:3|0:0,0:0:0:0:
162,197,53221,1,0,0:0:0:0:
130,131,53320,2,0,P|76:146|40:191,1,103.999995239258,10|2,1:1|1:0,0:0:0:0:
314,91,53714,2,0,L|298:162,1,51.999997619629,8|0,3:3|0:0,0:0:0:0:
437,187,53912,2,0,P|438:158|422:130,1,51.999997619629,0|0,3:0|0:0,0:0:0:0:
352,232,54109,5,10,1:1:0:0:
357,280,54208,1,0,0:0:0:0:
414,334,54306,5,2,1:0:0:0:
446,346,54405,1,0,0:0:0:0:
512,305,54504,6,0,B|471:282|411:281|324:352,1,155.999992858887,10|0,0:3|0:0,0:0:0:0:
257,267,54899,2,0,P|260:294|277:325,1,51.999997619629,8|0,1:1|0:0,0:0:0:0:
297,362,55096,1,0,1:0:0:0:
464,238,55293,2,0,B|445:184|426:193|352:238|358:309,1,155.999992858887,8|0,3:3|0:0,0:0:0:0:
197,353,55688,2,0,P|228:331|238:313,1,51.999997619629,10|0,0:1|0:0,0:0:0:0:
130,281,55885,5,2,0:0:0:0:
105,288,55984,1,0,0:0:0:0:
56,351,56083,2,0,P|28:274|72:212,1,155.999992858887,8|0,0:3|0:0,0:0:0:0:
125,156,56477,2,0,L|69:127,1,51.999997619629,8|0,1:1|0:0,0:0:0:0:
207,119,56675,2,0,L|192:68,1,51.999997619629,0|0,1:0|0:0,0:0:0:0:
307,134,56872,1,8,3:3:0:0:
307,134,56971,1,0,0:0:0:0:
307,134,57070,1,0,3:0:0:0:
339,128,57168,1,0,0:0:0:0:
385,137,57267,1,10,1:1:0:0:
429,165,57366,1,0,0:0:0:0:
467,212,57464,1,2,1:0:0:0:
473,274,57563,1,0,0:0:0:0:
435,339,57662,6,0,B|377:370|335:369|335:369|365:316,1,155.999992858887,10|0,0:3|0:0,0:0:0:0:
273,308,58056,2,0,L|229:355,1,51.999997619629,10|0,1:1|0:0,0:0:0:0:
78,363,58254,1,2,1:0:0:0:
56,324,58352,1,0,0:0:0:0:
80,279,58451,2,0,L|150:295,1,51.999997619629,8|0,3:3|0:0,0:0:0:0:
64,197,58649,2,0,L|14:220,1,51.999997619629,0|0,3:0|0:0,0:0:0:0:
136,123,58846,1,10,0:1:0:0:
156,90,58945,1,0,0:0:0:0:
138,47,59043,1,2,0:0:0:0:
90,22,59142,1,0,0:0:0:0:
36,38,59241,6,0,B|28:91|84:129|123:110,1,103.999995239258,8|0,0:3|0:0,0:0:0:0:
139,168,59537,1,0,0:0:0:0:
106,235,59635,2,0,B|152:258|194:252|221:207,1,103.999995239258,10|2,1:1|1:0,0:0:0:0:
366,168,60030,2,0,P|363:203|344:228,1,51.999997619629,8|0,3:3|0:0,0:0:0:0:
455,88,60227,2,0,P|435:61|437:28,1,51.999997619629,0|0,3:0|0:0,0:0:0:0:
454,184,60425,5,10,1:1:0:0:
496,215,60524,1,0,0:0:0:0:
443,270,60622,5,2,1:0:0:0:
458,302,60721,1,0,0:0:0:0:
382,330,60820,6,0,B|336:359|266:328|266:328|223:366,1,155.999992858887,10|0,0:3|0:0,0:0:0:0:
291,253,61214,2,0,P|308:262|347:263,1,51.999997619629,8|0,1:1|0:0,0:0:0:0:
378,256,61411,1,0,1:0:0:0:
297,348,61609,2,0,B|247:337|227:299|227:299|195:329|217:377,1,155.999992858887,8|0,3:3|0:0,0:0:0:0:
415,213,62004,2,0,P|394:228|369:233,1,51.999997619629,10|0,0:1|0:0,0:0:0:0:
230,146,62201,5,2,0:0:0:0:
223,202,62300,1,0,0:0:0:0:
181,234,62399,2,0,B|153:225|137:188|137:188|126:261|67:275,1,155.999992858887,8|0,0:3|0:0,0:0:0:0:
49,191,62793,2,0,L|0:174,1,51.999997619629,8|0,1:1|0:0,0:0:0:0:
143,99,62991,2,0,P|138:134|104:158,1,51.999997619629,0|0,1:0|0:0,0:0:0:0:
45,61,63188,1,8,3:3:0:0:
45,61,63287,1,0,0:0:0:0:
45,61,63385,1,0,3:0:0:0:
68,35,63484,1,0,0:0:0:0:
109,33,63583,1,10,1:1:0:0:
153,55,63681,1,0,0:0:0:0:
207,66,63780,1,2,1:0:0:0:
264,47,63879,1,0,0:0:0:0:
336,0,63977,5,10,0:3:0:0:
355,29,64076,2,0,B|370:117|370:117|329:92,1,120.000004577637
460,139,64372,1,10,1:1:0:0:
370,259,64570,1,2,1:0:0:0:
361,306,64668,1,0,0:0:0:0:
395,341,64767,2,0,B|431:331|457:286,1,51.999997619629,8|0,3:3|0:0,0:0:0:0:
507,257,64964,2,0,P|478:233|427:228,1,51.999997619629,0|0,3:0|0:0,0:0:0:0:
308,186,65162,1,10,0:1:0:0:
254,177,65260,1,0,0:0:0:0:
205,196,65359,1,2,0:0:0:0:
179,247,65458,1,0,0:0:0:0:
216,297,65556,6,0,B|218:316|218:316|163:328|121:304,1,103.999995239258,8|0,0:3|0:0,0:0:0:0:
59,282,65852,1,0,0:0:0:0:
27,211,65951,2,0,B|69:193|108:211|129:246,1,103.999995239258,10|2,1:1|1:0,0:0:0:0:
48,86,66346,2,0,L|39:6,1,51.999997619629,8|0,3:3|0:0,0:0:0:0:
129,114,66543,2,0,L|121:39,1,51.999997619629,0|0,3:0|0:0,0:0:0:0:
289,127,66741,5,10,1:1:0:0:
317,120,66839,1,0,0:0:0:0:
339,46,66938,5,2,1:0:0:0:
359,54,67037,1,0,0:0:0:0:
413,0,67135,6,0,B|457:33|505:105|438:149|435:77,1,155.999992858887,10|0,0:3|0:0,0:0:0:0:
460,189,67530,2,0,P|425:189|402:162,1,51.999997619629,8|0,1:1|0:0,0:0:0:0:
348,131,67727,1,0,1:0:0:0:
491,20,67925,2,0,B|506:97|466:152|394:109|466:48,1,155.999992858887,8|0,3:3|0:0,0:0:0:0:
411,258,68320,2,0,P|386:235|380:212,1,51.999997619629,10|0,0:1|0:0,0:0:0:0:
264,160,68517,5,2,0:0:0:0:
207,154,68616,1,0,0:0:0:0:
163,191,68714,2,0,B|147:215|121:217|121:217|92:149|135:122,1,155.999992858887,8|0,0:3|0:0,0:0:0:0:
89,50,69109,2,0,P|43:53|32:45,1,51.999997619629,8|0,1:1|0:0,0:0:0:0:
204,73,69306,2,0,P|227:107|267:108,1,51.999997619629,0|0,1:0|0:0,0:0:0:0:
68,232,69504,5,8,3:3:0:0:
61,244,69602,1,0,0:0:0:0:
55,256,69701,1,0,3:0:0:0:
49,267,69800,1,0,0:0:0:0:
43,278,69899,1,10,1:1:0:0:
11,223,69997,1,0,0:0:0:0:
56,177,70096,1,2,1:0:0:0:
112,204,70195,1,0,0:0:0:0:
106,267,70293,6,0,B|111:310|163:342|163:342|204:294|177:249,1,155.999992858887,10|0,0:3|0:0,0:0:0:0:
272,166,70688,2,0,P|244:183|205:185,1,51.999997619629,10|0,1:1|0:0,0:0:0:0:
327,285,70885,1,2,1:0:0:0:
369,323,70984,1,0,0:0:0:0:
424,307,71083,2,0,P|450:276|451:247,1,51.999997619629,8|0,3:3|0:0,0:0:0:0:
479,117,71280,2,0,P|487:157|473:192,1,51.999997619629,0|0,3:0|0:0,0:0:0:0:
373,195,71477,5,10,0:1:0:0:
332,192,71576,1,0,0:0:0:0:
287,176,71675,1,2,0:0:0:0:
240,145,71774,1,0,0:0:0:0:
215,93,71872,2,0,B|250:58|297:71|297:71|275:93,1,103.999995239258,8|0,0:3|0:0,0:0:0:0:
309,153,72168,1,0,0:0:0:0:
252,205,72267,2,0,P|205:225|145:178,1,103.999995239258,10|2,1:1|1:0,0:0:0:0:
120,303,72662,2,0,P|124:348|144:372,1,51.999997619629,8|0,3:3|0:0,0:0:0:0:
22,276,72859,2,0,P|6:296|0:321,1,51.999997619629,0|0,3:0|0:0,0:0:0:0:
65,184,73056,5,10,1:1:0:0:
24,155,73155,1,0,0:0:0:0:
88,107,73254,5,2,1:0:0:0:
98,67,73352,1,0,0:0:0:0:
169,107,73451,6,0,B|237:120|282:101|282:101|306:60,1,155.999992858887,10|0,0:3|0:0,0:0:0:0:
364,135,73846,2,0,L|342:190,1,51.999997619629,8|0,1:1|0:0,0:0:0:0:
267,211,74043,1,0,1:0:0:0:
171,32,74240,2,0,B|190:72|190:72|242:82|274:6,1,155.999992858887,8|0,3:3|0:0,0:0:0:0:
376,171,74635,2,0,L|326:157,1,51.999997619629,10|0,0:1|0:0,0:0:0:0:
186,226,74833,5,2,0:0:0:0:
164,271,74931,1,0,0:0:0:0:
193,313,75030,2,0,B|231:336|278:328|278:328|277:368|212:379,1,155.999992858887,8|0,0:3|0:0,0:0:0:0:
64,364,75425,5,8,1:1:0:0:
81,330,75524,1,0,0:0:0:0:
34,264,75622,5,0,1:0:0:0:
52,255,75721,1,0,0:0:0:0:
49,176,75819,5,8,3:0:0:0:
256,213,76017,1,0,3:0:0:0:
463,176,76214,1,10,1:3:0:0:
256,133,76411,5,10,1:3:0:0:
256,133,76609,2,0,P|264:75|252:50,1,80,14|0,0:3|0:0,0:0:0:0:
245,256,77003,2,0,P|253:314|241:339,1,80,10|0,0:0|0:0,0:0:0:0:
85,189,77398,2,0,P|124:204|163:194,1,80,10|0,0:0|0:0,0:0:0:0:
359,191,77793,1,2,0:0:0:0:
73,171,78188,5,2,0:0:0:0:
250,132,78582,1,10,0:0:0:0:
431,165,78977,1,10,0:0:0:0:
338,280,79372,6,0,P|343:293|342:306,1,20,2|0,1:2|0:0,0:0:0:0:
267,325,79520,1,8,3:0:0:0:
180,296,79619,1,8,3:0:0:0:
146,218,79767,2,0,B|148:182|179:159|179:159|181:182|173:203,1,106.666666666667,2|0,1:0|0:0,0:0:0:0:
88,284,80169,6,0,B|50:311|4:303|4:303|24:276|49:270,1,140,10|0,0:1|3:0,0:0:0:0:
180,296,80579,6,0,B|208:308|220:338|220:338|196:340|184:323,1,89.9999972534181,10|0,0:0|0:0,0:0:0:0:
95,235,81029,5,2,0:0:0:0:
285,279,81329,1,0,3:0:0:0:
285,279,81498,6,0,P|325:278|363:250,1,81.6000004980469,2|0,0:0|3:0,0:0:0:0:
306,201,82004,1,10,1:2:0:0:
185,169,82525,5,2,0:0:0:0:
58,210,83055,5,2,0:0:0:0:
58,210,83280,2,0,P|56:237|69:260,1,40,0|0,3:0|3:0,0:0:0:0:
266,295,83626,5,2,0:0:0:0:
199,340,83790,2,0,P|202:359|213:388,1,40,8|8,3:0|3:0,0:0:0:0:
117,342,84063,5,10,0:2:0:0:
97,202,84465,1,10,0:0:0:0:
219,120,84859,1,2,0:0:0:0:
335,210,85252,1,2,0:0:0:0:
290,349,85645,1,10,0:0:0:0:
213,249,86039,5,10,0:0:0:0:
176,128,86432,1,2,0:0:0:0:
288,59,86825,1,2,1:2:0:0:
344,111,86938,1,0,0:2:0:0:
376,105,87052,1,0,0:2:0:0:
