osu file format v14

[General]
AudioFilename: audio.ogg
AudioLeadIn: 0
PreviewTime: 49546
Countdown: 0
SampleSet: Soft
StackLeniency: 0.4
Mode: 0
LetterboxInBreaks: 0
WidescreenStoryboard: 1

[Editor]
DistanceSpacing: 1
BeatDivisor: 7
GridSize: 8
TimelineZoom: 1.4

[Metadata]
Title:Take A Hike
TitleUnicode:Take A Hike
Artist:tv room
ArtistUnicode:tv room
Creator:DigiDrake
Version:hard
Source:
Tags:english electronic indie alternative deskpop hyperpop hyper pop ep portland the great state of maine lake attitash multimedia commission watershed association
BeatmapID:4523536
BeatmapSetID:2142850

[Difficulty]
HPDrainRate:4
CircleSize:4
OverallDifficulty:6
ApproachRate:7
SliderMultiplier:1.4
SliderTickRate:1

[Events]
//Background and Video events
0,0,"dog2.jpg",0,0
Video,450,"oh yeah.mp4"
//Break Periods
//Storyboard Layer 0 (Background)
//Storyboard Layer 1 (Fail)
//Storyboard Layer 2 (Pass)
//Storyboard Layer 3 (Foreground)
//Storyboard Layer 4 (Overlay)
//Storyboard Sound Samples

[TimingPoints]
495,394.736842105263,4,2,2,60,1,0
495,-100,4,2,2,60,0,0
4837,-100,4,2,2,60,0,0
12731,-100,4,2,2,65,0,0
13126,-90.9090909090909,4,2,2,70,0,1
19047,-100,4,2,2,70,0,0
19442,-100,4,2,2,70,0,1
25758,390.879478827362,4,2,1,50,1,0
25758,-100,4,2,1,50,0,0
26539,428.571428571429,4,2,1,50,1,0
26967,431.654676258993,4,2,1,50,1,0
26967,-100,4,2,1,50,0,0
27335,392.156862745098,4,2,1,50,1,0
27335,-100,4,2,1,50,0,0
27736,-100,4,2,1,50,0,0
28119,372.670807453416,4,2,1,50,1,0
28491,428.571428571429,4,2,1,50,1,0
28491,-100,4,2,1,50,0,0
28909,394.736842105263,4,2,1,50,1,0
28909,-100,4,2,1,50,0,0
29698,408.163265306122,4,2,1,50,1,0
30106,382.165605095541,4,2,1,50,1,0
30106,-100,4,2,1,50,0,0
30409,-100,4,2,1,5,0,0
30488,394.736842105263,4,2,1,50,1,0
30488,-100,4,2,1,50,0,1
30784,-100,4,2,1,5,0,1
30882,-100,4,2,1,50,0,1
31178,-100,4,2,1,5,0,1
31277,405.405405405405,4,2,1,50,1,0
31277,-100,4,2,1,50,0,1
31581,-100,4,2,1,5,0,1
31682,387.096774193548,4,2,1,50,1,0
31682,-100,4,2,1,50,0,0
32065,-100,4,2,1,50,0,0
32456,405.405405405405,4,2,1,50,1,0
32861,400,4,2,1,50,1,0
33261,382.165605095541,4,2,1,50,1,0
33643,397.350993377483,4,2,1,50,1,0
34040,394.736842105263,4,2,1,50,1,0
34434,400,4,2,1,50,1,0
34834,394.736842105263,4,2,1,50,1,0
35228,394.736842105263,4,2,1,50,1,0
36017,397.350993377483,4,2,1,50,1,0
36811,393.44262295082,4,2,1,50,1,0
37991,359.281437125748,4,2,1,50,1,0
37991,-100,4,2,1,50,0,0
38383,397.350993377483,4,2,1,50,1,0
39177,400,4,2,1,50,1,0
39577,382.165605095541,4,2,1,50,1,0
39959,394.736842105263,4,2,1,50,1,0
40748,402.684563758389,4,2,1,50,1,0
41150,392.156862745098,4,2,1,50,1,0
41542,387.096774193548,4,2,1,50,1,0
41929,408.163265306122,4,2,1,50,1,0
42337,387.096774193548,4,2,1,50,1,0
42724,397.350993377483,4,2,1,50,1,0
43916,392.156862745098,4,2,1,50,1,0
44308,394.736842105263,4,2,1,50,1,0
45492,392.156862745098,4,2,1,50,1,0
45884,394.736842105263,4,2,1,50,1,0
47856,402.684563758389,4,2,1,50,1,0
48258,413.793103448276,4,2,1,50,1,0
48258,-100,4,2,1,50,0,0
48671,437.956204379562,4,2,1,50,1,0
49546,468.75,4,2,1,50,1,0
50952,394.088669950738,4,2,1,50,1,0
50952,-100,4,2,1,60,0,1
51149,-100,4,2,1,60,0,0
51346,394.736842105263,4,2,2,70,1,0
51346,-76.9230769230769,4,2,2,70,0,1
51740,-90.9090909090909,4,2,2,70,0,1
52924,-90.9090909090909,4,2,2,70,0,1
53318,-90.9090909090909,4,2,2,70,0,1
57267,-90.9090909090909,4,2,2,70,0,0
57661,-90.9090909090909,4,2,2,70,0,1
58055,-90.9090909090909,4,2,2,70,0,1
59240,-90.9090909090909,4,2,2,70,0,1
59634,-90.9090909090909,4,2,2,70,0,1
63582,-90.9090909090909,4,2,2,70,0,0
63977,-76.9230769230769,4,2,2,75,0,1
64569,-90.9090909090909,4,2,2,75,0,1
65950,-90.9090909090909,4,2,2,75,0,1
76609,-100,4,2,1,60,0,0
77195,-100,4,2,1,60,0,0
77398,-100,4,2,1,55,0,0
79366,-100,4,2,1,55,0,0
79761,-100,4,2,1,55,0,0
79767,370.37037037037,4,2,1,55,1,0
80013,468.75,4,2,1,55,1,0
80169,392.156862745098,4,2,1,55,1,0
80169,-106.382978723404,4,2,1,55,0,0
80430,447.761194029851,4,2,1,55,1,0
80579,431.654676258993,4,2,1,55,1,0
80579,-106.382978723404,4,2,1,55,0,0
80866,491.803278688525,4,2,1,55,1,0
81029,451.127819548873,4,2,1,55,1,0
81329,508.474576271187,4,2,1,55,1,0
81498,495.867768595042,4,2,1,55,1,0
81498,-111.111111111111,4,2,1,55,0,0
81828,530.973451327434,4,2,1,55,1,0
82004,521.739130434783,4,2,1,55,1,0
82525,530.973451327434,4,2,1,55,1,0
83055,600.000000000001,4,2,1,55,1,0
83055,-90.9090909090909,4,2,1,55,0,0
83623,-76.9230769230769,4,2,1,55,0,0
83626,437.956204379562,4,2,1,55,1,0
83801,-90.9090909090909,4,2,1,55,0,0
84063,402.684563758389,4,2,1,55,1,0
84064,-100,4,2,1,55,0,0
84365,-100,4,2,1,5,0,0
84465,394.736842105263,4,2,1,55,1,0
84859,393.44262295082,4,2,1,55,1,0
86825,454.545454545455,4,2,1,55,1,0

[Colours]
Combo1 : 205,243,254
Combo2 : 196,252,154
Combo3 : 120,190,97
Combo4 : 109,182,235

[HitObjects]
95,84,495,6,0,P|97:108|78:141,3,35,10|0|2|0,0:3|0:0|0:0|0:0,0:0:0:0:
78,159,889,1,8,0:1:0:0:
130,335,1284,5,8,0:3:0:0:
130,335,1383,1,0,0:0:0:0:
130,335,1481,2,0,P|128:313|108:289,1,35
96,266,1679,1,8,0:1:0:0:
213,204,1975,5,0,0:0:0:0:
213,204,2073,2,0,L|262:198,3,35,8|0|0|0,0:3|0:0|0:0|0:0,0:0:0:0:
291,194,2468,2,0,B|341:189|341:189|327:212,1,70,8|0,0:1|0:0,0:0:0:0:
385,274,2863,2,0,L|436:286,1,35,8|0,0:3|0:0,0:0:0:0:
447,248,3060,2,0,L|442:202,1,35
437,169,3258,1,8,0:1:0:0:
455,42,3554,5,0,0:0:0:0:
455,42,3652,2,0,P|435:42|412:32,3,35,8|0|0|0,0:3|0:0|0:0|0:0,0:0:0:0:
384,12,4047,1,8,0:1:0:0:
218,69,4442,6,0,P|225:92|214:115,1,35,8|0,0:3|0:0,0:0:0:0:
202,141,4639,2,0,P|208:165|199:186,1,35
226,216,4837,1,8,0:1:0:0:
105,280,5133,5,0,0:0:0:0:
116,285,5231,2,0,L|163:292,3,35,8|0|0|0,0:3|0:0|0:0|0:0,0:0:0:0:
191,309,5626,2,0,P|199:328|199:350,1,35,8|0,0:1|0:0,0:0:0:0:
240,363,5823,1,0,0:0:0:0:
303,296,6021,1,8,0:3:0:0:
303,296,6119,1,0,0:0:0:0:
303,296,6218,2,0,P|323:278|327:266,1,35
373,256,6416,1,8,0:1:0:0:
373,256,6514,1,0,0:0:0:0:
373,256,6613,2,0,L|382:290,1,35
418,306,6810,6,0,B|472:307|495:177|443:214|450:235,1,140,10|8,0:3|1:1,0:0:0:0:
315,122,7600,1,8,3:3:0:0:
384,175,7797,1,0,3:0:0:0:
414,97,7994,2,0,L|514:85,1,70,8|0,0:1|0:0,0:0:0:0:
483,88,8291,1,0,0:0:0:0:
483,88,8389,2,0,P|490:109|491:132,3,35,8|0|0|0,0:3|0:0|0:0|0:0,0:0:0:0:
474,162,8784,5,8,1:1:0:0:
384,175,8981,1,0,1:0:0:0:
332,246,9179,1,8,3:3:0:0:
262,193,9376,1,0,3:0:0:0:
174,194,9573,2,0,B|127:198|99:220|99:220|106:194,1,105,8|0,0:1|0:0,0:0:0:0:
103,154,9968,6,0,L|93:107,3,35,8|0|0|0,0:3|0:0|0:0|0:0,0:0:0:0:
83,77,10363,1,8,1:1:0:0:
169,89,10560,1,0,1:0:0:0:
123,13,10758,1,8,3:3:0:0:
201,51,10955,1,0,3:0:0:0:
288,49,11152,2,0,L|396:36,1,105,8|0,0:1|0:0,0:0:0:0:
433,30,11547,6,0,P|440:51|436:66,3,35,8|0|0|0,0:3|0:0|0:0|0:0,0:0:0:0:
455,102,11942,1,8,1:1:0:0:
407,174,12139,1,0,1:0:0:0:
472,231,12337,1,8,3:3:0:0:
406,288,12534,1,0,3:0:0:0:
469,352,12731,6,0,P|448:360|413:341,1,35,10|0,1:1|0:0,0:0:0:0:
391,361,12929,2,0,P|372:366|330:350,1,35,2|0,1:0|0:0,0:0:0:0:
322,331,13126,6,0,P|285:346|240:338,1,77.0000023498536,10|0,3:3|0:0,0:0:0:0:
205,356,13422,1,0,0:0:0:0:
205,356,13521,2,0,B|219:331|219:331|206:277,1,77.0000023498536,10|2,1:1|1:0,0:0:0:0:
121,226,13916,2,0,L|24:216,1,77.0000023498536,8|0,3:3|3:0,0:0:0:0:
44,218,14212,1,0,0:0:0:0:
44,218,14310,1,10,0:1:0:0:
86,131,14508,1,2,0:0:0:0:
121,41,14705,6,0,B|229:31|229:31|176:75,1,154.000004699707,8|10,0:3|1:1,0:0:0:0:
277,107,15297,1,2,1:0:0:0:
364,146,15494,2,0,P|313:200|238:196,1,154.000004699707,8|10,3:3|1:1,0:0:0:0:
277,107,16087,1,2,1:0:0:0:
364,66,16284,6,0,B|417:66|440:119|440:119|542:127|542:9|427:12|430:67,1,308.000009399414,10|8,0:3|3:3,0:0:0:0:
366,142,17271,1,2,3:0:0:0:
436,207,17468,1,10,0:1:0:0:
436,207,17567,1,0,0:0:0:0:
436,207,17666,2,0,P|446:230|440:268,1,38.5000011749268,2|0,0:0|0:0,0:0:0:0:
444,291,17863,6,0,B|350:260|350:260|331:297,1,115.50000352478,8|0,0:3|0:0,0:0:0:0:
306,307,18258,2,0,L|222:310,1,77.0000023498536,8|0,1:1|1:0,0:0:0:0:
133,314,18652,1,8,3:3:0:0:
36,318,18850,1,0,3:0:0:0:
115,281,19047,1,10,1:1:0:0:
194,244,19244,1,2,1:0:0:0:
122,193,19442,6,0,B|91:142|109:92|109:92|133:102|139:127,1,140,10|10,0:3|1:1,0:0:0:0:
212,154,20034,1,2,1:0:0:0:
290,110,20231,2,0,L|363:102,1,70,8|0,3:3|3:0,0:0:0:0:
359,102,20527,1,0,0:0:0:0:
359,102,20626,1,10,0:1:0:0:
453,96,20823,1,2,0:0:0:0:
419,176,21021,6,0,B|391:227|402:267|402:267|445:243,1,140,8|10,0:3|1:1,0:0:0:0:
479,324,21613,1,2,1:0:0:0:
395,348,21810,2,0,B|356:351|326:309|326:309|288:389,1,140,8|10,3:3|1:1,0:0:0:0:
233,304,22402,1,2,1:0:0:0:
174,369,22600,2,0,B|124:315|166:243|166:243|148:212|72:204|69:286|107:292,1,280,10|8,0:3|3:3,0:0:0:0:
14,295,23587,1,2,3:0:0:0:
21,208,23784,1,10,0:1:0:0:
18,203,23883,1,0,0:0:0:0:
15,198,23981,2,0,L|24:142,1,35,2|0,0:0|0:0,0:0:0:0:
27,119,24179,6,0,B|104:139|104:139|131:104,1,105,8|0,0:3|0:0,0:0:0:0:
159,135,24573,2,0,P|207:142|236:122,1,70,8|0,1:1|1:0,0:0:0:0:
304,97,24968,6,0,L|317:118,1,17.5,8|0,3:3|0:0,0:0:0:0:
390,101,25166,6,0,L|406:127,1,17.5,0|0,3:0|0:0,0:0:0:0:
476,105,25363,6,0,L|491:126,1,17.5,8|0,1:1|0:0,0:0:0:0:
500,34,25560,5,0,1:0:0:0:
500,34,25758,2,0,B|501:62|530:79|530:79|496:117|506:162,1,140,14|10,0:3|0:0,0:0:0:0:
388,24,26539,1,10,0:0:0:0:
375,196,26967,5,0,1:0:0:0:
287,192,27182,2,0,L|279:219,1,17.5,0|0,1:0|1:0,0:0:0:0:
300,243,27335,6,0,B|261:235|216:263|216:263|183:251|184:220,1,140,2|10,0:0|0:0,0:0:0:0:
72,360,28119,1,10,0:0:0:0:
72,360,28491,5,0,1:0:0:0:
59,273,28705,2,0,L|66:250,1,17.5,0|0,1:0|1:0,0:0:0:0:
46,186,28909,6,0,L|40:79,1,105,2|0,0:0|0:0,0:0:0:0:
81,65,29303,2,0,B|64:92|64:92|140:105,1,105,10|0,0:0|0:0,0:0:0:0:
178,113,29698,1,10,0:0:0:0:
242,276,30106,1,2,0:0:0:0:
242,276,30488,6,0,P|215:258|234:193,1,105,2|0,1:0|0:0,0:0:0:0:
242,155,30882,6,0,P|270:141|317:190,1,105,10|0,1:2|0:0,0:0:0:0:
346,219,31277,6,0,P|343:250|277:266,1,105,10|0,1:2|0:0,0:0:0:0:
278,221,31682,1,2,0:0:0:0:
278,221,31875,1,0,1:0:0:0:
315,142,32069,5,2,0:0:0:0:
484,182,32456,1,10,0:0:0:0:
424,346,32861,1,10,0:0:0:0:
399,176,33261,5,2,0:0:0:0:
399,176,33452,1,0,1:0:0:0:
376,260,33643,5,2,0:0:0:0:
202,286,34040,1,10,0:0:0:0:
28,312,34434,1,10,0:0:0:0:
166,214,34834,5,2,0:0:0:0:
166,214,35031,1,0,1:0:0:0:
95,162,35228,5,2,0:0:0:0:
256,93,35622,1,8,0:0:0:0:
417,162,36017,1,8,0:0:0:0:
115,179,36811,5,0,0:0:0:0:
257,71,37204,1,8,0:0:0:0:
397,179,37597,1,8,0:0:0:0:
256,197,37991,5,0,1:0:0:0:
256,197,38170,2,0,L|262:228,1,17.5,0|0,1:0|1:0,0:0:0:0:
235,281,38383,6,0,P|310:315|357:278,2,140,6|10|10,0:0|0:0|0:0,0:0:0:0:
63,241,39577,1,2,0:0:0:0:
197,128,39959,1,2,0:0:0:0:
58,18,40353,2,0,B|66:47|48:69|48:69|65:123|117:105,1,140,10|10,0:0|0:0,0:0:0:0:
255,208,41150,2,0,P|257:243|251:264,2,52.5,2|8|8,1:2|3:0|3:0,0:0:0:0:
289,180,41542,6,0,P|362:159|386:196,1,105,2|0,1:0|0:0,0:0:0:0:
416,192,41929,2,0,B|468:218|450:264|393:265,1,105,10|0,1:0|0:0,0:0:0:0:
365,262,42337,2,0,B|342:291|329:332|333:362,1,105,10|0,0:0|0:0,0:0:0:0:
371,378,42724,1,2,0:0:0:0:
210,307,43121,5,2,1:2:0:0:
164,137,43518,1,10,1:2:0:0:
333,93,43916,1,10,1:2:0:0:
383,260,44308,1,2,0:0:0:0:
242,202,44702,6,0,B|343:176|343:176|302:228,1,140,2|10,0:0|0:0,0:0:0:0:
178,306,45492,2,0,B|161:296|138:306|138:306|107:271|145:244,1,105,10|0,0:0|0:0,0:0:0:0:
153,210,45884,1,2,0:0:0:0:
73,53,46278,6,0,P|39:132|87:165,1,140,2|10,0:0|0:0,0:0:0:0:
236,105,47068,1,10,0:0:0:0:
264,277,47462,1,2,0:0:0:0:
424,206,47856,2,0,L|471:90,1,105,2|0,0:0|0:0,0:0:0:0:
463,108,48258,5,8,0:0:0:0:
304,161,48671,1,8,0:0:0:0:
461,229,49546,5,0,0:0:0:0:
256,191,50014,5,8,0:0:0:0:
48,152,50483,5,8,0:1:0:0:
260,195,50952,5,2,0:0:0:0:
260,195,51149,1,2,0:0:0:0:
158,219,51346,2,0,B|140:249|218:308|266:205|226:166|169:168,1,181.999991668702,10|10,3:0|1:1,0:0:0:0:
154,79,51938,1,2,1:0:0:0:
247,102,52134,2,0,P|300:101|326:79,1,77.0000023498536,8|0,3:3|3:0,0:0:0:0:
318,88,52430,1,0,0:0:0:0:
318,88,52529,1,10,0:1:0:0:
376,163,52726,1,2,0:0:0:0:
401,58,52924,6,0,B|426:41|493:66|502:141|443:157,1,154.000004699707,8|10,0:3|1:1,0:0:0:0:
482,243,53516,1,2,1:0:0:0:
406,301,53713,2,0,B|377:268|388:216|388:216|356:254|318:242,1,154.000004699707,8|10,3:3|1:1,0:0:0:0:
333,244,54305,1,2,1:0:0:0:
240,270,54503,6,0,B|188:326|245:385|327:353|340:318|322:233|246:266|241:215|257:161,1,308.000009399414,10|8,0:3|3:3,0:0:0:0:
323,105,55490,1,2,3:0:0:0:
263,42,55687,1,10,0:1:0:0:
263,42,55786,1,0,0:0:0:0:
263,42,55884,2,0,P|251:66|249:98,1,38.5000011749268,2|0,0:0|0:0,0:0:0:0:
204,95,56082,6,0,B|115:78|115:78|134:107,1,115.50000352478,8|0,0:3|0:0,0:0:0:0:
146,143,56476,2,0,P|133:203|97:211,1,77.0000023498536,8|0,1:1|1:0,0:0:0:0:
29,190,56871,1,8,3:3:0:0:
69,277,57069,1,0,3:0:0:0:
25,363,57266,1,10,1:1:0:0:
106,312,57463,1,2,1:0:0:0:
201,319,57661,6,0,B|242:333|285:299|285:299|313:338|365:328,1,154.000004699707,10|10,0:3|1:1,0:0:0:0:
429,299,58253,1,2,1:0:0:0:
349,243,58450,2,0,L|358:164,1,77.0000023498536,8|0,3:3|3:0,0:0:0:0:
357,166,58746,1,0,0:0:0:0:
357,166,58845,1,10,0:1:0:0:
263,187,59042,1,2,0:0:0:0:
296,96,59240,6,0,B|291:57|253:26|215:34|215:34|214:67|235:74,1,154.000004699707,8|10,0:3|1:1,0:0:0:0:
153,132,59832,1,2,1:0:0:0:
64,93,60029,2,0,B|44:130|63:171|63:171|4:140|39:89,1,154.000004699707,8|10,3:3|1:1,0:0:0:0:
153,132,60621,1,2,1:0:0:0:
206,212,60819,6,0,B|214:267|195:309|149:296|113:319|151:396|240:426|276:337|216:291,1,308.000009399414,10|8,0:3|3:3,0:0:0:0:
121,229,61806,1,2,3:0:0:0:
47,290,62003,1,10,0:1:0:0:
43,296,62102,1,0,0:0:0:0:
38,303,62200,2,0,P|32:333|44:359,1,38.5000011749268,2|0,0:0|0:0,0:0:0:0:
76,361,62398,6,0,B|123:345|158:358|158:358|147:340|153:318,1,115.50000352478,8|0,0:3|0:0,0:0:0:0:
189,298,62793,2,0,L|296:317,1,77.0000023498536,8|0,1:1|1:0,0:0:0:0:
350,356,63188,1,8,3:3:0:0:
426,297,63385,1,0,3:0:0:0:
338,256,63582,1,10,1:1:0:0:
384,171,63780,1,2,1:0:0:0:
334,88,63977,6,0,B|306:50|204:-4|168:82|250:80|262:68,1,181.999991668702,10|10,0:3|1:1,0:0:0:0:
332,12,64569,1,2,1:0:0:0:
424,40,64767,2,0,P|449:98|424:131,1,77.0000023498536,8|0,3:3|3:0,0:0:0:0:
463,151,65063,1,0,0:0:0:0:
436,191,65161,2,0,P|457:225|440:274,1,77.0000023498536,10|2,0:1|0:0,0:0:0:0:
362,221,65556,6,0,P|300:187|221:222,1,154.000004699707,8|10,0:3|1:1,0:0:0:0:
248,120,66148,1,2,1:0:0:0:
185,194,66345,2,0,P|176:276|256:273,1,154.000004699707,8|10,3:3|1:1,0:0:0:0:
194,378,66937,1,2,1:0:0:0:
286,352,67134,6,0,B|326:315|310:259|310:259|338:302|404:344|503:326|417:251|382:278,1,308.000009399414,10|8,0:3|3:3,0:0:0:0:
438,188,68121,1,2,3:0:0:0:
380,115,68319,1,10,0:1:0:0:
373,118,68417,1,0,0:0:0:0:
368,125,68516,2,0,P|359:149|364:176,1,38.5000011749268,2|0,0:0|0:0,0:0:0:0:
341,206,68713,6,0,L|264:194,1,77.0000023498536,8|0,0:3|0:0,0:0:0:0:
220,212,69009,1,0,0:0:0:0:
177,190,69108,2,0,L|93:201,1,77.0000023498536,8|0,1:1|1:0,0:0:0:0:
61,112,69503,1,8,3:3:0:0:
144,58,69700,1,0,3:0:0:0:
222,126,69898,1,10,1:1:0:0:
299,62,70095,1,2,1:0:0:0:
359,136,70292,6,0,B|399:174|457:158|457:158|404:192,1,154.000004699707,10|10,0:3|1:1,0:0:0:0:
463,268,70884,1,2,1:0:0:0:
366,268,71082,2,0,B|368:308|395:341|395:341|332:306|299:319,1,154.000004699707,8|10,3:3|0:1,0:0:0:0:
247,260,71674,1,2,0:0:0:0:
160,302,71871,6,0,P|130:344|35:318,1,154.000004699707,8|10,0:3|1:1,0:0:0:0:
84,240,72463,1,2,1:0:0:0:
27,166,72661,2,0,B|69:135|111:151|111:151|142:123|120:96|104:103,1,154.000004699707,8|10,3:3|1:1,0:0:0:0:
200,72,73253,1,2,1:0:0:0:
293,95,73450,6,0,B|268:113|276:146|305:156|305:156|350:130|450:130|463:239|392:252|356:238|349:190,1,308.000009399414,10|8,0:3|3:3,0:0:0:0:
450,290,74437,1,2,3:0:0:0:
363,362,74634,1,10,0:1:0:0:
369,352,74733,1,0,0:0:0:0:
378,351,74832,2,0,P|354:338|340:340,1,38.5000011749268,2|0,0:0|0:0,0:0:0:0:
315,299,75029,6,0,L|262:312,3,38.5000011749268,8|0|0|0,0:3|0:0|0:0|0:0,0:0:0:0:
238,325,75424,1,8,1:1:0:0:
238,325,75523,1,0,0:0:0:0:
238,325,75621,1,0,1:0:0:0:
142,311,75819,5,8,3:0:0:0:
101,223,76016,5,0,3:0:0:0:
137,134,76213,5,10,1:3:0:0:
46,157,76411,5,10,1:3:0:0:
0,90,76609,6,0,P|12:33|73:57,1,140,14|10,0:3|0:0,0:0:0:0:
216,156,77398,1,10,0:0:0:0:
301,3,77793,1,2,0:0:0:0:
364,180,78188,6,0,B|422:204|430:132|507:184,2,140,2|10|10,0:0|0:0|0:0,0:0:0:0:
262,321,79372,2,0,P|289:317|314:302,2,52.5,2|8|8,1:2|0:3|0:3,0:0:0:0:
223,351,79767,6,0,B|200:336|200:336|169:345|131:320,1,93.3333333333333,2|0,1:0|3:0,0:0:0:0:
85,344,80169,2,0,B|120:294|65:288|82:250,1,87.5,10|0,0:1|3:0,0:0:0:0:
104,212,80579,6,0,B|88:190|103:162|103:162|87:155|85:120,1,87.5,10|0,0:0|0:0,0:0:0:0:
48,106,81029,1,2,0:0:0:0:
142,53,81329,5,0,3:0:0:0:
142,53,81498,2,0,P|201:64|221:53,1,84,2|0,0:0|3:0,0:0:0:0:
259,14,82004,1,10,1:2:0:0:
326,181,82525,1,2,0:0:0:0:
185,316,83055,1,2,0:0:0:0:
86,276,83280,2,0,P|79:253|86:229,1,38.5000011749268,0|0,3:0|3:0,0:0:0:0:
133,176,83626,5,2,0:0:0:0:
215,179,83790,2,0,P|224:200|217:225,1,35,8|8,3:0|3:0,0:0:0:0:
299,170,84063,2,0,P|339:150|392:188,1,105,10|0,0:2|0:0,0:0:0:0:
408,215,84465,5,10,0:0:0:0:
291,79,84859,1,2,0:0:0:0:
331,249,85252,1,2,0:0:0:0:
499,232,85645,1,10,0:0:0:0:
337,165,86039,1,10,0:0:0:0:
218,294,86432,1,2,0:0:0:0:
53,247,86825,5,2,1:2:0:0:
53,247,86938,2,0,P|45:222|48:209,1,35,0|0,0:2|0:2,0:0:0:0:
