osu file format v14

[General]
AudioFilename: audio.ogg
AudioLeadIn: 0
PreviewTime: 49546
Countdown: 0
SampleSet: Soft
StackLeniency: 0.2
Mode: 0
LetterboxInBreaks: 0
WidescreenStoryboard: 1

[Editor]
DistanceSpacing: 1
BeatDivisor: 4
GridSize: 8
TimelineZoom: 1.4

[Metadata]
Title:Take A Hike
TitleUnicode:Take A Hike
Artist:tv room
ArtistUnicode:tv room
Creator:DigiDrake
Version:expert
Source:
Tags:english electronic indie alternative deskpop hyperpop hyper pop ep portland the great state of maine lake attitash multimedia commission watershed association
BeatmapID:4535288
BeatmapSetID:2142850

[Difficulty]
HPDrainRate:5
CircleSize:4.1
OverallDifficulty:8.7
ApproachRate:9
SliderMultiplier:1.4
SliderTickRate:1

[Events]
//Background and Video events
0,0,"dog3.jpg",0,0
Video,450,"oh yeah.mp4"
//Break Periods
//Storyboard Layer 0 (Background)
//Storyboard Layer 1 (Fail)
//Storyboard Layer 2 (Pass)
//Storyboard Layer 3 (Foreground)
//Storyboard Layer 4 (Overlay)
//Storyboard Sound Samples

[TimingPoints]
495,394.736842105263,4,2,2,60,1,0
495,-100,4,2,2,60,0,0
4837,-100,4,2,2,60,0,0
6810,-83.3333333333333,4,2,2,60,0,0
7205,-76.9230769230769,4,2,2,60,0,0
12731,-76.9230769230769,4,2,2,65,0,0
13126,-90.9090909090909,4,2,2,70,0,1
15494,-76.9230769230769,4,2,2,70,0,1
16284,-90.9090909090909,4,2,2,70,0,1
17468,-76.9230769230769,4,2,2,70,0,1
18258,-90.9090909090909,4,2,2,70,0,1
18652,-76.9230769230769,4,2,2,70,0,1
19047,-100,4,2,2,70,0,0
19442,-90.9090909090909,4,2,2,70,0,1
21810,-76.9230769230769,4,2,2,70,0,1
22600,-90.9090909090909,4,2,2,70,0,1
24179,-76.9230769230769,4,2,2,70,0,1
25758,390.879478827362,4,2,1,50,1,0
25758,-76.9230769230769,4,2,1,50,0,0
26539,428.571428571429,4,2,1,50,1,0
26967,431.654676258993,4,2,1,50,1,0
26968,-100,4,2,1,50,0,0
27323,-100,4,2,1,50,0,0
27335,392.156862745098,4,2,1,50,1,0
27725,-100,4,2,1,50,0,0
28119,372.670807453416,4,2,1,50,1,0
28491,428.571428571429,4,2,1,50,1,0
28499,-100,4,2,1,50,0,0
28908,-100,4,2,1,50,0,0
28909,394.736842105263,4,2,1,50,1,0
29698,408.163265306122,4,2,1,50,1,0
30100,-100,4,2,1,50,0,0
30106,382.165605095541,4,2,1,50,1,0
30398,-100,4,2,1,5,0,0
30488,394.736842105263,4,2,1,50,1,0
30488,-100,4,2,1,50,0,1
30791,-100,4,2,1,5,0,1
30889,-100,4,2,1,50,0,1
31183,-100,4,2,1,5,0,1
31277,405.405405405405,4,2,1,50,1,0
31277,-100,4,2,1,50,0,1
31575,-100,4,2,1,5,0,1
31682,387.096774193548,4,2,1,50,1,0
31682,-100,4,2,1,50,0,0
32065,-100,4,2,1,50,0,0
32456,405.405405405405,4,2,1,50,1,0
32861,400,4,2,1,50,1,0
33261,382.165605095541,4,2,1,50,1,0
33643,397.350993377483,4,2,1,50,1,0
34040,394.736842105263,4,2,1,50,1,0
34434,400,4,2,1,50,1,0
34834,394.736842105263,4,2,1,50,1,0
35228,394.736842105263,4,2,1,50,1,0
36017,397.350993377483,4,2,1,50,1,0
36811,393.44262295082,4,2,1,50,1,0
37986,-100,4,2,1,50,0,0
37991,359.281437125748,4,2,1,50,1,0
38383,397.350993377483,4,2,1,50,1,0
39177,400,4,2,1,50,1,0
39577,382.165605095541,4,2,1,50,1,0
39959,394.736842105263,4,2,1,50,1,0
40748,402.684563758389,4,2,1,50,1,0
41150,392.156862745098,4,2,1,50,1,0
41542,387.096774193548,4,2,1,50,1,0
41929,408.163265306122,4,2,1,50,1,0
41929,-71.4285714285714,4,2,1,50,0,0
42328,-100,4,2,1,50,0,0
42337,387.096774193548,4,2,1,50,1,0
42724,397.350993377483,4,2,1,50,1,0
43916,392.156862745098,4,2,1,50,1,0
44308,394.736842105263,4,2,1,50,1,0
45492,392.156862745098,4,2,1,50,1,0
45884,394.736842105263,4,2,1,50,1,0
47856,402.684563758389,4,2,1,50,1,0
47903,-100,4,2,1,5,0,0
48249,-100,4,2,1,50,0,0
48258,413.793103448276,4,2,1,50,1,0
48301,-100,4,2,1,5,0,0
48668,-100,4,2,1,50,0,0
48671,437.956204379562,4,2,1,50,1,0
48722,-100,4,2,1,5,0,0
49543,-100,4,2,1,50,0,0
49546,468.75,4,2,1,50,1,0
49601,-100,4,2,1,5,0,0
50011,-100,4,2,1,50,0,0
50070,-100,4,2,1,5,0,0
50480,-100,4,2,1,50,0,0
50540,-100,4,2,1,5,0,0
50952,394.088669950738,4,2,1,50,1,0
50952,-55.5555555555556,4,2,1,60,0,1
51149,-55.5555555555556,4,2,1,60,0,0
51346,394.736842105263,4,2,1,70,1,1
51444,-58.8235294117647,4,2,2,70,0,1
51740,-58.8235294117647,4,2,2,70,0,1
52135,-66.6666666666667,4,2,2,70,0,1
52924,-76.9230769230769,4,2,2,70,0,1
53319,-66.6666666666667,4,2,2,70,0,1
53714,-76.9230769230769,4,2,2,70,0,1
54306,-66.6666666666667,4,2,2,70,0,1
54503,-90.9090909090909,4,2,2,70,0,1
56082,-76.9230769230769,4,2,2,70,0,1
57069,-66.6666666666667,4,2,2,70,0,1
57267,-76.9230769230769,4,2,2,70,0,0
57661,-58.8235294117647,4,2,2,70,0,1
58056,-76.9230769230769,4,2,2,70,0,1
58253,-66.6666666666667,4,2,2,70,0,1
58451,-66.6666666666667,4,2,2,70,0,1
58846,-76.9230769230769,4,2,2,70,0,1
59241,-76.9230769230769,4,2,2,70,0,1
59635,-66.6666666666667,4,2,2,70,0,1
60227,-66.6666666666667,4,2,2,70,0,1
60622,-58.8235294117647,4,2,2,70,0,1
60819,-90.9090909090909,4,2,2,70,0,1
62398,-76.9230769230769,4,2,2,70,0,1
62793,-58.8235294117647,4,2,2,70,0,1
63582,-90.9090909090909,4,2,2,70,0,0
63977,-52.6315789473684,4,2,2,75,0,1
64372,-58.8235294117647,4,2,2,75,0,1
64570,-90.9090909090909,4,2,2,75,0,1
64767,-66.6666666666667,4,2,2,75,0,1
65951,-66.6666666666667,4,2,2,75,0,1
69109,-55.5555555555556,4,2,2,75,0,1
69503,-47.6190476190476,4,2,2,75,0,1
70293,-66.6666666666667,4,2,2,75,0,1
73451,-58.8235294117647,4,2,2,75,0,1
76214,-41.6666666666667,4,2,2,75,0,1
76609,-125,4,2,1,60,0,0
76997,-90.9090909090909,4,2,1,60,0,0
77195,-100,4,2,1,60,0,0
77392,-100,4,2,1,55,0,0
78182,-83.3333333333333,4,2,1,55,0,0
79366,-100,4,2,1,55,0,0
79767,370.37037037037,4,2,1,55,1,0
79767,-66.6666666666667,4,2,1,55,0,0
80013,468.75,4,2,1,55,1,0
80169,392.156862745098,4,2,1,55,1,0
80169,-58.8235294117647,4,2,1,55,0,0
80430,447.761194029851,4,2,1,55,1,0
80579,431.654676258993,4,2,1,55,1,0
80579,-69.4444444444444,4,2,1,55,0,0
80866,491.803278688525,4,2,1,55,1,0
80951,-125,4,2,1,55,0,0
81029,451.127819548873,4,2,1,55,1,0
81329,508.474576271187,4,2,1,55,1,0
81498,495.867768595042,4,2,1,55,1,0
81498,-131.578947368421,4,2,1,55,0,0
81828,530.973451327434,4,2,1,55,1,0
82004,521.739130434783,4,2,1,55,1,0
82095,-166.666666666667,4,2,1,55,0,0
82525,530.973451327434,4,2,1,55,1,0
83055,600.000000000001,4,2,1,55,1,0
83626,437.956204379562,4,2,1,55,1,0
83950,-100,4,2,1,55,0,0
84063,402.684563758389,4,2,1,55,1,0
84448,-100,4,2,1,55,0,0
84465,394.736842105263,4,2,1,55,1,0
84859,393.44262295082,4,2,1,55,1,0
86825,454.545454545455,4,2,1,55,1,0

[Colours]
Combo1 : 205,243,254
Combo2 : 196,252,154
Combo3 : 120,190,97
Combo4 : 109,182,235

[HitObjects]
111,89,495,5,10,0:3:0:0:
104,137,593,1,0,0:0:0:0:
96,187,692,1,2,0:0:0:0:
88,239,791,1,0,0:0:0:0:
162,220,889,5,8,0:1:0:0:
151,197,988,1,0,0:0:0:0:
256,189,1284,5,8,0:3:0:0:
306,184,1383,1,0,0:0:0:0:
354,178,1481,1,0,0:0:0:0:
403,173,1580,1,0,0:0:0:0:
467,131,1679,5,8,0:1:0:0:
478,158,1777,1,0,0:0:0:0:
424,339,1975,5,0,0:0:0:0:
456,320,2073,1,8,0:3:0:0:
456,320,2172,1,0,0:0:0:0:
456,320,2271,1,0,0:0:0:0:
456,320,2369,1,0,0:0:0:0:
388,280,2468,6,0,P|379:241|385:229,3,35,8|0|0|0,0:1|0:0|0:0|0:0,0:0:0:0:
306,357,2863,5,8,0:3:0:0:
269,370,2962,1,0,0:0:0:0:
236,327,3060,5,0,0:0:0:0:
197,307,3159,1,0,0:0:0:0:
241,246,3258,5,8,0:1:0:0:
241,246,3356,1,0,0:0:0:0:
144,141,3554,5,0,0:0:0:0:
174,142,3652,1,8,0:3:0:0:
158,173,3751,1,0,0:0:0:0:
123,164,3850,1,0,0:0:0:0:
120,129,3948,1,0,0:0:0:0:
152,111,4047,2,0,L|165:56,1,35,8|0,0:1|0:0,0:0:0:0:
461,206,4442,5,8,0:3:0:0:
425,141,4541,1,0,0:0:0:0:
354,159,4639,1,0,0:0:0:0:
347,230,4738,1,0,0:0:0:0:
413,263,4837,2,0,P|420:278|425:313,1,35,8|0,0:1|0:0,0:0:0:0:
250,181,5133,5,0,0:0:0:0:
272,257,5231,1,8,0:3:0:0:
263,258,5330,1,0,0:0:0:0:
263,245,5429,1,0,0:0:0:0:
255,243,5527,1,0,0:0:0:0:
180,227,5626,6,0,P|173:204|173:179,1,35,8|0,0:1|0:0,0:0:0:0:
164,265,5823,2,0,P|169:294|162:319,1,35
90,250,6021,5,8,0:3:0:0:
52,246,6119,1,0,0:0:0:0:
41,199,6218,5,0,0:0:0:0:
89,188,6317,1,0,0:0:0:0:
76,117,6416,5,8,0:1:0:0:
20,105,6514,1,0,0:0:0:0:
38,55,6613,5,0,0:0:0:0:
77,49,6712,1,0,0:0:0:0:
156,77,6810,6,0,B|149:86|147:97|147:97|155:109|151:137,3,41.9999987182618,10|0|2|0,0:3|0:0|0:0|0:0,0:0:0:0:
266,149,7205,2,0,P|318:161|358:121,1,90.9999958343508,8|0,1:1|1:0,0:0:0:0:
483,121,7501,1,0,0:0:0:0:
412,81,7600,2,0,L|382:18,1,45.4999979171754,8|0,3:3|0:0,0:0:0:0:
419,176,7797,2,0,L|401:228,1,45.4999979171754,0|0,3:0|0:0,0:0:0:0:
274,98,7994,1,8,0:1:0:0:
314,131,8093,1,0,0:0:0:0:
319,188,8192,1,0,0:0:0:0:
285,224,8291,1,0,0:0:0:0:
233,282,8389,6,0,P|238:327|243:343,3,45.4999979171754,8|0|0|0,0:3|0:0|0:0|0:0,0:0:0:0:
168,232,8784,2,0,L|134:194,1,45.4999979171754,8|0,1:1|0:0,0:0:0:0:
158,321,8981,2,0,L|126:364,1,45.4999979171754,0|0,1:0|0:0,0:0:0:0:
23,227,9179,2,0,P|28:249|45:265,1,45.4999979171754,8|0,3:3|0:0,0:0:0:0:
20,330,9376,2,0,P|25:308|42:293,1,45.4999979171754,0|0,3:0|0:0,0:0:0:0:
176,275,9573,1,8,0:1:0:0:
232,292,9672,1,0,0:0:0:0:
288,245,9771,1,0,0:0:0:0:
346,252,9869,1,0,0:0:0:0:
400,298,9968,6,0,B|396:340|396:340|376:350,3,45.4999979171754,8|0|0|0,0:3|0:0|0:0|0:0,0:0:0:0:
470,259,10363,2,0,L|488:305,1,45.4999979171754,8|0,1:1|0:0,0:0:0:0:
468,162,10560,2,0,L|514:200,1,45.4999979171754,0|0,1:0|0:0,0:0:0:0:
385,121,10758,2,0,L|381:174,1,45.4999979171754,8|0,3:3|0:0,0:0:0:0:
369,34,10955,2,0,L|329:64,1,45.4999979171754,0|0,3:0|0:0,0:0:0:0:
459,11,11152,1,8,0:1:0:0:
499,32,11251,1,0,0:0:0:0:
495,77,11350,1,0,0:0:0:0:
451,87,11448,1,0,0:0:0:0:
426,48,11547,6,0,P|415:10|423:-4,3,45.4999979171754,8|0|0|0,0:3|0:0|0:0|0:0,0:0:0:0:
365,129,11942,2,0,P|363:173|378:195,1,45.4999979171754,8|0,1:1|0:0,0:0:0:0:
317,52,12139,2,0,P|299:28|295:6,1,45.4999979171754,0|0,1:0|0:0,0:0:0:0:
271,141,12337,1,8,3:3:0:0:
271,141,12435,1,0,0:0:0:0:
271,141,12534,1,0,3:0:0:0:
271,141,12633,1,0,0:0:0:0:
196,168,12731,5,10,1:1:0:0:
173,144,12830,1,0,0:0:0:0:
137,217,12929,5,2,1:0:0:0:
105,223,13027,1,0,0:0:0:0:
192,270,13126,6,0,B|157:328|124:354|124:354|164:365|189:345,1,154.000004699707,10|10,3:3|1:1,0:0:0:0:
424,169,13718,1,2,1:0:0:0:
397,77,13916,2,0,B|429:71|472:91|472:91|436:62|444:35,1,115.50000352478,8|0,3:3|0:0,0:0:0:0:
349,9,14310,1,10,0:1:0:0:
362,19,14409,1,0,0:0:0:0:
317,37,14508,1,2,0:0:0:0:
324,63,14606,1,0,0:0:0:0:
267,117,14705,6,0,L|289:-15,1,115.50000352478,8|0,0:3|0:0,0:0:0:0:
241,26,15100,2,0,L|265:67,1,38.5000011749268,10|0,1:1|0:0,0:0:0:0:
288,171,15297,2,0,L|287:129,1,38.5000011749268,2|0,1:0|0:0,0:0:0:0:
167,9,15494,6,0,P|161:37|137:65,1,45.4999979171754,8|0,3:3|0:0,0:0:0:0:
213,221,15692,2,0,P|191:186|171:176,1,45.4999979171754,0|0,3:0|0:0,0:0:0:0:
95,111,15889,1,10,1:1:0:0:
28,140,15988,1,0,0:0:0:0:
23,215,16087,1,2,1:0:0:0:
86,254,16185,1,0,0:0:0:0:
145,187,16284,6,0,B|197:210|264:172|264:172|274:210,1,154.000004699707,10|8,0:3|1:1,0:0:0:0:
55,205,16876,1,0,1:0:0:0:
118,333,17073,2,0,L|125:392,1,38.5000011749268,8|0,3:3|0:0,0:0:0:0:
47,291,17271,2,0,P|22:300|-6:288,1,38.5000011749268,2|0,3:0|0:0,0:0:0:0:
134,252,17468,1,10,0:1:0:0:
189,225,17567,1,0,0:0:0:0:
247,211,17666,1,2,0:0:0:0:
300,207,17764,1,0,0:0:0:0:
269,281,17863,6,0,P|230:306|210:308,3,45.4999979171754,8|0|0|0,0:3|0:0|0:0|0:0,0:0:0:0:
363,290,18258,2,0,B|382:298|382:298|406:324,1,38.5000011749268,8|0,1:1|0:0,0:0:0:0:
334,135,18455,2,0,B|353:128|353:128|377:101,1,38.5000011749268,0|0,1:0|0:0,0:0:0:0:
403,93,18652,2,0,L|320:84,1,45.4999979171754,8|0,3:3|0:0,0:0:0:0:
432,332,18850,2,0,L|351:351,1,45.4999979171754,0|0,3:0|0:0,0:0:0:0:
471,208,19047,5,10,1:1:0:0:
452,181,19146,1,0,0:0:0:0:
505,197,19244,1,2,1:0:0:0:
464,235,19343,1,0,0:0:0:0:
377,207,19442,6,0,B|281:190|281:190|287:227|287:227|308:218,1,154.000004699707,10|10,0:3|1:1,0:0:0:0:
137,42,20034,1,2,1:0:0:0:
60,103,20231,2,0,B|61:126|76:141|76:141|98:153|74:213|35:157,1,115.50000352478,8|0,3:3|0:0,0:0:0:0:
111,133,20626,1,10,0:1:0:0:
140,139,20725,1,0,0:0:0:0:
152,246,20823,1,2,0:0:0:0:
138,221,20922,1,0,0:0:0:0:
209,185,21021,6,0,B|267:203|306:212|331:194,1,115.50000352478,8|0,0:3|0:0,0:0:0:0:
321,234,21416,2,0,L|272:272,1,38.5000011749268,10|0,1:1|0:0,0:0:0:0:
330,127,21613,2,0,L|268:166,1,38.5000011749268,2|0,1:0|0:0,0:0:0:0:
397,257,21810,6,0,P|394:298|378:321,1,45.4999979171754,8|0,3:3|0:0,0:0:0:0:
420,45,22008,2,0,P|413:87|396:109,1,45.4999979171754,0|0,3:0|0:0,0:0:0:0:
512,114,22205,1,10,1:1:0:0:
457,162,22304,1,0,0:0:0:0:
450,235,22402,1,2,1:0:0:0:
506,285,22501,1,0,0:0:0:0:
423,308,22600,6,0,B|384:340|334:323|334:323|323:362|284:362,1,154.000004699707,10|8,0:3|1:1,0:0:0:0:
152,215,23192,1,0,1:0:0:0:
234,227,23389,2,0,P|252:240|295:246,1,38.5000011749268,8|0,3:3|0:0,0:0:0:0:
149,297,23587,2,0,L|147:360,1,38.5000011749268,2|0,3:0|0:0,0:0:0:0:
39,220,23784,1,10,0:1:0:0:
0,173,23883,1,0,0:0:0:0:
22,115,23981,1,2,0:0:0:0:
76,140,24080,1,0,0:0:0:0:
75,187,24179,6,0,P|73:212|58:239,3,45.4999979171754,8|0|0|0,0:3|0:0|0:0|0:0,0:0:0:0:
166,117,24573,2,0,P|188:128|221:127,1,45.4999979171754,8|0,1:1|0:0,0:0:0:0:
302,35,24771,2,0,P|286:55|239:56,1,45.4999979171754,0|0,1:0|0:0,0:0:0:0:
387,139,24968,6,0,P|399:133|416:128,1,22.7499989585877,8|0,3:3|0:0,0:0:0:0:
383,278,25166,6,0,P|401:280|408:296,1,22.7499989585877,0|0,3:0|0:0,0:0:0:0:
245,338,25363,6,0,P|254:346|247:368,1,22.7499989585877,8|0,1:1|0:0,0:0:0:0:
105,283,25560,6,0,P|106:291|90:293,1,22.7499989585877,0|0,1:0|0:0,0:0:0:0:
270,178,25758,6,0,B|298:192|297:242|182:276|180:152|224:142,2,181.999991668702,14|10|10,0:3|0:0|0:0,0:0:0:0:
314,109,26967,1,0,1:0:0:0:
379,161,27182,5,0,1:0:0:0:
389,160,27236,5,0,1:0:0:0:
360,197,27335,6,0,B|342:244|387:270|412:273|412:273|390:306,1,140,2|10,0:0|0:0,0:0:0:0:
237,299,28119,2,0,L|229:369,1,70,10|0,0:0|0:0,0:0:0:0:
156,333,28491,1,0,1:0:0:0:
74,312,28705,5,0,1:0:0:0:
80,342,28758,5,0,1:0:0:0:
0,336,28909,6,0,P|-6:288|59:231,2,140,2|10|10,0:0|0:0|0:0,0:0:0:0:
198,218,30106,1,2,0:0:0:0:
256,192,30488,12,0,31875,1:0:0:0:
126,171,32069,6,0,P|157:158|179:182,1,70,2|0,0:0|0:0,0:0:0:0:
239,238,32456,2,0,P|270:253|301:238,1,70,10|0,0:0|0:0,0:0:0:0:
416,188,32861,2,0,P|391:170|358:189,1,70,10|0,0:0|0:0,0:0:0:0:
270,165,33261,1,2,0:0:0:0:
271,156,33452,1,0,1:0:0:0:
147,195,33643,6,0,P|137:230|93:246,1,70,2|0,0:0|0:0,0:0:0:0:
259,347,34040,2,0,L|265:278,1,70,10|0,0:0|0:0,0:0:0:0:
422,263,34434,2,0,P|393:245|385:211,1,70,10|0,0:0|0:0,0:0:0:0:
261,205,34834,1,2,0:0:0:0:
275,206,35031,1,0,1:0:0:0:
66,185,35228,5,2,0:0:0:0:
109,265,35622,2,0,L|104:287,1,17.5,8|0,0:0|0:0,0:0:0:0:
59,190,36017,1,8,0:0:0:0:
280,220,36811,5,0,0:0:0:0:
116,269,37204,2,0,L|105:292,1,17.5,8|0,0:0|0:0,0:0:0:0:
20,140,37597,1,8,0:0:0:0:
146,171,37991,5,0,1:0:0:0:
167,101,38170,5,0,1:0:0:0:
158,94,38215,5,0,1:0:0:0:
183,22,38383,6,0,B|231:37|250:78|250:78|301:61,1,140,6|10,0:0|0:0,0:0:0:0:
348,123,39177,2,0,B|280:148|280:148|324:188,1,105,10|0,0:0|0:0,0:0:0:0:
318,185,39577,1,2,0:0:0:0:
215,252,39959,2,0,B|260:241|260:241|301:276|354:256,2,140,2|10|10,0:0|0:0|0:0,0:0:0:0:
151,305,41150,2,0,L|160:335,1,17.5,2|0,1:2|0:0,0:0:0:0:
70,302,41297,1,8,3:0:0:0:
16,241,41395,1,8,3:0:0:0:
32,159,41542,6,0,B|40:122|66:108|66:108|71:131|66:143,1,87.5,2|0,1:0|3:0,0:0:0:0:
19,153,41929,2,0,B|25:112|70:87|70:87|84:115|80:131,1,122.499996261597,10|0,1:0|3:0,0:0:0:0:
190,163,42337,6,0,B|220:178|220:178|276:146|276:146|270:192,1,140,10|2,0:0|0:0,0:0:0:0:
236,285,43121,1,2,1:2:0:0:
416,317,43518,1,10,1:2:0:0:
512,222,43916,1,10,1:2:0:0:
340,206,44308,1,2,0:0:0:0:
214,283,44702,6,0,B|280:268|280:268|322:276|314:311|286:327,1,140,2|10,0:0|0:0,0:0:0:0:
132,320,45492,2,0,P|122:282|144:232,1,70,10|0,0:0|0:0,0:0:0:0:
33,173,45884,1,2,0:0:0:0:
33,173,46278,6,0,B|15:205|40:253|40:253|-18:220,1,140,2|10,0:0|0:0,0:0:0:0:
123,140,47068,1,10,0:0:0:0:
214,181,47462,1,2,0:0:0:0:
300,140,47856,2,0,L|398:117,1,87.5,2|0,0:0|0:0,0:0:0:0:
479,132,48258,6,0,L|462:158,1,17.5,8|0,0:0|0:0,0:0:0:0:
292,145,48671,2,0,L|287:127,1,17.5,8|0,0:0|0:0,0:0:0:0:
477,144,49546,6,0,L|460:118,1,17.5
293,131,50014,2,0,L|287:148,1,17.5,8|0,0:0|0:0,0:0:0:0:
115,145,50483,2,0,L|84:139,1,17.5,8|0,0:1|0:0,0:0:0:0:
179,189,50952,6,0,P|153:216|121:221,1,62.9999980773926,2|0,0:0|0:0,0:0:0:0:
35,101,51149,6,0,P|61:72|94:67,1,62.9999980773926,2|0,0:0|0:0,0:0:0:0:
108,150,51346,5,10,3:0:0:0:
47,203,51444,2,0,B|34:241|63:280|63:280|43:320|19:309,1,119.000002269745,0|0,1:0|1:0,0:0:0:0:
186,233,51740,2,0,P|152:230|119:215,1,59.5000011348725,10|0,1:1|0:0,0:0:0:0:
261,323,51938,1,2,1:0:0:0:
324,361,52036,1,0,0:0:0:0:
393,334,52135,2,0,L|405:283,1,52.5000020027161,8|0,3:3|0:0,0:0:0:0:
371,246,52332,1,0,3:0:0:0:
362,242,52431,1,0,0:0:0:0:
354,238,52530,2,0,P|347:264|357:290,1,52.5000020027161,10|0,0:1|0:0,0:0:0:0:
477,187,52727,5,2,0:0:0:0:
512,117,52826,1,0,0:0:0:0:
460,58,52924,2,0,B|433:46|403:62|403:62|370:98|315:79,1,136.499993751526,8|0,0:3|0:0,0:0:0:0:
294,0,53319,2,0,L|362:10,1,52.5000020027161,10|0,1:1|0:0,0:0:0:0:
241,142,53517,2,0,L|282:196,1,52.5000020027161,2|0,1:0|0:0,0:0:0:0:
325,90,53714,1,8,3:3:0:0:
314,86,53813,1,0,0:0:0:0:
304,82,53911,2,0,P|324:98|356:122,1,45.4999979171754,0|0,3:0|0:0,0:0:0:0:
153,155,54109,1,10,1:1:0:0:
145,81,54207,1,0,0:0:0:0:
160,157,54306,2,0,P|156:192|127:220,1,52.5000020027161,2|0,1:0|0:0,0:0:0:0:
115,287,54503,6,0,B|104:309|116:337|116:337|103:374|45:375|33:320,1,154.000004699707,10|8,0:3|1:1,0:0:0:0:
187,352,54997,1,0,0:0:0:0:
252,380,55096,1,0,1:0:0:0:
318,355,55194,1,0,0:0:0:0:
376,298,55293,2,0,B|399:316|400:352|400:352|437:366|421:317,1,115.50000352478,8|0,3:3|0:0,0:0:0:0:
500,263,55688,1,10,0:1:0:0:
451,251,55786,1,0,0:0:0:0:
465,173,55885,1,2,0:0:0:0:
512,164,55984,1,0,0:0:0:0:
461,87,56082,6,0,B|426:86|408:103|408:103|348:105|336:48,1,136.499993751526,8|0,0:3|0:0,0:0:0:0:
182,92,56477,1,8,1:1:0:0:
170,162,56576,1,0,0:0:0:0:
184,86,56674,2,0,P|199:137|207:144,1,45.4999979171754,0|0,1:0|0:0,0:0:0:0:
279,267,56872,5,8,3:3:0:0:
256,198,56971,1,0,0:0:0:0:
229,265,57069,2,0,P|255:272|281:264,1,52.5000020027161,0|0,3:0|0:0,0:0:0:0:
330,92,57267,5,10,1:1:0:0:
342,162,57366,1,0,0:0:0:0:
388,101,57464,1,2,1:0:0:0:
293,113,57563,1,0,0:0:0:0:
394,228,57661,6,0,P|387:311|286:295,1,178.500003404617,10|0,0:3|0:0,0:0:0:0:
248,240,58056,2,0,L|252:182,1,45.4999979171754,10|0,1:1|0:0,0:0:0:0:
166,340,58253,1,2,1:0:0:0:
93,360,58352,1,0,0:0:0:0:
32,312,58451,2,0,P|21:263|30:245,1,52.5000020027161,8|0,3:3|0:0,0:0:0:0:
102,282,58648,5,0,3:0:0:0:
148,311,58747,1,0,0:0:0:0:
198,288,58846,2,0,P|207:252|196:225,1,45.4999979171754,10|0,0:1|0:0,0:0:0:0:
74,102,59043,5,2,0:0:0:0:
101,174,59142,1,0,0:0:0:0:
40,135,59240,2,0,B|51:88|95:91|95:91|126:114|157:100,1,136.499993751526,8|0,0:3|0:0,0:0:0:0:
141,25,59635,2,0,L|190:4,1,52.5000020027161,10|0,1:1|0:0,0:0:0:0:
277,213,59832,2,0,P|268:177|270:160,1,52.5000020027161,2|0,1:0|0:0,0:0:0:0:
244,68,60030,1,8,3:3:0:0:
239,77,60128,1,0,0:0:0:0:
235,70,60227,2,0,P|265:74|289:69,1,52.5000020027161,0|0,3:0|0:0,0:0:0:0:
502,54,60424,1,10,1:1:0:0:
422,78,60523,1,0,0:0:0:0:
496,47,60622,2,0,P|467:39|440:50,1,59.5000011348725,2|0,1:0|0:0,0:0:0:0:
369,209,60819,6,0,B|382:248|382:248|381:287|335:321|295:279,1,154.000004699707,10|8,0:3|1:1,0:0:0:0:
255,191,61313,1,0,0:0:0:0:
187,157,61411,1,0,1:0:0:0:
97,173,61510,1,0,0:0:0:0:
45,243,61609,2,0,B|19:280|45:316|45:316|95:331,1,115.50000352478,8|0,3:3|0:0,0:0:0:0:
143,283,62003,1,10,0:1:0:0:
180,234,62102,1,0,0:0:0:0:
236,326,62201,1,2,0:0:0:0:
189,342,62299,1,0,0:0:0:0:
255,252,62398,6,0,P|291:237|315:245,3,45.4999979171754,8|0|0|0,0:3|0:0|0:0|0:0,0:0:0:0:
392,198,62793,6,0,P|381:226|399:254,3,59.5000011348725,8|0|0|0,1:1|0:0|1:0|0:0,0:0:0:0:
487,197,63188,5,8,3:3:0:0:
512,160,63286,1,0,0:0:0:0:
486,86,63385,5,0,3:0:0:0:
483,41,63484,1,0,0:0:0:0:
404,50,63582,5,10,1:1:0:0:
344,13,63681,1,0,0:0:0:0:
294,78,63780,5,2,1:0:0:0:
221,101,63878,1,0,0:0:0:0:
273,170,63977,6,0,B|286:189|289:210|289:210|277:250|245:252|245:252|226:221|230:200,1,132.999996448517,10|0,0:3|0:0,0:0:0:0:
162,198,64273,5,0,0:0:0:0:
281,172,64372,2,0,B|323:219|277:276|277:276|206:267|217:201,1,178.500003404617,10|0,1:1|0:0,0:0:0:0:
127,331,64767,2,0,P|119:350|93:373,1,52.5000020027161,8|0,3:3|0:0,0:0:0:0:
356,297,64964,2,0,P|380:319|410:323,1,52.5000020027161,0|0,3:0|0:0,0:0:0:0:
264,204,65161,5,10,0:1:0:0:
246,274,65260,1,0,0:0:0:0:
293,340,65359,1,2,0:0:0:0:
382,355,65457,1,0,0:0:0:0:
465,283,65556,6,0,B|504:237|487:176|487:176|462:197|455:228,1,157.500006008148,8|0,0:3|0:0,0:0:0:0:
420,81,65951,2,0,L|406:153,1,52.5000020027161,10|0,1:1|0:0,0:0:0:0:
377,323,66148,2,0,L|390:250,1,52.5000020027161,2|0,1:0|0:0,0:0:0:0:
324,93,66346,1,8,3:3:0:0:
305,47,66444,1,0,0:0:0:0:
324,3,66543,2,0,P|360:3|388:15,1,52.5000020027161,0|0,3:0|0:0,0:0:0:0:
280,201,66740,1,10,1:1:0:0:
231,254,66839,1,0,0:0:0:0:
239,326,66938,1,2,1:0:0:0:
220,249,67036,1,0,0:0:0:0:
145,228,67135,6,0,B|94:211|64:263|64:263|93:317|139:280,1,157.500006008148,10|0,0:3|0:0,0:0:0:0:
197,167,67530,2,0,P|217:143|219:100,1,52.5000020027161,8|0,1:1|0:0,0:0:0:0:
110,294,67727,2,0,P|120:323|157:346,1,52.5000020027161,0|0,1:0|0:0,0:0:0:0:
265,47,67924,6,0,P|252:17|214:-3,1,52.5000020027161,8|0,3:3|0:0,0:0:0:0:
195,280,68122,2,0,P|222:294|265:287,1,52.5000020027161,2|0,3:0|0:0,0:0:0:0:
145,181,68319,5,10,0:1:0:0:
97,210,68418,1,0,0:0:0:0:
173,191,68517,1,2,0:0:0:0:
257,204,68615,1,0,0:0:0:0:
337,263,68714,6,0,P|345:288|344:314,3,52.5000020027161,8|0|0|0,0:3|0:0|0:0|0:0,0:0:0:0:
250,338,69109,6,0,P|233:308|258:273,3,62.9999980773926,8|0|0|0,1:1|0:0|1:0|0:0,0:0:0:0:
495,263,69503,5,8,3:3:0:0:
438,292,69602,1,0,0:0:0:0:
392,250,69700,1,0,3:0:0:0:
418,193,69799,1,0,0:0:0:0:
479,202,69898,5,10,1:1:0:0:
413,269,69997,5,0,0:0:0:0:
330,229,70095,5,2,1:0:0:0:
341,137,70194,5,0,0:0:0:0:
432,121,70293,6,0,B|445:102|479:108|479:108|430:56|441:12,1,157.500006008148,10|0,0:3|0:0,0:0:0:0:
511,28,70688,2,0,P|481:40|445:42,1,52.5000020027161,10|0,1:1|0:0,0:0:0:0:
144,31,70885,2,0,P|173:47|211:42,1,52.5000020027161,2|0,1:0|0:0,0:0:0:0:
359,14,71082,6,0,P|338:42|302:54,1,52.5000020027161,8|0,3:3|0:0,0:0:0:0:
52,113,71280,2,0,P|90:113|121:100,1,52.5000020027161,0|0,3:0|0:0,0:0:0:0:
272,137,71477,1,10,0:1:0:0:
192,160,71674,5,2,0:0:0:0:
308,179,71773,1,0,0:0:0:0:
250,235,71872,6,0,B|234:270|246:314|294:329|294:329|320:299|351:308,1,157.500006008148,8|0,0:3|0:0,0:0:0:0:
408,268,72267,2,0,L|419:323,1,52.5000020027161,10|0,1:1|0:0,0:0:0:0:
131,306,72464,2,0,L|68:301,1,52.5000020027161,2|0,1:0|0:0,0:0:0:0:
169,253,72661,6,0,L|158:308,1,52.5000020027161,8|0,3:3|0:0,0:0:0:0:
446,291,72858,2,0,L|509:286,1,52.5000020027161,0|0,3:0|0:0,0:0:0:0:
374,169,73056,5,10,1:1:0:0:
255,211,73155,1,0,0:0:0:0:
326,107,73253,1,2,1:0:0:0:
331,234,73352,1,0,0:0:0:0:
253,134,73451,6,0,B|201:136|167:84|167:84|160:142|119:149,1,178.500003404617,10|0,0:3|0:0,0:0:0:0:
327,282,73846,6,0,P|332:311|350:334,1,59.5000011348725,8|0,1:1|0:0,0:0:0:0:
376,71,74043,2,0,P|389:44|389:15,1,59.5000011348725,0|0,1:0|0:0,0:0:0:0:
214,212,74240,2,0,P|187:225|170:249,1,59.5000011348725,8|0,3:3|0:0,0:0:0:0:
426,192,74438,2,0,P|455:196|482:187,1,59.5000011348725,2|0,3:0|0:0,0:0:0:0:
229,85,74635,2,0,P|208:63|180:55,1,59.5000011348725,10|0,0:1|0:0,0:0:0:0:
394,260,74832,5,2,0:0:0:0:
319,250,75029,5,8,0:3:0:0:
253,278,75128,1,0,0:0:0:0:
242,206,75226,5,0,0:0:0:0:
193,149,75325,1,0,0:0:0:0:
261,113,75424,5,8,1:1:0:0:
298,52,75522,1,0,0:0:0:0:
354,103,75621,5,0,1:0:0:0:
422,124,75720,1,0,0:0:0:0:
390,187,75819,5,8,3:0:0:0:
390,187,76017,5,0,3:0:0:0:
122,256,76214,6,0,B|123:250|123:250|114:237|114:237|132:237|132:237|144:226|144:226|149:242|149:242|165:252|165:252|150:257|150:257|147:279|147:279|133:266|133:266|116:270|116:270|120:258,1,167.999994873047,10|10,1:3|1:3,0:0:0:0:
44,210,76510,5,0,0:0:0:0:
19,138,76609,2,0,P|26:112|46:97,2,28,14|0|0,0:3|0:0|0:0,0:0:0:0:
89,52,76905,5,0,0:0:0:0:
122,113,77003,2,0,P|118:94|123:68,2,38.5000011749268,10|0|0,0:0|0:0|0:0,0:0:0:0:
198,159,77299,1,0,0:0:0:0:
278,120,77398,6,0,P|327:114|324:198,1,140,10|2,0:0|0:0,0:0:0:0:
339,188,78188,6,0,B|389:144|458:182|458:182|452:204|428:225,2,167.999994873047,2|10|10,0:0|0:0|0:0,0:0:0:0:
307,262,79372,1,2,1:2:0:0:
333,336,79520,1,8,3:0:0:0:
387,283,79619,1,8,3:0:0:0:
314,256,79767,6,0,B|278:252|259:270|259:270|267:279,1,70.0000026702882,2|0,1:0|0:0,0:0:0:0:
181,315,80013,1,0,3:0:0:0:
99,283,80169,2,0,P|83:240|120:195,1,79.3333348464966,10|0,0:1|0:0,0:0:0:0:
40,356,80430,1,0,3:0:0:0:
160,243,80579,6,0,P|88:199|99:283,1,210.000008010865,10|2,0:0|0:0,0:0:0:0:
167,323,81329,1,0,3:0:0:0:
239,339,81498,2,0,B|257:350|264:331|315:346,1,70.9333324674479,2|0,0:0|3:0,0:0:0:0:
322,350,82004,1,10,1:2:0:0:
415,354,82525,1,2,0:0:0:0:
484,286,83055,1,2,0:0:0:0:
456,197,83280,5,0,3:0:0:0:
381,180,83430,1,0,3:0:0:0:
307,257,83626,5,2,0:0:0:0:
349,300,83790,5,8,3:0:0:0:
355,263,83899,1,8,3:0:0:0:
235,290,84063,5,10,0:2:0:0:
106,266,84465,1,10,0:0:0:0:
0,358,84859,1,2,0:0:0:0:
85,249,85252,1,2,0:0:0:0:
57,113,85645,1,10,0:0:0:0:
112,240,86039,1,10,0:0:0:0:
273,296,86432,1,2,0:0:0:0:
442,277,86825,1,2,1:2:0:0:
508,233,86938,1,0,0:2:0:0:
512,214,87052,1,0,0:2:0:0:
