osu file format v14

[General]
AudioFilename: audio.mp3
AudioLeadIn: 0
PreviewTime: 96480
Countdown: 0
SampleSet: Soft
StackLeniency: 0.7
Mode: 3
LetterboxInBreaks: 0
SpecialStyle: 0
WidescreenStoryboard: 1

[Editor]
Bookmarks: 980,8980,16980,24980,32980,40980,48980,56980,64980,72980,80980,88980,96980,104980,112980,120980,128980,136980,144980,152980
DistanceSpacing: 6
BeatDivisor: 16
GridSize: 32
TimelineZoom: 2.3

[Metadata]
Title:Say It Back
TitleUnicode:Say It Back
Artist:tv room
ArtistUnicode:tv room
Creator:epic man 2
Version:Speak | Normal
Source:
Tags:elitv _tvroom indie pop electronic english male vocals ell yot american upstairs sv hybrid jack ln tech em2 RoBeats! FAMoss
BeatmapID:3162731
BeatmapSetID:1547639

[Difficulty]
HPDrainRate:7.5
CircleSize:4
OverallDifficulty:6.3
ApproachRate:5
SliderMultiplier:1.4
SliderTickRate:1

[Events]
//Background and Video events
0,0,"say it back.png",0,0
//Break Periods
//Storyboard Layer 0 (Background)
//Storyboard Layer 1 (Fail)
//Storyboard Layer 2 (Pass)
//Storyboard Layer 3 (Foreground)
//Storyboard Layer 4 (Overlay)
//Storyboard Sound Samples

[TimingPoints]
980,500,4,2,1,70,1,0
96980,-100,4,2,1,70,0,1
126980,-100,4,2,1,70,0,0

[HitObjects]
192,192,730,128,0,980:0:0:0:0:
448,192,980,1,2,0:0:0:0:
320,192,980,128,0,1230:0:0:0:0:
192,192,1230,1,2,0:0:0:0:
448,192,1355,1,2,0:0:0:0:
64,192,1605,1,0,0:0:0:0:
320,192,1730,1,2,0:0:0:0:
192,192,1855,1,2,0:0:0:0:
448,192,1980,1,0,0:0:0:70:snare_wbass.wav
64,192,1980,1,0,0:0:0:0:
192,192,2230,1,2,0:0:0:0:
320,192,2355,1,2,0:0:0:0:
64,192,2605,1,0,0:0:0:0:
320,192,2730,128,0,2980:0:0:0:0:
448,192,2730,1,2,0:0:0:0:
192,192,2980,128,0,3480:0:0:0:0:
448,192,3480,128,2,3980:0:0:0:0:
192,192,3730,1,2,0:0:0:0:
320,192,3980,1,0,0:0:0:70:LR_Kick Beat 2.wav
448,192,4355,1,8,0:0:0:0:
64,192,4480,1,8,0:0:0:0:
320,192,4605,1,0,0:0:0:0:
448,192,4730,1,8,0:0:0:0:
192,192,4855,1,8,0:0:0:0:
64,192,4980,1,2,0:0:0:0:
320,192,4980,128,0,5230:0:0:0:0:
192,192,5230,1,2,0:0:0:0:
448,192,5355,1,2,0:0:0:0:
64,192,5605,1,0,0:0:0:0:
320,192,5730,1,2,0:0:0:0:
192,192,5855,1,2,0:0:0:0:
448,192,5980,1,0,0:0:0:70:snare_wbass.wav
64,192,5980,1,0,0:0:0:0:
192,192,6230,1,2,0:0:0:0:
320,192,6355,1,2,0:0:0:0:
192,192,6605,1,0,0:0:0:0:
448,192,6730,1,2,0:0:0:0:
320,192,6730,128,0,6980:0:0:0:0:
64,192,6980,1,0,0:0:0:0:
192,192,6980,128,0,7480:0:0:0:0:
448,192,7480,1,2,0:0:0:0:
192,192,7730,1,2,0:0:0:0:
320,192,7855,1,2,0:0:0:0:
64,192,7980,128,0,8230:0:0:0:0:
448,192,8480,128,0,8730:0:0:0:0:
64,192,8730,1,0,0:0:0:0:
448,192,8980,1,0,0:0:0:0:
320,192,8980,1,2,0:0:0:0:
192,192,9105,1,0,0:0:0:0:
448,192,9230,1,2,0:0:0:0:
192,192,9355,128,0,9730:0:0:0:0:
64,192,9355,1,2,0:0:0:0:
320,192,9730,1,2,0:0:0:0:
64,192,9855,1,2,0:0:0:0:
448,192,9980,1,0,0:0:0:70:snare_wbass.wav
320,192,9980,1,0,0:0:0:0:
192,192,10230,1,2,0:0:0:0:
320,192,10355,1,2,0:0:0:0:
192,192,10605,1,0,0:0:0:0:
448,192,10730,1,2,0:0:0:0:
320,192,10730,128,0,10980:0:0:0:0:
64,192,10980,1,2,0:0:0:0:
192,192,10980,128,0,11355:0:0:0:0:
320,192,11230,1,2,0:0:0:0:
64,192,11355,1,2,0:0:0:0:
448,192,11480,1,8,0:0:0:0:
192,192,11605,1,8,0:0:0:0:
320,192,11730,1,2,0:0:0:0:
64,192,11855,1,2,0:0:0:0:
448,192,11980,1,8,0:0:0:0:
192,192,11980,1,0,0:0:0:0:
448,192,12355,1,8,0:0:0:0:
64,192,12480,1,8,0:0:0:0:
320,192,12605,1,0,0:0:0:0:
448,192,12730,1,8,0:0:0:0:
64,192,12855,1,8,0:0:0:0:
320,192,12980,128,0,13230:0:0:0:0:
448,192,12980,1,2,0:0:0:0:
64,192,13230,1,2,0:0:0:0:
448,192,13355,1,2,0:0:0:0:
64,192,13605,1,0,0:0:0:0:
320,192,13730,1,2,0:0:0:0:
192,192,13855,1,2,0:0:0:0:
448,192,13980,1,0,0:0:0:70:snare_wbass.wav
64,192,13980,1,0,0:0:0:0:
192,192,14230,1,2,0:0:0:0:
320,192,14355,1,2,0:0:0:0:
192,192,14605,1,0,0:0:0:0:
448,192,14730,1,2,0:0:0:0:
320,192,14730,128,0,14980:0:0:0:0:
192,192,14980,128,0,15230:0:0:0:0:
320,192,15230,128,2,15980:0:0:0:0:
192,192,15480,1,8,0:0:0:0:
64,192,15480,1,2,0:0:0:0:
448,192,15730,1,8,0:0:0:0:
64,192,15855,1,10,0:0:0:0:
192,192,15980,128,0,16480:0:0:0:70:LR_Kick Beat 2.wav
448,192,16355,1,10,0:0:0:0:
64,192,16480,1,8,0:0:0:0:
320,192,16605,1,0,0:0:0:0:
64,192,16730,1,10,0:0:0:0:
192,192,16855,1,10,0:0:0:0:
448,192,16980,1,2,0:0:0:0:
64,192,16980,1,0,0:0:0:0:
320,192,17105,1,0,0:0:0:0:
192,192,17230,1,2,0:0:0:0:
320,192,17480,1,2,0:0:0:0:
192,192,17605,1,0,0:0:0:0:
64,192,17980,128,0,18230:0:0:0:0:
320,192,17980,1,2,0:0:0:0:
64,192,18480,1,2,0:0:0:0:
192,192,18605,1,0,0:0:0:0:
448,192,18980,1,2,0:0:0:0:
64,192,18980,1,0,0:0:0:0:
320,192,19105,1,0,0:0:0:0:
192,192,19230,1,2,0:0:0:0:
320,192,19480,1,2,0:0:0:0:
192,192,19605,1,0,0:0:0:0:
320,192,19980,1,2,0:0:0:0:
64,192,19980,128,0,20230:0:0:0:0:
448,192,20355,1,2,0:0:0:0:
64,192,20480,1,2,0:0:0:0:
320,192,20480,1,0,0:0:0:0:
192,192,20605,1,0,0:0:0:0:
448,192,20730,1,2,0:0:0:0:
320,192,20980,1,0,0:0:0:0:
64,192,20980,1,2,0:0:0:0:
448,192,21105,1,0,0:0:0:0:
192,192,21230,1,2,0:0:0:0:
320,192,21480,1,2,0:0:0:0:
192,192,21605,1,0,0:0:0:0:
448,192,21980,128,0,22230:0:0:0:0:
64,192,21980,1,2,0:0:0:0:
64,192,22480,1,2,0:0:0:0:
192,192,22605,1,0,0:0:0:0:
320,192,22980,1,2,0:0:0:0:
64,192,22980,1,0,0:0:0:0:
448,192,23105,1,0,0:0:0:0:
192,192,23230,1,2,0:0:0:0:
320,192,23480,1,2,0:0:0:0:
192,192,23605,1,0,0:0:0:0:
448,192,23980,128,0,24355:0:0:0:0:
64,192,23980,1,2,0:0:0:0:
192,192,24355,1,2,0:0:0:0:
320,192,24480,1,8,0:0:0:0:
64,192,24480,1,0,0:0:0:0:
192,192,24605,1,0,0:0:0:0:
448,192,24980,1,2,0:0:0:0:
64,192,24980,1,0,0:0:0:0:
320,192,25105,1,0,0:0:0:0:
192,192,25230,1,2,0:0:0:0:
320,192,25480,1,2,0:0:0:0:
448,192,25480,1,8,0:0:0:0:
192,192,25605,1,0,0:0:0:0:
64,192,25980,128,0,26230:0:0:0:0:
320,192,25980,1,2,0:0:0:0:
448,192,26480,1,8,0:0:0:0:
64,192,26480,1,2,0:0:0:0:
192,192,26605,1,0,0:0:0:0:
448,192,26980,1,2,0:0:0:0:
64,192,26980,1,0,0:0:0:0:
320,192,27105,1,0,0:0:0:0:
192,192,27230,1,2,0:0:0:0:
320,192,27480,1,2,0:0:0:0:
448,192,27480,1,8,0:0:0:0:
192,192,27605,1,0,0:0:0:0:
320,192,27980,1,2,0:0:0:0:
64,192,27980,128,0,28230:0:0:0:0:
448,192,28355,1,2,0:0:0:0:
64,192,28480,1,2,0:0:0:0:
320,192,28480,1,8,0:0:0:0:
192,192,28605,1,0,0:0:0:0:
448,192,28730,1,2,0:0:0:0:
320,192,28980,1,0,0:0:0:0:
64,192,28980,1,2,0:0:0:0:
448,192,29105,1,0,0:0:0:0:
192,192,29230,1,2,0:0:0:0:
448,192,29480,1,8,0:0:0:0:
320,192,29480,1,2,0:0:0:0:
192,192,29605,1,0,0:0:0:0:
448,192,29980,128,0,30230:0:0:0:0:
64,192,29980,1,2,0:0:0:0:
320,192,30480,1,8,0:0:0:0:
64,192,30480,1,2,0:0:0:0:
192,192,30605,1,0,0:0:0:0:
320,192,30980,1,2,0:0:0:0:
64,192,30980,1,0,0:0:0:0:
448,192,31105,1,0,0:0:0:0:
192,192,31230,1,2,0:0:0:0:
448,192,31480,1,8,0:0:0:0:
64,192,31480,1,2,0:0:0:0:
320,192,31646,1,2,0:0:0:0:
192,192,31886,1,2,0:0:0:0:
448,192,31980,128,0,32480:0:0:0:0:
64,192,31980,1,0,0:0:0:0:
64,192,32480,1,0,0:0:0:0:
192,192,32605,1,0,0:0:0:0:
320,192,32980,1,0,0:0:0:0:
448,192,32980,1,2,0:0:0:0:
448,192,33230,1,2,0:0:0:0:
320,192,33230,128,0,33480:0:0:0:0:
192,192,33480,1,0,0:0:0:70:punchy snare.wav
448,192,33605,1,2,0:0:0:0:
64,192,33730,1,0,0:0:0:0:
320,192,33855,1,0,0:0:0:0:
192,192,33980,1,0,0:0:0:0:
64,192,33980,1,2,0:0:0:0:
192,192,34230,128,0,34480:0:0:0:0:
64,192,34230,1,2,0:0:0:0:
320,192,34480,1,0,0:0:0:70:punchy snare.wav
64,192,34605,1,2,0:0:0:0:
448,192,34730,1,0,0:0:0:0:
192,192,34855,1,0,0:0:0:0:
320,192,34980,1,0,0:0:0:0:
448,192,34980,1,2,0:0:0:0:
448,192,35230,1,2,0:0:0:0:
320,192,35230,128,0,35480:0:0:0:0:
192,192,35480,1,0,0:0:0:70:punchy snare.wav
448,192,35605,1,2,0:0:0:0:
64,192,35730,128,0,35980:0:0:0:0:
320,192,35980,1,0,0:0:0:0:
448,192,35980,1,2,0:0:0:0:
448,192,36230,1,2,0:0:0:0:
320,192,36230,128,0,36480:0:0:0:0:
192,192,36480,1,0,0:0:0:70:punchy snare.wav
64,192,36605,1,2,0:0:0:0:
448,192,36855,1,0,0:0:0:0:
320,192,36980,1,0,0:0:0:0:
64,192,36980,1,2,0:0:0:0:
448,192,37230,1,2,0:0:0:0:
320,192,37230,128,0,37480:0:0:0:0:
192,192,37480,1,0,0:0:0:70:punchy snare.wav
64,192,37605,1,2,0:0:0:0:
448,192,37730,1,0,0:0:0:0:
320,192,37855,1,0,0:0:0:0:
192,192,37980,1,0,0:0:0:0:
64,192,37980,1,2,0:0:0:0:
192,192,38230,128,0,38480:0:0:0:0:
64,192,38230,1,2,0:0:0:0:
320,192,38480,1,0,0:0:0:70:punchy snare.wav
448,192,38605,1,2,0:0:0:0:
64,192,38730,1,0,0:0:0:0:
448,192,38855,1,0,0:0:0:0:
320,192,38980,1,0,0:0:0:0:
64,192,38980,1,2,0:0:0:0:
448,192,39230,1,2,0:0:0:0:
320,192,39230,128,0,39480:0:0:0:0:
192,192,39480,1,0,0:0:0:70:punchy snare.wav
64,192,39605,1,2,0:0:0:0:
448,192,39730,1,0,0:0:0:0:
192,192,39855,1,0,0:0:0:0:
320,192,39980,1,0,0:0:0:0:
448,192,39980,1,2,0:0:0:0:
448,192,40230,1,2,0:0:0:0:
320,192,40230,128,0,40480:0:0:0:0:
64,192,40480,1,0,0:0:0:70:punchy snare.wav
448,192,40605,1,2,0:0:0:0:
192,192,40730,1,0,0:0:0:0:
64,192,40855,1,0,0:0:0:0:
320,192,40980,1,0,0:0:0:0:
448,192,40980,1,2,0:0:0:0:
448,192,41230,1,2,0:0:0:0:
320,192,41230,128,0,41480:0:0:0:0:
192,192,41480,1,0,0:0:0:70:punchy snare.wav
448,192,41605,1,2,0:0:0:0:
64,192,41730,1,0,0:0:0:0:
320,192,41855,1,0,0:0:0:0:
192,192,41980,1,0,0:0:0:0:
64,192,41980,1,2,0:0:0:0:
192,192,42230,128,0,42480:0:0:0:0:
64,192,42230,1,2,0:0:0:0:
320,192,42480,1,0,0:0:0:70:punchy snare.wav
448,192,42605,1,2,0:0:0:0:
64,192,42730,1,0,0:0:0:0:
192,192,42855,1,0,0:0:0:0:
320,192,42980,1,0,0:0:0:0:
448,192,42980,1,2,0:0:0:0:
448,192,43230,1,2,0:0:0:0:
320,192,43230,128,0,43480:0:0:0:0:
192,192,43480,1,0,0:0:0:70:punchy snare.wav
448,192,43605,1,2,0:0:0:0:
64,192,43730,128,0,43980:0:0:0:0:
320,192,43980,1,0,0:0:0:0:
448,192,43980,1,2,0:0:0:0:
448,192,44230,1,2,0:0:0:0:
320,192,44230,128,0,44480:0:0:0:0:
192,192,44480,1,0,0:0:0:70:punchy snare.wav
448,192,44646,1,0,0:0:0:0:
64,192,44813,1,0,0:0:0:0:
448,192,44980,1,2,0:0:0:0:
192,192,44980,1,0,0:0:0:0:
192,192,45230,128,0,45480:0:0:0:0:
64,192,45230,1,2,0:0:0:0:
320,192,45480,1,0,0:0:0:70:punchy snare.wav
448,192,45605,1,2,0:0:0:0:
64,192,45730,1,0,0:0:0:0:
192,192,45855,1,0,0:0:0:0:
320,192,45980,1,0,0:0:0:0:
448,192,45980,1,2,0:0:0:0:
448,192,46230,1,2,0:0:0:0:
320,192,46230,128,0,46480:0:0:0:0:
192,192,46480,1,0,0:0:0:70:punchy snare.wav
448,192,46605,1,2,0:0:0:0:
64,192,46730,1,0,0:0:0:0:
192,192,46855,1,0,0:0:0:0:
448,192,46980,1,0,0:0:0:0:
320,192,46980,1,2,0:0:0:0:
448,192,47230,128,0,47480:0:0:0:0:
320,192,47230,1,2,0:0:0:0:
64,192,47480,1,0,0:0:0:70:punchy snare.wav
320,192,47605,1,2,0:0:0:0:
192,192,47730,1,0,0:0:0:0:
64,192,47855,1,0,0:0:0:0:
448,192,47980,1,0,0:0:0:0:
320,192,47980,1,2,0:0:0:0:
448,192,48230,128,0,48480:0:0:0:0:
320,192,48230,1,2,0:0:0:0:
64,192,48480,1,0,0:0:0:70:punchy snare.wav
320,192,48605,1,2,0:0:0:0:
192,192,48730,1,0,0:0:0:0:
320,192,48980,128,0,49480:0:0:0:0:
320,192,50730,1,0,0:0:0:0:
192,192,50980,128,0,51480:0:0:0:0:
64,192,51980,1,8,0:0:0:0:
448,192,52230,1,8,0:0:0:0:
64,192,52480,1,8,0:0:0:0:
448,192,52730,1,8,0:0:0:0:
64,192,52855,1,8,0:0:0:0:
320,192,52980,128,0,53480:0:0:0:0:
448,192,52980,1,2,0:0:0:0:
192,192,53230,1,2,0:0:0:0:
448,192,53480,1,8,0:0:0:0:
192,192,53730,1,2,0:0:0:0:
320,192,53855,1,2,0:0:0:0:
192,192,54230,1,2,0:0:0:0:
64,192,54355,1,2,0:0:0:0:
448,192,54480,1,8,0:0:0:0:
192,192,54605,1,0,0:0:0:0:
320,192,54730,128,0,54980:0:0:0:0:
448,192,54730,1,2,0:0:0:0:
64,192,54980,1,2,0:0:0:0:
192,192,54980,128,0,55480:0:0:0:0:
320,192,55230,1,2,0:0:0:0:
448,192,55480,1,8,0:0:0:0:
64,192,55730,1,2,0:0:0:0:
192,192,55855,1,2,0:0:0:0:
320,192,56230,1,2,0:0:0:0:
64,192,56355,1,2,0:0:0:0:
448,192,56480,1,8,0:0:0:0:
192,192,56730,1,2,0:0:0:0:
64,192,56730,128,0,56980:0:0:0:0:
320,192,56980,1,2,0:0:0:0:
448,192,56980,128,0,57480:0:0:0:0:
192,192,57230,1,2,0:0:0:0:
320,192,57480,1,8,0:0:0:0:
192,192,57730,1,2,0:0:0:0:
320,192,57855,1,2,0:0:0:0:
192,192,58230,1,2,0:0:0:0:
64,192,58355,1,2,0:0:0:0:
448,192,58480,1,8,0:0:0:0:
192,192,58605,1,0,0:0:0:0:
448,192,58730,1,2,0:0:0:0:
320,192,58730,128,0,58980:0:0:0:0:
192,192,58980,128,2,59230:0:0:0:0:
320,192,59230,1,2,0:0:0:0:
64,192,59355,1,2,0:0:0:0:
448,192,59480,1,8,0:0:0:0:
192,192,59730,1,2,0:0:0:0:
64,192,59855,1,2,0:0:0:0:
320,192,59980,1,2,0:0:0:0:
320,192,60230,1,2,0:0:0:0:
192,192,60355,1,2,0:0:0:0:
448,192,60480,1,8,0:0:0:0:
64,192,60730,1,2,0:0:0:0:
192,192,60730,128,0,60980:0:0:0:0:
448,192,60980,1,2,0:0:0:0:
320,192,60980,128,0,61480:0:0:0:0:
192,192,61230,1,2,0:0:0:0:
448,192,61480,1,8,0:0:0:0:
192,192,61730,1,2,0:0:0:0:
320,192,61855,1,2,0:0:0:0:
192,192,62230,1,2,0:0:0:0:
64,192,62355,1,2,0:0:0:0:
448,192,62480,1,8,0:0:0:0:
192,192,62605,1,0,0:0:0:0:
448,192,62730,1,2,0:0:0:0:
320,192,62730,128,0,62980:0:0:0:0:
192,192,62980,128,0,63230:0:0:0:0:
64,192,62980,1,0,0:0:0:0:
320,192,63230,128,0,63980:0:0:0:70:LR_Kick Beat 2.wav
192,192,63980,128,0,64480:0:0:0:70:LR_Kick Beat 2.wav
64,192,64480,1,0,0:0:0:0:
320,192,64605,1,0,0:0:0:0:
448,192,64980,1,0,0:0:0:70:LR_Kick Beat 2.wav
320,192,65105,1,0,0:0:0:0:
320,192,65480,1,0,0:0:0:0:
192,192,65605,1,0,0:0:0:0:
64,192,65980,128,0,66480:0:0:0:0:
320,192,66480,1,0,0:0:0:0:
192,192,66605,1,0,0:0:0:0:
448,192,66980,1,0,0:0:0:70:LR_Kick Beat 2.wav
320,192,67105,1,0,0:0:0:0:
320,192,67480,1,0,0:0:0:0:
192,192,67605,1,0,0:0:0:0:
64,192,67980,128,0,68480:0:0:0:0:
320,192,68480,1,0,0:0:0:70:LR_Kick Beat 2.wav
192,192,68605,1,0,0:0:0:0:
320,192,68980,1,0,0:0:0:70:LR_Kick Beat 2.wav
448,192,69105,1,0,0:0:0:0:
320,192,69480,1,0,0:0:0:0:
192,192,69605,1,0,0:0:0:0:
448,192,69980,128,0,70480:0:0:0:0:
320,192,70480,1,0,0:0:0:0:
192,192,70605,1,0,0:0:0:0:
320,192,70980,1,0,0:0:0:70:LR_Kick Beat 2.wav
448,192,71105,1,0,0:0:0:0:
320,192,71480,1,0,0:0:0:0:
192,192,71605,1,0,0:0:0:0:
320,192,71980,128,0,72355:0:0:0:0:
448,192,72355,1,0,0:0:0:0:
64,192,72480,1,0,0:0:0:70:LR_Kick Beat 2.wav
192,192,72605,1,0,0:0:0:0:
448,192,72980,1,0,0:0:0:70:LR_Kick Beat 2.wav
320,192,73105,1,0,0:0:0:0:
320,192,73480,1,0,0:0:0:0:
192,192,73605,1,0,0:0:0:0:
64,192,73980,128,0,74480:0:0:0:0:
320,192,74480,1,0,0:0:0:70:LR_Kick Beat 2.wav
192,192,74605,1,0,0:0:0:0:
448,192,74980,1,0,0:0:0:70:LR_Kick Beat 2.wav
320,192,75105,1,0,0:0:0:0:
320,192,75480,1,0,0:0:0:0:
192,192,75605,1,0,0:0:0:0:
64,192,75980,128,0,76480:0:0:0:0:
320,192,76480,1,0,0:0:0:70:LR_Kick Beat 2.wav
192,192,76605,1,0,0:0:0:0:
64,192,76980,1,0,0:0:0:70:LR_Kick Beat 2.wav
320,192,76980,1,0,0:0:0:0:
448,192,77105,1,0,0:0:0:0:
320,192,77480,1,0,0:0:0:0:
192,192,77605,1,0,0:0:0:0:
320,192,77980,1,0,0:0:0:70:LR_Kick Beat 2.wav
448,192,77980,128,0,78480:0:0:0:0:
320,192,78480,1,0,0:0:0:0:
192,192,78605,1,0,0:0:0:0:
192,192,78980,1,0,0:0:0:70:LR_Kick Beat 2.wav
320,192,78980,1,0,0:0:0:0:
448,192,79105,1,0,0:0:0:0:
320,192,79480,1,0,0:0:0:0:
192,192,79605,1,0,0:0:0:0:
448,192,79980,1,0,0:0:0:0:
320,192,79980,128,0,80480:0:0:0:0:
64,192,80480,1,0,0:0:0:0:
192,192,80605,1,0,0:0:0:0:
64,192,80980,1,2,0:0:0:0:
448,192,80980,128,0,81355:0:0:0:0:
320,192,81355,128,0,81730:0:0:0:0:
192,192,81730,1,0,0:0:0:0:
320,192,81980,1,0,0:0:0:0:
64,192,82230,1,0,0:0:0:0:
192,192,82605,128,0,82980:0:0:0:0:
320,192,82980,128,0,83230:0:0:0:0:
320,192,83355,1,0,0:0:0:0:
192,192,83605,128,0,83980:0:0:0:0:
448,192,83980,5,0,0:0:0:0:
64,192,84230,1,0,0:0:0:0:
192,192,84480,1,0,0:0:0:0:
448,192,84730,1,0,0:0:0:0:
64,192,84980,5,2,0:0:0:0:
320,192,84980,128,0,85480:0:0:0:0:
448,192,85480,1,0,0:0:0:0:
192,192,85730,1,0,0:0:0:0:
64,192,85980,128,2,86480:0:0:0:0:
192,192,86480,128,0,86980:0:0:0:0:
320,192,86980,128,2,87605:0:0:0:0:
64,192,87605,128,0,87980:0:0:0:0:
320,192,87980,128,2,88605:0:0:0:0:
64,192,88605,128,0,88980:0:0:0:0:
320,192,88980,1,2,0:0:0:0:
192,192,89230,1,0,0:0:0:0:
448,192,89355,1,0,0:0:0:0:
320,192,89605,1,0,0:0:0:0:
192,192,89730,1,0,0:0:0:0:
64,192,89855,1,0,0:0:0:0:
448,192,89980,1,0,0:0:0:70:Slapachair_Edit.wav
192,192,90230,1,0,0:0:0:0:
320,192,90355,1,0,0:0:0:0:
64,192,90605,1,0,0:0:0:0:
448,192,90730,1,0,0:0:0:0:
192,192,90855,1,0,0:0:0:0:
320,192,90980,1,2,0:0:0:0:
64,192,91230,1,0,0:0:0:0:
448,192,91355,1,0,0:0:0:0:
320,192,91605,1,0,0:0:0:0:
192,192,91730,1,0,0:0:0:0:
64,192,91855,1,0,0:0:0:0:
448,192,91980,1,0,0:0:0:70:Slapachair_Edit.wav
192,192,92230,1,0,0:0:0:0:
320,192,92355,1,0,0:0:0:0:
448,192,92605,1,0,0:0:0:0:
64,192,92730,1,0,0:0:0:0:
192,192,92980,1,2,0:0:0:0:
64,192,93230,1,0,0:0:0:0:
448,192,93355,1,0,0:0:0:0:
320,192,93605,1,0,0:0:0:0:
64,192,93730,1,0,0:0:0:0:
192,192,93855,1,0,0:0:0:0:
448,192,93980,1,0,0:0:0:70:Slapachair_Edit.wav
64,192,94230,1,0,0:0:0:0:
448,192,94355,1,0,0:0:0:0:
320,192,94605,1,0,0:0:0:0:
64,192,94730,1,0,0:0:0:0:
64,192,94980,1,2,0:0:0:0:
448,192,94980,128,0,95605:0:0:0:0:
320,192,95605,1,0,0:0:0:0:
192,192,95730,1,0,0:0:0:0:
448,192,95855,1,0,0:0:0:0:
64,192,95980,128,0,96355:0:0:0:0:
448,192,96355,1,0,0:0:0:0:
320,192,96480,1,0,0:0:0:0:
192,192,96573,128,0,96980:0:0:0:0:
448,192,96980,1,0,0:0:0:70:snare_wbass.wav
64,192,96980,1,2,0:0:0:0:
320,192,97105,128,0,97480:0:0:0:0:
448,192,97480,1,8,0:0:0:0:
64,192,97480,1,2,0:0:0:0:
192,192,97605,128,0,97980:0:0:0:0:
448,192,97730,1,0,0:0:0:0:
320,192,97980,1,2,0:0:0:0:
64,192,97980,128,0,98480:0:0:0:0:
192,192,98230,1,0,0:0:0:0:
448,192,98480,1,8,0:0:0:0:
320,192,98480,1,2,0:0:0:0:
192,192,98605,128,0,98980:0:0:0:0:
64,192,98980,1,2,0:0:0:0:
448,192,98980,1,0,0:0:0:0:
320,192,99105,128,0,99480:0:0:0:0:
192,192,99230,1,0,0:0:0:0:
448,192,99480,1,8,0:0:0:0:
64,192,99480,1,2,0:0:0:0:
192,192,99605,128,0,99980:0:0:0:0:
448,192,99730,1,0,0:0:0:0:
320,192,99980,1,2,0:0:0:0:
64,192,99980,128,0,100480:0:0:0:0:
192,192,100230,1,0,0:0:0:0:
448,192,100480,1,8,0:0:0:0:
320,192,100480,1,2,0:0:0:0:
192,192,100605,128,0,100980:0:0:0:0:
64,192,100980,1,2,0:0:0:0:
320,192,100980,1,0,0:0:0:70:snare_wbass.wav
448,192,101105,128,0,101480:0:0:0:0:
64,192,101480,1,8,0:0:0:0:
320,192,101480,1,2,0:0:0:0:
192,192,101605,128,0,101980:0:0:0:0:
320,192,101730,1,0,0:0:0:0:
64,192,101980,1,2,0:0:0:0:
448,192,101980,128,0,102480:0:0:0:0:
192,192,102230,1,0,0:0:0:0:
64,192,102480,1,2,0:0:0:0:
320,192,102480,1,8,0:0:0:0:
192,192,102605,128,0,102980:0:0:0:0:
448,192,102730,1,0,0:0:0:0:
64,192,102980,1,2,0:0:0:0:
320,192,102980,1,0,0:0:0:0:
448,192,103105,128,0,103480:0:0:0:0:
192,192,103355,1,8,0:0:0:0:
64,192,103480,1,8,0:0:0:0:
320,192,103480,1,2,0:0:0:0:
192,192,103605,128,0,103980:0:0:0:0:
64,192,103730,1,0,0:0:0:0:
448,192,103980,1,2,0:0:0:0:
320,192,103980,128,0,104480:0:0:0:0:
448,192,104355,1,8,0:0:0:0:
64,192,104480,1,10,0:0:0:0:
192,192,104605,1,0,0:0:0:0:
448,192,104730,1,8,0:0:0:0:
64,192,104855,1,8,0:0:0:0:
448,192,104980,1,0,0:0:0:70:snare_wbass.wav
192,192,104980,1,2,0:0:0:0:
320,192,105105,128,0,105480:0:0:0:0:
448,192,105480,1,8,0:0:0:0:
64,192,105480,1,2,0:0:0:0:
192,192,105605,128,0,105980:0:0:0:0:
448,192,105730,1,0,0:0:0:0:
320,192,105980,1,2,0:0:0:0:
64,192,105980,128,0,106480:0:0:0:0:
192,192,106230,1,0,0:0:0:0:
448,192,106480,1,8,0:0:0:0:
320,192,106480,1,2,0:0:0:0:
192,192,106605,128,0,106980:0:0:0:0:
448,192,106980,1,0,0:0:0:0:
64,192,106980,1,2,0:0:0:0:
320,192,107105,128,0,107480:0:0:0:0:
192,192,107230,1,0,0:0:0:0:
448,192,107480,1,8,0:0:0:0:
64,192,107480,1,2,0:0:0:0:
192,192,107605,128,0,107980:0:0:0:0:
448,192,107730,1,0,0:0:0:0:
320,192,107980,1,2,0:0:0:0:
64,192,107980,128,0,108480:0:0:0:0:
192,192,108230,1,0,0:0:0:0:
448,192,108480,1,8,0:0:0:0:
320,192,108480,1,2,0:0:0:0:
192,192,108605,128,0,108980:0:0:0:0:
64,192,108980,1,2,0:0:0:0:
320,192,108980,1,0,0:0:0:70:snare_wbass.wav
448,192,109105,128,0,109480:0:0:0:0:
64,192,109480,1,8,0:0:0:0:
320,192,109480,1,2,0:0:0:0:
192,192,109605,128,0,109980:0:0:0:0:
320,192,109730,1,0,0:0:0:0:
64,192,109980,1,2,0:0:0:0:
448,192,109980,128,0,110480:0:0:0:0:
192,192,110230,1,0,0:0:0:0:
64,192,110480,1,2,0:0:0:0:
320,192,110480,1,8,0:0:0:0:
192,192,110605,128,0,110980:0:0:0:0:
448,192,110730,1,0,0:0:0:0:
64,192,110980,1,2,0:0:0:0:
320,192,110980,1,0,0:0:0:0:
448,192,111105,128,0,111480:0:0:0:0:
192,192,111355,1,8,0:0:0:0:
64,192,111480,1,8,0:0:0:0:
320,192,111480,1,2,0:0:0:0:
192,192,111605,128,0,111980:0:0:0:0:
64,192,111730,1,0,0:0:0:0:
448,192,111980,1,2,0:0:0:0:
320,192,111980,128,0,112480:0:0:0:0:
192,192,112230,1,0,0:0:0:0:
448,192,112355,1,8,0:0:0:0:
64,192,112480,1,10,0:0:0:0:
448,192,112730,1,8,0:0:0:0:
64,192,112855,1,8,0:0:0:0:
320,192,112980,5,2,0:0:0:0:
448,192,112980,1,0,0:0:0:0:
192,192,113230,1,0,0:0:0:0:
320,192,113355,1,0,0:0:0:0:
448,192,113480,1,0,0:0:0:70:punchy snare.wav
64,192,113480,1,10,0:0:0:0:
192,192,113605,1,0,0:0:0:0:
448,192,113886,1,0,0:0:0:0:
64,192,113980,128,2,114230:0:0:0:0:
448,192,114230,1,0,0:0:0:0:
320,192,114355,1,0,0:0:0:0:
192,192,114480,1,0,0:0:0:70:punchy snare.wav
64,192,114480,1,10,0:0:0:0:
448,192,114605,128,0,114980:0:0:0:0:
64,192,114980,1,2,0:0:0:0:
192,192,115105,1,0,0:0:0:0:
320,192,115230,1,0,0:0:0:0:
64,192,115480,1,0,0:0:0:70:punchy snare.wav
448,192,115480,128,10,115730:0:0:0:0:
320,192,115730,1,0,0:0:0:0:
192,192,115855,1,0,0:0:0:0:
64,192,115980,128,2,116230:0:0:0:0:
448,192,116230,1,0,0:0:0:0:
320,192,116355,1,0,0:0:0:0:
192,192,116480,1,0,0:0:0:70:punchy snare.wav
64,192,116480,1,10,0:0:0:0:
448,192,116605,128,0,116980:0:0:0:0:
64,192,116980,1,2,0:0:0:0:
320,192,117257,1,0,0:0:0:0:
448,192,117355,1,0,0:0:0:0:
192,192,117480,1,0,0:0:0:70:punchy snare.wav
64,192,117480,1,10,0:0:0:0:
320,192,117730,1,0,0:0:0:0:
192,192,117855,1,0,0:0:0:0:
64,192,117980,1,2,0:0:0:0:
448,192,118105,1,0,0:0:0:0:
320,192,118355,1,0,0:0:0:0:
448,192,118480,1,0,0:0:0:70:punchy snare.wav
64,192,118480,1,10,0:0:0:0:
192,192,118605,128,0,118980:0:0:0:0:
64,192,118980,1,2,0:0:0:0:
192,192,119230,1,0,0:0:0:0:
320,192,119355,1,8,0:0:0:0:
64,192,119480,1,0,0:0:0:70:punchy snare.wav
448,192,119480,1,10,0:0:0:0:
320,192,119730,1,0,0:0:0:0:
192,192,119855,1,0,0:0:0:0:
64,192,119980,1,2,0:0:0:0:
192,192,120105,1,0,0:0:0:0:
320,192,120355,1,8,0:0:0:0:
448,192,120480,1,0,0:0:0:70:punchy snare.wav
64,192,120480,1,10,0:0:0:0:
192,192,120730,1,8,0:0:0:0:
448,192,120855,1,8,0:0:0:0:
320,192,120980,5,2,0:0:0:0:
64,192,120980,1,0,0:0:0:0:
192,192,121230,1,0,0:0:0:0:
320,192,121355,1,0,0:0:0:0:
64,192,121480,1,10,0:0:0:0:
448,192,121480,1,0,0:0:0:70:punchy snare.wav
192,192,121605,1,0,0:0:0:0:
448,192,121886,1,0,0:0:0:0:
64,192,121980,128,2,122230:0:0:0:0:
448,192,122230,1,0,0:0:0:0:
320,192,122355,1,0,0:0:0:0:
64,192,122480,1,10,0:0:0:0:
192,192,122480,1,0,0:0:0:70:punchy snare.wav
448,192,122605,128,0,122980:0:0:0:0:
64,192,122980,1,2,0:0:0:0:
192,192,123105,1,0,0:0:0:0:
320,192,123230,1,0,0:0:0:0:
448,192,123480,128,10,123730:0:0:0:0:
64,192,123480,1,0,0:0:0:70:punchy snare.wav
320,192,123730,1,0,0:0:0:0:
192,192,123855,1,0,0:0:0:0:
64,192,123980,128,2,124230:0:0:0:0:
448,192,124230,1,0,0:0:0:0:
320,192,124355,1,0,0:0:0:0:
64,192,124480,1,10,0:0:0:0:
192,192,124480,1,0,0:0:0:70:punchy snare.wav
448,192,124605,128,0,124980:0:0:0:0:
64,192,124980,1,2,0:0:0:0:
320,192,125257,1,0,0:0:0:0:
448,192,125355,1,0,0:0:0:0:
64,192,125480,1,10,0:0:0:0:
192,192,125480,1,0,0:0:0:70:punchy snare.wav
320,192,125730,1,0,0:0:0:0:
192,192,125855,1,0,0:0:0:0:
64,192,125980,1,2,0:0:0:0:
448,192,126105,1,0,0:0:0:0:
320,192,126355,1,0,0:0:0:0:
64,192,126480,1,10,0:0:0:0:
448,192,126480,1,0,0:0:0:70:punchy snare.wav
192,192,126605,128,0,126980:0:0:0:0:
64,192,126980,1,2,0:0:0:0:
320,192,127355,1,8,0:0:0:0:
448,192,127480,1,10,0:0:0:0:
64,192,127480,1,0,0:0:0:70:punchy snare.wav
320,192,127730,1,0,0:0:0:0:
192,192,127855,1,0,0:0:0:0:
64,192,127980,1,0,0:0:0:0:
192,192,128105,1,0,0:0:0:0:
320,192,128355,1,8,0:0:0:0:
64,192,128480,1,8,0:0:0:0:
192,192,128730,1,8,0:0:0:0:
448,192,128855,1,8,0:0:0:0:
64,192,128980,1,2,0:0:0:0:
192,192,128980,1,0,0:0:0:0:
320,192,129230,1,2,0:0:0:0:
192,192,129355,1,0,0:0:0:0:
64,192,129480,1,2,0:0:0:0:
448,192,129480,1,0,0:0:0:70:punchy snare.wav
320,192,129605,1,0,0:0:0:0:
448,192,129855,1,0,0:0:0:0:
64,192,129980,1,2,0:0:0:0:
192,192,130230,1,0,0:0:0:0:
320,192,130355,1,0,0:0:0:0:
192,192,130480,1,0,0:0:0:70:punchy snare.wav
64,192,130480,1,2,0:0:0:0:
448,192,130605,1,0,0:0:0:0:
64,192,130980,1,2,0:0:0:0:
192,192,131105,1,0,0:0:0:0:
320,192,131230,1,2,0:0:0:0:
192,192,131480,1,0,0:0:0:70:punchy snare.wav
64,192,131480,1,2,0:0:0:0:
320,192,131730,1,0,0:0:0:0:
192,192,131855,1,0,0:0:0:0:
64,192,131980,1,2,0:0:0:0:
448,192,131980,1,0,0:0:0:0:
192,192,132230,1,0,0:0:0:0:
320,192,132355,1,2,0:0:0:0:
192,192,132480,1,0,0:0:0:70:punchy snare.wav
64,192,132480,1,2,0:0:0:0:
448,192,132730,1,2,0:0:0:0:
64,192,132980,1,2,0:0:0:0:
448,192,132980,1,0,0:0:0:0:
192,192,133230,1,2,0:0:0:0:
320,192,133355,1,0,0:0:0:0:
448,192,133480,1,0,0:0:0:70:punchy snare.wav
64,192,133480,1,2,0:0:0:0:
448,192,133730,1,0,0:0:0:0:
320,192,133855,1,0,0:0:0:0:
64,192,133980,1,2,0:0:0:0:
192,192,134136,128,0,134355:0:0:0:0:
320,192,134355,1,0,0:0:0:0:
448,192,134480,1,0,0:0:0:70:punchy snare.wav
64,192,134480,1,2,0:0:0:0:
192,192,134605,1,0,0:0:0:0:
448,192,134855,1,0,0:0:0:0:
64,192,134980,1,0,0:0:0:0:
320,192,134980,1,2,0:0:0:0:
320,192,135230,1,2,0:0:0:0:
192,192,135480,1,0,0:0:0:70:punchy snare.wav
64,192,135480,1,2,0:0:0:0:
448,192,135730,1,0,0:0:0:0:
320,192,135855,1,0,0:0:0:0:
64,192,135980,1,2,0:0:0:0:
192,192,136105,1,0,0:0:0:0:
320,192,136355,1,2,0:0:0:0:
448,192,136480,1,0,0:0:0:70:Slapachair_Edit.wav
64,192,136480,1,0,0:0:0:0:
320,192,136730,1,2,0:0:0:0:
64,192,136980,1,2,0:0:0:0:
192,192,136980,128,0,137230:0:0:0:70:snare_wbass.wav
448,192,137230,1,2,0:0:0:0:
320,192,137355,1,0,0:0:0:0:
192,192,137480,1,0,0:0:0:70:punchy snare.wav
64,192,137480,1,2,0:0:0:0:
448,192,137730,1,0,0:0:0:0:
192,192,137855,1,0,0:0:0:0:
320,192,137980,1,2,0:0:0:0:
448,192,137980,1,0,0:0:0:0:
64,192,138230,1,0,0:0:0:0:
192,192,138355,1,0,0:0:0:0:
448,192,138480,1,0,0:0:0:70:punchy snare.wav
320,192,138480,1,2,0:0:0:0:
192,192,138730,1,0,0:0:0:0:
64,192,138855,1,0,0:0:0:0:
448,192,138980,1,2,0:0:0:0:
320,192,138980,128,0,139230:0:0:0:0:
64,192,139230,1,2,0:0:0:0:
448,192,139355,1,0,0:0:0:0:
192,192,139480,1,0,0:0:0:70:punchy snare.wav
64,192,139480,1,2,0:0:0:0:
192,192,139730,1,0,0:0:0:0:
320,192,139855,1,0,0:0:0:0:
64,192,139980,1,2,0:0:0:0:
448,192,139980,128,0,140230:0:0:0:0:
192,192,140230,1,0,0:0:0:0:
320,192,140355,1,2,0:0:0:0:
192,192,140480,1,0,0:0:0:70:punchy snare.wav
64,192,140480,1,2,0:0:0:0:
320,192,140730,1,2,0:0:0:0:
64,192,140855,1,0,0:0:0:0:
448,192,140980,1,2,0:0:0:0:
320,192,140980,128,0,141230:0:0:0:70:snare_wbass.wav
64,192,141230,1,2,0:0:0:0:
192,192,141355,1,0,0:0:0:0:
448,192,141480,1,0,0:0:0:70:punchy snare.wav
320,192,141480,1,2,0:0:0:0:
320,192,141730,1,0,0:0:0:0:
192,192,141855,1,0,0:0:0:0:
448,192,141980,1,2,0:0:0:0:
64,192,141980,128,0,142480:0:0:0:0:
320,192,142230,1,0,0:0:0:0:
448,192,142480,1,0,0:0:0:70:punchy snare.wav
192,192,142480,128,2,142980:0:0:0:0:
64,192,142730,1,0,0:0:0:0:
320,192,142980,128,0,143480:0:0:0:0:
448,192,142980,1,2,0:0:0:0:
192,192,143230,1,2,0:0:0:0:
448,192,143480,1,0,0:0:0:70:punchy snare.wav
64,192,143480,1,2,0:0:0:0:
192,192,143605,1,0,0:0:0:0:
320,192,143730,1,0,0:0:0:0:
64,192,143855,1,0,0:0:0:0:
320,192,143980,128,0,144480:0:0:0:0:
448,192,143980,1,2,0:0:0:0:
192,192,144230,1,0,0:0:0:0:
448,192,144480,1,0,0:0:0:70:punchy snare.wav
64,192,144480,1,2,0:0:0:0:
192,192,144605,1,0,0:0:0:0:
320,192,144730,1,0,0:0:0:0:
64,192,144980,1,2,0:0:0:0:
448,192,144980,1,0,0:0:0:0:
320,192,145105,1,0,0:0:0:0:
192,192,145230,1,2,0:0:0:0:
320,192,145480,1,2,0:0:0:0:
448,192,145480,1,0,0:0:0:70:punchy snare.wav
192,192,145605,1,0,0:0:0:0:
320,192,145730,1,0,0:0:0:0:
192,192,145980,1,2,0:0:0:0:
64,192,145980,128,0,146480:0:0:0:0:
448,192,146230,1,0,0:0:0:0:
448,192,146480,1,0,0:0:0:70:punchy snare.wav
320,192,146480,1,2,0:0:0:0:
192,192,146605,1,0,0:0:0:0:
320,192,146730,1,0,0:0:0:0:
64,192,146980,1,2,0:0:0:0:
448,192,146980,1,0,0:0:0:0:
320,192,147105,1,0,0:0:0:0:
192,192,147230,1,2,0:0:0:0:
448,192,147480,1,0,0:0:0:70:punchy snare.wav
320,192,147480,1,2,0:0:0:0:
192,192,147605,1,0,0:0:0:0:
448,192,147730,1,0,0:0:0:0:
192,192,147980,1,2,0:0:0:0:
64,192,147980,128,0,148480:0:0:0:0:
320,192,148230,1,0,0:0:0:0:
192,192,148355,1,2,0:0:0:0:
448,192,148480,1,0,0:0:0:70:punchy snare.wav
320,192,148480,1,2,0:0:0:0:
192,192,148605,1,0,0:0:0:0:
448,192,148730,1,2,0:0:0:0:
64,192,148980,1,2,0:0:0:0:
320,192,148980,1,0,0:0:0:0:
448,192,149105,1,0,0:0:0:0:
192,192,149230,1,2,0:0:0:0:
448,192,149480,1,0,0:0:0:70:punchy snare.wav
320,192,149480,1,2,0:0:0:0:
192,192,149605,1,0,0:0:0:0:
320,192,149730,1,0,0:0:0:0:
64,192,149980,1,2,0:0:0:0:
448,192,149980,128,0,150480:0:0:0:0:
192,192,150230,1,0,0:0:0:0:
320,192,150480,1,0,0:0:0:70:punchy snare.wav
64,192,150480,1,2,0:0:0:0:
192,192,150605,1,0,0:0:0:0:
448,192,150730,1,0,0:0:0:0:
64,192,150980,1,2,0:0:0:0:
320,192,150980,1,0,0:0:0:0:
448,192,151105,1,0,0:0:0:0:
192,192,151230,1,2,0:0:0:0:
448,192,151480,1,2,0:0:0:0:
320,192,151480,1,0,0:0:0:70:punchy snare.wav
192,192,151605,1,0,0:0:0:0:
64,192,151730,1,0,0:0:0:0:
448,192,151980,1,2,0:0:0:0:
320,192,151980,128,0,152480:0:0:0:0:
64,192,152355,1,2,0:0:0:0:
192,192,152480,1,0,0:0:0:70:Slapachair_Edit.wav
192,192,152855,1,0,0:0:0:70:Slapachair_Edit.wav
64,192,152980,1,2,0:0:0:0:
448,192,152980,1,0,0:0:0:70:snare_wbass.wav
320,192,153105,1,0,0:0:0:0:
192,192,153230,1,2,0:0:0:0:
320,192,153480,1,2,0:0:0:0:
448,192,153480,1,0,0:0:0:70:punchy snare.wav
192,192,153605,1,0,0:0:0:0:
320,192,153730,1,0,0:0:0:0:
192,192,153980,1,2,0:0:0:0:
64,192,153980,128,0,154480:0:0:0:0:
448,192,154230,1,0,0:0:0:0:
448,192,154480,1,0,0:0:0:70:punchy snare.wav
320,192,154480,1,2,0:0:0:0:
192,192,154605,1,0,0:0:0:0:
320,192,154730,1,0,0:0:0:0:
64,192,154980,1,2,0:0:0:0:
448,192,154980,1,0,0:0:0:0:
320,192,155105,1,0,0:0:0:0:
192,192,155230,1,2,0:0:0:0:
448,192,155480,1,0,0:0:0:70:punchy snare.wav
320,192,155480,1,2,0:0:0:0:
192,192,155605,1,0,0:0:0:0:
320,192,155730,1,0,0:0:0:0:
192,192,155980,1,2,0:0:0:0:
64,192,155980,128,0,156480:0:0:0:0:
320,192,156230,1,0,0:0:0:0:
192,192,156355,1,2,0:0:0:0:
448,192,156480,1,0,0:0:0:70:punchy snare.wav
320,192,156480,1,2,0:0:0:0:
192,192,156605,1,0,0:0:0:0:
448,192,156730,1,2,0:0:0:0:
64,192,156980,1,2,0:0:0:0:
320,192,156980,1,0,0:0:0:70:snare_wbass.wav
448,192,157105,1,0,0:0:0:0:
192,192,157230,1,2,0:0:0:0:
448,192,157480,1,0,0:0:0:70:punchy snare.wav
320,192,157480,1,2,0:0:0:0:
192,192,157605,1,0,0:0:0:0:
320,192,157730,1,0,0:0:0:0:
64,192,157980,1,2,0:0:0:0:
448,192,157980,128,0,158480:0:0:0:0:
192,192,158230,1,0,0:0:0:0:
320,192,158480,1,0,0:0:0:70:punchy snare.wav
64,192,158480,1,2,0:0:0:0:
192,192,158605,1,0,0:0:0:0:
448,192,158730,1,0,0:0:0:0:
64,192,158980,1,2,0:0:0:0:
320,192,158980,1,0,0:0:0:0:
448,192,159105,1,0,0:0:0:0:
192,192,159230,1,2,0:0:0:0:
448,192,159480,1,2,0:0:0:0:
320,192,159480,1,0,0:0:0:70:punchy snare.wav
192,192,159605,1,0,0:0:0:0:
320,192,159730,1,0,0:0:0:0:
192,192,159980,1,2,0:0:0:0:
64,192,159980,1,0,0:0:0:0:
320,192,160230,1,0,0:0:0:0:
448,192,160480,1,0,0:0:0:70:punchy snare.wav
64,192,160480,1,2,0:0:0:0:
