osu file format v14

[General]
AudioFilename: audio.mp3
AudioLeadIn: 0
PreviewTime: 96480
Countdown: 0
SampleSet: Soft
StackLeniency: 0.7
Mode: 3
LetterboxInBreaks: 0
SpecialStyle: 0
WidescreenStoryboard: 1

[Editor]
Bookmarks: 1230,9230,17230,25230,33230,41230,49230,57230,65230,73230,81230,89230,97230,105230,113230,121230,129230,137230,145230,153230
DistanceSpacing: 6
BeatDivisor: 16
GridSize: 32
TimelineZoom: 3.119999

[Metadata]
Title:Say It Back
TitleUnicode:Say It Back
Artist:tv room
ArtistUnicode:tv room
Creator:epic man 2
Version:Shout | Hard
Source:
Tags:elitv _tvroom indie pop electronic english male vocals ell yot american upstairs sv hybrid jack ln tech em2 RoBeats! FAMoss
BeatmapID:3304694
BeatmapSetID:1547639

[Difficulty]
HPDrainRate:8
CircleSize:4
OverallDifficulty:6.7
ApproachRate:5
SliderMultiplier:1.4
SliderTickRate:1

[Events]
//Background and Video events
0,0,"say it back.png",0,0
//Break Periods
//Storyboard Layer 0 (Background)
//Storyboard Layer 1 (Fail)
//Storyboard Layer 2 (Pass)
//Storyboard Layer 3 (Foreground)
//Storyboard Layer 4 (Overlay)
//Storyboard Sound Samples

[TimingPoints]
980,500,4,2,1,70,1,0
96980,-100,4,2,1,70,0,1
126980,-100,4,2,1,70,0,0

[HitObjects]
192,192,730,128,0,980:0:0:0:0:
448,192,980,1,2,0:0:0:0:
320,192,980,128,0,1230:0:0:0:0:
64,192,1230,1,2,0:0:0:0:
320,192,1355,128,0,1605:0:0:0:0:
448,192,1355,1,2,0:0:0:0:
64,192,1605,1,0,0:0:0:0:
320,192,1730,1,2,0:0:0:0:
448,192,1730,1,0,0:0:0:0:
320,192,1855,1,2,0:0:0:0:
448,192,1980,1,0,0:0:0:70:snare_wbass.wav
64,192,1980,1,0,0:0:0:0:
192,192,2230,1,2,0:0:0:0:
448,192,2355,1,2,0:0:0:0:
320,192,2355,128,0,2605:0:0:0:0:
192,192,2605,1,0,0:0:0:0:
448,192,2730,1,2,0:0:0:0:
320,192,2730,128,0,2980:0:0:0:0:
192,192,2980,128,0,3480:0:0:0:0:
448,192,3480,1,2,0:0:0:0:
64,192,3480,128,0,3980:0:0:0:0:
192,192,3730,1,2,0:0:0:0:
192,192,3855,1,2,0:0:0:0:
320,192,3980,128,0,4230:0:0:0:0:
448,192,3980,1,0,0:0:0:70:LR_Kick Beat 2.wav
448,192,4355,1,8,0:0:0:0:
320,192,4355,1,0,0:0:0:0:
64,192,4480,1,8,0:0:0:0:
192,192,4480,1,0,0:0:0:0:
448,192,4605,1,0,0:0:0:0:
64,192,4730,1,8,0:0:0:0:
320,192,4730,1,0,0:0:0:0:
192,192,4855,1,8,0:0:0:0:
448,192,4855,1,0,0:0:0:0:
320,192,4980,128,0,5230:0:0:0:0:
64,192,4980,1,2,0:0:0:0:
64,192,5230,1,2,0:0:0:0:
320,192,5355,128,0,5605:0:0:0:0:
448,192,5355,1,2,0:0:0:0:
192,192,5605,1,0,0:0:0:0:
320,192,5730,1,2,0:0:0:0:
448,192,5730,1,0,0:0:0:0:
320,192,5855,1,2,0:0:0:0:
448,192,5980,1,0,0:0:0:70:snare_wbass.wav
64,192,5980,1,0,0:0:0:0:
192,192,6230,1,2,0:0:0:0:
320,192,6355,128,0,6605:0:0:0:0:
448,192,6355,1,2,0:0:0:0:
192,192,6605,1,0,0:0:0:0:
448,192,6730,1,2,0:0:0:0:
320,192,6730,128,0,6980:0:0:0:0:
192,192,6980,128,0,7480:0:0:0:0:
448,192,7480,1,2,0:0:0:0:
320,192,7730,1,2,0:0:0:0:
192,192,7730,1,0,0:0:0:0:
320,192,7855,1,2,0:0:0:0:
64,192,7980,128,0,8230:0:0:0:0:
192,192,8105,128,0,8230:0:0:0:0:
448,192,8480,128,0,8730:0:0:0:0:
320,192,8605,128,0,8730:0:0:0:0:
64,192,8730,1,0,0:0:0:0:
64,192,8980,1,2,0:0:0:0:
448,192,8980,128,0,9105:0:0:0:0:
192,192,9105,1,0,0:0:0:0:
320,192,9230,1,2,0:0:0:0:
448,192,9230,128,0,9355:0:0:0:0:
192,192,9355,128,0,9730:0:0:0:0:
64,192,9355,1,2,0:0:0:0:
64,192,9605,1,0,0:0:0:0:
320,192,9730,1,0,0:0:0:0:
448,192,9730,1,2,0:0:0:0:
320,192,9855,1,2,0:0:0:0:
64,192,9980,1,0,0:0:0:70:snare_wbass.wav
448,192,9980,128,0,10230:0:0:0:0:
192,192,10230,1,2,0:0:0:0:
320,192,10355,128,0,10605:0:0:0:0:
64,192,10355,1,2,0:0:0:0:
192,192,10605,1,0,0:0:0:0:
448,192,10730,1,2,0:0:0:0:
320,192,10730,128,0,10980:0:0:0:0:
448,192,10980,1,2,0:0:0:0:
192,192,10980,128,0,11230:0:0:0:0:
64,192,11230,1,2,0:0:0:0:
64,192,11355,1,2,0:0:0:0:
448,192,11480,1,8,0:0:0:0:
320,192,11480,1,0,0:0:0:0:
192,192,11605,1,8,0:0:0:0:
64,192,11605,1,0,0:0:0:0:
320,192,11730,1,2,0:0:0:0:
320,192,11855,1,2,0:0:0:0:
448,192,11980,128,0,12355:0:0:0:0:
64,192,11980,1,8,0:0:0:0:
192,192,11980,1,0,0:0:0:0:
320,192,12355,1,8,0:0:0:0:
192,192,12355,1,0,0:0:0:0:
64,192,12480,1,8,0:0:0:0:
448,192,12480,1,0,0:0:0:0:
192,192,12605,1,0,0:0:0:0:
320,192,12730,1,8,0:0:0:0:
448,192,12730,1,0,0:0:0:0:
192,192,12855,1,8,0:0:0:0:
64,192,12855,1,0,0:0:0:0:
320,192,12980,128,0,13230:0:0:0:0:
448,192,12980,1,2,0:0:0:0:
64,192,13230,1,2,0:0:0:0:
320,192,13355,128,0,13605:0:0:0:0:
448,192,13355,1,2,0:0:0:0:
192,192,13605,1,0,0:0:0:0:
448,192,13730,1,2,0:0:0:0:
320,192,13730,1,0,0:0:0:0:
320,192,13855,1,2,0:0:0:0:
448,192,13980,1,0,0:0:0:70:snare_wbass.wav
64,192,13980,1,0,0:0:0:0:
192,192,14230,1,2,0:0:0:0:
320,192,14355,128,0,14605:0:0:0:0:
448,192,14355,1,2,0:0:0:0:
192,192,14605,1,0,0:0:0:0:
448,192,14730,1,2,0:0:0:0:
320,192,14730,128,0,14980:0:0:0:0:
192,192,14980,128,0,15230:0:0:0:0:
448,192,14980,128,0,15105:0:0:0:0:
64,192,15230,1,2,0:0:0:0:
320,192,15230,128,0,15980:0:0:0:70:LR_Kick Beat 2.wav
448,192,15480,1,8,0:0:0:0:
192,192,15480,1,2,0:0:0:0:
192,192,15730,1,8,0:0:0:0:
448,192,15855,1,10,0:0:0:0:
64,192,15855,1,0,0:0:0:0:
192,192,15980,128,0,16480:0:0:0:70:LR_Kick Beat 2.wav
320,192,16355,1,10,0:0:0:0:
448,192,16480,1,8,0:0:0:0:
64,192,16480,1,0,0:0:0:0:
320,192,16605,1,0,0:0:0:0:
64,192,16730,1,2,0:0:0:0:
192,192,16730,1,8,0:0:0:0:
64,192,16855,1,2,0:0:0:0:
192,192,16855,1,8,0:0:0:0:
448,192,16980,1,2,0:0:0:0:
320,192,16980,1,0,0:0:0:0:
448,192,17105,1,0,0:0:0:0:
64,192,17230,1,2,0:0:0:0:
192,192,17230,1,0,0:0:0:0:
448,192,17355,1,0,0:0:0:0:
64,192,17480,1,2,0:0:0:0:
320,192,17480,1,0,0:0:0:0:
320,192,17605,1,0,0:0:0:0:
448,192,17730,1,0,0:0:0:0:
320,192,17855,1,0,0:0:0:0:
64,192,17980,128,0,18230:0:0:0:0:
192,192,17980,1,2,0:0:0:0:
448,192,18105,1,0,0:0:0:0:
320,192,18230,1,0,0:0:0:0:
448,192,18355,1,0,0:0:0:0:
64,192,18480,1,2,0:0:0:0:
192,192,18480,1,0,0:0:0:0:
192,192,18605,1,0,0:0:0:0:
448,192,18730,1,0,0:0:0:0:
64,192,18855,1,0,0:0:0:0:
448,192,18980,1,2,0:0:0:0:
320,192,18980,1,0,0:0:0:0:
448,192,19105,1,0,0:0:0:0:
64,192,19230,1,2,0:0:0:0:
192,192,19230,1,0,0:0:0:0:
448,192,19355,1,0,0:0:0:0:
64,192,19480,1,2,0:0:0:0:
320,192,19480,1,0,0:0:0:0:
320,192,19605,1,0,0:0:0:0:
448,192,19730,1,0,0:0:0:0:
320,192,19855,1,0,0:0:0:0:
64,192,19980,128,0,20230:0:0:0:0:
192,192,19980,1,2,0:0:0:0:
448,192,20105,1,0,0:0:0:0:
192,192,20230,1,0,0:0:0:0:
448,192,20355,1,2,0:0:0:0:
320,192,20355,1,0,0:0:0:0:
64,192,20480,1,2,0:0:0:0:
192,192,20480,1,0,0:0:0:0:
192,192,20605,1,0,0:0:0:0:
448,192,20730,1,0,0:0:0:0:
320,192,20730,1,2,0:0:0:0:
192,192,20855,1,0,0:0:0:0:
448,192,20980,1,2,0:0:0:0:
64,192,20980,1,0,0:0:0:0:
64,192,21105,1,0,0:0:0:0:
448,192,21230,1,2,0:0:0:0:
320,192,21230,1,0,0:0:0:0:
64,192,21355,1,0,0:0:0:0:
448,192,21480,1,2,0:0:0:0:
192,192,21480,1,0,0:0:0:0:
192,192,21605,1,0,0:0:0:0:
320,192,21730,1,0,0:0:0:0:
64,192,21855,1,0,0:0:0:0:
320,192,21980,1,2,0:0:0:0:
448,192,21980,128,0,22230:0:0:0:0:
64,192,22105,1,0,0:0:0:0:
192,192,22230,1,0,0:0:0:0:
448,192,22355,1,0,0:0:0:0:
64,192,22480,1,2,0:0:0:0:
320,192,22480,1,0,0:0:0:0:
320,192,22605,1,0,0:0:0:0:
448,192,22730,1,0,0:0:0:0:
192,192,22855,1,0,0:0:0:0:
448,192,22980,1,2,0:0:0:0:
64,192,22980,1,0,0:0:0:0:
64,192,23105,1,0,0:0:0:0:
448,192,23230,1,2,0:0:0:0:
320,192,23230,1,0,0:0:0:0:
64,192,23355,1,0,0:0:0:0:
448,192,23480,1,2,0:0:0:0:
192,192,23480,1,0,0:0:0:0:
192,192,23605,1,0,0:0:0:0:
320,192,23730,1,0,0:0:0:0:
64,192,23855,1,0,0:0:0:0:
448,192,23980,128,0,24230:0:0:0:0:
320,192,23980,1,2,0:0:0:0:
64,192,24105,1,0,0:0:0:0:
192,192,24230,1,0,0:0:0:0:
320,192,24355,1,0,0:0:0:0:
448,192,24355,1,2,0:0:0:0:
192,192,24480,1,0,0:0:0:0:
64,192,24480,1,8,0:0:0:0:
192,192,24605,1,0,0:0:0:0:
448,192,24730,1,0,0:0:0:0:
64,192,24855,1,0,0:0:0:0:
448,192,24980,1,2,0:0:0:0:
320,192,24980,1,0,0:0:0:0:
448,192,25105,1,0,0:0:0:0:
64,192,25230,1,2,0:0:0:0:
192,192,25230,1,0,0:0:0:0:
448,192,25355,1,0,0:0:0:0:
64,192,25480,1,2,0:0:0:0:
192,192,25480,1,0,0:0:0:0:
320,192,25480,1,8,0:0:0:0:
320,192,25605,1,0,0:0:0:0:
448,192,25730,1,0,0:0:0:0:
320,192,25855,1,0,0:0:0:0:
64,192,25980,128,0,26230:0:0:0:0:
192,192,25980,1,2,0:0:0:0:
448,192,26105,1,0,0:0:0:0:
320,192,26230,1,0,0:0:0:0:
448,192,26355,1,0,0:0:0:0:
64,192,26480,1,2,0:0:0:0:
320,192,26480,1,8,0:0:0:0:
192,192,26480,1,0,0:0:0:0:
192,192,26605,1,0,0:0:0:0:
448,192,26730,1,0,0:0:0:0:
64,192,26855,1,0,0:0:0:0:
448,192,26980,1,2,0:0:0:0:
320,192,26980,1,0,0:0:0:0:
448,192,27105,1,0,0:0:0:0:
64,192,27230,1,2,0:0:0:0:
192,192,27230,1,0,0:0:0:0:
448,192,27355,1,0,0:0:0:0:
64,192,27480,1,2,0:0:0:0:
320,192,27480,1,8,0:0:0:0:
192,192,27480,1,0,0:0:0:0:
320,192,27605,1,0,0:0:0:0:
448,192,27730,1,0,0:0:0:0:
320,192,27855,1,0,0:0:0:0:
64,192,27980,128,0,28230:0:0:0:0:
192,192,27980,1,2,0:0:0:0:
448,192,28105,1,0,0:0:0:0:
192,192,28230,1,0,0:0:0:0:
448,192,28355,1,2,0:0:0:0:
320,192,28355,1,0,0:0:0:0:
64,192,28480,1,2,0:0:0:0:
192,192,28480,1,8,0:0:0:0:
448,192,28480,1,0,0:0:0:0:
192,192,28605,1,0,0:0:0:0:
448,192,28730,1,0,0:0:0:0:
320,192,28730,1,2,0:0:0:0:
192,192,28855,1,0,0:0:0:0:
64,192,28980,1,2,0:0:0:0:
448,192,28980,1,0,0:0:0:0:
64,192,29105,1,0,0:0:0:0:
448,192,29230,1,2,0:0:0:0:
320,192,29230,1,0,0:0:0:0:
64,192,29355,1,0,0:0:0:0:
320,192,29480,1,2,0:0:0:0:
448,192,29480,1,8,0:0:0:0:
192,192,29480,1,0,0:0:0:0:
192,192,29605,1,0,0:0:0:0:
448,192,29730,1,0,0:0:0:0:
64,192,29855,1,0,0:0:0:0:
320,192,29980,1,2,0:0:0:0:
448,192,29980,128,0,30230:0:0:0:0:
64,192,30105,1,0,0:0:0:0:
192,192,30230,1,0,0:0:0:0:
448,192,30355,1,0,0:0:0:0:
64,192,30480,1,2,0:0:0:0:
320,192,30480,1,0,0:0:0:0:
192,192,30480,1,8,0:0:0:0:
320,192,30605,1,0,0:0:0:0:
448,192,30730,1,0,0:0:0:0:
192,192,30855,1,0,0:0:0:0:
448,192,30980,1,2,0:0:0:0:
64,192,30980,1,0,0:0:0:0:
64,192,31105,1,0,0:0:0:0:
448,192,31230,1,2,0:0:0:0:
320,192,31230,1,0,0:0:0:0:
64,192,31355,1,0,0:0:0:0:
320,192,31480,1,2,0:0:0:0:
448,192,31480,1,8,0:0:0:0:
192,192,31480,1,0,0:0:0:0:
192,192,31605,1,0,0:0:0:0:
320,192,31646,1,2,0:0:0:0:
64,192,31886,1,2,0:0:0:0:
448,192,31980,128,0,32396:0:0:0:0:
320,192,31980,1,2,0:0:0:0:
64,192,32180,1,0,0:0:0:0:
320,192,32396,1,0,0:0:0:0:
192,192,32480,1,0,0:0:0:0:
192,192,32605,1,0,0:0:0:0:
448,192,32646,1,0,0:0:0:0:
64,192,32880,1,0,0:0:0:0:
320,192,32980,128,0,33105:0:0:0:0:
448,192,32980,1,2,0:0:0:0:
448,192,33230,1,2,0:0:0:0:
320,192,33230,128,0,33480:0:0:0:0:
64,192,33480,1,0,0:0:0:70:punchy snare.wav
192,192,33480,1,0,0:0:0:0:
448,192,33605,1,2,0:0:0:0:
320,192,33605,1,0,0:0:0:0:
64,192,33730,1,0,0:0:0:0:
448,192,33855,1,0,0:0:0:0:
320,192,33917,1,0,0:0:0:0:
64,192,33980,1,2,0:0:0:0:
192,192,33980,128,0,34105:0:0:0:0:
64,192,34230,1,2,0:0:0:0:
192,192,34230,128,0,34480:0:0:0:0:
448,192,34480,1,0,0:0:0:70:punchy snare.wav
320,192,34480,1,0,0:0:0:0:
64,192,34605,1,2,0:0:0:0:
192,192,34605,1,0,0:0:0:0:
448,192,34730,1,0,0:0:0:0:
192,192,34855,1,0,0:0:0:0:
448,192,34980,1,2,0:0:0:0:
320,192,34980,128,0,35105:0:0:0:0:
320,192,35230,128,0,35355:0:0:0:0:
64,192,35230,1,2,0:0:0:0:
192,192,35292,1,0,0:0:0:0:
448,192,35355,128,0,35480:0:0:0:0:
64,192,35480,1,0,0:0:0:0:
192,192,35480,1,0,0:0:0:70:punchy snare.wav
448,192,35605,1,2,0:0:0:0:
320,192,35605,1,0,0:0:0:0:
64,192,35730,128,0,35855:0:0:0:0:
448,192,35855,1,0,0:0:0:0:
192,192,35917,1,0,0:0:0:0:
320,192,35980,128,0,36105:0:0:0:0:
64,192,35980,1,2,0:0:0:0:
448,192,36230,1,2,0:0:0:0:
320,192,36230,128,0,36480:0:0:0:0:
64,192,36355,1,0,0:0:0:0:
448,192,36417,1,0,0:0:0:0:
64,192,36480,1,0,0:0:0:70:punchy snare.wav
320,192,36605,1,2,0:0:0:0:
448,192,36605,1,0,0:0:0:0:
192,192,36730,1,0,0:0:0:0:
448,192,36855,1,0,0:0:0:0:
320,192,36980,128,0,37105:0:0:0:0:
64,192,36980,1,2,0:0:0:0:
448,192,37230,1,2,0:0:0:0:
320,192,37230,128,0,37480:0:0:0:0:
64,192,37480,1,0,0:0:0:70:punchy snare.wav
192,192,37480,1,0,0:0:0:0:
448,192,37605,1,0,0:0:0:0:
320,192,37605,1,2,0:0:0:0:
64,192,37730,1,0,0:0:0:0:
448,192,37855,1,0,0:0:0:0:
320,192,37917,1,0,0:0:0:0:
192,192,37980,128,0,38105:0:0:0:0:
64,192,37980,1,2,0:0:0:0:
64,192,38230,1,2,0:0:0:0:
192,192,38230,128,0,38480:0:0:0:0:
64,192,38480,1,0,0:0:0:70:punchy snare.wav
448,192,38480,1,0,0:0:0:0:
320,192,38542,1,0,0:0:0:0:
192,192,38605,1,2,0:0:0:0:
64,192,38730,1,0,0:0:0:0:
448,192,38855,1,0,0:0:0:0:
320,192,38980,128,0,39105:0:0:0:0:
192,192,38980,1,2,0:0:0:0:
192,192,39230,1,2,0:0:0:0:
320,192,39230,128,0,39480:0:0:0:0:
448,192,39292,1,0,0:0:0:0:
64,192,39355,1,0,0:0:0:0:
192,192,39417,1,0,0:0:0:0:
448,192,39480,1,0,0:0:0:70:punchy snare.wav
64,192,39480,1,0,0:0:0:0:
192,192,39605,1,2,0:0:0:0:
320,192,39605,1,0,0:0:0:0:
448,192,39730,1,0,0:0:0:0:
64,192,39855,1,0,0:0:0:0:
192,192,39917,1,0,0:0:0:0:
448,192,39980,1,2,0:0:0:0:
320,192,39980,128,0,40105:0:0:0:0:
448,192,40230,1,2,0:0:0:0:
320,192,40230,128,0,40480:0:0:0:0:
64,192,40355,1,0,0:0:0:0:
448,192,40417,1,0,0:0:0:0:
64,192,40480,1,0,0:0:0:70:punchy snare.wav
192,192,40480,1,0,0:0:0:0:
320,192,40605,1,2,0:0:0:0:
192,192,40730,1,0,0:0:0:0:
448,192,40792,1,0,0:0:0:0:
64,192,40855,1,0,0:0:0:0:
192,192,40917,1,0,0:0:0:0:
320,192,40980,128,0,41105:0:0:0:0:
448,192,40980,1,2,0:0:0:0:
448,192,41230,1,2,0:0:0:0:
320,192,41230,128,0,41480:0:0:0:0:
64,192,41480,1,0,0:0:0:70:punchy snare.wav
192,192,41480,1,0,0:0:0:0:
320,192,41605,1,2,0:0:0:0:
448,192,41605,1,0,0:0:0:0:
64,192,41730,1,0,0:0:0:0:
448,192,41855,1,0,0:0:0:0:
320,192,41917,1,0,0:0:0:0:
64,192,41980,1,2,0:0:0:0:
192,192,41980,128,0,42105:0:0:0:0:
64,192,42230,1,2,0:0:0:0:
192,192,42230,128,0,42480:0:0:0:0:
448,192,42480,1,0,0:0:0:70:punchy snare.wav
320,192,42480,1,0,0:0:0:0:
64,192,42605,1,2,0:0:0:0:
192,192,42605,1,0,0:0:0:0:
448,192,42730,1,0,0:0:0:0:
192,192,42855,1,0,0:0:0:0:
448,192,42980,1,2,0:0:0:0:
320,192,42980,128,0,43105:0:0:0:0:
64,192,43230,1,2,0:0:0:0:
320,192,43230,128,0,43355:0:0:0:0:
192,192,43292,1,0,0:0:0:0:
448,192,43355,128,0,43480:0:0:0:0:
64,192,43480,1,0,0:0:0:70:punchy snare.wav
192,192,43480,1,0,0:0:0:0:
448,192,43605,1,2,0:0:0:0:
320,192,43605,1,0,0:0:0:0:
64,192,43730,128,0,43855:0:0:0:0:
448,192,43855,1,0,0:0:0:0:
192,192,43917,1,0,0:0:0:0:
320,192,43980,128,0,44105:0:0:0:0:
448,192,43980,1,2,0:0:0:0:
448,192,44230,1,2,0:0:0:0:
320,192,44230,128,0,44480:0:0:0:0:
64,192,44355,1,0,0:0:0:0:
448,192,44417,1,0,0:0:0:0:
64,192,44480,1,0,0:0:0:70:punchy snare.wav
192,192,44480,1,0,0:0:0:0:
320,192,44605,1,2,0:0:0:0:
448,192,44646,1,0,0:0:0:0:
320,192,44813,1,0,0:0:0:0:
192,192,44980,128,0,45105:0:0:0:0:
64,192,44980,1,2,0:0:0:0:
64,192,45230,1,2,0:0:0:0:
192,192,45230,128,0,45480:0:0:0:0:
448,192,45480,1,0,0:0:0:70:punchy snare.wav
320,192,45480,1,0,0:0:0:0:
64,192,45605,1,2,0:0:0:0:
192,192,45605,1,0,0:0:0:0:
320,192,45730,1,0,0:0:0:0:
64,192,45855,1,0,0:0:0:0:
192,192,45917,1,0,0:0:0:0:
320,192,45980,128,0,46105:0:0:0:0:
448,192,45980,1,2,0:0:0:0:
448,192,46230,1,2,0:0:0:0:
320,192,46230,128,0,46480:0:0:0:0:
64,192,46480,1,0,0:0:0:70:punchy snare.wav
192,192,46480,1,0,0:0:0:0:
448,192,46605,1,2,0:0:0:0:
320,192,46605,1,0,0:0:0:0:
64,192,46730,1,0,0:0:0:0:
192,192,46855,1,0,0:0:0:0:
320,192,46917,1,0,0:0:0:0:
448,192,46980,128,0,47105:0:0:0:0:
64,192,46980,1,2,0:0:0:0:
448,192,47230,128,0,47480:0:0:0:0:
320,192,47230,1,2,0:0:0:0:
64,192,47292,1,0,0:0:0:0:
192,192,47355,1,0,0:0:0:0:
320,192,47417,1,0,0:0:0:0:
64,192,47480,1,0,0:0:0:70:punchy snare.wav
192,192,47480,1,0,0:0:0:0:
320,192,47605,1,0,0:0:0:0:
448,192,47605,1,2,0:0:0:0:
192,192,47730,1,0,0:0:0:0:
64,192,47855,1,0,0:0:0:0:
320,192,47917,1,0,0:0:0:0:
192,192,47980,1,2,0:0:0:0:
448,192,47980,128,0,48105:0:0:0:0:
64,192,48230,1,2,0:0:0:0:
448,192,48230,128,0,48480:0:0:0:0:
192,192,48355,1,0,0:0:0:0:
320,192,48417,1,0,0:0:0:0:
64,192,48480,1,0,0:0:0:70:punchy snare.wav
192,192,48480,1,0,0:0:0:0:
320,192,48605,1,2,0:0:0:0:
448,192,48667,1,0,0:0:0:0:
192,192,48730,1,0,0:0:0:0:
64,192,48855,1,0,0:0:0:0:
320,192,48980,128,0,49313:0:0:0:0:
320,192,49396,1,0,0:0:0:0:
448,192,49438,1,0,0:0:0:0:
320,192,50730,1,0,0:0:0:0:
192,192,50980,128,0,51480:0:0:0:0:
192,192,51980,1,0,0:0:0:0:
64,192,51980,1,8,0:0:0:0:
448,192,52230,1,8,0:0:0:0:
320,192,52230,1,0,0:0:0:0:
192,192,52480,1,0,0:0:0:0:
64,192,52480,1,8,0:0:0:0:
320,192,52730,1,0,0:0:0:0:
448,192,52730,1,8,0:0:0:0:
192,192,52855,1,0,0:0:0:0:
64,192,52855,1,8,0:0:0:0:
320,192,52980,128,0,53480:0:0:0:0:
448,192,52980,1,2,0:0:0:0:
192,192,53230,1,2,0:0:0:0:
192,192,53355,1,2,0:0:0:0:
64,192,53480,1,0,0:0:0:0:
448,192,53480,1,8,0:0:0:0:
192,192,53730,1,2,0:0:0:0:
192,192,53855,1,2,0:0:0:0:
448,192,53980,1,0,0:0:0:0:
192,192,54230,1,2,0:0:0:0:
192,192,54355,1,2,0:0:0:0:
448,192,54480,1,8,0:0:0:0:
320,192,54480,1,0,0:0:0:0:
64,192,54605,1,0,0:0:0:0:
448,192,54730,1,2,0:0:0:0:
320,192,54730,128,0,54980:0:0:0:0:
64,192,54980,1,2,0:0:0:0:
192,192,54980,128,0,55230:0:0:0:0:
320,192,55230,1,2,0:0:0:0:
64,192,55230,128,0,55480:0:0:0:0:
320,192,55355,1,2,0:0:0:0:
448,192,55480,1,8,0:0:0:0:
192,192,55480,1,0,0:0:0:0:
64,192,55730,1,2,0:0:0:0:
64,192,55855,1,2,0:0:0:0:
320,192,55980,1,0,0:0:0:0:
64,192,56230,1,2,0:0:0:0:
64,192,56355,1,2,0:0:0:0:
448,192,56480,1,8,0:0:0:0:
320,192,56480,1,0,0:0:0:0:
192,192,56730,1,0,0:0:0:0:
64,192,56730,1,2,0:0:0:0:
64,192,56980,1,2,0:0:0:0:
448,192,56980,128,0,57230:0:0:0:0:
320,192,57230,1,2,0:0:0:0:
192,192,57230,128,0,57480:0:0:0:0:
320,192,57355,1,2,0:0:0:0:
64,192,57480,1,0,0:0:0:0:
448,192,57480,1,8,0:0:0:0:
192,192,57730,1,2,0:0:0:0:
192,192,57855,1,2,0:0:0:0:
448,192,57980,1,0,0:0:0:0:
192,192,58230,1,2,0:0:0:0:
192,192,58355,1,2,0:0:0:0:
320,192,58480,1,0,0:0:0:0:
448,192,58480,1,8,0:0:0:0:
64,192,58605,1,0,0:0:0:0:
320,192,58730,128,0,58980:0:0:0:0:
448,192,58730,1,2,0:0:0:0:
448,192,58980,1,2,0:0:0:0:
192,192,58980,128,0,59230:0:0:0:0:
320,192,59230,1,2,0:0:0:0:
64,192,59230,128,0,59480:0:0:0:0:
320,192,59355,1,2,0:0:0:0:
448,192,59480,1,0,0:0:0:70:Slapachair_Edit.wav
192,192,59730,1,2,0:0:0:0:
192,192,59855,1,2,0:0:0:0:
320,192,59980,1,0,0:0:0:0:
448,192,59980,1,2,0:0:0:0:
64,192,60230,1,2,0:0:0:0:
64,192,60355,1,2,0:0:0:0:
320,192,60480,1,0,0:0:0:0:
448,192,60480,1,8,0:0:0:0:
64,192,60730,1,2,0:0:0:0:
192,192,60730,1,0,0:0:0:0:
448,192,60980,1,2,0:0:0:0:
320,192,60980,128,0,61480:0:0:0:0:
192,192,61230,1,2,0:0:0:0:
192,192,61355,1,2,0:0:0:0:
448,192,61480,1,8,0:0:0:0:
64,192,61480,1,0,0:0:0:0:
192,192,61730,1,2,0:0:0:0:
192,192,61855,1,2,0:0:0:0:
448,192,61980,1,0,0:0:0:0:
192,192,62230,1,2,0:0:0:0:
192,192,62355,1,2,0:0:0:0:
320,192,62480,1,0,0:0:0:0:
448,192,62480,1,8,0:0:0:0:
64,192,62605,1,0,0:0:0:0:
448,192,62730,1,2,0:0:0:0:
320,192,62730,128,0,62980:0:0:0:0:
192,192,62980,128,0,63230:0:0:0:0:
64,192,62980,1,0,0:0:0:0:
320,192,63230,128,0,63980:0:0:0:70:LR_Kick Beat 2.wav
192,192,63980,128,0,64480:0:0:0:70:LR_Kick Beat 2.wav
64,192,64480,1,0,0:0:0:0:
192,192,64605,1,0,0:0:0:0:
448,192,64980,1,0,0:0:0:70:LR_Kick Beat 2.wav
320,192,64980,1,0,0:0:0:0:
448,192,65105,1,0,0:0:0:0:
64,192,65230,1,0,0:0:0:0:
192,192,65355,1,0,0:0:0:0:
320,192,65480,1,0,0:0:0:0:
320,192,65605,1,0,0:0:0:0:
320,192,65855,1,0,0:0:0:0:
64,192,65980,128,0,66271:0:0:0:0:
192,192,66480,1,0,0:0:0:0:
192,192,66605,1,0,0:0:0:0:
320,192,66980,1,0,0:0:0:0:
448,192,66980,1,0,0:0:0:70:LR_Kick Beat 2.wav
448,192,67105,1,0,0:0:0:0:
64,192,67230,1,0,0:0:0:0:
192,192,67355,1,0,0:0:0:0:
320,192,67480,1,0,0:0:0:0:
320,192,67605,1,0,0:0:0:0:
320,192,67855,1,0,0:0:0:0:
64,192,67980,128,0,68271:0:0:0:0:
192,192,68480,1,0,0:0:0:70:LR_Kick Beat 2.wav
192,192,68605,1,0,0:0:0:0:
320,192,68730,128,0,68980:0:0:0:0:
64,192,68980,1,0,0:0:0:70:LR_Kick Beat 2.wav
448,192,68980,1,0,0:0:0:0:
64,192,69105,1,0,0:0:0:0:
448,192,69230,1,0,0:0:0:0:
320,192,69355,1,0,0:0:0:0:
192,192,69480,1,0,0:0:0:0:
192,192,69605,1,0,0:0:0:0:
192,192,69855,1,0,0:0:0:0:
448,192,69980,128,0,70396:0:0:0:0:
320,192,70480,1,0,0:0:0:0:
320,192,70605,1,0,0:0:0:0:
64,192,70980,1,0,0:0:0:70:LR_Kick Beat 2.wav
448,192,70980,1,0,0:0:0:0:
64,192,71105,1,0,0:0:0:0:
448,192,71230,1,0,0:0:0:0:
320,192,71355,1,0,0:0:0:0:
192,192,71480,1,0,0:0:0:0:
192,192,71605,1,0,0:0:0:0:
192,192,71855,1,0,0:0:0:0:
448,192,71980,128,0,72230:0:0:0:0:
320,192,72230,128,0,72355:0:0:0:0:
448,192,72355,1,0,0:0:0:0:
192,192,72480,1,0,0:0:0:0:
64,192,72480,1,0,0:0:0:70:LR_Kick Beat 2.wav
192,192,72605,1,0,0:0:0:0:
448,192,72980,1,0,0:0:0:70:LR_Kick Beat 2.wav
192,192,72980,128,0,73980:0:0:0:0:
448,192,73105,1,0,0:0:0:0:
64,192,73230,1,0,0:0:0:0:
448,192,73355,1,0,0:0:0:0:
320,192,73480,1,0,0:0:0:0:
320,192,73605,1,0,0:0:0:0:
320,192,73855,1,0,0:0:0:0:
64,192,73980,128,0,74271:0:0:0:0:
448,192,73980,128,0,74313:0:0:0:0:
192,192,74480,1,0,0:0:0:70:LR_Kick Beat 2.wav
192,192,74605,1,0,0:0:0:0:
64,192,74730,1,0,0:0:0:0:
320,192,74980,128,0,75980:0:0:0:70:LR_Kick Beat 2.wav
448,192,74980,1,0,0:0:0:0:
448,192,75105,1,0,0:0:0:0:
64,192,75230,1,0,0:0:0:0:
448,192,75355,1,0,0:0:0:0:
192,192,75480,1,0,0:0:0:0:
192,192,75605,1,0,0:0:0:0:
192,192,75855,1,0,0:0:0:0:
64,192,75980,128,0,76271:0:0:0:0:
448,192,75980,128,0,76355:0:0:0:0:
192,192,76480,1,0,0:0:0:70:LR_Kick Beat 2.wav
192,192,76605,1,0,0:0:0:0:
320,192,76730,128,0,76980:0:0:0:0:
192,192,76980,128,0,77980:0:0:0:70:LR_Kick Beat 2.wav
64,192,76980,1,0,0:0:0:0:
64,192,77105,1,0,0:0:0:0:
448,192,77230,1,0,0:0:0:0:
64,192,77355,1,0,0:0:0:0:
320,192,77480,1,0,0:0:0:0:
320,192,77605,1,0,0:0:0:0:
320,192,77855,1,0,0:0:0:0:
448,192,77980,128,0,78396:0:0:0:0:
320,192,77980,1,0,0:0:0:70:LR_Kick Beat 2.wav
64,192,78021,128,0,78313:0:0:0:0:
320,192,78480,1,0,0:0:0:0:
320,192,78605,1,0,0:0:0:0:
320,192,78980,128,0,79480:0:0:0:0:
64,192,78980,1,0,0:0:0:70:LR_Kick Beat 2.wav
64,192,79105,1,0,0:0:0:0:
448,192,79230,1,0,0:0:0:0:
64,192,79355,1,0,0:0:0:0:
192,192,79480,1,0,0:0:0:0:
192,192,79605,1,0,0:0:0:0:
448,192,79646,1,0,0:0:0:0:
64,192,79771,1,0,0:0:0:0:
320,192,79880,1,0,0:0:0:0:
448,192,79980,128,0,80355:0:0:0:0:
64,192,79980,128,0,80355:0:0:0:0:
320,192,80355,1,0,0:0:0:0:
192,192,80480,1,0,0:0:0:0:
448,192,80480,128,0,80855:0:0:0:0:
192,192,80605,1,0,0:0:0:0:
64,192,80980,1,0,0:0:0:0:
448,192,80980,1,0,0:0:0:0:
192,192,81105,1,0,0:0:0:0:
448,192,81230,1,0,0:0:0:0:
320,192,81386,128,0,81646:0:0:0:0:
448,192,81646,1,0,0:0:0:0:
320,192,81761,1,0,0:0:0:0:
192,192,81886,1,0,0:0:0:0:
320,192,81980,1,0,0:0:0:0:
448,192,82021,1,0,0:0:0:0:
192,192,82230,1,0,0:0:0:0:
64,192,82355,1,0,0:0:0:0:
320,192,82605,1,0,0:0:0:0:
64,192,82730,1,0,0:0:0:0:
192,192,82855,1,0,0:0:0:0:
320,192,82980,1,0,0:0:0:0:
192,192,83261,1,0,0:0:0:0:
320,192,83386,1,0,0:0:0:0:
320,192,83646,1,0,0:0:0:0:
192,192,83771,1,0,0:0:0:0:
64,192,83896,1,0,0:0:0:0:
320,192,84021,1,0,0:0:0:0:
448,192,84146,1,0,0:0:0:0:
320,192,84271,1,0,0:0:0:0:
192,192,84480,1,0,0:0:0:0:
64,192,84605,1,0,0:0:0:0:
448,192,84730,128,0,84980:0:0:0:0:
320,192,84980,128,0,85396:0:0:0:0:
64,192,84980,1,2,0:0:0:0:
192,192,85396,1,0,0:0:0:0:
448,192,85521,1,0,0:0:0:0:
320,192,85771,1,0,0:0:0:0:
192,192,85896,1,0,0:0:0:0:
448,192,85980,1,2,0:0:0:0:
64,192,85980,128,0,86480:0:0:0:0:
192,192,86480,128,0,86917:0:0:0:0:
64,192,86917,1,0,0:0:0:0:
320,192,86980,128,0,87480:0:0:0:0:
448,192,86980,1,2,0:0:0:0:
320,192,87636,1,0,0:0:0:0:
192,192,87761,1,0,0:0:0:0:
64,192,87886,1,0,0:0:0:0:
320,192,87980,128,0,88480:0:0:0:0:
448,192,87980,1,2,0:0:0:0:
320,192,88636,1,0,0:0:0:0:
192,192,88761,1,0,0:0:0:0:
64,192,88886,1,0,0:0:0:0:
192,192,88980,128,0,89605:0:0:0:0:
448,192,88980,1,2,0:0:0:0:
64,192,89230,1,0,0:0:0:0:
320,192,89355,1,0,0:0:0:0:
320,192,89605,1,0,0:0:0:0:
192,192,89730,1,0,0:0:0:0:
64,192,89855,1,0,0:0:0:0:
320,192,89980,128,0,90605:0:0:0:0:
448,192,89980,1,0,0:0:0:70:Slapachair_Edit.wav
64,192,90230,1,0,0:0:0:0:
192,192,90355,1,0,0:0:0:0:
192,192,90605,1,0,0:0:0:0:
320,192,90730,1,0,0:0:0:0:
64,192,90855,1,0,0:0:0:0:
448,192,90980,1,2,0:0:0:0:
320,192,90980,128,0,91730:0:0:0:0:
192,192,91230,1,0,0:0:0:0:
448,192,91355,1,0,0:0:0:0:
448,192,91605,1,0,0:0:0:0:
64,192,91730,1,0,0:0:0:0:
192,192,91855,1,0,0:0:0:0:
448,192,91980,1,0,0:0:0:70:Slapachair_Edit.wav
320,192,91980,128,0,92605:0:0:0:0:
448,192,92230,1,0,0:0:0:0:
192,192,92355,1,0,0:0:0:0:
448,192,92605,1,0,0:0:0:0:
64,192,92730,128,0,92980:0:0:0:0:
448,192,92980,1,2,0:0:0:0:
192,192,92980,128,0,93605:0:0:0:0:
64,192,93230,1,0,0:0:0:0:
320,192,93355,1,0,0:0:0:0:
320,192,93605,1,0,0:0:0:0:
64,192,93730,1,0,0:0:0:0:
192,192,93855,1,0,0:0:0:0:
448,192,93980,1,0,0:0:0:70:Slapachair_Edit.wav
320,192,93980,128,0,94605:0:0:0:0:
192,192,94230,1,0,0:0:0:0:
448,192,94355,1,0,0:0:0:0:
64,192,94605,1,0,0:0:0:0:
448,192,94667,1,0,0:0:0:0:
64,192,94730,1,0,0:0:0:0:
320,192,94980,1,2,0:0:0:0:
448,192,94980,128,0,95605:0:0:0:0:
64,192,95230,1,0,0:0:0:0:
320,192,95355,1,0,0:0:0:0:
320,192,95605,1,0,0:0:0:0:
64,192,95757,1,0,0:0:0:0:
448,192,95868,1,0,0:0:0:0:
192,192,95980,128,0,96355:0:0:0:0:
320,192,96105,1,0,0:0:0:0:
64,192,96355,1,0,0:0:0:0:
320,192,96480,128,0,96730:0:0:0:0:
192,192,96573,128,0,96855:0:0:0:0:
448,192,96980,128,0,97230:0:0:0:70:snare_wbass.wav
64,192,96980,128,0,97230:0:0:0:0:
320,192,96980,1,2,0:0:0:0:
192,192,97105,128,0,97355:0:0:0:0:
448,192,97480,1,8,0:0:0:0:
320,192,97480,128,0,97730:0:0:0:0:
64,192,97480,1,2,0:0:0:0:
192,192,97605,128,0,97855:0:0:0:0:
448,192,97980,1,2,0:0:0:0:
64,192,97980,128,0,98230:0:0:0:0:
320,192,97980,128,0,98105:0:0:0:0:
448,192,98230,1,0,0:0:0:0:
192,192,98355,1,0,0:0:0:0:
64,192,98480,1,2,0:0:0:0:
320,192,98480,128,0,98730:0:0:0:0:
448,192,98480,1,8,0:0:0:0:
192,192,98605,128,0,98855:0:0:0:0:
64,192,98980,128,0,99230:0:0:0:0:
448,192,98980,128,0,99230:0:0:0:0:
320,192,98980,1,2,0:0:0:0:
192,192,99105,128,0,99355:0:0:0:0:
320,192,99480,128,0,99730:0:0:0:0:
448,192,99480,1,8,0:0:0:0:
64,192,99480,1,2,0:0:0:0:
192,192,99605,128,0,99855:0:0:0:0:
320,192,99980,128,0,100105:0:0:0:0:
64,192,99980,128,0,100230:0:0:0:0:
448,192,99980,1,2,0:0:0:0:
448,192,100230,1,0,0:0:0:0:
192,192,100355,1,0,0:0:0:0:
320,192,100480,128,0,100730:0:0:0:0:
64,192,100480,1,2,0:0:0:0:
448,192,100480,1,8,0:0:0:0:
192,192,100605,128,0,100855:0:0:0:0:
64,192,100980,128,0,101230:0:0:0:70:snare_wbass.wav
448,192,100980,128,0,101230:0:0:0:0:
192,192,100980,1,2,0:0:0:0:
320,192,101105,128,0,101355:0:0:0:0:
64,192,101480,1,2,0:0:0:0:
192,192,101480,128,0,101730:0:0:0:0:
448,192,101480,1,8,0:0:0:0:
320,192,101605,128,0,101855:0:0:0:0:
192,192,101980,1,2,0:0:0:0:
64,192,101980,128,0,102230:0:0:0:0:
448,192,102042,128,0,102355:0:0:0:0:
192,192,102230,1,0,0:0:0:0:
320,192,102355,1,0,0:0:0:0:
192,192,102480,128,0,102730:0:0:0:0:
64,192,102480,1,2,0:0:0:0:
448,192,102480,1,8,0:0:0:0:
320,192,102605,128,0,102855:0:0:0:0:
192,192,102980,1,2,0:0:0:0:
448,192,102980,128,0,103230:0:0:0:0:
64,192,102980,128,0,103230:0:0:0:0:
320,192,103105,128,0,103355:0:0:0:0:
64,192,103355,1,8,0:0:0:0:
192,192,103480,128,0,103730:0:0:0:0:
64,192,103480,1,2,0:0:0:0:
448,192,103480,1,8,0:0:0:0:
320,192,103605,128,0,103855:0:0:0:0:
64,192,103980,128,0,104105:0:0:0:0:
192,192,103980,1,2,0:0:0:0:
448,192,104042,128,0,104230:0:0:0:0:
192,192,104230,1,0,0:0:0:0:
448,192,104355,1,0,0:0:0:0:
320,192,104355,1,8,0:0:0:0:
64,192,104480,1,2,0:0:0:0:
448,192,104480,1,8,0:0:0:0:
192,192,104480,1,0,0:0:0:0:
192,192,104605,1,0,0:0:0:0:
320,192,104730,1,8,0:0:0:0:
320,192,104855,1,8,0:0:0:0:
448,192,104980,128,0,105230:0:0:0:70:snare_wbass.wav
64,192,104980,128,0,105230:0:0:0:0:
320,192,104980,1,2,0:0:0:0:
192,192,105105,128,0,105355:0:0:0:0:
448,192,105480,1,8,0:0:0:0:
320,192,105480,128,0,105730:0:0:0:0:
64,192,105480,1,2,0:0:0:0:
192,192,105605,128,0,105855:0:0:0:0:
448,192,105980,1,2,0:0:0:0:
64,192,105980,128,0,106230:0:0:0:0:
320,192,105980,128,0,106105:0:0:0:0:
448,192,106230,1,0,0:0:0:0:
192,192,106355,1,0,0:0:0:0:
64,192,106480,1,2,0:0:0:0:
320,192,106480,128,0,106730:0:0:0:0:
448,192,106480,1,8,0:0:0:0:
192,192,106605,128,0,106855:0:0:0:0:
64,192,106980,128,0,107230:0:0:0:0:
448,192,106980,128,0,107230:0:0:0:0:
320,192,106980,1,2,0:0:0:0:
192,192,107105,128,0,107355:0:0:0:0:
320,192,107480,128,0,107730:0:0:0:0:
448,192,107480,1,8,0:0:0:0:
64,192,107480,1,2,0:0:0:0:
192,192,107605,128,0,107855:0:0:0:0:
320,192,107980,128,0,108105:0:0:0:0:
64,192,107980,128,0,108230:0:0:0:0:
448,192,107980,1,2,0:0:0:0:
448,192,108230,1,0,0:0:0:0:
192,192,108355,1,0,0:0:0:0:
320,192,108480,128,0,108730:0:0:0:0:
64,192,108480,1,2,0:0:0:0:
448,192,108480,1,8,0:0:0:0:
192,192,108605,128,0,108855:0:0:0:0:
64,192,108980,128,0,109230:0:0:0:70:snare_wbass.wav
448,192,108980,128,0,109230:0:0:0:0:
192,192,108980,1,2,0:0:0:0:
320,192,109105,128,0,109355:0:0:0:0:
64,192,109480,1,2,0:0:0:0:
192,192,109480,128,0,109730:0:0:0:0:
448,192,109480,1,8,0:0:0:0:
320,192,109605,128,0,109855:0:0:0:0:
192,192,109980,1,2,0:0:0:0:
64,192,109980,128,0,110230:0:0:0:0:
448,192,110042,128,0,110355:0:0:0:0:
192,192,110230,1,0,0:0:0:0:
320,192,110355,1,0,0:0:0:0:
192,192,110480,128,0,110730:0:0:0:0:
64,192,110480,1,2,0:0:0:0:
448,192,110480,1,8,0:0:0:0:
320,192,110605,128,0,110855:0:0:0:0:
192,192,110980,1,2,0:0:0:0:
448,192,110980,128,0,111230:0:0:0:0:
64,192,110980,128,0,111230:0:0:0:0:
320,192,111105,128,0,111355:0:0:0:0:
64,192,111355,1,8,0:0:0:0:
192,192,111480,128,0,111730:0:0:0:0:
64,192,111480,1,2,0:0:0:0:
448,192,111480,1,8,0:0:0:0:
320,192,111605,128,0,111855:0:0:0:0:
64,192,111980,128,0,112105:0:0:0:0:
192,192,111980,1,2,0:0:0:0:
448,192,112042,128,0,112230:0:0:0:0:
192,192,112230,1,0,0:0:0:0:
448,192,112355,1,0,0:0:0:0:
320,192,112355,1,8,0:0:0:0:
64,192,112480,1,2,0:0:0:0:
448,192,112480,1,8,0:0:0:0:
192,192,112480,1,0,0:0:0:0:
192,192,112605,1,0,0:0:0:0:
320,192,112730,1,8,0:0:0:0:
320,192,112855,1,8,0:0:0:0:
64,192,112980,1,2,0:0:0:0:
448,192,112980,1,0,0:0:0:0:
320,192,113105,1,0,0:0:0:0:
192,192,113230,1,0,0:0:0:0:
448,192,113355,1,0,0:0:0:0:
320,192,113480,1,0,0:0:0:70:punchy snare.wav
192,192,113480,1,8,0:0:0:0:
64,192,113480,1,2,0:0:0:0:
448,192,113605,1,0,0:0:0:0:
64,192,113730,1,0,0:0:0:0:
448,192,113855,1,0,0:0:0:0:
64,192,113980,1,2,0:0:0:0:
192,192,114021,1,0,0:0:0:0:
448,192,114146,1,0,0:0:0:0:
64,192,114230,1,0,0:0:0:0:
192,192,114355,1,0,0:0:0:0:
320,192,114480,1,8,0:0:0:0:
448,192,114480,1,0,0:0:0:70:punchy snare.wav
64,192,114480,1,2,0:0:0:0:
320,192,114605,1,0,0:0:0:0:
448,192,114646,1,0,0:0:0:0:
64,192,114730,1,0,0:0:0:0:
64,192,114855,1,0,0:0:0:0:
192,192,114980,1,0,0:0:0:0:
320,192,114980,1,2,0:0:0:0:
64,192,115105,1,0,0:0:0:0:
192,192,115230,1,0,0:0:0:0:
320,192,115355,1,0,0:0:0:0:
192,192,115480,1,8,0:0:0:0:
448,192,115480,1,0,0:0:0:70:punchy snare.wav
64,192,115480,1,2,0:0:0:0:
320,192,115605,1,0,0:0:0:0:
448,192,115646,1,0,0:0:0:0:
192,192,115730,1,0,0:0:0:0:
64,192,115855,1,0,0:0:0:0:
448,192,115980,1,0,0:0:0:0:
192,192,115980,1,2,0:0:0:0:
320,192,116105,1,0,0:0:0:0:
192,192,116230,1,0,0:0:0:0:
320,192,116355,1,0,0:0:0:0:
448,192,116480,1,0,0:0:0:70:punchy snare.wav
64,192,116480,1,2,0:0:0:0:
192,192,116480,1,8,0:0:0:0:
64,192,116605,1,0,0:0:0:0:
448,192,116646,1,0,0:0:0:0:
192,192,116730,1,0,0:0:0:0:
192,192,116855,1,0,0:0:0:0:
448,192,116980,1,0,0:0:0:0:
64,192,116980,1,2,0:0:0:0:
192,192,117105,1,0,0:0:0:0:
320,192,117257,1,0,0:0:0:0:
448,192,117355,1,0,0:0:0:0:
320,192,117480,1,0,0:0:0:70:punchy snare.wav
192,192,117480,1,8,0:0:0:0:
64,192,117480,1,2,0:0:0:0:
448,192,117605,1,0,0:0:0:0:
64,192,117636,1,0,0:0:0:0:
320,192,117730,1,0,0:0:0:0:
192,192,117855,1,0,0:0:0:0:
64,192,117980,1,2,0:0:0:0:
448,192,117980,1,0,0:0:0:0:
192,192,118105,1,0,0:0:0:0:
64,192,118230,1,0,0:0:0:0:
320,192,118355,1,0,0:0:0:0:
448,192,118480,1,0,0:0:0:70:punchy snare.wav
192,192,118480,1,8,0:0:0:0:
64,192,118480,1,2,0:0:0:0:
320,192,118605,1,0,0:0:0:0:
64,192,118646,1,0,0:0:0:0:
192,192,118730,1,0,0:0:0:0:
192,192,118855,1,0,0:0:0:0:
448,192,118980,1,0,0:0:0:0:
320,192,118980,1,2,0:0:0:0:
192,192,119105,1,0,0:0:0:0:
320,192,119230,1,0,0:0:0:0:
448,192,119271,1,0,0:0:0:0:
64,192,119355,1,8,0:0:0:0:
192,192,119355,1,0,0:0:0:0:
320,192,119480,1,0,0:0:0:70:punchy snare.wav
448,192,119480,1,8,0:0:0:0:
64,192,119480,1,2,0:0:0:0:
448,192,119605,1,0,0:0:0:0:
320,192,119730,1,0,0:0:0:0:
192,192,119855,1,0,0:0:0:0:
320,192,119980,1,0,0:0:0:0:
64,192,119980,1,2,0:0:0:0:
448,192,120105,1,0,0:0:0:0:
64,192,120230,1,0,0:0:0:0:
448,192,120355,1,0,0:0:0:0:
320,192,120355,1,8,0:0:0:0:
448,192,120480,1,0,0:0:0:70:punchy snare.wav
192,192,120480,1,8,0:0:0:0:
64,192,120480,1,2,0:0:0:0:
192,192,120605,1,0,0:0:0:0:
320,192,120730,1,8,0:0:0:0:
448,192,120730,1,0,0:0:0:0:
192,192,120855,1,8,0:0:0:0:
64,192,120855,1,0,0:0:0:0:
448,192,120980,1,0,0:0:0:0:
64,192,120980,1,2,0:0:0:0:
320,192,121105,1,0,0:0:0:0:
192,192,121230,1,0,0:0:0:0:
448,192,121355,1,0,0:0:0:0:
64,192,121480,1,2,0:0:0:0:
192,192,121480,1,8,0:0:0:0:
320,192,121480,1,0,0:0:0:70:punchy snare.wav
448,192,121605,1,0,0:0:0:0:
64,192,121730,1,0,0:0:0:0:
448,192,121855,1,0,0:0:0:0:
64,192,121980,1,2,0:0:0:0:
192,192,122021,1,0,0:0:0:0:
448,192,122146,1,0,0:0:0:0:
64,192,122230,1,0,0:0:0:0:
192,192,122355,1,0,0:0:0:0:
64,192,122480,1,2,0:0:0:0:
448,192,122480,1,0,0:0:0:70:punchy snare.wav
320,192,122480,1,8,0:0:0:0:
320,192,122605,1,0,0:0:0:0:
448,192,122646,1,0,0:0:0:0:
64,192,122730,1,0,0:0:0:0:
64,192,122855,1,0,0:0:0:0:
320,192,122980,1,2,0:0:0:0:
192,192,122980,1,0,0:0:0:0:
64,192,123105,1,0,0:0:0:0:
192,192,123230,1,0,0:0:0:0:
320,192,123355,1,0,0:0:0:0:
64,192,123480,1,2,0:0:0:0:
448,192,123480,1,0,0:0:0:70:punchy snare.wav
192,192,123480,1,8,0:0:0:0:
320,192,123605,1,0,0:0:0:0:
448,192,123646,1,0,0:0:0:0:
192,192,123730,1,0,0:0:0:0:
64,192,123855,1,0,0:0:0:0:
192,192,123980,1,2,0:0:0:0:
448,192,123980,1,0,0:0:0:0:
320,192,124105,1,0,0:0:0:0:
192,192,124230,1,0,0:0:0:0:
320,192,124355,1,0,0:0:0:0:
192,192,124480,1,8,0:0:0:0:
64,192,124480,1,2,0:0:0:0:
448,192,124480,1,0,0:0:0:70:punchy snare.wav
64,192,124605,1,0,0:0:0:0:
448,192,124646,1,0,0:0:0:0:
192,192,124730,1,0,0:0:0:0:
192,192,124855,1,0,0:0:0:0:
64,192,124980,1,2,0:0:0:0:
448,192,124980,1,0,0:0:0:0:
192,192,125105,1,0,0:0:0:0:
320,192,125257,1,0,0:0:0:0:
448,192,125355,1,0,0:0:0:0:
64,192,125480,1,2,0:0:0:0:
192,192,125480,1,8,0:0:0:0:
320,192,125480,1,0,0:0:0:70:punchy snare.wav
448,192,125605,1,0,0:0:0:0:
64,192,125636,1,0,0:0:0:0:
320,192,125730,1,0,0:0:0:0:
192,192,125855,1,0,0:0:0:0:
448,192,125980,1,0,0:0:0:0:
64,192,125980,1,2,0:0:0:0:
192,192,126105,1,0,0:0:0:0:
64,192,126230,1,0,0:0:0:0:
320,192,126355,1,0,0:0:0:0:
64,192,126480,1,2,0:0:0:0:
192,192,126480,1,8,0:0:0:0:
448,192,126480,1,0,0:0:0:70:punchy snare.wav
448,192,126605,1,0,0:0:0:0:
64,192,126646,1,0,0:0:0:0:
192,192,126730,1,0,0:0:0:0:
192,192,126855,1,0,0:0:0:0:
64,192,126980,1,2,0:0:0:0:
320,192,126980,1,0,0:0:0:0:
448,192,127230,128,0,127355:0:0:0:0:
64,192,127355,1,8,0:0:0:0:
192,192,127355,1,0,0:0:0:0:
320,192,127480,1,0,0:0:0:70:punchy snare.wav
448,192,127480,1,10,0:0:0:0:
448,192,127605,1,0,0:0:0:0:
320,192,127730,1,0,0:0:0:0:
192,192,127855,1,0,0:0:0:0:
64,192,127980,1,0,0:0:0:0:
192,192,128105,1,0,0:0:0:0:
320,192,128355,1,8,0:0:0:0:
448,192,128480,1,8,0:0:0:0:
64,192,128480,1,0,0:0:0:0:
320,192,128730,1,8,0:0:0:0:
320,192,128855,1,8,0:0:0:0:
64,192,128980,1,2,0:0:0:0:
448,192,128980,1,0,0:0:0:0:
320,192,129105,1,0,0:0:0:0:
192,192,129230,1,0,0:0:0:0:
64,192,129230,1,2,0:0:0:0:
448,192,129355,1,0,0:0:0:0:
64,192,129480,1,2,0:0:0:0:
192,192,129480,1,8,0:0:0:0:
320,192,129480,1,0,0:0:0:70:punchy snare.wav
64,192,129605,1,0,0:0:0:0:
192,192,129730,1,0,0:0:0:0:
448,192,129855,1,0,0:0:0:0:
64,192,129980,1,0,0:0:0:0:
320,192,129980,1,2,0:0:0:0:
448,192,130105,1,0,0:0:0:0:
64,192,130230,1,0,0:0:0:0:
192,192,130355,1,0,0:0:0:0:
64,192,130480,1,2,0:0:0:0:
448,192,130480,1,0,0:0:0:70:punchy snare.wav
320,192,130480,1,8,0:0:0:0:
448,192,130605,1,0,0:0:0:0:
64,192,130730,1,0,0:0:0:0:
448,192,130855,1,0,0:0:0:0:
320,192,130980,1,2,0:0:0:0:
192,192,130980,1,0,0:0:0:0:
64,192,131105,1,0,0:0:0:0:
192,192,131230,1,0,0:0:0:0:
448,192,131230,1,2,0:0:0:0:
320,192,131355,1,0,0:0:0:0:
64,192,131480,1,2,0:0:0:0:
448,192,131480,1,0,0:0:0:70:punchy snare.wav
192,192,131480,1,8,0:0:0:0:
448,192,131605,1,0,0:0:0:0:
320,192,131730,1,0,0:0:0:0:
192,192,131855,1,0,0:0:0:0:
64,192,131980,1,2,0:0:0:0:
448,192,131980,1,0,0:0:0:0:
320,192,132105,1,0,0:0:0:0:
192,192,132230,1,0,0:0:0:0:
320,192,132355,1,2,0:0:0:0:
64,192,132355,1,0,0:0:0:0:
192,192,132480,1,8,0:0:0:0:
64,192,132480,1,2,0:0:0:0:
448,192,132480,1,0,0:0:0:70:punchy snare.wav
448,192,132605,1,0,0:0:0:0:
192,192,132730,1,2,0:0:0:0:
64,192,132730,1,0,0:0:0:0:
320,192,132855,1,0,0:0:0:0:
64,192,132980,1,2,0:0:0:0:
448,192,132980,1,0,0:0:0:0:
192,192,133105,1,0,0:0:0:0:
320,192,133230,1,0,0:0:0:0:
64,192,133230,1,2,0:0:0:0:
448,192,133355,1,0,0:0:0:0:
64,192,133480,1,2,0:0:0:0:
192,192,133480,1,8,0:0:0:0:
320,192,133480,1,0,0:0:0:70:punchy snare.wav
448,192,133605,1,0,0:0:0:0:
320,192,133730,1,0,0:0:0:0:
192,192,133855,1,0,0:0:0:0:
448,192,133980,1,0,0:0:0:0:
64,192,133980,1,2,0:0:0:0:
320,192,134136,1,0,0:0:0:0:
192,192,134245,1,0,0:0:0:0:
320,192,134355,1,0,0:0:0:0:
64,192,134480,1,2,0:0:0:0:
192,192,134480,1,8,0:0:0:0:
448,192,134480,1,0,0:0:0:70:punchy snare.wav
64,192,134605,1,0,0:0:0:0:
320,192,134730,1,0,0:0:0:0:
320,192,134855,1,0,0:0:0:0:
192,192,134855,1,0,0:0:0:0:
64,192,134980,1,2,0:0:0:0:
448,192,134980,1,0,0:0:0:0:
192,192,135105,1,0,0:0:0:0:
448,192,135230,1,0,0:0:0:0:
320,192,135230,1,2,0:0:0:0:
192,192,135355,1,0,0:0:0:0:
64,192,135480,1,2,0:0:0:0:
448,192,135480,1,8,0:0:0:0:
320,192,135480,1,0,0:0:0:70:punchy snare.wav
448,192,135605,1,0,0:0:0:0:
192,192,135730,1,0,0:0:0:0:
320,192,135855,1,0,0:0:0:0:
64,192,135980,1,2,0:0:0:0:
448,192,135980,1,0,0:0:0:0:
320,192,136105,1,0,0:0:0:0:
64,192,136230,1,0,0:0:0:0:
192,192,136355,1,2,0:0:0:0:
320,192,136355,1,0,0:0:0:0:
448,192,136480,1,0,0:0:0:70:Slapachair_Edit.wav
64,192,136480,1,0,0:0:0:0:
320,192,136730,1,2,0:0:0:0:
192,192,136730,128,0,136980:0:0:0:0:
64,192,136980,1,2,0:0:0:0:
448,192,136980,1,0,0:0:0:70:snare_wbass.wav
192,192,137105,1,0,0:0:0:0:
64,192,137230,1,2,0:0:0:0:
448,192,137230,1,0,0:0:0:0:
320,192,137355,1,0,0:0:0:0:
192,192,137480,1,0,0:0:0:70:punchy snare.wav
64,192,137480,1,2,0:0:0:0:
448,192,137480,1,0,0:0:0:0:
320,192,137605,1,0,0:0:0:0:
64,192,137730,1,0,0:0:0:0:
192,192,137855,1,0,0:0:0:0:
64,192,137980,1,2,0:0:0:0:
320,192,137980,1,0,0:0:0:0:
192,192,138105,1,0,0:0:0:0:
448,192,138230,1,0,0:0:0:0:
320,192,138355,1,0,0:0:0:0:
192,192,138480,1,0,0:0:0:70:punchy snare.wav
64,192,138480,1,2,0:0:0:0:
448,192,138480,1,0,0:0:0:0:
320,192,138605,1,0,0:0:0:0:
192,192,138730,1,0,0:0:0:0:
64,192,138855,1,0,0:0:0:0:
448,192,138980,1,2,0:0:0:0:
320,192,138980,128,0,139230:0:0:0:0:
192,192,139105,1,0,0:0:0:0:
64,192,139230,1,2,0:0:0:0:
448,192,139230,1,0,0:0:0:0:
320,192,139355,1,0,0:0:0:0:
192,192,139480,1,0,0:0:0:0:
448,192,139480,1,0,0:0:0:70:punchy snare.wav
64,192,139480,1,2,0:0:0:0:
320,192,139605,1,0,0:0:0:0:
64,192,139730,1,0,0:0:0:0:
192,192,139855,1,0,0:0:0:0:
320,192,139917,1,0,0:0:0:0:
64,192,139980,1,2,0:0:0:0:
448,192,139980,128,0,140230:0:0:0:0:
192,192,140105,1,0,0:0:0:0:
320,192,140230,1,0,0:0:0:0:
64,192,140355,1,2,0:0:0:0:
448,192,140355,1,0,0:0:0:0:
320,192,140480,1,0,0:0:0:70:punchy snare.wav
192,192,140480,1,0,0:0:0:0:
64,192,140480,1,2,0:0:0:0:
448,192,140605,1,0,0:0:0:0:
64,192,140730,1,2,0:0:0:0:
320,192,140730,1,0,0:0:0:0:
192,192,140855,1,0,0:0:0:0:
64,192,140980,1,2,0:0:0:0:
320,192,140980,128,0,141355:0:0:0:0:
448,192,140980,1,0,0:0:0:70:snare_wbass.wav
192,192,141105,1,0,0:0:0:0:
448,192,141230,1,2,0:0:0:0:
192,192,141355,1,0,0:0:0:0:
320,192,141480,1,0,0:0:0:70:punchy snare.wav
64,192,141480,1,2,0:0:0:0:
448,192,141480,128,0,141605:0:0:0:0:
192,192,141605,1,0,0:0:0:0:
320,192,141730,1,0,0:0:0:0:
192,192,141855,1,0,0:0:0:0:
320,192,141980,1,2,0:0:0:0:
64,192,141980,128,0,142480:0:0:0:0:
448,192,142105,1,0,0:0:0:0:
192,192,142230,1,0,0:0:0:0:
320,192,142355,1,0,0:0:0:0:
448,192,142480,1,0,0:0:0:70:punchy snare.wav
192,192,142480,128,0,142917:0:0:0:0:
320,192,142480,1,2,0:0:0:0:
64,192,142605,1,0,0:0:0:0:
448,192,142730,1,0,0:0:0:0:
320,192,142855,1,0,0:0:0:0:
64,192,142917,1,0,0:0:0:0:
320,192,142980,128,0,143480:0:0:0:0:
448,192,142980,1,2,0:0:0:0:
64,192,143105,1,0,0:0:0:0:
192,192,143230,1,2,0:0:0:0:
64,192,143480,1,2,0:0:0:0:
448,192,143480,1,0,0:0:0:70:punchy snare.wav
192,192,143480,1,0,0:0:0:0:
320,192,143605,1,0,0:0:0:0:
192,192,143730,1,0,0:0:0:0:
64,192,143855,1,0,0:0:0:0:
320,192,143980,128,0,144480:0:0:0:0:
448,192,143980,1,2,0:0:0:0:
192,192,144105,1,0,0:0:0:0:
64,192,144230,1,0,0:0:0:0:
448,192,144355,1,0,0:0:0:0:
192,192,144480,1,0,0:0:0:70:punchy snare.wav
64,192,144480,1,2,0:0:0:0:
192,192,144605,1,0,0:0:0:0:
320,192,144730,1,0,0:0:0:0:
64,192,144855,1,0,0:0:0:0:
448,192,144980,1,0,0:0:0:0:
320,192,144980,1,2,0:0:0:0:
448,192,145105,1,0,0:0:0:0:
64,192,145230,1,2,0:0:0:0:
192,192,145230,1,0,0:0:0:0:
448,192,145355,1,0,0:0:0:0:
64,192,145480,1,2,0:0:0:0:
192,192,145480,1,0,0:0:0:70:punchy snare.wav
320,192,145480,1,0,0:0:0:0:
320,192,145605,1,0,0:0:0:0:
448,192,145730,1,0,0:0:0:0:
320,192,145855,1,0,0:0:0:0:
192,192,145980,1,2,0:0:0:0:
64,192,145980,128,0,146230:0:0:0:0:
448,192,146105,1,0,0:0:0:0:
320,192,146230,1,0,0:0:0:0:
448,192,146355,1,0,0:0:0:0:
64,192,146480,1,2,0:0:0:0:
320,192,146480,1,0,0:0:0:70:punchy snare.wav
192,192,146480,1,0,0:0:0:0:
192,192,146605,1,0,0:0:0:0:
448,192,146730,1,0,0:0:0:0:
64,192,146855,1,0,0:0:0:0:
448,192,146980,1,0,0:0:0:0:
320,192,146980,1,2,0:0:0:0:
448,192,147105,1,0,0:0:0:0:
64,192,147230,1,2,0:0:0:0:
192,192,147230,1,0,0:0:0:0:
448,192,147355,1,0,0:0:0:0:
64,192,147480,1,2,0:0:0:0:
192,192,147480,1,0,0:0:0:70:punchy snare.wav
320,192,147480,1,0,0:0:0:0:
320,192,147605,1,0,0:0:0:0:
448,192,147730,1,0,0:0:0:0:
320,192,147855,1,0,0:0:0:0:
192,192,147980,1,2,0:0:0:0:
64,192,147980,128,0,148230:0:0:0:0:
448,192,148105,1,0,0:0:0:0:
192,192,148230,1,0,0:0:0:0:
448,192,148355,1,2,0:0:0:0:
320,192,148355,1,0,0:0:0:0:
448,192,148480,1,0,0:0:0:70:punchy snare.wav
192,192,148480,1,0,0:0:0:0:
64,192,148480,1,2,0:0:0:0:
192,192,148605,1,0,0:0:0:0:
448,192,148730,1,0,0:0:0:0:
320,192,148730,1,2,0:0:0:0:
192,192,148855,1,0,0:0:0:0:
448,192,148980,1,0,0:0:0:0:
64,192,148980,1,2,0:0:0:0:
64,192,149105,1,0,0:0:0:0:
448,192,149230,1,2,0:0:0:0:
320,192,149230,1,0,0:0:0:0:
64,192,149355,1,0,0:0:0:0:
320,192,149480,1,2,0:0:0:0:
448,192,149480,1,0,0:0:0:70:punchy snare.wav
192,192,149480,1,0,0:0:0:0:
192,192,149605,1,0,0:0:0:0:
448,192,149730,1,0,0:0:0:0:
64,192,149855,1,0,0:0:0:0:
448,192,149980,128,0,150230:0:0:0:0:
320,192,149980,1,2,0:0:0:0:
64,192,150105,1,0,0:0:0:0:
192,192,150230,1,0,0:0:0:0:
448,192,150355,1,0,0:0:0:0:
64,192,150480,1,2,0:0:0:0:
192,192,150480,1,0,0:0:0:70:punchy snare.wav
320,192,150480,1,0,0:0:0:0:
320,192,150605,1,0,0:0:0:0:
448,192,150730,1,0,0:0:0:0:
192,192,150855,1,0,0:0:0:0:
448,192,150980,1,2,0:0:0:0:
64,192,150980,1,0,0:0:0:0:
64,192,151105,1,0,0:0:0:0:
448,192,151230,1,2,0:0:0:0:
320,192,151230,1,0,0:0:0:0:
64,192,151355,1,0,0:0:0:0:
320,192,151480,1,2,0:0:0:0:
448,192,151480,1,0,0:0:0:70:punchy snare.wav
192,192,151480,1,0,0:0:0:0:
192,192,151605,1,0,0:0:0:0:
448,192,151730,1,0,0:0:0:0:
64,192,151855,1,0,0:0:0:0:
320,192,151980,1,2,0:0:0:0:
448,192,151980,128,0,152230:0:0:0:0:
64,192,152105,1,0,0:0:0:0:
192,192,152230,1,0,0:0:0:0:
320,192,152355,1,2,0:0:0:0:
448,192,152355,1,0,0:0:0:0:
64,192,152480,1,0,0:0:0:0:
448,192,152480,1,0,0:0:0:70:Slapachair_Edit.wav
320,192,152605,1,0,0:0:0:0:
192,192,152730,1,0,0:0:0:0:
448,192,152792,1,0,0:0:0:0:
192,192,152855,1,0,0:0:0:70:Slapachair_Edit.wav
320,192,152980,1,2,0:0:0:0:
448,192,152980,1,0,0:0:0:0:
64,192,152980,1,0,0:0:0:70:snare_wbass.wav
448,192,153105,1,0,0:0:0:0:
192,192,153230,1,0,0:0:0:0:
64,192,153230,1,2,0:0:0:0:
448,192,153355,1,0,0:0:0:0:
320,192,153480,1,0,0:0:0:0:
192,192,153480,1,0,0:0:0:70:punchy snare.wav
64,192,153480,1,2,0:0:0:0:
320,192,153605,1,0,0:0:0:0:
448,192,153730,1,0,0:0:0:0:
320,192,153855,1,0,0:0:0:0:
64,192,153980,128,0,154230:0:0:0:0:
192,192,153980,1,2,0:0:0:0:
448,192,154105,1,0,0:0:0:0:
320,192,154230,1,0,0:0:0:0:
448,192,154355,1,0,0:0:0:0:
192,192,154480,1,0,0:0:0:0:
320,192,154480,1,0,0:0:0:70:punchy snare.wav
64,192,154480,1,2,0:0:0:0:
192,192,154605,1,0,0:0:0:0:
448,192,154730,1,0,0:0:0:0:
64,192,154855,1,0,0:0:0:0:
320,192,154980,1,2,0:0:0:0:
448,192,154980,1,0,0:0:0:0:
448,192,155105,1,0,0:0:0:0:
192,192,155230,1,0,0:0:0:0:
64,192,155230,1,2,0:0:0:0:
448,192,155355,1,0,0:0:0:0:
320,192,155480,1,0,0:0:0:0:
192,192,155480,1,0,0:0:0:70:punchy snare.wav
64,192,155480,1,2,0:0:0:0:
320,192,155605,1,0,0:0:0:0:
448,192,155730,1,0,0:0:0:0:
320,192,155855,1,0,0:0:0:0:
64,192,155980,128,0,156230:0:0:0:0:
192,192,155980,1,2,0:0:0:0:
448,192,156105,1,0,0:0:0:0:
192,192,156230,1,0,0:0:0:0:
320,192,156355,1,0,0:0:0:0:
448,192,156355,1,2,0:0:0:0:
64,192,156480,1,2,0:0:0:0:
192,192,156480,1,0,0:0:0:0:
448,192,156480,1,0,0:0:0:70:punchy snare.wav
192,192,156605,1,0,0:0:0:0:
320,192,156730,1,2,0:0:0:0:
448,192,156730,1,0,0:0:0:0:
192,192,156855,1,0,0:0:0:0:
64,192,156980,1,0,0:0:0:0:
448,192,156980,1,2,0:0:0:0:
320,192,156980,1,0,0:0:0:70:snare_wbass.wav
64,192,157105,1,0,0:0:0:0:
320,192,157230,1,0,0:0:0:0:
448,192,157230,1,2,0:0:0:0:
64,192,157355,1,0,0:0:0:0:
192,192,157480,1,0,0:0:0:0:
448,192,157480,1,0,0:0:0:70:punchy snare.wav
320,192,157480,1,2,0:0:0:0:
192,192,157605,1,0,0:0:0:0:
448,192,157730,1,0,0:0:0:0:
64,192,157855,1,0,0:0:0:0:
320,192,157980,1,2,0:0:0:0:
448,192,157980,128,0,158230:0:0:0:0:
64,192,158105,1,0,0:0:0:0:
192,192,158230,1,0,0:0:0:0:
448,192,158355,1,0,0:0:0:0:
320,192,158480,1,0,0:0:0:0:
192,192,158480,1,0,0:0:0:70:punchy snare.wav
64,192,158480,1,2,0:0:0:0:
320,192,158605,1,0,0:0:0:0:
448,192,158730,1,0,0:0:0:0:
192,192,158855,1,0,0:0:0:0:
64,192,158980,1,0,0:0:0:0:
448,192,158980,1,2,0:0:0:0:
64,192,159105,1,0,0:0:0:0:
320,192,159230,1,0,0:0:0:0:
448,192,159230,1,2,0:0:0:0:
64,192,159355,1,0,0:0:0:0:
192,192,159480,1,0,0:0:0:0:
448,192,159480,1,0,0:0:0:70:punchy snare.wav
320,192,159480,1,2,0:0:0:0:
192,192,159605,1,0,0:0:0:0:
448,192,159730,1,0,0:0:0:0:
320,192,159855,1,0,0:0:0:0:
64,192,159980,1,2,0:0:0:0:
192,192,159980,128,0,160105:0:0:0:0:
448,192,160105,1,0,0:0:0:0:
64,192,160230,1,0,0:0:0:0:
192,192,160355,1,0,0:0:0:0:
64,192,160480,1,2,0:0:0:0:
448,192,160480,1,0,0:0:0:0:
320,192,160480,1,0,0:0:0:70:punchy snare.wav
192,192,160605,1,0,0:0:0:0:
320,192,160771,128,0,161730:0:0:0:0:
