osu file format v14

[General]
AudioFilename: audio.mp3
AudioLeadIn: 0
PreviewTime: -1
Countdown: 1
SampleSet: None
StackLeniency: 0.7
Mode: 3
LetterboxInBreaks: 0
SpecialStyle: 0
WidescreenStoryboard: 1

[Editor]
Bookmarks: 93451
DistanceSpacing: 0.9
BeatDivisor: 8
GridSize: 4
TimelineZoom: 1

[Metadata]
Title:Cave Story
TitleUnicode:Cave Story
Artist:tumult
ArtistUnicode:tumult
Creator:NatsuEDM
Version:Hard
Source:Cave Story
Tags:cave story, game, video game, NatsuEDM
BeatmapID:1510893
BeatmapSetID:714559

[Difficulty]
HPDrainRate:5
CircleSize:5
OverallDifficulty:5
ApproachRate:5
SliderMultiplier:1.4
SliderTickRate:1

[Events]
//Background and Video events
0,0,"maxresdefault.jpg",0,0
//Break Periods
//Storyboard Layer 0 (Background)
//Storyboard Layer 1 (Fail)
//Storyboard Layer 2 (Pass)
//Storyboard Layer 3 (Foreground)
//Storyboard Sound Samples

[TimingPoints]
0,530.973451327434,4,1,0,100,1,0

[HitObjects]
358,192,0,5,0,0:0:0:0:
460,192,265,1,0,0:0:0:0:
358,192,530,1,0,0:0:0:0:
460,192,796,1,0,0:0:0:0:
256,192,1061,1,0,0:0:0:0:
460,192,1327,1,0,0:0:0:0:
256,192,1592,1,0,0:0:0:0:
460,192,1858,1,0,0:0:0:0:
153,192,2123,1,0,0:0:0:0:
460,192,2389,1,0,0:0:0:0:
153,192,2654,1,0,0:0:0:0:
460,192,2920,1,0,0:0:0:0:
51,192,3185,1,0,0:0:0:0:
460,192,3451,1,0,0:0:0:0:
51,192,3716,1,0,0:0:0:0:
460,192,3716,1,0,0:0:0:0:
153,192,3982,1,0,0:0:0:0:
460,192,3982,1,0,0:0:0:0:
256,192,4181,1,0,0:0:0:0:
460,192,4181,1,0,0:0:0:0:
358,192,4247,1,0,0:0:0:0:
460,192,4247,1,0,0:0:0:0:
460,192,4513,1,0,0:0:0:0:
358,192,4778,1,0,0:0:0:0:
51,192,4778,1,0,0:0:0:0:
460,192,5044,1,0,0:0:0:0:
256,192,5309,1,0,0:0:0:0:
460,192,5575,1,0,0:0:0:0:
153,192,5575,1,0,0:0:0:0:
51,192,5575,1,0,0:0:0:0:
256,192,5840,1,0,0:0:0:0:
51,192,5840,1,0,0:0:0:0:
460,192,6106,1,0,0:0:0:0:
153,192,6371,1,0,0:0:0:0:
51,192,6371,1,0,0:0:0:0:
460,192,6637,1,0,0:0:0:0:
153,192,6902,1,0,0:0:0:0:
460,192,7168,1,0,0:0:0:0:
51,192,7168,1,0,0:0:0:0:
460,192,7433,1,0,0:0:0:0:
358,192,7433,128,0,7699:0:0:0:0:
256,192,7699,1,0,0:0:0:0:
153,192,7699,128,0,7964:0:0:0:0:
51,192,7964,128,0,8163:0:0:0:0:
153,192,7964,128,0,8163:0:0:0:0:
51,192,8495,128,0,8628:0:0:0:0:
256,192,8495,128,0,8628:0:0:0:0:
153,192,8761,1,0,0:0:0:0:
358,192,8761,1,0,0:0:0:0:
358,192,8960,1,0,0:0:0:0:
256,192,9026,1,0,0:0:0:0:
460,192,9026,1,0,0:0:0:0:
358,192,9092,1,0,0:0:0:0:
460,192,9292,1,0,0:0:0:0:
256,192,9292,1,0,0:0:0:0:
358,192,9358,1,0,0:0:0:0:
256,192,9557,1,0,0:0:0:0:
51,192,9557,1,0,0:0:0:0:
153,192,9623,128,0,9756:0:0:0:0:
256,192,9823,1,0,0:0:0:0:
153,192,10088,1,0,0:0:0:0:
358,192,10088,1,0,0:0:0:0:
460,192,10154,1,0,0:0:0:0:
460,192,10287,1,0,0:0:0:0:
358,192,10353,1,0,0:0:0:0:
153,192,10353,1,0,0:0:0:0:
256,192,10619,1,0,0:0:0:0:
51,192,10619,1,0,0:0:0:0:
153,192,10685,1,0,0:0:0:0:
51,192,10884,128,0,11084:0:0:0:0:
153,192,10884,1,0,0:0:0:0:
358,192,11150,1,0,0:0:0:0:
153,192,11150,1,0,0:0:0:0:
256,192,11216,1,0,0:0:0:0:
358,192,11415,1,0,0:0:0:0:
51,192,11415,1,0,0:0:0:0:
256,192,11482,1,0,0:0:0:0:
153,192,11681,1,0,0:0:0:0:
256,192,11681,1,0,0:0:0:0:
358,192,11747,1,0,0:0:0:0:
153,192,11946,128,0,12146:0:0:0:0:
358,192,11946,1,0,0:0:0:0:
460,192,12212,1,0,0:0:0:0:
256,192,12212,1,0,0:0:0:0:
358,192,12278,1,0,0:0:0:0:
460,192,12477,1,0,0:0:0:0:
358,192,12544,1,0,0:0:0:0:
51,192,12743,128,0,12876:0:0:0:0:
256,192,12743,128,0,12876:0:0:0:0:
153,192,13008,1,0,0:0:0:0:
358,192,13008,1,0,0:0:0:0:
358,192,13207,1,0,0:0:0:0:
256,192,13274,1,0,0:0:0:0:
460,192,13274,1,0,0:0:0:0:
358,192,13340,1,0,0:0:0:0:
460,192,13539,1,0,0:0:0:0:
256,192,13539,1,0,0:0:0:0:
358,192,13606,1,0,0:0:0:0:
256,192,13805,1,0,0:0:0:0:
51,192,13805,1,0,0:0:0:0:
153,192,13871,128,0,14004:0:0:0:0:
256,192,14070,1,0,0:0:0:0:
153,192,14336,1,0,0:0:0:0:
358,192,14336,1,0,0:0:0:0:
460,192,14402,1,0,0:0:0:0:
460,192,14535,1,0,0:0:0:0:
358,192,14601,1,0,0:0:0:0:
153,192,14601,1,0,0:0:0:0:
256,192,14867,1,0,0:0:0:0:
51,192,14867,1,0,0:0:0:0:
153,192,14933,1,0,0:0:0:0:
51,192,15132,128,0,15331:0:0:0:0:
153,192,15132,1,0,0:0:0:0:
358,192,15398,1,0,0:0:0:0:
153,192,15398,1,0,0:0:0:0:
256,192,15464,1,0,0:0:0:0:
358,192,15663,1,0,0:0:0:0:
51,192,15663,1,0,0:0:0:0:
256,192,15730,1,0,0:0:0:0:
153,192,15929,1,0,0:0:0:0:
256,192,15929,1,0,0:0:0:0:
358,192,15995,1,0,0:0:0:0:
153,192,16194,128,0,16393:0:0:0:0:
358,192,16194,1,0,0:0:0:0:
460,192,16460,1,0,0:0:0:0:
256,192,16460,1,0,0:0:0:0:
358,192,16526,1,0,0:0:0:0:
460,192,16725,1,0,0:0:0:0:
358,192,16792,1,0,0:0:0:0:
256,192,16991,128,0,17123:0:0:0:0:
51,192,16991,128,0,17123:0:0:0:0:
358,192,17256,1,0,0:0:0:0:
153,192,17256,1,0,0:0:0:0:
358,192,17455,1,0,0:0:0:0:
460,192,17522,1,0,0:0:0:0:
256,192,17522,1,0,0:0:0:0:
358,192,17588,1,0,0:0:0:0:
256,192,17787,1,0,0:0:0:0:
460,192,17787,1,0,0:0:0:0:
358,192,17853,1,0,0:0:0:0:
51,192,18053,1,0,0:0:0:0:
256,192,18053,1,0,0:0:0:0:
153,192,18119,128,0,18252:0:0:0:0:
256,192,18318,1,0,0:0:0:0:
358,192,18584,1,0,0:0:0:0:
153,192,18584,1,0,0:0:0:0:
460,192,18650,1,0,0:0:0:0:
460,192,18783,1,0,0:0:0:0:
153,192,18849,1,0,0:0:0:0:
358,192,18849,1,0,0:0:0:0:
51,192,19115,1,0,0:0:0:0:
256,192,19115,1,0,0:0:0:0:
153,192,19181,1,0,0:0:0:0:
153,192,19380,1,0,0:0:0:0:
51,192,19380,128,0,19579:0:0:0:0:
153,192,19646,1,0,0:0:0:0:
358,192,19646,1,0,0:0:0:0:
256,192,19712,1,0,0:0:0:0:
51,192,19911,1,0,0:0:0:0:
358,192,19911,1,0,0:0:0:0:
256,192,19977,1,0,0:0:0:0:
256,192,20176,1,0,0:0:0:0:
153,192,20176,1,0,0:0:0:0:
358,192,20243,1,0,0:0:0:0:
358,192,20442,1,0,0:0:0:0:
153,192,20442,128,0,20641:0:0:0:0:
256,192,20707,1,0,0:0:0:0:
460,192,20707,1,0,0:0:0:0:
358,192,20774,1,0,0:0:0:0:
460,192,20973,1,0,0:0:0:0:
358,192,21039,1,0,0:0:0:0:
51,192,21238,128,0,21371:0:0:0:0:
256,192,21238,128,0,21371:0:0:0:0:
153,192,21504,1,0,0:0:0:0:
358,192,21504,1,0,0:0:0:0:
358,192,21703,1,0,0:0:0:0:
256,192,21769,1,0,0:0:0:0:
460,192,21769,1,0,0:0:0:0:
358,192,21836,1,0,0:0:0:0:
460,192,22035,1,0,0:0:0:0:
256,192,22035,1,0,0:0:0:0:
358,192,22101,1,0,0:0:0:0:
256,192,22300,1,0,0:0:0:0:
51,192,22300,1,0,0:0:0:0:
153,192,22367,128,0,22500:0:0:0:0:
256,192,22566,1,0,0:0:0:0:
153,192,22831,1,0,0:0:0:0:
358,192,22831,1,0,0:0:0:0:
460,192,22898,1,0,0:0:0:0:
460,192,23030,1,0,0:0:0:0:
358,192,23097,1,0,0:0:0:0:
153,192,23097,1,0,0:0:0:0:
256,192,23362,1,0,0:0:0:0:
51,192,23362,1,0,0:0:0:0:
153,192,23429,1,0,0:0:0:0:
51,192,23628,128,0,23827:0:0:0:0:
153,192,23628,1,0,0:0:0:0:
358,192,23893,1,0,0:0:0:0:
153,192,23893,1,0,0:0:0:0:
256,192,23960,1,0,0:0:0:0:
358,192,24159,1,0,0:0:0:0:
51,192,24159,1,0,0:0:0:0:
256,192,24225,1,0,0:0:0:0:
153,192,24424,1,0,0:0:0:0:
256,192,24424,1,0,0:0:0:0:
358,192,24491,1,0,0:0:0:0:
153,192,24690,128,0,24889:0:0:0:0:
358,192,24690,1,0,0:0:0:0:
460,192,24955,1,0,0:0:0:0:
256,192,24955,1,0,0:0:0:0:
358,192,25022,1,0,0:0:0:0:
51,192,25221,1,0,0:0:0:0:
460,192,25221,1,0,0:0:0:0:
153,192,25287,1,0,0:0:0:0:
358,192,25287,1,0,0:0:0:0:
358,192,25486,128,0,25685:0:0:0:0:
256,192,25486,128,0,25685:0:0:0:0:
51,192,26084,1,0,0:0:0:0:
358,192,26084,128,0,26216:0:0:0:0:
153,192,26216,1,0,0:0:0:0:
256,192,26283,1,0,0:0:0:0:
358,192,26482,1,0,0:0:0:0:
460,192,26548,1,0,0:0:0:0:
256,192,26548,128,0,26747:0:0:0:0:
460,192,27079,1,0,0:0:0:0:
256,192,27079,128,0,27278:0:0:0:0:
358,192,27345,1,0,0:0:0:0:
153,192,27345,1,0,0:0:0:0:
358,192,27676,1,0,0:0:0:0:
153,192,27676,128,0,27876:0:0:0:0:
460,192,28141,1,0,0:0:0:0:
153,192,28141,128,0,28340:0:0:0:0:
358,192,28407,1,0,0:0:0:0:
51,192,28407,1,0,0:0:0:0:
153,192,28738,1,0,0:0:0:0:
51,192,28738,128,0,28938:0:0:0:0:
51,192,29203,128,0,29402:0:0:0:0:
153,192,29469,1,0,0:0:0:0:
51,192,29469,1,0,0:0:0:0:
256,192,29734,128,0,29933:0:0:0:0:
51,192,29734,128,0,29933:0:0:0:0:
460,192,30066,1,0,0:0:0:0:
358,192,30265,1,0,0:0:0:0:
51,192,30265,128,0,30464:0:0:0:0:
460,192,30331,1,0,0:0:0:0:
358,192,30530,1,0,0:0:0:0:
460,192,30597,1,0,0:0:0:0:
358,192,30796,1,0,0:0:0:0:
51,192,30796,128,0,30995:0:0:0:0:
460,192,30862,1,0,0:0:0:0:
51,192,31327,128,0,31526:0:0:0:0:
256,192,31592,1,0,0:0:0:0:
153,192,31858,1,0,0:0:0:0:
460,192,31858,128,0,32057:0:0:0:0:
358,192,32123,1,0,0:0:0:0:
256,192,32323,1,0,0:0:0:0:
358,192,32389,1,0,0:0:0:0:
460,192,32389,128,0,32588:0:0:0:0:
256,192,32588,1,0,0:0:0:0:
358,192,32654,1,0,0:0:0:0:
256,192,32853,1,0,0:0:0:0:
153,192,32920,1,0,0:0:0:0:
358,192,32920,128,0,33119:0:0:0:0:
153,192,33517,1,0,0:0:0:0:
358,192,33517,128,0,33716:0:0:0:0:
358,192,33982,128,0,34181:0:0:0:0:
256,192,33982,128,0,34181:0:0:0:0:
51,192,34579,1,0,0:0:0:0:
358,192,34579,128,0,34712:0:0:0:0:
153,192,34712,1,0,0:0:0:0:
256,192,34778,1,0,0:0:0:0:
358,192,34977,1,0,0:0:0:0:
460,192,35044,1,0,0:0:0:0:
256,192,35044,128,0,35243:0:0:0:0:
460,192,35575,1,0,0:0:0:0:
256,192,35575,128,0,35774:0:0:0:0:
358,192,35840,1,0,0:0:0:0:
256,192,35840,1,0,0:0:0:0:
358,192,36172,1,0,0:0:0:0:
153,192,36172,128,0,36371:0:0:0:0:
460,192,36637,1,0,0:0:0:0:
153,192,36637,128,0,36836:0:0:0:0:
153,192,36902,1,0,0:0:0:0:
460,192,37168,128,0,37566:0:0:0:0:
256,192,37168,128,0,37367:0:0:0:0:
153,192,37699,128,0,37898:0:0:0:0:
51,192,38230,128,0,38429:0:0:0:0:
51,192,38495,1,0,0:0:0:0:
153,192,38761,1,0,0:0:0:0:
51,192,38761,128,0,38960:0:0:0:0:
256,192,39026,1,0,0:0:0:0:
51,192,39292,128,0,39491:0:0:0:0:
358,192,39292,128,0,39491:0:0:0:0:
358,192,39823,1,0,0:0:0:0:
51,192,39823,128,0,40022:0:0:0:0:
256,192,40088,1,0,0:0:0:0:
358,192,40353,128,0,42345:0:0:0:0:
460,192,40353,128,0,40553:0:0:0:0:
460,192,40884,128,0,41084:0:0:0:0:
256,192,41415,128,0,41615:0:0:0:0:
256,192,41880,128,0,42146:0:0:0:0:
358,192,42544,5,0,0:0:0:0:
256,192,42544,128,0,42743:0:0:0:0:
460,192,42809,1,0,0:0:0:0:
358,192,43075,1,0,0:0:0:0:
256,192,43075,128,0,43274:0:0:0:0:
460,192,43340,1,0,0:0:0:0:
256,192,43606,1,0,0:0:0:0:
153,192,43606,128,0,43805:0:0:0:0:
460,192,43871,1,0,0:0:0:0:
256,192,44137,1,0,0:0:0:0:
153,192,44137,128,0,44336:0:0:0:0:
460,192,44402,1,0,0:0:0:0:
153,192,44402,1,0,0:0:0:0:
153,192,44668,1,0,0:0:0:0:
256,192,44668,128,0,44867:0:0:0:0:
460,192,44933,1,0,0:0:0:0:
153,192,45199,1,0,0:0:0:0:
256,192,45199,128,0,45398:0:0:0:0:
460,192,45464,1,0,0:0:0:0:
51,192,45730,1,0,0:0:0:0:
256,192,45730,128,0,45929:0:0:0:0:
460,192,45995,1,0,0:0:0:0:
51,192,46261,1,0,0:0:0:0:
153,192,46526,1,0,0:0:0:0:
256,192,46725,1,0,0:0:0:0:
358,192,46792,1,0,0:0:0:0:
256,192,46792,128,0,46991:0:0:0:0:
460,192,47057,1,0,0:0:0:0:
256,192,47256,128,0,47522:0:0:0:0:
358,192,47323,1,0,0:0:0:0:
460,192,47588,1,0,0:0:0:0:
256,192,47853,1,0,0:0:0:0:
153,192,47853,128,0,48053:0:0:0:0:
460,192,48119,1,0,0:0:0:0:
256,192,48384,1,0,0:0:0:0:
153,192,48384,128,0,48584:0:0:0:0:
460,192,48650,1,0,0:0:0:0:
153,192,48915,1,0,0:0:0:0:
256,192,48915,128,0,49115:0:0:0:0:
460,192,49181,1,0,0:0:0:0:
153,192,49446,1,0,0:0:0:0:
256,192,49446,128,0,49646:0:0:0:0:
460,192,49712,1,0,0:0:0:0:
460,192,49977,1,0,0:0:0:0:
358,192,49977,128,0,50176:0:0:0:0:
256,192,50243,1,0,0:0:0:0:
153,192,50243,128,0,50442:0:0:0:0:
51,192,50508,128,0,50707:0:0:0:0:
153,192,50508,128,0,50707:0:0:0:0:
358,192,50973,5,0,0:0:0:0:
256,192,50973,128,0,51172:0:0:0:0:
460,192,51238,1,0,0:0:0:0:
358,192,51504,1,0,0:0:0:0:
256,192,51504,128,0,51703:0:0:0:0:
460,192,51769,1,0,0:0:0:0:
153,192,52035,128,0,52234:0:0:0:0:
256,192,52035,1,0,0:0:0:0:
460,192,52300,1,0,0:0:0:0:
153,192,52566,128,0,52765:0:0:0:0:
256,192,52566,1,0,0:0:0:0:
153,192,52831,1,0,0:0:0:0:
460,192,52831,1,0,0:0:0:0:
256,192,53097,128,0,53296:0:0:0:0:
153,192,53097,1,0,0:0:0:0:
460,192,53362,1,0,0:0:0:0:
256,192,53628,128,0,53827:0:0:0:0:
153,192,53628,1,0,0:0:0:0:
460,192,53893,1,0,0:0:0:0:
256,192,54159,128,0,54358:0:0:0:0:
51,192,54159,1,0,0:0:0:0:
460,192,54424,1,0,0:0:0:0:
51,192,54690,1,0,0:0:0:0:
153,192,54955,1,0,0:0:0:0:
256,192,55154,1,0,0:0:0:0:
256,192,55221,128,0,55420:0:0:0:0:
358,192,55221,1,0,0:0:0:0:
460,192,55486,1,0,0:0:0:0:
256,192,55685,128,0,55951:0:0:0:0:
358,192,55752,1,0,0:0:0:0:
460,192,56017,1,0,0:0:0:0:
153,192,56283,128,0,56482:0:0:0:0:
256,192,56283,1,0,0:0:0:0:
460,192,56548,1,0,0:0:0:0:
153,192,56814,128,0,57013:0:0:0:0:
256,192,56814,1,0,0:0:0:0:
460,192,57079,1,0,0:0:0:0:
256,192,57345,128,0,57544:0:0:0:0:
153,192,57345,1,0,0:0:0:0:
460,192,57610,1,0,0:0:0:0:
256,192,57876,128,0,58075:0:0:0:0:
153,192,57876,1,0,0:0:0:0:
460,192,58141,1,0,0:0:0:0:
358,192,58407,128,0,58606:0:0:0:0:
460,192,58407,1,0,0:0:0:0:
153,192,58672,128,0,58871:0:0:0:0:
256,192,58672,1,0,0:0:0:0:
153,192,58938,128,0,59137:0:0:0:0:
51,192,58938,128,0,59137:0:0:0:0:
51,192,59469,128,0,59601:0:0:0:0:
256,192,59469,128,0,59601:0:0:0:0:
153,192,59734,1,0,0:0:0:0:
358,192,59734,1,0,0:0:0:0:
358,192,59933,1,0,0:0:0:0:
256,192,60000,1,0,0:0:0:0:
460,192,60000,1,0,0:0:0:0:
358,192,60066,1,0,0:0:0:0:
460,192,60265,1,0,0:0:0:0:
256,192,60265,1,0,0:0:0:0:
358,192,60331,1,0,0:0:0:0:
256,192,60530,1,0,0:0:0:0:
51,192,60530,1,0,0:0:0:0:
153,192,60597,128,0,60730:0:0:0:0:
256,192,60796,1,0,0:0:0:0:
153,192,61061,1,0,0:0:0:0:
358,192,61061,1,0,0:0:0:0:
460,192,61128,1,0,0:0:0:0:
460,192,61261,1,0,0:0:0:0:
358,192,61327,1,0,0:0:0:0:
153,192,61327,1,0,0:0:0:0:
256,192,61592,1,0,0:0:0:0:
51,192,61592,1,0,0:0:0:0:
153,192,61659,1,0,0:0:0:0:
51,192,61858,128,0,62057:0:0:0:0:
153,192,61858,1,0,0:0:0:0:
358,192,62123,1,0,0:0:0:0:
153,192,62123,1,0,0:0:0:0:
256,192,62190,1,0,0:0:0:0:
358,192,62389,1,0,0:0:0:0:
51,192,62389,1,0,0:0:0:0:
256,192,62455,1,0,0:0:0:0:
153,192,62654,1,0,0:0:0:0:
256,192,62654,1,0,0:0:0:0:
358,192,62721,1,0,0:0:0:0:
153,192,62920,128,0,63119:0:0:0:0:
358,192,62920,1,0,0:0:0:0:
460,192,63185,1,0,0:0:0:0:
256,192,63185,1,0,0:0:0:0:
358,192,63252,1,0,0:0:0:0:
460,192,63451,1,0,0:0:0:0:
358,192,63517,1,0,0:0:0:0:
51,192,63716,128,0,63849:0:0:0:0:
256,192,63716,128,0,63849:0:0:0:0:
153,192,63982,1,0,0:0:0:0:
358,192,63982,1,0,0:0:0:0:
358,192,64181,1,0,0:0:0:0:
256,192,64247,1,0,0:0:0:0:
460,192,64247,1,0,0:0:0:0:
358,192,64314,1,0,0:0:0:0:
460,192,64513,1,0,0:0:0:0:
256,192,64513,1,0,0:0:0:0:
358,192,64579,1,0,0:0:0:0:
256,192,64778,1,0,0:0:0:0:
51,192,64778,1,0,0:0:0:0:
153,192,64845,128,0,64977:0:0:0:0:
256,192,65044,1,0,0:0:0:0:
153,192,65309,1,0,0:0:0:0:
358,192,65309,1,0,0:0:0:0:
460,192,65376,1,0,0:0:0:0:
460,192,65508,1,0,0:0:0:0:
358,192,65575,1,0,0:0:0:0:
153,192,65575,1,0,0:0:0:0:
256,192,65840,1,0,0:0:0:0:
51,192,65840,1,0,0:0:0:0:
153,192,65907,1,0,0:0:0:0:
51,192,66106,128,0,66305:0:0:0:0:
153,192,66106,1,0,0:0:0:0:
358,192,66371,1,0,0:0:0:0:
153,192,66371,1,0,0:0:0:0:
256,192,66438,1,0,0:0:0:0:
358,192,66637,1,0,0:0:0:0:
51,192,66637,1,0,0:0:0:0:
256,192,66703,1,0,0:0:0:0:
153,192,66902,1,0,0:0:0:0:
256,192,66902,1,0,0:0:0:0:
358,192,66969,1,0,0:0:0:0:
153,192,67168,128,0,67367:0:0:0:0:
358,192,67168,1,0,0:0:0:0:
460,192,67433,1,0,0:0:0:0:
256,192,67433,1,0,0:0:0:0:
358,192,67500,1,0,0:0:0:0:
460,192,67699,1,0,0:0:0:0:
358,192,67765,1,0,0:0:0:0:
256,192,67964,128,0,68097:0:0:0:0:
51,192,67964,128,0,68097:0:0:0:0:
358,192,68230,1,0,0:0:0:0:
153,192,68230,1,0,0:0:0:0:
358,192,68429,1,0,0:0:0:0:
460,192,68495,1,0,0:0:0:0:
256,192,68495,1,0,0:0:0:0:
358,192,68561,1,0,0:0:0:0:
256,192,68761,1,0,0:0:0:0:
460,192,68761,1,0,0:0:0:0:
358,192,68827,1,0,0:0:0:0:
51,192,69026,1,0,0:0:0:0:
256,192,69026,1,0,0:0:0:0:
153,192,69092,128,0,69225:0:0:0:0:
256,192,69292,1,0,0:0:0:0:
358,192,69557,1,0,0:0:0:0:
153,192,69557,1,0,0:0:0:0:
460,192,69623,1,0,0:0:0:0:
460,192,69756,1,0,0:0:0:0:
153,192,69823,1,0,0:0:0:0:
358,192,69823,1,0,0:0:0:0:
51,192,70088,1,0,0:0:0:0:
256,192,70088,1,0,0:0:0:0:
153,192,70154,1,0,0:0:0:0:
153,192,70353,1,0,0:0:0:0:
51,192,70353,128,0,70553:0:0:0:0:
153,192,70619,1,0,0:0:0:0:
358,192,70619,1,0,0:0:0:0:
256,192,70685,1,0,0:0:0:0:
51,192,70884,1,0,0:0:0:0:
358,192,70884,1,0,0:0:0:0:
256,192,70951,1,0,0:0:0:0:
256,192,71150,1,0,0:0:0:0:
153,192,71150,1,0,0:0:0:0:
358,192,71216,1,0,0:0:0:0:
358,192,71415,1,0,0:0:0:0:
153,192,71415,128,0,71615:0:0:0:0:
256,192,71681,1,0,0:0:0:0:
460,192,71681,1,0,0:0:0:0:
358,192,71747,1,0,0:0:0:0:
460,192,71946,1,0,0:0:0:0:
358,192,72013,1,0,0:0:0:0:
256,192,72212,128,0,72345:0:0:0:0:
51,192,72212,128,0,72345:0:0:0:0:
358,192,72477,1,0,0:0:0:0:
153,192,72477,1,0,0:0:0:0:
358,192,72676,1,0,0:0:0:0:
460,192,72743,1,0,0:0:0:0:
256,192,72743,1,0,0:0:0:0:
358,192,72809,1,0,0:0:0:0:
256,192,73008,1,0,0:0:0:0:
460,192,73008,1,0,0:0:0:0:
358,192,73075,1,0,0:0:0:0:
51,192,73274,1,0,0:0:0:0:
256,192,73274,1,0,0:0:0:0:
153,192,73340,128,0,73473:0:0:0:0:
256,192,73539,1,0,0:0:0:0:
358,192,73805,1,0,0:0:0:0:
153,192,73805,1,0,0:0:0:0:
460,192,73871,1,0,0:0:0:0:
460,192,74004,1,0,0:0:0:0:
153,192,74070,1,0,0:0:0:0:
358,192,74070,1,0,0:0:0:0:
51,192,74336,1,0,0:0:0:0:
256,192,74336,1,0,0:0:0:0:
153,192,74402,1,0,0:0:0:0:
153,192,74601,1,0,0:0:0:0:
51,192,74601,128,0,74800:0:0:0:0:
153,192,74867,1,0,0:0:0:0:
358,192,74867,1,0,0:0:0:0:
256,192,74933,1,0,0:0:0:0:
51,192,75132,1,0,0:0:0:0:
358,192,75132,1,0,0:0:0:0:
256,192,75199,1,0,0:0:0:0:
256,192,75398,1,0,0:0:0:0:
153,192,75398,1,0,0:0:0:0:
358,192,75464,1,0,0:0:0:0:
358,192,75663,1,0,0:0:0:0:
153,192,75663,128,0,75862:0:0:0:0:
256,192,75929,1,0,0:0:0:0:
460,192,75929,1,0,0:0:0:0:
358,192,75995,1,0,0:0:0:0:
460,192,76194,1,0,0:0:0:0:
358,192,76261,1,0,0:0:0:0:
256,192,76460,128,0,76659:0:0:0:0:
358,192,76460,128,0,76659:0:0:0:0:
358,192,77057,128,0,77190:0:0:0:0:
51,192,77057,1,0,0:0:0:0:
153,192,77190,1,0,0:0:0:0:
256,192,77256,1,0,0:0:0:0:
358,192,77455,1,0,0:0:0:0:
256,192,77522,128,0,77721:0:0:0:0:
460,192,77522,1,0,0:0:0:0:
256,192,78053,128,0,78252:0:0:0:0:
460,192,78053,1,0,0:0:0:0:
153,192,78318,1,0,0:0:0:0:
358,192,78318,1,0,0:0:0:0:
153,192,78650,128,0,78849:0:0:0:0:
358,192,78650,1,0,0:0:0:0:
153,192,79115,128,0,79314:0:0:0:0:
460,192,79115,1,0,0:0:0:0:
51,192,79380,1,0,0:0:0:0:
358,192,79380,1,0,0:0:0:0:
51,192,79712,128,0,79911:0:0:0:0:
153,192,79712,1,0,0:0:0:0:
51,192,80176,128,0,80376:0:0:0:0:
51,192,80442,1,0,0:0:0:0:
153,192,80442,1,0,0:0:0:0:
51,192,80707,128,0,80907:0:0:0:0:
256,192,80707,128,0,80907:0:0:0:0:
460,192,81039,1,0,0:0:0:0:
51,192,81238,128,0,81438:0:0:0:0:
358,192,81238,1,0,0:0:0:0:
460,192,81305,1,0,0:0:0:0:
358,192,81504,1,0,0:0:0:0:
460,192,81570,1,0,0:0:0:0:
51,192,81769,128,0,81969:0:0:0:0:
358,192,81769,1,0,0:0:0:0:
460,192,81836,1,0,0:0:0:0:
51,192,82300,128,0,82500:0:0:0:0:
256,192,82566,1,0,0:0:0:0:
460,192,82831,128,0,83030:0:0:0:0:
153,192,82831,1,0,0:0:0:0:
358,192,83097,1,0,0:0:0:0:
256,192,83296,1,0,0:0:0:0:
460,192,83362,128,0,83561:0:0:0:0:
358,192,83362,1,0,0:0:0:0:
256,192,83561,1,0,0:0:0:0:
358,192,83628,1,0,0:0:0:0:
256,192,83827,1,0,0:0:0:0:
358,192,83893,128,0,84092:0:0:0:0:
153,192,83893,1,0,0:0:0:0:
358,192,84491,128,0,84690:0:0:0:0:
153,192,84491,1,0,0:0:0:0:
256,192,84955,128,0,85154:0:0:0:0:
358,192,84955,128,0,85154:0:0:0:0:
358,192,85553,128,0,85685:0:0:0:0:
51,192,85553,1,0,0:0:0:0:
153,192,85685,1,0,0:0:0:0:
256,192,85752,1,0,0:0:0:0:
358,192,85951,1,0,0:0:0:0:
256,192,86017,128,0,86216:0:0:0:0:
460,192,86017,1,0,0:0:0:0:
256,192,86548,128,0,86747:0:0:0:0:
460,192,86548,1,0,0:0:0:0:
256,192,86814,1,0,0:0:0:0:
358,192,86814,1,0,0:0:0:0:
153,192,87146,128,0,87345:0:0:0:0:
358,192,87146,1,0,0:0:0:0:
153,192,87610,128,0,87809:0:0:0:0:
460,192,87610,1,0,0:0:0:0:
358,192,87876,1,0,0:0:0:0:
153,192,87876,1,0,0:0:0:0:
256,192,88141,128,0,88340:0:0:0:0:
460,192,88141,128,0,88539:0:0:0:0:
153,192,88672,128,0,88871:0:0:0:0:
51,192,89203,128,0,89402:0:0:0:0:
51,192,89469,1,0,0:0:0:0:
51,192,89734,128,0,89933:0:0:0:0:
153,192,89734,1,0,0:0:0:0:
256,192,90000,1,0,0:0:0:0:
358,192,90265,128,0,90464:0:0:0:0:
51,192,90265,128,0,90464:0:0:0:0:
51,192,90796,128,0,90995:0:0:0:0:
358,192,90796,1,0,0:0:0:0:
256,192,91061,1,0,0:0:0:0:
460,192,91327,128,0,91526:0:0:0:0:
358,192,91327,128,0,93318:0:0:0:0:
460,192,91858,128,0,92057:0:0:0:0:
256,192,92389,128,0,92588:0:0:0:0:
256,192,92853,128,0,93119:0:0:0:0:
358,192,93451,5,0,0:0:0:0:
256,192,93451,128,0,93650:0:0:0:0:
460,192,93716,1,0,0:0:0:0:
358,192,93982,1,0,0:0:0:0:
256,192,93982,128,0,94181:0:0:0:0:
460,192,94247,1,0,0:0:0:0:
256,192,94513,1,0,0:0:0:0:
153,192,94513,128,0,94712:0:0:0:0:
460,192,94778,1,0,0:0:0:0:
256,192,95044,1,0,0:0:0:0:
153,192,95044,128,0,95243:0:0:0:0:
460,192,95309,1,0,0:0:0:0:
153,192,95309,1,0,0:0:0:0:
153,192,95575,1,0,0:0:0:0:
256,192,95575,128,0,95774:0:0:0:0:
460,192,95840,1,0,0:0:0:0:
153,192,96106,1,0,0:0:0:0:
256,192,96106,128,0,96305:0:0:0:0:
