osu file format v14

[General]
AudioFilename: Marciano descubierto! 100% real no fake 1 link megaupload 2014 oficial.mp3
AudioLeadIn: 0
PreviewTime: 543
Countdown: 0
SampleSet: Normal
StackLeniency: 0.7
Mode: 0
LetterboxInBreaks: 0
WidescreenStoryboard: 1

[Editor]
Bookmarks: 4413
DistanceSpacing: 1
BeatDivisor: 4
GridSize: 8
TimelineZoom: 1.16

[Metadata]
Title:El marcianito 100% real no fake
TitleUnicode:El marcianito 100% real no fake
Artist:tu gfa
ArtistUnicode:tu gfa
Creator:Julio1212-
Version:no utorrent + Crack 2015
Source:
Tags:julio1212
BeatmapID:840607
BeatmapSetID:381741

[Difficulty]
HPDrainRate:8
CircleSize:4.5
OverallDifficulty:6
ApproachRate:9
SliderMultiplier:1.9
SliderTickRate:1

[Events]
//Background and Video events
Video,0,"Marciano descubierto! 100% real no fake 1 link megaupload 2014 oficial.mp4"
0,0,"hjoklhjkl.png",0,0
//Break Periods
//Storyboard Layer 0 (Background)
//Storyboard Layer 1 (Fail)
//Storyboard Layer 2 (Pass)
//Storyboard Layer 3 (Foreground)
//Storyboard Sound Samples

[TimingPoints]
257,573.284922606535,4,1,0,80,1,0
507,-66.6666666666667,4,1,0,80,0,0

[Colours]
Combo1 : 0,64,0
Combo2 : 0,255,0
Combo3 : 0,128,0
Combo4 : 0,128,128

[HitObjects]
104,96,543,5,0,0:0:0:0:
112,96,615,1,0,0:0:0:0:
120,96,686,1,0,0:0:0:0:
112,264,830,5,0,0:0:0:0:
384,96,1260,6,0,P|400:152|424:160,1,71.2500027179719
248,96,1690,2,0,P|240:144|256:168,1,71.2500027179719
96,96,2120,1,0,0:0:0:0:
48,248,2406,1,0,0:0:0:0:
152,168,2550,1,0,0:0:0:0:
136,296,2693,1,0,0:0:0:0:
232,312,2800,1,0,0:0:0:0:
336,312,2944,1,0,0:0:0:0:
256,88,3123,5,0,0:0:0:0:
408,88,3410,1,0,0:0:0:0:
424,128,3553,1,0,0:0:0:0:
408,160,3696,2,0,B|384:232|336:240,1,71.2500027179719
408,336,3983,1,0,0:0:0:0:
296,288,4126,2,0,P|216:280|208:248,1,71.2500027179719
224,128,4413,2,0,P|256:112|289:121,1,71.2500027179719
72,136,4699,5,0,0:0:0:0:
72,240,4843,1,0,0:0:0:0:
144,136,4986,1,0,0:0:0:0:
136,272,5129,1,0,0:0:0:0:
208,160,5273,1,0,0:0:0:0:
256,344,5416,5,0,0:0:0:0:
296,120,5703,1,0,0:0:0:0:
256,104,5846,1,0,0:0:0:0:
216,120,5989,1,0,0:0:0:0:
376,152,6133,5,0,0:0:0:0:
440,328,6276,1,0,0:0:0:0:
336,344,6419,1,0,0:0:0:0:
112,336,6563,6,0,P|136:304|128:264,1,71.2500027179719
112,120,6813,2,0,P|96:72|128:32,1,71.2500027179719
256,192,7136,1,0,0:0:0:0:
288,320,7423,5,0,0:0:0:0:
256,336,7566,1,0,0:0:0:0:
224,320,7709,2,0,P|192:248|200:240,1,71.2500027179719
288,216,7996,2,0,P|328:176|320:144,1,71.2500027179719
256,48,8282,1,0,0:0:0:0:
456,168,8569,1,0,0:0:0:0:
464,200,8712,1,0,0:0:0:0:
456,240,8856,6,0,P|432:280|448:328,1,71.2500027179719
352,112,9142,2,0,P|384:88|400:48,1,71.2500027179719
328,256,9429,1,0,0:0:0:0:
56,168,9716,1,0,0:0:0:0:
48,200,9859,1,0,0:0:0:0:
56,240,10003,6,0,P|80:280|64:328,1,71.2500027179719
152,80,10289,2,0,P|176:112|208:112,1,71.2500027179719
312,40,10576,1,0,0:0:0:0:
312,152,10719,6,0,L|408:152,2,71.2500027179719
256,192,11149,12,0,11722,0:0:0:0:
200,240,11866,6,0,L|128:240,2,71.2500027179719
256,192,12295,12,0,13155,0:0:0:0:
256,40,13442,5,0,0:0:0:0:
448,192,13729,1,0,0:0:0:0:
256,336,14015,1,0,0:0:0:0:
64,192,14302,1,0,0:0:0:0:
80,192,14374,1,0,0:0:0:0:
96,192,14445,1,0,0:0:0:0:
256,192,14589,5,0,0:0:0:0:
127,95,15019,6,0,P|128:130|104:156,1,71.2500027179719
263,95,15449,2,0,P|274:129|261:162,1,71.2500027179719
416,96,15879,1,0,0:0:0:0:
464,248,16165,1,0,0:0:0:0:
360,168,16309,1,0,0:0:0:0:
376,296,16452,1,0,0:0:0:0:
280,312,16559,1,0,0:0:0:0:
184,296,16703,1,0,0:0:0:0:
256,136,16882,5,0,0:0:0:0:
104,88,17169,1,0,0:0:0:0:
88,128,17312,1,0,0:0:0:0:
104,168,17455,2,0,B|102:220|134:244,1,71.2500027179719
104,336,17742,1,0,0:0:0:0:
208,296,17885,2,0,P|239:311|273:302,1,71.2500027179719
272,128,18172,2,0,P|241:113|208:121,1,71.2500027179719
424,136,18458,5,0,0:0:0:0:
424,240,18602,1,0,0:0:0:0:
352,136,18745,1,0,0:0:0:0:
360,272,18888,1,0,0:0:0:0:
288,160,19032,1,0,0:0:0:0:
256,344,19175,5,0,0:0:0:0:
296,120,19462,1,0,0:0:0:0:
256,104,19605,1,0,0:0:0:0:
216,120,19748,1,0,0:0:0:0:
72,168,19892,5,0,0:0:0:0:
120,328,20035,1,0,0:0:0:0:
232,344,20178,1,0,0:0:0:0:
400,336,20321,6,0,P|377:309|378:274,1,71.2500027179719
399,120,20608,2,0,P|416:88|409:54,1,71.2500027179719
256,192,20895,1,0,0:0:0:0:
224,320,21182,5,0,0:0:0:0:
256,336,21325,1,0,0:0:0:0:
287,320,21468,2,0,P|318:304|329:270,1,71.2500027179719
192,216,21755,2,0,P|161:199|151:165,1,71.2500027179719
112,48,22041,1,0,0:0:0:0:
56,168,22328,1,0,0:0:0:0:
40,216,22471,1,0,0:0:0:0:
64,248,22615,6,0,P|85:276|86:311,1,71.2500027179719
160,112,22901,2,0,P|131:91|114:60,1,71.2500027179719
256,192,23188,1,0,0:0:0:0:
456,168,23475,1,0,0:0:0:0:
464,200,23618,1,0,0:0:0:0:
456,239,23761,6,0,P|434:268|433:303,1,71.2500027179719
351,112,24048,2,0,P|380:91|397:60,1,71.2500027179719
328,256,24335,1,0,0:0:0:0:
200,248,24478,6,0,L|200:319,2,71.2500027179719
256,192,24908,12,0,25481,0:0:0:0:
312,136,25624,6,0,L|312:64,2,71.2500027179719
256,192,26054,12,0,26914,0:0:0:0:
136,192,27344,5,0,0:0:0:0:
56,192,27488,1,0,0:0:0:0:
448,192,27774,1,0,0:0:0:0:
256,40,28061,1,0,0:0:0:0:
256,336,28347,1,0,0:0:0:0:
