osu file format v14

[General]
AudioFilename: Marciano descubierto! 100% real no fake 1 link megaupload 2014 oficial.mp3
AudioLeadIn: 0
PreviewTime: 543
Countdown: 0
SampleSet: None
StackLeniency: 0.7
Mode: 0
LetterboxInBreaks: 0
WidescreenStoryboard: 1

[Editor]
Bookmarks: 4413
DistanceSpacing: 1
BeatDivisor: 8
GridSize: 8
TimelineZoom: 1.56

[Metadata]
Title:El marcianito 100% real no fake
TitleUnicode:El marcianito 100% real no fake
Artist:tu gfa
ArtistUnicode:tu gfa
Creator:Julio1212-
Version:Spin 100% Real no Feik
Source:
Tags:julio1212
BeatmapID:984653
BeatmapSetID:381741

[Difficulty]
HPDrainRate:0
CircleSize:2
OverallDifficulty:0
ApproachRate:0
SliderMultiplier:1.9
SliderTickRate:1

[Events]
//Background and Video events
0,0,"hjoklhjkl.png",0,0
//Break Periods
//Storyboard Layer 0 (Background)
//Storyboard Layer 1 (Fail)
//Storyboard Layer 2 (Pass)
//Storyboard Layer 3 (Foreground)
//Storyboard Sound Samples

[TimingPoints]
255,573.284922606535,4,1,0,80,1,0
507,-66.6666666666667,4,1,0,80,0,0

[Colours]
Combo1 : 0,64,0
Combo2 : 0,255,0
Combo3 : 0,128,0
Combo4 : 0,128,128

[HitObjects]
256,192,469,12,0,541,0:0:0:0:
256,192,613,12,0,684,0:0:0:0:
256,192,756,12,0,828,0:0:0:0:
256,192,1114,12,0,1257,0:0:0:0:
256,192,1329,12,0,1401,0:0:0:0:
256,192,1544,12,0,1688,0:0:0:0:
256,192,1759,12,0,1831,0:0:0:0:
256,192,1974,12,0,2118,0:0:0:0:
256,192,2333,12,0,2404,0:0:0:0:
256,192,2476,12,0,2548,0:0:0:0:
256,192,2619,12,0,2691,0:0:0:0:
256,192,2763,12,0,2834,0:0:0:0:
256,192,2906,12,0,2978,0:0:0:0:
256,192,3049,12,0,3121,0:0:0:0:
256,192,3408,12,0,3551,0:0:0:0:
256,192,3623,12,0,3695,0:0:0:0:
256,192,3838,12,0,3982,0:0:0:0:
256,192,4053,12,0,4125,0:0:0:0:
256,192,4268,12,0,4412,0:0:0:0:
256,192,4627,12,0,4698,0:0:0:0:
256,192,4770,12,0,4842,0:0:0:0:
256,192,4913,12,0,4985,0:0:0:0:
256,192,5057,12,0,5128,0:0:0:0:
256,192,5200,12,0,5272,0:0:0:0:
256,192,5343,12,0,5415,0:0:0:0:
256,192,6059,12,0,6561,0:0:0:0:
256,192,6632,12,0,6704,0:0:0:0:
256,192,6775,12,0,6847,0:0:0:0:
256,192,6919,12,0,6990,0:0:0:0:
256,192,7062,12,0,7134,0:0:0:0:
256,192,7349,12,0,7421,0:0:0:0:
256,192,7492,12,0,7564,0:0:0:0:
256,192,7707,12,0,7851,0:0:0:0:
256,192,8352,12,0,8854,0:0:0:0:
256,192,8925,12,0,8997,0:0:0:0:
256,192,9068,12,0,9140,0:0:0:0:
256,192,9212,12,0,9283,0:0:0:0:
256,192,9355,12,0,9427,0:0:0:0:
256,192,9642,12,0,9714,0:0:0:0:
256,192,9785,12,0,9857,0:0:0:0:
256,192,10000,12,0,10144,0:0:0:0:
256,192,10645,12,0,10717,0:0:0:0:
256,192,10789,12,0,10860,0:0:0:0:
256,192,10932,12,0,11004,0:0:0:0:
256,192,11075,12,0,11577,0:0:0:0:
256,192,11792,12,0,11864,0:0:0:0:
256,192,11936,12,0,12007,0:0:0:0:
256,192,12079,12,0,12151,0:0:0:0:
256,192,12222,12,0,12867,0:0:0:0:
256,192,13297,12,0,13440,0:0:0:0:
256,192,13583,12,0,13727,0:0:0:0:
256,192,13870,12,0,14013,0:0:0:0:
256,192,14157,12,0,14300,0:0:0:0:
256,192,14443,12,0,14587,0:0:0:0:
256,192,14873,12,0,15016,0:0:0:0:
256,192,15088,12,0,15160,0:0:0:0:
256,192,15303,12,0,15447,0:0:0:0:
256,192,15518,12,0,15590,0:0:0:0:
256,192,15733,12,0,15877,0:0:0:0:
256,192,16092,12,0,16163,0:0:0:0:
256,192,16235,12,0,16307,0:0:0:0:
256,192,16378,12,0,16450,0:0:0:0:
256,192,16522,12,0,16593,0:0:0:0:
256,192,16665,12,0,16737,0:0:0:0:
256,192,16808,12,0,16880,0:0:0:0:
256,192,17167,12,0,17310,0:0:0:0:
256,192,17382,12,0,17454,0:0:0:0:
256,192,17597,12,0,17741,0:0:0:0:
256,192,17812,12,0,17884,0:0:0:0:
256,192,18027,12,0,18171,0:0:0:0:
256,192,18386,12,0,18457,0:0:0:0:
256,192,18529,12,0,18601,0:0:0:0:
256,192,18672,12,0,18744,0:0:0:0:
256,192,18816,12,0,18887,0:0:0:0:
256,192,18959,12,0,19031,0:0:0:0:
256,192,19102,12,0,19174,0:0:0:0:
256,192,19818,12,0,20320,0:0:0:0:
256,192,20391,12,0,20463,0:0:0:0:
256,192,20534,12,0,20606,0:0:0:0:
256,192,20678,12,0,20749,0:0:0:0:
256,192,20821,12,0,20893,0:0:0:0:
256,192,21108,12,0,21180,0:0:0:0:
256,192,21251,12,0,21323,0:0:0:0:
256,192,21466,12,0,21610,0:0:0:0:
256,192,22111,12,0,22613,0:0:0:0:
256,192,22684,12,0,22756,0:0:0:0:
256,192,22827,12,0,22899,0:0:0:0:
256,192,22971,12,0,23042,0:0:0:0:
256,192,23114,12,0,23186,0:0:0:0:
256,192,23401,12,0,23473,0:0:0:0:
256,192,23544,12,0,23616,0:0:0:0:
256,192,23759,12,0,23903,0:0:0:0:
256,192,24404,12,0,24476,0:0:0:0:
256,192,24548,12,0,24619,0:0:0:0:
256,192,24691,12,0,24763,0:0:0:0:
256,192,24834,12,0,25336,0:0:0:0:
256,192,25551,12,0,25623,0:0:0:0:
256,192,25695,12,0,25766,0:0:0:0:
256,192,25838,12,0,25910,0:0:0:0:
256,192,25981,12,0,26626,0:0:0:0:
256,192,27199,12,0,27342,0:0:0:0:
256,192,27414,12,0,27486,0:0:0:0:
256,192,27629,12,0,27772,0:0:0:0:
256,192,27915,12,0,28059,0:0:0:0:
256,192,28345,12,0,36945,0:0:0:0:
